osu file format v14

[General]
AudioFilename: audio.mp3
AudioLeadIn: 0
PreviewTime: 52043
Countdown: 0
SampleSet: Soft
StackLeniency: 0
Mode: 0
LetterboxInBreaks: 0
EpilepsyWarning: 1
WidescreenStoryboard: 0

[Editor]
Bookmarks: 118103,125543,177623
DistanceSpacing: 0.6
BeatDivisor: 4
GridSize: 32
TimelineZoom: 3.330002

[Metadata]
Title:humanly
TitleUnicode:人間らしい
Artist:umu.
ArtistUnicode:ゆーむ
Creator:Half
Version:len's robotically another
Source:
Tags:Len Japanese vocaloid GUMI ningenrashi umu ユリイ・カノン YURRY CANON utaite
BeatmapID:2065883
BeatmapSetID:977552

[Difficulty]
HPDrainRate:5
CircleSize:2
OverallDifficulty:9
ApproachRate:9.8
SliderMultiplier:1.48
SliderTickRate:1

[Events]
//Background and Video events
0,0,"bg.jpg",0,0
Video,0,"950.mp4"
//Break Periods
2,8863,23465
2,76063,83064
//Storyboard Layer 0 (Background)
//Storyboard Layer 1 (Fail)
//Storyboard Layer 2 (Pass)
//Storyboard Layer 3 (Foreground)
//Storyboard Sound Samples

[TimingPoints]
983,240,4,2,1,60,1,0
7583,-100,4,2,1,60,0,0
52823,-71.4285714285714,4,2,1,75,0,0
75863,-100,4,2,1,60,0,0
102743,-142.857142857143,4,2,1,75,0,0
118103,-100,4,2,1,60,0,0
141143,-66.6666666666667,4,2,1,60,0,0
164183,-55.5555555555556,4,2,1,75,0,0
171863,-43.4782608695652,4,2,1,75,0,0

[Colours]
Combo1 : 116,116,116
Combo2 : 230,111,114
Combo3 : 224,39,39
Combo4 : 191,191,191

[HitObjects]
256,192,7583,12,8,8183,1:2:0:0:
16,350,8423,5,0,1:2:0:0:
16,350,8663,1,4,1:2:0:0:
230,231,24023,6,0,L|395:217,1,148,2|0,0:0|0:0,0:0:0:0:
377,218,24383,1,2,0:0:0:0:
298,329,24503,2,0,L|462:317,1,148,2|0,0:0|0:0,0:0:0:0:
445,318,24863,6,0,B|478:268|478:268|497:378,2,148,2|2|2,0:0|0:0|0:0,0:0:0:0:
377,218,25463,2,0,L|365:61,1,148,2|2,0:0|0:0,0:0:0:0:
382,52,25943,6,0,P|329:26|265:90,1,148,4|0,1:2|0:0,0:0:0:0:
271,182,26303,1,8,0:0:0:0:
141,0,26423,2,0,P|154:47|167:158,1,148,0|8,1:2|0:0,0:0:0:0:
101,342,26783,1,0,0:0:0:0:
70,233,26903,6,0,P|117:248|165:249,1,74,0|0,1:2|0:0,0:0:0:0:
392,319,27143,2,0,P|355:323|320:336,1,74,0|8,0:0|0:0,0:0:0:0:
216,381,27383,2,0,P|223:307|241:235,1,148,0|8,1:2|0:0,0:0:0:0:
234,204,27863,6,0,B|316:192|293:227|382:215,1,148,0|0,1:2|0:0,0:0:0:0:
454,136,28223,1,8,0:0:0:0:
322,43,28343,2,0,P|346:97|349:139,1,74,0|0,1:2|0:0,0:0:0:0:
454,315,28583,2,0,P|462:279|480:246,1,74,8|0,0:0|0:0,0:0:0:0:
220,67,28823,5,0,1:2:0:0:
114,54,28943,1,0,0:0:0:0:
102,160,29063,1,0,0:0:0:0:
207,172,29183,1,8,0:0:0:0:
4,97,29303,6,0,L|-2:40,2,37,0|0|0,1:2|0:0|1:2,0:0:0:0:
162,307,29543,2,0,L|151:406,1,74,8|8,0:0|0:0,0:0:0:0:
6,228,29783,6,0,B|101:238|61:197|155:204,1,148,0|0,1:2|0:0,0:0:0:0:
148,203,30143,1,8,0:0:0:0:
276,349,30263,2,0,P|320:298|407:332,1,148,0|8,1:2|0:0,0:0:0:0:
486,374,30623,1,0,0:0:0:0:
477,159,30743,6,0,P|462:193|456:230,1,74,0|0,1:2|0:0,0:0:0:0:
271,91,30983,2,0,P|264:54|249:20,1,74,0|8,0:0|0:0,0:0:0:0:
406,41,31223,5,0,1:2:0:0:
364,155,31343,1,0,0:0:0:0:
406,41,31463,1,8,0:0:0:0:
364,155,31583,1,0,0:0:0:0:
164,79,31703,6,0,L|2:68,1,148,0|0,1:2|0:0,0:0:0:0:
348,258,32063,1,8,0:0:0:0:
249,20,32183,2,0,P|259:117|267:195,1,148,0|8,1:2|0:0,0:0:0:0:
230,365,32543,1,0,0:0:0:0:
451,307,32663,6,0,P|460:263|475:231,1,74,8|0,0:0|1:2,0:0:0:0:
112,255,32903,2,0,P|126:289|132:325,1,74,8|0,0:0|1:2,0:0:0:0:
348,258,33143,5,8,0:0:0:0:
230,365,33263,1,8,0:0:0:0:
167,172,33383,5,8,0:0:0:0:
331,377,33503,1,8,0:0:0:0:
390,17,33623,1,0,1:2:0:0:
413,116,33863,5,2,0:0:0:0:
413,116,33983,1,0,1:2:0:0:
275,70,34223,1,2,0:0:0:0:
105,136,34463,1,0,1:2:0:0:
76,339,34703,1,2,0:0:0:0:
469,224,34943,5,0,1:2:0:0:
469,224,35063,1,2,0:0:0:0:
8,185,35303,5,2,0:0:0:0:
502,326,35543,5,0,1:2:0:0:
401,367,35783,1,2,0:0:0:0:
401,367,35903,1,0,1:2:0:0:
344,21,36143,5,2,0:0:0:0:
298,297,36383,5,0,1:2:0:0:
122,196,36623,1,2,0:0:0:0:
16,374,36863,1,0,1:2:0:0:
119,353,36983,5,8,0:0:0:0:
126,325,37103,1,8,0:0:0:0:
116,298,37223,1,8,0:0:0:0:
22,244,37343,5,8,0:0:0:0:
122,196,37463,6,0,B|215:184|161:228|295:207,2,148,0|0|0,1:2|0:0|1:2,0:0:0:0:
259,312,38063,1,0,0:0:0:0:
236,111,38183,2,0,P|238:74|229:6,1,74,8|0,0:0|0:0,0:0:0:0:
374,345,38423,5,0,1:2:0:0:
408,181,38543,1,0,0:0:0:0:
374,345,38663,1,0,0:0:0:0:
408,181,38783,1,8,0:0:0:0:
483,321,38903,5,0,1:2:0:0:
310,210,39143,1,8,0:0:0:0:
424,33,39383,6,0,L|408:181,1,148,0|0,1:2|0:0,0:0:0:0:
205,125,39743,1,8,0:0:0:0:
326,357,39863,2,0,L|310:210,1,148,0|8,1:2|0:0,0:0:0:0:
497,232,40223,1,0,0:0:0:0:
350,104,40343,6,0,B|267:97|303:133|204:125,2,148,0|0|0,1:2|0:0|1:2,0:0:0:0:
233,22,40943,1,0,1:2:0:0:
309,208,41063,2,0,P|310:245|306:282,1,74,8|8,0:0|0:0,0:0:0:0:
226,350,41303,6,0,P|170:339|63:328,1,148,0|0,1:2|0:0,0:0:0:0:
79,328,41663,1,8,0:0:0:0:
70,92,41783,2,0,P|112:74|191:137,1,148,0|8,1:2|0:0,0:0:0:0:
24,245,42143,1,0,0:0:0:0:
24,245,42263,6,0,P|19:208|-4:149,1,74,0|0,1:2|0:0,0:0:0:0:
300,10,42503,2,0,P|288:45|283:81,1,74,0|8,0:0|0:0,0:0:0:0:
214,272,42743,2,0,P|200:199|188:126,1,148,0|8,1:2|0:0,0:0:0:0:
173,374,43103,1,0,0:0:0:0:
403,231,43223,6,0,P|359:172|276:186,1,148,0|0,1:2|0:0,0:0:0:0:
79,328,43583,1,8,0:0:0:0:
173,374,43703,2,0,P|241:366|328:360,1,148,0|8,1:2|0:0,0:0:0:0:
474,33,44063,1,0,0:0:0:0:
420,378,44183,6,0,P|409:321|404:213,2,148,8|8|8,0:0|0:0|0:0,0:0:0:0:
350,14,44783,1,8,0:0:0:0:
512,296,44903,1,8,0:0:0:0:
125,178,45023,1,8,0:0:0:0:
512,121,45143,6,0,B|433:112|485:154|345:139,1,148,0|8,1:2|0:0,0:0:0:0:
50,30,45503,2,0,P|115:43|140:66,1,74,8|0,0:0|1:2,0:0:0:0:
289,199,45743,2,0,P|227:223|206:250,1,74,0|8,0:0|0:0,0:0:0:0:
204,373,45983,1,0,0:0:0:0:
125,178,46103,6,0,L|106:333,2,148,0|8|0,1:2|0:0|1:2,0:0:0:0:
50,30,46703,1,0,1:2:0:0:
50,30,46823,2,0,P|54:68|61:120,1,74,8|8,0:0|0:0,0:0:0:0:
281,12,47063,5,0,1:2:0:0:
233,213,47183,1,0,0:0:0:0:
281,12,47303,1,8,0:0:0:0:
233,213,47423,1,8,0:0:0:0:
379,73,47543,5,0,1:2:0:0:
393,173,47663,1,0,0:0:0:0:
379,73,47783,1,8,0:0:0:0:
393,173,47903,1,0,0:0:0:0:
496,138,48023,6,0,P|505:80|515:49,1,74,0|0,1:2|0:0,0:0:0:0:
327,283,48263,2,0,P|335:318|340:355,1,74,8|0,0:0|0:0,0:0:0:0:
439,313,48503,2,0,L|480:319,2,37,8|8|0,1:2|0:0|1:2,0:0:0:0:
199,114,48743,1,8,0:0:0:0:
222,230,48863,1,8,0:0:0:0:
233,213,48983,6,0,P|223:286|213:359,1,148,0|8,1:2|0:0,0:0:0:0:
20,259,49343,1,8,0:0:0:0:
20,259,49463,2,0,P|3:218|8:178,1,74,0|0,1:2|0:0,0:0:0:0:
179,12,49703,2,0,P|221:25|248:54,1,74,8|0,0:0|0:0,0:0:0:0:
103,188,49943,6,0,B|104:103|67:132|76:34,1,148,0|8,1:2|0:0,0:0:0:0:
75,44,50303,1,8,0:0:0:0:
121,287,50423,2,0,P|162:226|247:247,1,148,0|8,1:2|0:0,0:0:0:0:
288,363,50783,1,0,0:0:0:0:
495,10,50903,5,8,0:0:0:0:
490,129,51143,1,8,0:0:0:0:
485,248,51383,1,8,0:0:0:0:
480,367,51623,1,8,0:0:0:0:
474,352,51863,5,8,0:0:0:0:
469,338,52823,6,0,L|294:345,1,155.399995257568,4|0,1:2|0:0,0:0:0:0:
220,371,53063,2,0,L|97:363,1,103.599996838379,8|0,0:0|0:0,0:0:0:0:
40,89,53303,1,0,1:2:0:0:
245,21,53423,2,0,L|233:142,1,103.599996838379,0|8,0:0|0:0,0:0:0:0:
0,300,53663,6,0,B|-14:185|-14:185|41:218,1,155.399995257568,0|0,1:2|0:0,0:0:0:0:
105,260,53903,2,0,L|116:364,1,103.599996838379,0|8,1:2|0:0,0:0:0:0:
378,368,54143,1,0,0:0:0:0:
445,169,54263,2,0,L|434:272,1,103.599996838379,0|0,1:2|0:0,0:0:0:0:
144,58,54503,2,0,L|154:161,1,103.599996838379,8|0,0:0|0:0,0:0:0:0:
294,304,54743,5,0,1:2:0:0:
42,103,54983,1,8,0:0:0:0:
220,371,55223,5,0,1:2:0:0:
270,11,55343,1,0,0:0:0:0:
348,268,55463,1,8,0:0:0:0:
213,158,55583,6,0,B|109:151|152:223|-1:209,1,207.199993676758,0|0,1:2|1:2,0:0:0:0:
325,121,55943,2,0,B|336:81|336:81|354:152,1,103.599996838379,8|0,0:0|0:0,0:0:0:0:
42,103,56183,2,0,L|29:-19,1,103.599996838379,0|0,1:2|0:0,0:0:0:0:
348,268,56423,2,0,L|337:371,1,103.599996838379,8|0,0:0|0:0,0:0:0:0:
13,324,56663,5,0,1:2:0:0:
33,218,56783,1,0,0:0:0:0:
138,238,56903,1,8,0:0:0:0:
118,344,57023,1,0,0:0:0:0:
109,332,57143,6,0,P|122:256|139:120,1,207.199993676758,0|8,1:2|0:0,0:0:0:0:
315,6,57503,2,0,P|363:38|313:144,1,155.399995257568,0|0,1:2|0:0,0:0:0:0:
240,142,57743,2,0,P|189:132|138:126,1,103.599996838379,0|8,1:2|0:0,0:0:0:0:
25,363,57983,1,0,0:0:0:0:
37,159,58103,6,0,L|50:290,1,103.599996838379,0|0,1:2|0:0,0:0:0:0:
362,225,58343,2,0,L|375:356,1,103.599996838379,8|0,0:0|0:0,0:0:0:0:
243,381,58583,5,8,0:0:0:0:
474,180,58703,1,0,1:2:0:0:
206,260,58823,1,8,0:0:0:0:
206,260,58943,1,0,1:2:0:0:
471,354,59063,2,0,P|423:336|372:328,1,103.599996838379,8|0,0:0|1:2,0:0:0:0:
240,136,59303,1,8,0:0:0:0:
243,381,59423,6,0,P|309:354|288:218,1,207.199993676758,0|0,1:2|1:2,0:0:0:0:
112,4,59783,2,0,P|126:69|136:138,1,103.599996838379,8|0,0:0|0:0,0:0:0:0:
466,41,60023,5,0,1:2:0:0:
421,293,60143,1,0,1:2:0:0:
350,116,60263,1,8,0:0:0:0:
350,116,60383,1,8,0:0:0:0:
329,360,60503,6,0,P|250:339|153:326,1,155.399995257568,4|0,1:2|0:0,0:0:0:0:
68,273,60743,2,0,L|78:382,1,103.599996838379,8|0,0:0|0:0,0:0:0:0:
228,28,60983,1,0,1:2:0:0:
5,175,61103,2,0,P|78:164|123:157,1,103.599996838379,0|8,0:0|0:0,0:0:0:0:
371,12,61343,6,0,B|355:92|399:73|381:178,1,155.399995257568,0|0,1:2|0:0,0:0:0:0:
477,231,61583,2,0,P|484:180|506:101,1,103.599996838379,0|8,1:2|0:0,0:0:0:0:
251,47,61823,1,0,0:0:0:0:
251,47,61943,2,0,L|136:37,1,103.599996838379,0|0,1:2|0:0,0:0:0:0:
409,349,62183,2,0,L|512:340,1,103.599996838379,8|0,0:0|0:0,0:0:0:0:
46,364,62423,5,0,1:2:0:0:
125,154,62663,1,8,0:0:0:0:
17,260,62903,5,0,1:2:0:0:
233,174,63023,1,0,0:0:0:0:
321,378,63143,1,8,0:0:0:0:
20,158,63263,6,0,P|10:100|-2:43,1,103.599996838379,0|0,1:2|0:0,0:0:0:0:
318,258,63503,1,0,1:2:0:0:
318,258,63623,2,0,P|375:246|435:233,1,103.599996838379,8|0,0:0|0:0,0:0:0:0:
134,111,63863,2,0,P|123:212|118:284,1,155.399995257568,0|0,1:2|0:0,0:0:0:0:
132,370,64103,2,0,P|75:358|15:345,1,103.599996838379,8|0,0:0|0:0,0:0:0:0:
196,9,64343,5,0,1:2:0:0:
224,204,64463,1,0,0:0:0:0:
23,91,64583,1,8,0:0:0:0:
23,91,64703,1,0,0:0:0:0:
325,15,64823,2,0,P|300:77|300:135,1,103.599996838379,0|0,1:2|0:0,0:0:0:0:
326,372,65063,1,8,0:0:0:0:
181,109,65183,6,0,P|208:187|213:325,1,207.199993676758,0|0,1:2|1:2,0:0:0:0:
511,78,65543,2,0,P|460:84|405:92,1,103.599996838379,8|0,0:0|0:0,0:0:0:0:
408,302,65783,2,0,P|459:309|510:315,1,103.599996838379,0|0,1:2|0:0,0:0:0:0:
339,14,66023,2,0,P|350:84|356:197,1,155.399995257568,8|0,0:0|0:0,0:0:0:0:
282,258,66263,6,0,P|273:310|267:384,1,103.599996838379,8|0,0:0|1:2,0:0:0:0:
474,201,66503,1,8,0:0:0:0:
219,55,66623,1,0,1:2:0:0:
219,55,66743,2,0,P|154:46|93:27,1,103.599996838379,8|0,0:0|1:2,0:0:0:0:
21,256,66983,1,8,0:0:0:0:
74,146,67103,6,0,P|79:250|93:353,1,207.199993676758,0|0,1:2|1:2,0:0:0:0:
324,114,67463,2,0,P|334:55|349:6,1,103.599996838379,8|0,0:0|1:2,0:0:0:0:
472,358,67703,1,8,0:0:0:0:
472,358,67763,1,8,0:0:0:0:
472,358,67823,1,0,1:2:0:0:
512,150,67943,2,0,P|459:164|393:178,1,103.599996838379,8|8,0:0|0:0,0:0:0:0:
294,363,68183,6,0,B|158:388|242:324|92:351,2,207.199993676758,12|8|8,0:0|0:0|0:0,0:0:0:0:
29,249,68903,5,8,0:0:0:0:
294,363,69023,2,0,P|340:314|261:211,1,207.199993676758,0|0,1:2|1:2,0:0:0:0:
151,223,69383,2,0,P|159:273|168:335,1,103.599996838379,8|0,0:0|1:2,0:0:0:0:
111,42,69623,2,0,P|48:20|-9:-11,1,103.599996838379,8|0,0:0|1:2,0:0:0:0:
212,109,69863,2,0,P|266:87|325:83,1,103.599996838379,8|0,0:0|1:2,0:0:0:0:
37,146,70103,6,0,L|17:353,2,207.199993676758,8|8|8,0:0|0:0|0:0,0:0:0:0:
142,374,70823,5,8,0:0:0:0:
240,122,70943,2,0,P|176:25|78:74,1,207.199993676758,0|0,1:2|1:2,0:0:0:0:
37,146,71303,2,0,L|49:264,1,103.599996838379,8|0,0:0|1:2,0:0:0:0:
358,146,71543,2,0,L|368:42,1,103.599996838379,8|0,0:0|1:2,0:0:0:0:
156,271,71783,2,0,L|141:373,1,103.599996838379,8|0,0:0|1:2,0:0:0:0:
458,298,72023,6,0,B|386:303|386:303|356:331|356:331|238:341,2,207.199993676758,8|8|8,0:0|0:0|0:0,0:0:0:0:
294,20,72743,5,8,0:0:0:0:
156,271,72863,2,0,P|146:192|256:123,1,207.199993676758,0|0,1:2|1:2,0:0:0:0:
406,41,73223,2,0,P|388:110|389:160,1,103.599996838379,8|0,0:0|1:2,0:0:0:0:
426,370,73463,1,8,0:0:0:0:
426,370,73583,1,0,1:2:0:0:
481,240,73703,2,0,P|413:251|319:266,1,155.399995257568,8|0,0:0|0:0,0:0:0:0:
282,352,73943,6,0,L|104:332,1,155.399995257568,8|0,0:0|0:0,0:0:0:0:
100,350,74183,2,0,L|118:232,1,103.599996838379,8|0,0:0|0:0,0:0:0:0:
116,4,74423,1,8,0:0:0:0:
326,153,74543,1,0,1:2:0:0:
10,212,74663,1,8,0:0:0:0:
38,104,74783,5,8,1:2:0:0:
146,135,75023,1,8,1:2:0:0:
115,247,75263,1,8,1:2:0:0:
115,247,75383,1,8,1:2:0:0:
10,212,75623,5,0,1:2:0:0:
38,104,75863,5,4,1:2:0:0:
262,177,83543,5,0,1:2:0:0:
256,192,83603,12,2,84143,0:0:0:0:
256,192,85463,12,2,86063,0:0:0:0:
77,102,86903,5,8,0:0:0:0:
251,126,87023,1,8,0:0:0:0:
137,201,87143,5,8,0:0:0:0:
174,19,87263,1,8,0:0:0:0:
252,374,87383,6,0,P|245:302|238:224,1,148,4|0,1:2|0:0,0:0:0:0:
13,288,87743,1,8,0:0:0:0:
13,288,87863,2,0,L|122:302,1,74,0|0,1:2|0:0,0:0:0:0:
324,116,88103,2,0,L|215:130,1,74,8|0,0:0|0:0,0:0:0:0:
462,356,88343,5,0,1:2:0:0:
478,241,88463,1,0,0:0:0:0:
363,225,88583,1,0,0:0:0:0:
347,340,88703,1,8,0:0:0:0:
347,340,88823,5,0,1:2:0:0:
459,25,89063,1,8,0:0:0:0:
478,241,89303,6,0,P|450:156|467:4,1,222,0|8,1:2|0:0,0:0:0:0:
279,39,89783,2,0,P|329:63|349:98,1,74,0|0,1:2|0:0,0:0:0:0:
286,175,90023,2,0,P|236:151|216:116,1,74,8|0,0:0|0:0,0:0:0:0:
110,39,90263,6,0,L|37:45,1,74,0|0,1:2|0:0,0:0:0:0:
279,351,90503,2,0,L|352:356,1,74,0|8,0:0|0:0,0:0:0:0:
453,290,90743,5,0,1:2:0:0:
78,359,90863,1,0,1:2:0:0:
177,239,90983,5,8,0:0:0:0:
173,281,91103,1,8,0:0:0:0:
110,39,91223,5,8,1:2:0:0:
110,39,92183,5,8,1:2:0:0:
161,44,92303,1,0,0:0:0:0:
256,262,92423,1,8,1:2:0:0:
68,296,92543,1,0,0:0:0:0:
260,8,92663,5,8,1:2:0:0:
315,366,92783,1,0,0:0:0:0:
150,228,92903,1,8,0:0:0:0:
150,228,92963,1,8,0:0:0:0:
150,228,93023,1,0,1:2:0:0:
473,34,93143,6,0,P|462:71|464:119,1,74,0|0,1:2|0:0,0:0:0:0:
315,366,93383,1,0,0:0:0:0:
68,296,93503,1,8,0:0:0:0:
68,296,93623,2,0,L|75:376,1,74,0|0,1:2|0:0,0:0:0:0:
148,131,93863,2,0,L|155:58,1,74,8|0,0:0|0:0,0:0:0:0:
499,245,94103,5,8,0:0:0:0:
478,356,94223,1,0,1:2:0:0:
384,118,94343,5,8,0:0:0:0:
388,282,94463,1,0,1:2:0:0:
259,2,94583,5,8,0:0:0:0:
133,360,94703,1,8,0:0:0:0:
35,82,94823,5,8,0:0:0:0:
306,205,94943,1,8,0:0:0:0:
155,58,95063,5,4,1:2:0:0:
155,58,95303,1,8,0:0:0:0:
155,58,95543,1,0,1:2:0:0:
155,58,95783,1,8,0:0:0:0:
356,17,95903,5,0,0:0:0:0:
142,117,96023,5,0,1:2:0:0:
142,117,96263,1,8,0:0:0:0:
142,117,96503,1,0,1:2:0:0:
142,117,96743,1,8,0:0:0:0:
310,160,96863,5,8,0:0:0:0:
202,234,96983,5,0,1:2:0:0:
202,234,97223,1,8,0:0:0:0:
202,234,97463,1,0,1:2:0:0:
202,234,97703,1,8,0:0:0:0:
112,289,97823,5,8,0:0:0:0:
233,334,97943,5,0,1:2:0:0:
233,334,98183,1,8,0:0:0:0:
233,334,98423,5,8,0:0:0:0:
233,334,98483,1,8,0:0:0:0:
233,334,98543,1,0,1:2:0:0:
233,334,98663,5,8,0:0:0:0:
233,334,98783,1,8,0:0:0:0:
241,364,98903,5,0,1:2:0:0:
241,364,99143,1,8,0:0:0:0:
241,364,99383,1,0,1:2:0:0:
241,364,99623,1,8,0:0:0:0:
113,314,99743,5,0,0:0:0:0:
306,261,99863,5,0,1:2:0:0:
306,261,100103,1,8,0:0:0:0:
404,195,100223,5,8,0:0:0:0:
270,146,100343,5,0,1:2:0:0:
270,146,100583,1,8,0:0:0:0:
282,122,100823,5,8,0:0:0:0:
256,16,101063,1,8,0:0:0:0:
490,357,101303,1,8,0:0:0:0:
198,328,101543,1,8,0:0:0:0:
447,256,101783,1,8,0:0:0:0:
447,256,102743,5,4,1:2:0:0:
51,176,102983,1,8,0:0:0:0:
431,39,103223,5,0,1:2:0:0:
338,291,103343,1,0,0:0:0:0:
267,103,103463,1,8,0:0:0:0:
378,143,103583,6,0,L|373:212,1,51.7999984191895,0|0,1:2|0:0,0:0:0:0:
56,362,103823,1,0,1:2:0:0:
26,251,103943,2,0,L|77:259,1,51.7999984191895,8|0,0:0|0:0,0:0:0:0:
267,103,104183,2,0,L|259:-2,1,103.599996838379,0|8,1:2|0:0,0:0:0:0:
259,0,104663,6,0,B|289:42|289:42|264:108,1,103.599996838379,0|8,1:2|0:0,0:0:0:0:
175,353,105143,5,0,1:2:0:0:
61,88,105263,1,0,0:0:0:0:
383,164,105383,1,8,0:0:0:0:
39,196,105503,6,0,L|104:187,1,51.7999984191895,0|0,1:2|0:0,0:0:0:0:
282,375,105743,1,0,1:2:0:0:
481,260,105863,6,0,L|429:267,1,51.7999984191895,8|0,0:0|0:0,0:0:0:0:
282,375,106103,2,0,P|275:323|259:266,1,103.599996838379,0|8,1:2|0:0,0:0:0:0:
261,273,106583,6,0,L|316:279,1,51.7999984191895,0|0,1:2|0:0,0:0:0:0:
473,53,106823,2,0,L|421:58,1,51.7999984191895,8|0,0:0|0:0,0:0:0:0:
181,178,107063,5,0,1:2:0:0:
446,182,107183,1,0,0:0:0:0:
261,57,107303,1,8,0:0:0:0:
261,273,107423,6,0,P|270:330|277:393,1,103.599996838379,0|0,1:2|1:2,0:0:0:0:
45,78,107783,2,0,P|47:49|52:13,1,51.7999984191895,8|0,0:0|0:0,0:0:0:0:
376,308,108023,2,0,L|442:297,1,51.7999984191895,0|0,1:2|0:0,0:0:0:0:
446,182,108263,1,8,0:0:0:0:
446,182,108503,5,8,0:0:0:0:
160,152,108623,1,0,1:2:0:0:
358,76,108743,1,8,0:0:0:0:
125,270,108863,1,0,1:2:0:0:
106,46,108983,5,8,0:0:0:0:
367,353,109103,1,0,1:2:0:0:
330,209,109223,1,8,0:0:0:0:
125,270,109343,6,0,L|13:258,1,103.599996838379,0|0,1:2|1:2,0:0:0:0:
429,152,109703,2,0,L|491:144,1,51.7999984191895,8|0,0:0|0:0,0:0:0:0:
237,5,109943,1,0,1:2:0:0:
222,116,110063,1,0,1:2:0:0:
327,77,110183,1,8,0:0:0:0:
327,77,110303,1,8,0:0:0:0:
294,358,110423,6,0,L|284:296,1,51.7999984191895,4|0,1:2|0:0,0:0:0:0:
116,90,110663,2,0,L|107:141,1,51.7999984191895,8|0,0:0|0:0,0:0:0:0:
474,264,110903,1,0,1:2:0:0:
428,152,111023,2,0,L|480:145,1,51.7999984191895,0|8,0:0|0:0,0:0:0:0:
183,340,111263,6,0,P|129:331|61:327,1,103.599996838379,0|0,1:2|1:2,0:0:0:0:
7,170,111623,2,0,L|13:233,1,51.7999984191895,8|0,0:0|0:0,0:0:0:0:
317,18,111863,5,0,1:2:0:0:
85,79,111983,1,0,0:0:0:0:
277,233,112103,2,0,L|282:181,1,51.7999984191895,8|0,0:0|0:0,0:0:0:0:
207,33,112343,5,0,1:2:0:0:
207,33,112583,2,0,L|212:84,1,51.7999984191895,8|0,0:0|0:0,0:0:0:0:
492,354,112823,2,0,P|441:338|376:328,1,103.599996838379,0|8,1:2|0:0,0:0:0:0:
13,250,113183,6,0,L|28:362,1,103.599996838379,0|0,1:2|1:2,0:0:0:0:
328,98,113543,1,8,0:0:0:0:
274,352,113663,1,0,0:0:0:0:
178,247,113783,2,0,L|233:258,1,51.7999984191895,0|0,1:2|0:0,0:0:0:0:
429,31,114023,2,0,L|440:98,1,51.7999984191895,8|0,0:0|0:0,0:0:0:0:
498,345,114263,5,0,1:2:0:0:
498,345,114383,1,0,0:0:0:0:
324,200,114503,1,8,0:0:0:0:
324,200,114623,1,0,0:0:0:0:
225,379,114743,5,0,1:2:0:0:
448,236,114863,1,0,0:0:0:0:
142,143,114983,1,8,0:0:0:0:
274,27,115103,6,0,L|268:79,1,51.7999984191895,0|0,1:2|0:0,0:0:0:0:
346,330,115343,1,0,1:2:0:0:
346,330,115463,2,0,L|352:381,1,51.7999984191895,8|0,0:0|0:0,0:0:0:0:
131,253,115703,2,0,L|8:237,1,103.599996838379,0|8,1:2|0:0,0:0:0:0:
6,249,116183,5,8,0:0:0:0:
56,73,116303,1,0,1:2:0:0:
166,120,116423,5,8,0:0:0:0:
223,319,116543,1,0,1:2:0:0:
299,5,116663,5,8,0:0:0:0:
250,211,116783,1,0,1:2:0:0:
445,158,116903,1,8,0:0:0:0:
316,116,117023,5,0,1:2:0:0:
316,116,118103,5,2,1:2:0:0:
283,138,119063,5,2,1:2:0:0:
309,235,120023,5,2,1:2:0:0:
204,313,120983,5,2,1:2:0:0:
211,284,121463,1,0,0:0:0:0:
206,268,121703,1,0,0:0:0:0:
253,45,121943,5,2,1:2:0:0:
255,155,122903,5,2,1:2:0:0:
60,338,123863,5,2,1:2:0:0:
454,198,124823,5,2,1:2:0:0:
463,85,125183,1,2,1:2:0:0:
231,59,125543,1,2,0:0:0:0:
238,75,125783,6,0,P|286:86|338:2,2,148,6|2|2,1:2|0:0|0:0,0:0:0:0:
132,27,126503,5,2,0:0:0:0:
31,66,126743,2,0,P|36:124|49:230,1,148,0|2,1:2|0:0,0:0:0:0:
36,381,127223,1,2,0:0:0:0:
127,327,127463,1,2,0:0:0:0:
232,371,127703,6,0,B|318:386|288:350|385:359,2,148,0|2|2,1:2|0:0|0:0,0:0:0:0:
31,247,128423,1,2,0:0:0:0:
132,186,128663,2,0,P|158:137|138:45,1,148,0|2,1:2|0:0,0:0:0:0:
18,17,129143,2,0,P|-8:66|12:158,1,148,2|2,0:0|0:0,0:0:0:0:
16,160,129503,1,2,0:0:0:0:
24,164,129623,6,0,B|110:179|80:143|177:152,2,148,0|2|2,1:2|0:0|0:0,0:0:0:0:
237,46,130343,1,2,0:0:0:0:
302,146,130583,6,0,L|280:301,1,148,0|2,1:2|0:0,0:0:0:0:
390,374,131063,2,0,P|426:319|377:241,1,148,2|2,0:0|0:0,0:0:0:0:
281,292,131543,6,0,B|198:310|235:275|114:299,1,148,0|2,1:2|0:0,0:0:0:0:
65,117,132023,2,0,P|136:119|153:201,1,148,2|2,0:0|0:0,0:0:0:0:
155,192,132383,1,0,0:0:0:0:
149,201,132503,6,0,P|158:280|162:378,1,148,0|2,1:2|0:0,0:0:0:0:
390,370,132983,2,0,P|394:296|402:222,1,148,2|2,0:0|0:0,0:0:0:0:
499,106,133463,6,0,P|459:43|373:66,1,148,4|2,1:2|0:0,0:0:0:0:
317,129,133943,1,2,0:0:0:0:
241,45,134183,1,2,0:0:0:0:
151,104,134423,6,0,B|68:122|105:87|-16:111,1,148,0|2,1:2|0:0,0:0:0:0:
208,341,134903,2,0,B|291:323|254:358|375:334,1,148,2|2,0:0|0:0,0:0:0:0:
505,332,135383,6,0,P|489:264|395:277,1,148,0|2,1:2|0:0,0:0:0:0:
354,337,135863,2,0,P|348:269|339:172,1,148,2|2,0:0|0:0,0:0:0:0:
169,31,136343,5,0,1:2:0:0:
158,145,136583,1,2,0:0:0:0:
41,129,136823,2,0,P|5:177|46:271,1,148,2|2,0:0|0:0,0:0:0:0:
36,264,137183,1,2,0:0:0:0:
45,271,137303,6,0,B|130:288|108:245|201:267,1,148,0|2,1:2|0:0,0:0:0:0:
340,355,137783,2,0,L|500:341,1,148,2|2,0:0|0:0,0:0:0:0:
472,61,138263,5,0,1:2:0:0:
463,172,138503,1,2,0:0:0:0:
352,163,138743,1,2,0:0:0:0:
361,52,138983,1,10,0:0:0:0:
353,40,139103,1,10,0:0:0:0:
346,30,139223,6,0,L|250:21,2,74,0|0|8,1:2|1:2|0:0,0:0:0:0:
159,131,139583,2,0,L|255:122,2,74,8|8|8,0:0|0:0|0:0,0:0:0:0:
335,237,139943,2,0,L|239:228,1,74,8|8,0:0|0:0,0:0:0:0:
22,369,140183,5,8,0:0:0:0:
118,239,140303,1,8,0:0:0:0:
5,256,140423,1,8,0:0:0:0:
135,352,140543,1,8,0:0:0:0:
90,9,140663,5,8,0:0:0:0:
186,139,140783,1,8,0:0:0:0:
203,26,140903,1,8,0:0:0:0:
73,122,141023,1,8,0:0:0:0:
261,230,141143,6,0,B|368:210|307:254|438:232,1,166.500006351471,4|0,1:2|0:0,0:0:0:0:
435,226,141383,1,8,0:0:0:0:
441,23,141503,2,0,P|486:50|489:103,1,111.000004234314,0|0,1:2|0:0,0:0:0:0:
435,226,141743,6,0,B|429:236|429:236|433:249|433:249|428:362,1,111.000004234314,0|8,1:2|0:0,0:0:0:0:
429,334,141983,1,0,0:0:0:0:
7,373,142103,6,0,L|243:352,1,222.000008468628,2|10,1:2|0:0,0:0:0:0:
228,353,142583,6,0,P|171:265|57:303,1,222.000008468628,2|10,1:2|0:0,0:0:0:0:
28,155,142943,1,0,0:0:0:0:
6,373,143063,6,0,P|34:265|28:155,1,222.000008468628,0|8,1:2|0:0,0:0:0:0:
302,11,143423,2,0,P|307:76|403:113,1,166.500006351471,0|0,1:2|0:0,0:0:0:0:
403,128,143663,2,0,B|404:114|404:114|408:7,1,111.000004234314,0|8,1:2|0:0,0:0:0:0:
241,378,143903,1,0,0:0:0:0:
185,232,144023,6,0,B|294:244|230:195|371:224,1,166.500006351471,2|0,1:2|0:0,0:0:0:0:
360,232,144263,2,0,P|373:279|325:333,1,111.000004234314,10|0,0:0|0:0,0:0:0:0:
185,232,144503,6,0,L|200:56,1,166.500006351471,2|0,1:2|0:0,0:0:0:0:
201,53,144743,2,0,B|194:61|194:61|182:58|182:58|75:74,1,111.000004234314,10|0,0:0|0:0,0:0:0:0:
3,31,144983,5,0,1:2:0:0:
474,333,145223,1,8,0:0:0:0:
492,69,145343,2,0,P|515:147|456:205,1,166.500006351471,0|0,1:2|0:0,0:0:0:0:
448,218,145583,2,0,P|393:185|392:123,1,111.000004234314,0|8,1:2|0:0,0:0:0:0:
382,30,145823,1,0,0:0:0:0:
37,328,145943,6,0,L|258:338,1,222.000008468628,2|10,1:2|0:0,0:0:0:0:
258,338,146423,6,0,P|249:250|110:256,1,222.000008468628,2|10,1:2|0:0,0:0:0:0:
37,328,146783,1,0,0:0:0:0:
56,3,146903,6,0,P|121:36|91:146,1,166.500006351471,0|0,1:2|0:0,0:0:0:0:
105,133,147143,1,8,0:0:0:0:
37,328,147263,2,0,B|23:308|23:308|33:187,1,111.000004234314,0|0,1:2|0:0,0:0:0:0:
377,41,147503,5,0,1:2:0:0:
377,41,147623,2,0,L|499:27,1,111.000004234314,8|0,0:0|0:0,0:0:0:0:
500,359,147863,5,10,0:0:0:0:
350,335,148103,5,10,0:0:0:0:
181,312,148343,5,10,0:0:0:0:
0,290,148583,5,10,0:0:0:0:
487,28,148823,6,0,P|472:118|476:229,1,166.500006351471,4|0,1:2|0:0,0:0:0:0:
478,212,149063,2,0,P|427:179|370:189,1,111.000004234314,8|0,0:0|1:2,0:0:0:0:
354,304,149303,1,0,0:0:0:0:
354,304,149423,2,0,P|405:337|462:327,1,111.000004234314,0|8,1:2|0:0,0:0:0:0:
487,28,149663,1,0,0:0:0:0:
30,13,149783,6,0,P|40:144|52:281,1,222.000008468628,2|10,1:2|0:0,0:0:0:0:
30,13,150263,6,0,P|102:25|124:174,1,222.000008468628,2|10,1:2|0:0,0:0:0:0:
47,234,150623,1,0,0:0:0:0:
264,195,150743,6,0,P|154:205|46:234,1,222.000008468628,0|8,1:2|0:0,0:0:0:0:
364,112,151103,2,0,P|421:131|499:133,1,111.000004234314,0|0,1:2|0:0,0:0:0:0:
397,372,151343,1,0,1:2:0:0:
397,372,151463,2,0,P|382:314|360:263,1,111.000004234314,8|0,0:0|0:0,0:0:0:0:
297,17,151703,6,0,P|294:100|271:180,1,166.500006351471,2|0,1:2|0:0,0:0:0:0:
264,195,151943,2,0,P|203:174|142:162,1,111.000004234314,10|0,0:0|0:0,0:0:0:0:
24,30,152183,1,2,1:2:0:0:
89,374,152303,5,0,1:2:0:0:
50,227,152423,2,0,P|8:260|12:323,1,111.000004234314,10|0,0:0|0:0,0:0:0:0:
89,374,152663,6,0,L|329:349,1,222.000008468628,0|8,1:2|0:0,0:0:0:0:
505,9,153023,1,0,1:2:0:0:
505,9,153263,6,0,P|528:76|498:124,1,111.000004234314,0|8,1:2|0:0,0:0:0:0:
248,265,153503,1,0,0:0:0:0:
402,377,153623,6,0,P|405:278|422:135,1,222.000008468628,2|10,1:2|0:0,0:0:0:0:
418,155,154103,6,0,B|418:305|496:212|507:379,1,222.000008468628,2|10,1:2|0:0,0:0:0:0:
505,9,154463,1,0,0:0:0:0:
505,9,154583,1,0,1:2:0:0:
256,192,154643,12,8,155303,0:0:0:0:
27,366,155543,5,10,0:0:0:0:
17,305,155663,1,10,0:0:0:0:
32,359,155783,5,10,0:0:0:0:
22,298,155903,1,10,0:0:0:0:
37,352,156023,5,10,0:0:0:0:
27,291,156143,1,10,0:0:0:0:
42,345,156263,5,10,0:0:0:0:
32,284,156383,1,10,0:0:0:0:
46,262,156503,5,4,1:2:0:0:
248,321,156743,1,0,0:0:0:0:
284,125,157223,1,0,0:0:0:0:
88,89,157703,1,0,0:0:0:0:
52,285,158183,1,0,0:0:0:0:
152,237,158423,5,4,1:2:0:0:
384,297,158663,1,0,0:0:0:0:
444,65,159143,1,0,0:0:0:0:
212,5,159623,1,0,0:0:0:0:
152,237,160103,1,0,0:0:0:0:
188,341,160343,5,4,1:2:0:0:
216,106,160583,1,0,0:0:0:0:
451,134,161063,1,0,0:0:0:0:
423,369,161543,1,0,0:0:0:0:
188,341,162023,1,0,0:0:0:0:
215,2,162263,5,12,0:0:0:0:
411,60,162383,1,0,1:2:0:0:
154,221,162503,5,8,0:0:0:0:
407,192,162623,1,0,1:2:0:0:
296,106,162743,5,8,0:0:0:0:
324,341,162863,1,0,1:2:0:0:
44,61,162983,5,8,0:0:0:0:
19,363,163103,1,0,1:2:0:0:
53,258,163223,5,0,0:0:0:0:
53,258,163343,1,0,1:2:0:0:
363,214,163463,1,8,0:0:0:0:
363,214,163583,1,0,0:0:0:0:
158,304,163703,5,0,1:2:0:0:
212,83,163823,1,0,1:2:0:0:
419,329,163943,1,8,0:0:0:0:
353,47,164063,1,8,0:0:0:0:
145,171,164183,6,0,P|73:160|-22:154,1,133.199995935059,4|0,1:2|0:0,0:0:0:0:
374,230,164423,2,0,P|446:219|541:213,1,133.199995935059,8|0,0:0|0:0,0:0:0:0:
229,22,164663,2,0,B|204:164|282:111|254:283,1,266.399991870117,0|8,1:2|0:0,0:0:0:0:
0,337,165023,6,0,P|37:214|176:230,1,266.399991870117,0|0,1:2|1:2,0:0:0:0:
497,332,165383,2,0,P|431:341|367:357,1,133.199995935059,8|0,0:0|0:0,0:0:0:0:
196,98,165623,2,0,P|263:110|326:122,1,133.199995935059,0|0,1:2|0:0,0:0:0:0:
472,34,165863,1,8,0:0:0:0:
472,34,166103,6,0,P|450:141|432:312,2,266.399991870117,0|8|0,1:2|0:0|1:2,0:0:0:0:
328,362,166703,1,0,0:0:0:0:
257,89,166823,1,8,0:0:0:0:
148,137,166943,6,0,P|81:139|-45:155,1,133.199995935059,0|0,1:2|0:0,0:0:0:0:
352,3,167183,1,0,1:2:0:0:
257,89,167303,2,0,P|269:181|276:252,1,133.199995935059,8|0,0:0|0:0,0:0:0:0:
34,373,167543,2,0,P|41:306|50:240,1,133.199995935059,0|0,1:2|0:0,0:0:0:0:
16,23,167783,1,8,0:0:0:0:
16,23,168023,6,0,P|86:41|169:53,1,133.199995935059,0|0,1:2|0:0,0:0:0:0:
498,139,168263,2,0,P|428:157|345:169,1,133.199995935059,8|0,0:0|0:0,0:0:0:0:
179,366,168503,2,0,P|192:286|222:197,1,133.199995935059,0|0,1:2|0:0,0:0:0:0:
284,24,168743,1,8,0:0:0:0:
512,305,168863,6,0,P|390:340|306:246,1,266.399991870117,0|0,1:2|1:2,0:0:0:0:
400,16,169223,2,0,P|382:85|372:191,1,133.199995935059,8|0,0:0|0:0,0:0:0:0:
55,230,169463,2,0,P|45:164|28:99,1,133.199995935059,0|0,1:2|0:0,0:0:0:0:
179,366,169703,2,0,P|243:351|310:344,1,133.199995935059,8|0,0:0|0:0,0:0:0:0:
111,15,169943,5,8,0:0:0:0:
111,15,170063,1,0,1:2:0:0:
261,98,170183,1,8,0:0:0:0:
261,98,170303,1,0,1:2:0:0:
34,332,170423,5,8,0:0:0:0:
34,332,170543,1,0,1:2:0:0:
414,134,170663,1,8,0:0:0:0:
420,15,170783,1,0,1:2:0:0:
420,15,171863,6,0,P|323:17|275:99,1,170.200003246307,4|0,1:2|0:0,0:0:0:0:
343,259,172103,2,0,P|440:257|488:175,1,170.200003246307,8|0,0:0|0:0,0:0:0:0:
174,14,172343,1,0,1:2:0:0:
219,188,172463,2,0,B|18:164|18:164|76:137,1,255.300004869461,0|0,0:0|0:0,0:0:0:0:
65,141,172703,6,0,P|70:227|79:333,1,170.200003246307,0|0,1:2|0:0,0:0:0:0:
434,368,172943,1,0,1:2:0:0:
354,89,173063,2,0,P|349:174|343:259,1,170.200003246307,8|0,0:0|0:0,0:0:0:0:
155,53,173303,2,0,B|352:104|261:-13|538:45,1,340.400006492615,0|8,1:2|0:0,0:0:0:0:
487,35,173783,5,0,1:2:0:0:
487,35,174023,1,8,0:0:0:0:
487,35,174263,2,0,P|499:110|399:172,1,170.200003246307,0|0,1:2|0:0,0:0:0:0:
245,31,174503,1,8,0:0:0:0:
30,220,174623,6,0,P|131:186|316:180,1,255.300004869461,0|0,1:2|0:0,0:0:0:0:
278,175,174863,2,0,P|297:298|298:353,1,170.200003246307,0|8,1:2|0:0,0:0:0:0:
114,21,175103,1,0,0:0:0:0:
82,381,175223,6,0,P|121:303|232:320,1,170.200003246307,0|0,1:2|0:0,0:0:0:0:
512,287,175463,2,0,P|427:277|344:258,1,170.200003246307,8|0,0:0|0:0,0:0:0:0:
27,93,175703,5,0,1:2:0:0:
27,93,175823,1,0,0:0:0:0:
263,16,175943,1,8,0:0:0:0:
263,16,176063,1,0,0:0:0:0:
106,212,176183,2,0,P|90:296|82:381,1,170.200003246307,0|0,1:2|0:0,0:0:0:0:
239,333,176423,1,8,0:0:0:0:
446,30,176543,6,0,P|483:183|344:258,1,340.400006492615,0|0,1:2|1:2,0:0:0:0:
181,73,176903,2,0,P|97:79|12:83,1,170.200003246307,8|0,0:0|0:0,0:0:0:0:
239,333,177143,1,0,1:2:0:0:
0,211,177263,1,0,0:0:0:0:
304,10,177383,2,0,P|282:99|269:210,1,170.200003246307,8|0,0:0|0:0,0:0:0:0:
131,381,177623,6,0,P|122:290|109:203,1,170.200003246307,8|0,0:0|1:2,0:0:0:0:
479,49,177863,2,0,P|467:133|460:218,1,170.200003246307,8|0,0:0|1:2,0:0:0:0:
18,141,178103,2,0,P|0:67|86:-4,1,170.200003246307,8|0,0:0|1:2,0:0:0:0:
360,124,178343,1,8,0:0:0:0:
176,44,178463,6,0,P|145:211|131:380,1,340.400006492615,0|0,1:2|1:2,0:0:0:0:
512,286,178823,2,0,P|406:256|306:238,1,170.200003246307,8|0,0:0|0:0,0:0:0:0:
0,293,179063,5,0,1:2:0:0:
251,183,179183,1,0,1:2:0:0:
98,126,179303,5,8,0:0:0:0:
115,254,179423,1,8,0:0:0:0:
131,380,179543,6,0,P|228:361|327:348,1,170.200003246307,4|0,1:2|0:0,0:0:0:0:
497,151,179783,2,0,P|507:84|409:23,1,170.200003246307,8|0,0:0|0:0,0:0:0:0:
511,324,180023,2,0,B|298:298|428:205|198:185,1,340.400006492615,0|8,1:2|0:0,0:0:0:0:
80,11,180383,6,0,P|10:91|76:176,1,170.200003246307,0|0,1:2|0:0,0:0:0:0:
279,357,180623,1,0,1:2:0:0:
279,357,180743,2,0,P|288:276|224:225,1,170.200003246307,8|0,0:0|0:0,0:0:0:0:
8,362,180983,2,0,P|107:328|188:324,1,170.200003246307,0|0,1:2|0:0,0:0:0:0:
480,45,181223,1,8,0:0:0:0:
480,45,181463,6,0,B|404:253|521:168|454:389,2,340.400006492615,0|8|0,1:2|0:0|1:2,0:0:0:0:
211,160,182063,2,0,P|296:167|337:256,1,170.200003246307,0|8,0:0|0:0,0:0:0:0:
270,369,182303,6,0,P|185:362|144:273,1,170.200003246307,0|0,1:2|0:0,0:0:0:0:
5,34,182543,1,0,1:2:0:0:
5,34,182663,2,0,P|28:117|35:241,1,170.200003246307,8|0,0:0|0:0,0:0:0:0:
411,163,182903,2,0,P|388:246|381:370,1,170.200003246307,0|0,1:2|0:0,0:0:0:0:
36,347,183143,1,8,0:0:0:0:
36,347,183383,6,0,P|127:323|218:321,1,170.200003246307,0|0,1:2|0:0,0:0:0:0:
505,112,183623,2,0,P|420:107|338:84,1,170.200003246307,8|0,0:0|0:0,0:0:0:0:
314,366,183863,2,0,P|299:278|291:163,1,170.200003246307,0|0,1:2|0:0,0:0:0:0:
2,122,184103,1,8,0:0:0:0:
85,10,184223,6,0,P|50:176|35:346,1,340.400006492615,0|0,1:2|1:2,0:0:0:0:
337,73,184583,2,0,P|252:-6|184:22,1,170.200003246307,8|0,0:0|0:0,0:0:0:0:
153,137,184823,2,0,P|238:216|306:188,1,170.200003246307,0|0,1:2|0:0,0:0:0:0:
475,20,185063,1,8,0:0:0:0:
475,20,185303,6,0,P|449:121|441:215,1,170.200003246307,8|0,0:0|1:2,0:0:0:0:
313,373,185543,2,0,P|302:288|280:207,1,170.200003246307,8|0,0:0|1:2,0:0:0:0:
0,77,185783,1,8,0:0:0:0:
325,17,185903,1,0,1:2:0:0:
66,180,186023,1,8,0:0:0:0:
209,29,186143,6,0,P|184:149|175:211,1,170.200003246307,0|0,1:2|0:0,0:0:0:0:
442,161,186383,1,0,1:2:0:0:
480,348,186503,2,0,P|404:272|331:287,1,170.200003246307,8|0,0:0|1:2,0:0:0:0:
27,350,186743,1,8,0:0:0:0:
27,350,186803,1,8,0:0:0:0:
27,350,186863,2,0,P|116:319|212:313,1,170.200003246307,0|8,1:2|0:0,0:0:0:0:
313,21,187103,1,8,0:0:0:0:
250,212,187223,5,12,0:0:0:0:
250,212,187463,1,8,0:0:0:0:
250,212,187703,1,8,0:0:0:0:
250,212,187943,5,8,0:0:0:0:
168,19,188063,2,0,P|259:42|507:73,1,340.400006492615,0|0,1:2|1:2,0:0:0:0:
498,322,188423,2,0,P|412:330|329:370,1,170.200003246307,8|0,0:0|1:2,0:0:0:0:
126,144,188663,1,8,0:0:0:0:
126,144,188903,5,8,0:0:0:0:
250,212,189023,1,0,1:2:0:0:
185,339,189143,5,8,0:0:0:0:
185,339,189383,1,8,0:0:0:0:
185,339,189623,5,8,0:0:0:0:
28,201,189743,1,0,1:2:0:0:
256,100,189863,1,8,0:0:0:0:
109,0,189983,6,0,P|121:91|141:210,1,170.200003246307,0|8,1:2|0:0,0:0:0:0:
458,145,190223,1,0,1:2:0:0:
402,368,190343,2,0,P|426:298|357:224,1,170.200003246307,8|0,0:0|1:2,0:0:0:0:
192,294,190583,2,0,P|96:274|9:267,1,170.200003246307,8|0,0:0|1:2,0:0:0:0:
424,8,190823,1,8,0:0:0:0:
349,118,190943,1,0,1:2:0:0:
234,64,191063,5,8,0:0:0:0:
234,64,191303,1,8,0:0:0:0:
234,64,191543,1,8,0:0:0:0:
234,64,191783,5,8,0:0:0:0:
81,5,191903,2,0,P|119:102|137:352,1,340.400006492615,0|0,1:2|1:2,0:0:0:0:
458,177,192263,2,0,P|467:82|500:6,1,170.200003246307,8|0,0:0|1:2,0:0:0:0:
497,373,192503,2,0,P|402:332|294:325,1,170.200003246307,8|0,0:0|1:2,0:0:0:0:
0,266,192743,1,8,0:0:0:0:
0,266,192863,1,0,1:2:0:0:
139,335,192983,6,0,P|95:265|158:132,1,170.200003246307,8|0,0:0|1:2,0:0:0:0:
419,75,193223,2,0,P|463:145|400:278,1,170.200003246307,8|0,0:0|1:2,0:0:0:0:
202,87,193463,1,8,0:0:0:0:
202,87,193583,2,0,P|101:75|24:61,1,170.200003246307,0|8,1:2|0:0,0:0:0:0:
30,376,193823,6,0,P|139:342|394:356,1,340.400006492615,0|0,1:2|1:2,0:0:0:0:
323,23,194183,2,0,P|269:57|292:161,1,170.200003246307,8|0,0:0|1:2,0:0:0:0:
471,293,194423,1,8,0:0:0:0:
471,293,194483,1,8,0:0:0:0:
471,293,194543,2,0,P|482:207|375:158,1,170.200003246307,0|8,1:2|0:0,0:0:0:0:
69,189,194783,1,8,0:0:0:0:
14,37,194903,5,12,0:0:0:0:
14,37,195143,1,8,0:0:0:0:
14,37,195383,2,0,B|250:75|146:-20|387:28,1,340.400006492615,8|8,0:0|0:0,0:0:0:0:
453,367,195743,6,0,P|487:259|307:140,1,340.400006492615,0|0,1:2|1:2,0:0:0:0:
31,375,196103,1,8,0:0:0:0:
326,338,196223,1,0,1:2:0:0:
72,248,196343,6,0,B|147:254|295:270,1,170.200003246307,8|0,0:0|1:2,0:0:0:0:
486,16,196583,2,0,B|411:22|263:38,1,170.200003246307,8|0,0:0|1:2,0:0:0:0:
326,338,196823,6,0,P|308:248|294:118,1,170.200003246307,8|0,0:0|1:2,0:0:0:0:
31,14,197063,2,0,P|19:98|2:181,1,170.200003246307,8|0,0:0|1:2,0:0:0:0:
169,371,197303,2,0,P|308:346|531:360,1,340.400006492615,8|8,0:0|0:0,0:0:0:0:
491,71,197663,6,0,B|273:98|408:-1|133:21,1,340.400006492615,0|0,1:2|1:2,0:0:0:0:
2,181,198023,2,0,P|-1:279|86:308,1,170.200003246307,8|0,0:0|1:2,0:0:0:0:
190,248,198263,2,0,P|193:150|106:121,1,170.200003246307,8|0,0:0|1:2,0:0:0:0:
398,377,198503,1,8,0:0:0:0:
398,377,198623,1,0,1:2:0:0:
398,377,198743,6,0,P|399:260|444:29,2,340.400006492615,8|8|8,0:0|0:0|0:0,0:0:0:0:
333,36,199343,1,0,1:2:0:0:
501,210,199463,1,8,0:0:0:0:
211,27,199583,6,0,P|240:123|251:205,1,170.200003246307,0|8,1:2|0:0,0:0:0:0:
31,379,199823,1,0,1:2:0:0:
31,379,199943,2,0,P|46:294|134:269,1,170.200003246307,8|0,0:0|1:2,0:0:0:0:
492,341,200183,2,0,P|402:331|266:309,1,170.200003246307,8|0,0:0|1:2,0:0:0:0:
11,72,200423,1,8,0:0:0:0:
333,36,200543,1,0,1:2:0:0:
151,0,200663,6,0,P|130:89|119:181,1,170.200003246307,8|0,0:0|1:2,0:0:0:0:
471,236,200903,1,8,0:0:0:0:
471,236,201023,1,0,1:2:0:0:
247,122,201143,5,8,0:0:0:0:
483,41,201263,1,0,1:2:0:0:
391,369,201383,1,8,0:0:0:0:
343,224,201503,5,10,1:2:0:0:
343,224,201743,1,10,1:2:0:0:
343,224,201983,1,10,1:2:0:0:
343,224,202103,5,10,1:2:0:0:
