osu file format v14

[General]
AudioFilename: audio.mp3
AudioLeadIn: 0
PreviewTime: 32739
Countdown: 0
SampleSet: Normal
StackLeniency: 0.7
Mode: 0
LetterboxInBreaks: 0
WidescreenStoryboard: 0

[Editor]
Bookmarks: 6518,14419,18083,32739,40068
DistanceSpacing: 0.9
BeatDivisor: 4
GridSize: 4
TimelineZoom: 1.5

[Metadata]
Title:Koi Ai
TitleUnicode:こいあい
Artist:umu.
ArtistUnicode:ゆーむ
Creator:nobbele
Version:Love
Source:
Tags:
BeatmapID:2060901
BeatmapSetID:984995

[Difficulty]
HPDrainRate:6
CircleSize:3.8
OverallDifficulty:7
ApproachRate:9.4
SliderMultiplier:1.4
SliderTickRate:1

[Events]
//Background and Video events
//Break Periods
//Storyboard Layer 0 (Background)
//Storyboard Layer 1 (Fail)
//Storyboard Layer 2 (Pass)
//Storyboard Layer 3 (Foreground)
//Storyboard Sound Samples

[TimingPoints]
3427,229.007633587786,4,1,0,100,1,0
14419,-83.3333333333333,4,1,0,100,0,0
32739,-66.6666666666667,4,1,0,100,0,0
47396,-83.3333333333333,4,1,0,100,0,1
62052,-83.3333333333333,4,1,0,100,0,0
102358,-83.3333333333333,4,1,0,100,0,1
117014,-83.3333333333333,4,1,0,100,0,0
170144,-83.3333333333333,4,1,0,100,0,1
183885,-83.3333333333333,4,1,0,100,0,0

[Colours]
Combo1 : 74,134,255
Combo2 : 158,138,229
Combo3 : 255,0,0
Combo4 : 128,255,0

[HitObjects]
154,113,3426,5,0,0:0:0:0:
154,113,3656,2,0,L|229:138,1,70
293,160,3885,1,0,0:0:0:0:
352,208,3999,1,0,0:0:0:0:
404,264,4114,2,0,L|380:352,1,70
446,183,4343,6,0,B|418:138|368:117|368:117|365:88|354:63,1,140
220,135,4686,1,0,0:0:0:0:
404,264,5030,2,0,L|466:324,1,70
244,224,5259,5,0,0:0:0:0:
122,205,5488,2,0,B|149:225|149:225|158:273|217:309,1,140
281,348,5831,1,0,0:0:0:0:
360,332,5946,2,0,P|384:301|397:262,1,70
138,353,6175,6,0,B|90:323|75:274|75:274|49:256|43:235,1,140
120,191,6518,1,0,0:0:0:0:
304,73,7091,5,0,0:0:0:0:
270,211,7320,2,0,L|197:261,1,70
319,269,7549,1,0,0:0:0:0:
395,270,7663,1,0,0:0:0:0:
455,221,7778,1,0,0:0:0:0:
461,144,7892,1,0,0:0:0:0:
385,92,8007,6,0,P|391:47|410:15,1,70
274,223,8350,2,0,P|259:254|256:289,1,70
304,73,8694,1,0,0:0:0:0:
175,190,8923,6,0,L|226:274,1,70
304,368,9152,2,0,L|267:308,1,70
174,171,9381,1,0,0:0:0:0:
175,190,9610,1,0,0:0:0:0:
178,216,9839,6,0,B|116:158|91:103|91:103|134:95|166:119,1,210
286,208,10297,1,0,0:0:0:0:
286,208,10755,5,0,0:0:0:0:
309,196,10984,2,0,L|328:118,1,70
256,5,11213,2,0,L|239:73,1,70
128,159,11442,2,0,L|147:81,1,70
199,220,11671,6,0,B|183:288|183:288|182:316|208:326|208:326|247:328,1,140
277,226,12014,2,0,B|280:295|280:295|277:323|249:328|249:328|228:326,1,140
80,220,12358,2,0,L|109:188,1,35
128,159,12472,1,0,0:0:0:0:
111,77,12587,6,0,P|79:91|55:116,1,70
170,238,12816,2,0,L|183:312,1,70
193,95,13045,2,0,P|218:71|250:57,1,70
268,141,13274,2,0,P|252:172|249:206,1,70
344,186,13503,6,0,B|364:117|336:78|336:78|383:75,1,140
426,191,13846,2,0,B|406:260|434:299|434:299,1,105
400,312,14075,2,0,L|411:363,1,35,0|0,0:0|0:0,0:0:0:0:
367,317,14190,2,0,L|359:282,1,35,0|0,0:0|0:0,0:0:0:0:
334,331,14304,2,0,L|345:382,1,35,0|0,0:0|0:0,0:0:0:0:
296,336,14419,6,0,L|200:340,1,83.9999974365235
159,283,14648,1,0,0:0:0:0:
134,259,14762,1,0,0:0:0:0:
101,248,14877,2,0,P|113:287|139:320,1,83.9999974365235
138,173,15106,2,0,P|112:140|99:100,1,83.9999974365235
296,336,15335,6,0,P|321:303|334:263,1,83.9999974365235
345,188,15564,1,0,0:0:0:0:
348,112,15678,1,0,0:0:0:0:
348,36,15793,1,0,0:0:0:0:
334,263,16022,6,0,P|346:302|372:335,1,83.9999974365235
237,180,16251,2,0,P|224:140|198:107,1,83.9999974365235
428,259,16480,6,0,P|463:281|504:289,1,83.9999974365235
138,173,16709,2,0,P|102:150|61:142,1,83.9999974365235
388,176,16938,6,0,P|429:170|466:150,1,83.9999974365235
176,255,17167,2,0,P|134:260|97:280,1,83.9999974365235
44,340,17396,1,0,0:0:0:0:
237,180,17625,6,0,P|272:138|289:84,1,83.9999974365235
325,45,17854,2,0,L|292:8,1,41.9999987182618
364,41,17968,2,0,L|367:-7,1,41.9999987182618
394,69,18083,5,0,0:0:0:0:
185,99,18312,1,0,0:0:0:0:
124,144,18426,1,0,0:0:0:0:
96,214,18541,1,0,0:0:0:0:
106,289,18656,1,0,0:0:0:0:
165,335,18770,1,0,0:0:0:0:
240,333,18885,1,0,0:0:0:0:
299,287,18999,6,0,P|313:247|313:205,1,83.9999974365235
185,99,19228,2,0,P|185:140|198:180,1,83.9999974365235
399,201,19457,2,0,P|383:162|357:129,1,83.9999974365235
96,214,19686,2,0,P|123:245|159:267,1,83.9999974365235
150,19,19915,5,0,0:0:0:0:
159,267,20144,1,0,0:0:0:0:
133,27,20373,1,0,0:0:0:0:
171,283,20602,1,0,0:0:0:0:
310,308,20831,6,0,P|358:328|402:330,1,83.9999974365235
176,296,21060,1,0,0:0:0:0:
376,242,21175,2,0,P|425:226|460:199,1,83.9999974365235
110,354,21518,2,0,P|68:349|30:332,1,83.9999974365235
240,350,21747,5,0,0:0:0:0:
111,197,21976,1,0,0:0:0:0:
83,126,22091,1,0,0:0:0:0:
113,57,22205,2,0,P|163:27|203:26,1,83.9999974365235
183,103,22434,2,0,P|221:119|248:151,1,83.9999974365235
122,218,22663,5,0,0:0:0:0:
140,243,22892,1,0,0:0:0:0:
140,243,23007,2,0,L|208:318,1,83.9999974365235
83,126,23350,2,0,L|26:63,1,83.9999974365235
310,308,23579,6,0,P|361:328|404:335,1,83.9999974365235
265,127,23808,2,0,P|226:110|185:101,1,83.9999974365235
369,247,24037,2,0,P|421:229|458:207,1,83.9999974365235
193,182,24266,2,0,P|152:194|119:226,1,83.9999974365235
324,54,24495,5,0,0:0:0:0:
341,83,24724,1,0,0:0:0:0:
341,83,24839,1,0,0:0:0:0:
371,60,24953,2,0,P|399:96|417:151,1,83.9999974365235
354,255,25182,2,0,P|327:222|311:183,1,83.9999974365235
482,316,25411,5,0,0:0:0:0:
288,308,25640,1,0,0:0:0:0:
288,308,25755,2,0,P|261:275|245:236,1,83.9999974365235
324,54,25984,2,0,P|351:87|367:126,1,83.9999974365235
193,295,26213,1,0,0:0:0:0:
193,295,26327,2,0,P|213:245|261:207,1,83.9999974365235
366,124,26556,1,0,0:0:0:0:
366,124,26671,2,0,B|386:167|374:215,1,83.9999974365235
193,295,27014,2,0,L|154:255,1,41.9999987182618
137,239,27129,1,0,0:0:0:0:
108,325,27243,6,0,P|146:359|185:372,1,83.9999974365235
216,198,27472,2,0,P|177:163|138:150,1,83.9999974365235
208,384,27701,2,0,P|167:375|133:352,1,83.9999974365235
112,137,27930,2,0,P|153:146|188:170,1,83.9999974365235
240,42,28159,2,0,L|271:136,1,83.9999974365235
292,198,28388,1,0,0:0:0:0:
360,99,28503,2,0,L|326:21,1,83.9999974365235,0|0,0:0|3:0,0:0:0:0:
395,180,28846,2,0,L|419:227,3,41.9999987182618
436,251,29075,6,0,P|412:302|388:323,1,83.9999974365235
392,320,29533,2,0,L|304:341,1,83.9999974365235
237,268,29762,2,0,L|318:248,1,83.9999974365235
483,313,29991,2,0,B|473:359|435:389,1,83.9999974365235
426,234,30220,1,0,0:0:0:0:
407,217,30449,1,0,0:0:0:0:
241,185,30678,6,0,P|232:226|237:268,1,83.9999974365235
402,299,30907,2,0,P|411:258|406:216,1,83.9999974365235
229,219,31136,2,0,P|234:260|252:298,1,83.9999974365235
418,270,31365,2,0,P|412:228|394:190,1,83.9999974365235
223,259,31594,2,0,P|230:285|248:315,3,41.9999987182618
288,313,31823,2,0,P|317:256|318:217,1,83.9999974365235
314,158,32052,1,0,0:0:0:0:
145,316,32281,1,0,0:0:0:0:
190,112,32739,6,0,B|213:54|274:38|274:38|302:73|294:109|243:119|267:61,1,210.000008010865
314,158,33197,6,0,B|352:206|336:267|336:267|291:274|264:249|301:225|319:250,1,210.000008010865
200,249,33656,6,0,B|138:258|93:213|93:213|110:171|149:175|155:224|117:187,1,210.000008010865
240,177,34114,5,0,0:0:0:0:
240,177,34228,1,0,0:0:0:0:
240,177,34343,2,0,P|263:108|301:74,1,105.000004005432
318,249,34572,1,0,0:0:0:0:
117,187,34801,1,0,0:0:0:0:
261,84,35030,1,0,0:0:0:0:
206,273,35259,1,0,0:0:0:0:
167,88,35488,6,0,P|191:33|227:-2,1,105.000004005432
302,268,35717,2,0,P|278:323|242:358,1,105.000004005432
143,211,35946,2,0,P|196:184|246:180,1,105.000004005432
157,357,36175,2,0,P|118:322|95:276,1,105.000004005432
326,184,36404,5,0,0:0:0:0:
