osu file format v14

[General]
AudioFilename: audio.mp3
AudioLeadIn: 0
PreviewTime: 67444
Countdown: 0
SampleSet: Drum
StackLeniency: 0.4
Mode: 0
LetterboxInBreaks: 0
WidescreenStoryboard: 1

[Editor]
Bookmarks: 28221,41463,54704,67946,80566,94428,107670,120911,134152,134256,134359,134463,134566,134670,134773,134877,134980,135084,135187,135290,135394,135497,135601,135704,135808,149049,162290,188773,201187,214278,221864
DistanceSpacing: 1.4
BeatDivisor: 4
GridSize: 32
TimelineZoom: 2.100001

[Metadata]
Title:Dareka no Shinzou ni Nareta Nara
TitleUnicode:だれかの心臓になれたなら
Artist:umu.
ArtistUnicode:ゆーむ
Creator:xbopost
Version:Hard
Source:
Tags:Cappu Senseabel Tommy Phelps japanese vocaloid novelty cover utaite 歌い手 gumi ボーカロイド ボカロ yurry canon ユリイ・カノン kardia
BeatmapID:2388648
BeatmapSetID:1098181

[Difficulty]
HPDrainRate:5
CircleSize:3.8
OverallDifficulty:7
ApproachRate:8
SliderMultiplier:1.6
SliderTickRate:1

[Events]
//Background and Video events
0,0,"dca18291-7397-4cf0-9bb5-f666481a636f.jpg",0,0
//Break Periods
//Storyboard Layer 0 (Background)
//Storyboard Layer 1 (Fail)
//Storyboard Layer 2 (Pass)
//Storyboard Layer 3 (Foreground)
//Storyboard Layer 4 (Overlay)
//Storyboard Sound Samples

[TimingPoints]
100,413.793103448276,4,3,1,50,1,0
1755,-142.857142857143,4,3,1,50,0,0
8375,-142.857142857143,4,3,1,55,0,0
14168,-142.857142857143,4,3,1,60,0,0
14996,-83.3333333333333,4,3,1,70,0,1
15203,-83.3333333333333,4,3,88,70,0,1
15306,-83.3333333333333,4,3,1,70,0,1
16031,-83.3333333333333,4,3,88,70,0,1
16134,-83.3333333333333,4,3,1,70,0,1
16858,-83.3333333333333,4,3,88,70,0,1
16962,-83.3333333333333,4,3,1,70,0,1
17686,-83.3333333333333,4,3,88,70,0,1
17789,-83.3333333333333,4,3,1,70,0,1
18513,-83.3333333333333,4,3,88,70,0,1
18617,-83.3333333333333,4,3,1,70,0,1
19341,-83.3333333333333,4,3,88,70,0,1
19444,-83.3333333333333,4,3,1,70,0,1
20168,-83.3333333333333,4,3,88,70,0,1
20272,-83.3333333333333,4,3,1,70,0,1
21824,-83.3333333333333,4,3,88,70,0,1
21927,-83.3333333333333,4,3,1,70,0,1
22651,-83.3333333333333,4,3,88,70,0,1
22755,-83.3333333333333,4,3,1,70,0,1
23479,-83.3333333333333,4,3,88,70,0,1
23582,-83.3333333333333,4,3,1,70,0,1
24306,-83.3333333333333,4,3,88,70,0,1
24410,-83.3333333333333,4,3,1,70,0,1
25134,-83.3333333333333,4,3,88,70,0,1
25237,-83.3333333333333,4,3,1,70,0,1
25962,-83.3333333333333,4,3,88,70,0,1
26065,-83.3333333333333,4,3,1,70,0,1
26789,-83.3333333333333,4,3,88,70,0,1
26893,-83.3333333333333,4,3,1,70,0,1
28237,-83.3333333333333,4,3,1,45,0,1
28651,-111.111111111111,4,3,1,45,0,0
42100,-111.111111111111,4,3,88,45,0,0
42203,-111.111111111111,4,3,1,45,0,0
42513,-111.111111111111,4,3,88,45,0,0
42617,-111.111111111111,4,3,1,45,0,0
42927,-111.111111111111,4,3,88,45,0,0
43031,-111.111111111111,4,3,1,45,0,0
43341,-111.111111111111,4,3,88,45,0,0
43444,-111.111111111111,4,3,1,45,0,0
43755,-111.111111111111,4,3,88,45,0,0
43858,-111.111111111111,4,3,1,45,0,0
44168,-111.111111111111,4,3,88,45,0,0
44272,-111.111111111111,4,3,1,45,0,0
44582,-111.111111111111,4,3,88,45,0,0
44686,-111.111111111111,4,3,1,45,0,0
44996,-111.111111111111,4,3,88,45,0,0
45100,-111.111111111111,4,3,1,45,0,0
45410,-111.111111111111,4,3,88,45,0,0
45513,-111.111111111111,4,3,1,45,0,0
45824,-111.111111111111,4,3,88,45,0,0
45927,-111.111111111111,4,3,1,45,0,0
46237,-111.111111111111,4,3,88,45,0,0
46341,-111.111111111111,4,3,1,45,0,0
46651,-111.111111111111,4,3,88,45,0,0
46755,-111.111111111111,4,3,1,45,0,0
47065,-111.111111111111,4,3,88,45,0,0
47168,-111.111111111111,4,3,1,45,0,0
47479,-111.111111111111,4,3,88,45,0,0
47582,-111.111111111111,4,3,1,45,0,0
51617,-111.111111111111,4,3,88,45,0,0
51720,-111.111111111111,4,3,1,45,0,0
52031,-111.111111111111,4,3,88,45,0,0
52134,-111.111111111111,4,3,1,45,0,0
52444,-111.111111111111,4,3,88,45,0,0
52548,-111.111111111111,4,3,1,45,0,0
52858,-111.111111111111,4,3,88,45,0,0
52962,-111.111111111111,4,3,1,45,0,0
54720,-111.111111111111,4,3,1,50,0,0
56582,-111.111111111111,4,3,88,50,0,0
56686,-111.111111111111,4,3,1,50,0,0
56996,-111.111111111111,4,3,88,50,0,0
57100,-111.111111111111,4,3,1,50,0,0
57410,-111.111111111111,4,3,88,50,0,0
57513,-111.111111111111,4,3,1,50,0,0
57824,-111.111111111111,4,3,88,50,0,0
57927,-111.111111111111,4,3,1,50,0,0
59893,-111.111111111111,4,3,88,50,0,0
59996,-111.111111111111,4,3,1,50,0,0
60306,-111.111111111111,4,3,88,50,0,0
60410,-111.111111111111,4,3,1,50,0,0
60720,-111.111111111111,4,3,88,50,0,0
60824,-111.111111111111,4,3,1,50,0,0
61134,-111.111111111111,4,3,88,50,0,0
61237,-111.111111111111,4,3,1,50,0,0
63203,-111.111111111111,4,3,88,50,0,0
63306,-111.111111111111,4,3,1,50,0,0
63617,-111.111111111111,4,3,88,50,0,0
63720,-111.111111111111,4,3,1,50,0,0
64237,-111.111111111111,4,3,1,60,0,0
67548,-111.111111111111,4,3,1,50,0,0
67962,-83.3333333333333,4,3,1,70,0,0
94444,-83.3333333333333,4,3,1,70,0,1
94651,-83.3333333333333,4,3,88,70,0,1
94754,-83.3333333333333,4,3,1,70,0,1
95479,-83.3333333333333,4,3,88,70,0,1
95582,-83.3333333333333,4,3,1,70,0,1
96306,-83.3333333333333,4,3,88,70,0,1
96410,-83.3333333333333,4,3,1,70,0,1
97134,-83.3333333333333,4,3,88,70,0,1
97237,-83.3333333333333,4,3,1,70,0,1
97961,-83.3333333333333,4,3,88,70,0,1
98065,-83.3333333333333,4,3,1,70,0,1
98789,-83.3333333333333,4,3,88,70,0,1
98892,-83.3333333333333,4,3,1,70,0,1
99616,-83.3333333333333,4,3,88,70,0,1
99720,-83.3333333333333,4,3,1,70,0,1
101272,-83.3333333333333,4,3,88,70,0,1
101375,-83.3333333333333,4,3,1,70,0,1
102099,-83.3333333333333,4,3,88,70,0,1
102203,-83.3333333333333,4,3,1,70,0,1
102927,-83.3333333333333,4,3,88,70,0,1
103030,-83.3333333333333,4,3,1,70,0,1
103754,-83.3333333333333,4,3,88,70,0,1
103858,-83.3333333333333,4,3,1,70,0,1
104582,-83.3333333333333,4,3,88,70,0,1
104685,-83.3333333333333,4,3,1,70,0,1
105410,-83.3333333333333,4,3,88,70,0,1
105513,-83.3333333333333,4,3,1,70,0,1
106237,-83.3333333333333,4,3,88,70,0,1
106341,-83.3333333333333,4,3,1,70,0,1
107686,-111.111111111111,4,3,1,45,0,0
114306,-111.111111111111,4,3,1,50,0,0
119272,-111.111111111111,4,3,1,60,0,0
120927,-83.3333333333333,4,3,1,75,0,0
130858,-111.111111111111,4,3,1,75,0,0
130962,-111.111111111111,4,3,1,50,0,0
134168,-111.111111111111,4,3,1,40,0,0
135824,-142.857142857143,4,3,1,50,0,0
142444,-142.857142857143,4,3,1,55,0,0
147410,-142.857142857143,4,3,1,70,0,0
148444,-83.3333333333333,4,3,1,60,0,0
149479,-83.3333333333333,4,3,1,70,0,0
162306,-66.6666666666667,4,3,1,85,0,1
175962,-66.6666666666667,4,3,1,70,0,0
176168,-83.3333333333333,4,3,1,70,0,0
176582,-83.3333333333333,4,3,88,70,0,0
176686,-83.3333333333333,4,3,1,70,0,0
177410,-83.3333333333333,4,3,88,70,0,0
177513,-83.3333333333333,4,3,1,70,0,0
178237,-83.3333333333333,4,3,88,70,0,0
178341,-83.3333333333333,4,3,1,70,0,0
179065,-83.3333333333333,4,3,88,70,0,0
179168,-83.3333333333333,4,3,1,70,0,0
179893,-83.3333333333333,4,3,88,70,0,0
179996,-83.3333333333333,4,3,1,70,0,0
182375,-83.3333333333333,4,3,88,70,0,0
182479,-83.3333333333333,4,3,1,70,0,0
183203,-83.3333333333333,4,3,88,70,0,0
183306,-83.3333333333333,4,3,1,70,0,0
184031,-83.3333333333333,4,3,88,70,0,0
184134,-83.3333333333333,4,3,1,70,0,0
184858,-83.3333333333333,4,3,88,70,0,0
184962,-83.3333333333333,4,3,1,70,0,0
185686,-83.3333333333333,4,3,88,70,0,0
185789,-83.3333333333333,4,3,1,70,0,0
186513,-83.3333333333333,4,3,88,70,0,0
186617,-83.3333333333333,4,3,1,70,0,0
187341,-83.3333333333333,4,3,88,70,0,0
187444,-83.3333333333333,4,3,1,70,0,0
188789,-111.111111111111,4,3,1,65,0,0
192100,-111.111111111111,4,3,1,65,0,0
195410,-66.6666666666667,4,3,1,75,0,1
195617,-66.6666666666667,4,3,88,75,0,1
195720,-66.6666666666667,4,3,1,75,0,1
196444,-66.6666666666667,4,3,88,75,0,1
196548,-66.6666666666667,4,3,1,75,0,1
197272,-66.6666666666667,4,3,88,75,0,1
197375,-66.6666666666667,4,3,1,75,0,1
198100,-66.6666666666667,4,3,88,75,0,1
198203,-66.6666666666667,4,3,1,75,0,1
198927,-66.6666666666667,4,3,88,75,0,1
199031,-66.6666666666667,4,3,1,75,0,1
199755,-66.6666666666667,4,3,88,75,0,1
199858,-66.6666666666667,4,3,1,75,0,1
201203,-66.6666666666667,4,3,1,75,0,0
203260,689.655172413793,4,2,1,40,1,0
211535,-100,4,2,1,30,0,0
214294,-100,4,2,1,20,0,0
217053,-100,4,2,1,15,0,0
219811,-100,4,2,1,10,0,0

[Colours]
Combo1 : 52,143,177
Combo2 : 192,116,179
Combo3 : 147,36,69
Combo4 : 23,69,145

[HitObjects]
392,178,1755,6,0,B|340:112|340:112|359:30,1,167.999994873047,4|0,1:0|2:0,0:0:0:0:
436,16,2582,2,0,B|487:81|487:81|468:163,1,167.999994873047,4|0,1:0|2:0,0:0:0:0:
446,240,3410,2,0,P|379:264|339:359,1,167.999994873047,4|0,1:0|2:0,0:0:0:0:
271,306,4237,6,0,L|197:322,1,55.9999982910157,4|0,0:0|2:0,0:0:0:0:
154,366,4651,2,0,L|99:354,1,55.9999982910157,4|0,0:0|2:0,0:0:0:0:
69,280,5065,6,0,P|22:213|43:121,1,167.999994873047,4|0,1:0|2:0,0:0:0:0:
111,112,5893,2,0,P|157:178|137:271,1,167.999994873047,4|0,1:0|2:0,0:0:0:0:
197,317,6720,2,0,L|385:297,1,167.999994873047,4|0,1:0|2:0,0:0:0:0:
434,334,7548,5,4,0:0:0:0:
483,275,7755,1,0,1:0:0:0:
483,275,7858,1,0,1:0:0:0:
483,275,7962,2,0,L|472:231,3,27.9999991455078,0|0|0|0,0:0|1:0|1:0|1:0,0:0:0:0:
438,237,8375,6,0,L|452:165,1,55.9999982910157,4|0,3:1|2:0,0:0:0:0:
496,119,8789,1,2,0:2:0:0:
465,46,8996,1,2,2:0:0:0:
387,37,9203,2,0,B|313:50|365:73|269:90,1,111.999996582031,4|2,0:0|0:2,0:0:0:0:
133,110,10031,6,0,L|139:-1,2,111.999996582031,4|2|4,3:1|0:2|0:0,0:0:0:0:
207,158,11065,1,0,1:0:0:0:
207,158,11168,1,0,1:0:0:0:
207,158,11272,2,0,L|244:152,3,27.9999991455078,4|0|0|0,0:0|1:0|1:0|1:0,0:0:0:0:
273,144,11686,6,0,P|256:170|247:217,1,55.9999982910157,4|0,3:1|2:0,0:0:0:0:
256,272,12100,1,2,0:2:0:0:
298,337,12306,1,2,2:0:0:0:
220,345,12513,2,0,B|185:338|185:338|111:372,1,111.999996582031,4|2,0:0|0:2,0:0:0:0:
115,370,14168,5,4,0:0:0:0:
188,337,14375,1,0,1:0:0:0:
204,341,14479,1,0,1:0:0:0:
220,345,14582,1,0,0:0:0:0:
293,372,14789,1,0,1:0:0:0:
309,368,14893,1,0,1:0:0:0:
325,364,14996,6,0,B|394:376|394:376|451:313,1,143.999995605469,4|8,3:1|0:0,0:0:0:0:
409,294,15410,1,0,0:0:0:0:
324,269,15617,2,0,L|342:206,1,47.9999985351563,8|0,0:0|2:0,0:0:0:0:
300,199,15824,2,0,P|240:195|216:236,1,95.9999970703126,4|2,0:0|2:3,0:0:0:0:
181,240,16134,1,8,0:0:0:0:
141,221,16237,2,0,P|132:173|116:128,1,95.9999970703126,0|8,0:0|0:0,0:0:0:0:
48,74,16651,5,4,0:0:0:0:
109,16,16858,1,2,2:3:0:0:
131,24,16962,1,8,0:0:0:0:
153,33,17065,1,0,0:0:0:0:
226,78,17272,2,0,L|217:132,2,47.9999985351563,8|2|4,0:0|0:0|0:0,0:0:0:0:
292,22,17686,1,2,2:3:0:0:
305,27,17789,1,8,0:0:0:0:
318,32,17893,2,0,L|390:20,1,47.9999985351563,0|0,0:0|2:0,0:0:0:0:
391,58,18100,2,0,L|365:126,1,47.9999985351563,8|0,0:0|2:0,0:0:0:0:
345,134,18306,6,0,B|436:145|388:192|509:208,1,143.999995605469,4|8,3:1|0:0,0:0:0:0:
472,243,18720,1,0,0:0:0:0:
401,292,18927,1,8,0:0:0:0:
329,243,19134,2,0,L|317:303,2,47.9999985351563,4|0|2,0:0|0:0|2:3,0:0:0:0:
245,266,19548,2,0,L|198:277,1,47.9999985351563,0|0,0:0|2:0,0:0:0:0:
177,315,19755,2,0,L|130:303,1,47.9999985351563,8|0,0:0|2:0,0:0:0:0:
89,289,19962,5,4,0:0:0:0:
7,279,20168,1,2,2:3:0:0:
5,254,20272,1,8,0:0:0:0:
26,243,20375,1,0,0:0:0:0:
102,202,20582,2,0,L|92:152,2,47.9999985351563,8|2|4,0:0|0:0|0:0,0:0:0:0:
185,167,20996,1,8,0:0:0:0:
185,167,21100,1,8,0:0:0:0:
185,167,21203,2,0,L|235:177,3,47.9999985351563,8|8|8|8,0:0|0:0|0:0|0:0,0:0:0:0:
260,143,21617,6,0,P|283:201|368:166,1,143.999995605469,4|8,3:1|0:0,0:0:0:0:
375,154,22031,1,0,0:0:0:0:
324,85,22237,2,0,L|314:15,1,47.9999985351563,8|0,0:0|2:0,0:0:0:0:
288,4,22444,2,0,P|226:21|214:48,1,95.9999970703126,4|2,0:0|2:3,0:0:0:0:
201,87,22755,1,8,0:0:0:0:
158,91,22858,2,0,B|94:91|127:125|48:133,1,95.9999970703126,0|8,0:0|0:0,0:0:0:0:
34,206,23272,5,4,0:0:0:0:
119,215,23479,1,2,2:3:0:0:
115,238,23582,1,8,0:0:0:0:
110,262,23686,1,0,0:0:0:0:
133,345,23893,2,0,L|53:333,2,47.9999985351563,8|2|4,0:0|0:0|0:0,0:0:0:0:
219,339,24306,1,2,2:3:0:0:
234,335,24410,1,8,0:0:0:0:
249,331,24513,2,0,L|304:348,1,47.9999985351563,0|0,0:0|2:0,0:0:0:0:
339,349,24720,2,0,L|399:337,1,47.9999985351563,8|0,0:0|2:0,0:0:0:0:
423,361,24927,6,0,P|421:292|433:199,1,143.999995605469,4|8,3:1|0:0,0:0:0:0:
465,193,25341,1,0,0:0:0:0:
389,151,25548,1,8,0:0:0:0:
319,202,25755,2,0,L|337:264,2,47.9999985351563,4|0|2,0:0|0:0|2:3,0:0:0:0:
233,210,26168,2,0,P|235:182|250:148,1,47.9999985351563,0|0,0:0|2:0,0:0:0:0:
265,127,26375,2,0,P|263:99|248:65,1,47.9999985351563,8|0,0:0|2:0,0:0:0:0:
233,43,26582,5,4,0:0:0:0:
153,9,26789,1,2,2:3:0:0:
130,18,26893,1,8,0:0:0:0:
107,27,26996,1,0,0:0:0:0:
33,72,27203,2,0,L|24:24,2,47.9999985351563,8|2|4,0:0|0:0|0:0,0:0:0:0:
115,122,27617,1,8,0:0:0:0:
115,122,27720,1,8,0:0:0:0:
115,122,27824,2,0,L|100:174,4,47.9999985351563,8|8|8|8|0,0:0|0:0|0:0|0:0|0:0,0:0:0:0:
191,194,28444,5,2,2:3:0:0:
191,194,28548,1,2,2:3:0:0:
191,194,28651,2,0,L|315:181,1,107.999996704102,4|2,0:0|2:3,0:0:0:0:
325,211,29065,2,0,L|308:309,1,71.9999978027344,2|2,0:2|2:0,0:0:0:0:
390,297,29479,2,0,L|402:226,1,71.9999978027344,4|2,0:0|2:0,0:0:0:0:
479,205,29893,5,2,0:2:0:0:
422,149,30100,1,2,2:0:0:0:
442,72,30306,2,0,L|345:55,1,71.9999978027344,4|2,0:0|2:0,0:0:0:0:
307,11,30720,1,2,0:2:0:0:
249,63,30927,1,0,1:0:0:0:
249,63,31031,1,0,1:0:0:0:
249,63,31134,2,0,L|256:126,4,35.9999989013672,4|0|0|0|0,1:3|1:0|1:0|1:0|0:0,0:0:0:0:
175,102,31755,5,2,2:3:0:0:
175,102,31858,1,2,2:3:0:0:
175,102,31962,2,0,P|126:106|39:132,1,107.999996704102,4|2,0:0|2:3,0:0:0:0:
30,127,32375,2,0,P|34:161|29:211,1,71.9999978027344,2|2,0:2|2:0,0:0:0:0:
111,198,32789,2,0,P|102:231|78:275,1,71.9999978027344,4|2,0:0|2:0,0:0:0:0:
26,318,33203,5,2,0:2:0:0:
80,375,33410,1,2,2:0:0:0:
140,324,33617,2,0,L|234:333,1,71.9999978027344,4|2,0:0|2:0,0:0:0:0:
282,294,34031,1,2,0:2:0:0:
325,371,34237,1,0,1:0:0:0:
325,371,34341,1,0,1:0:0:0:
325,371,34444,2,0,L|375:364,4,35.9999989013672,4|8|8|0|2,1:3|0:0|0:0|1:0|0:2,0:0:0:0:
219,252,35272,5,4,0:0:0:0:
241,176,35479,1,2,2:0:0:0:
163,192,35686,2,0,P|111:185|34:184,1,107.999996704102,2|0,0:2|2:0,0:0:0:0:
20,163,36100,2,0,L|37:80,1,71.9999978027344,2|0,2:0|0:0,0:0:0:0:
113,100,36513,6,0,L|96:17,1,71.9999978027344,2|2,0:2|2:0,0:0:0:0:
177,22,36927,1,4,0:0:0:0:
242,66,37134,1,2,2:0:0:0:
314,34,37341,1,2,0:2:0:0:
440,129,37755,6,0,P|429:181|421:261,1,107.999996704102,4|2,0:0|2:0,0:0:0:0:
387,254,38168,2,0,P|354:242|305:235,1,71.9999978027344,2|2,0:2|2:0,0:0:0:0:
251,279,38582,2,0,L|256:376,1,71.9999978027344,4|2,0:0|2:0,0:0:0:0:
176,336,38996,1,2,0:2:0:0:
176,336,39203,2,0,L|83:356,2,71.9999978027344,0|4|2,0:0|0:0|2:0,0:0:0:0:
53,290,39824,6,0,L|82:199,1,71.9999978027344,2|2,0:2|2:3,0:0:0:0:
152,204,40237,2,0,L|215:274,1,71.9999978027344,4|2,0:0|2:3,0:0:0:0:
261,206,40651,5,0,0:0:0:0:
282,210,40755,1,0,1:0:0:0:
303,214,40858,1,0,1:0:0:0:
362,266,41065,1,4,1:3:0:0:
376,264,41168,1,0,1:0:0:0:
390,262,41272,1,0,1:0:0:0:
455,217,41479,6,0,L|466:88,1,107.999996704102,0|2,0:0|2:3,0:0:0:0:
458,69,41893,2,0,L|366:79,1,71.9999978027344,8|2,0:0|2:3,0:0:0:0:
320,113,42306,1,2,0:2:0:0:
320,113,42410,1,0,2:0:0:0:
320,113,42513,1,2,2:3:0:0:
320,33,42720,2,0,L|248:25,1,71.9999978027344,8|2,0:0|2:3,0:0:0:0:
192,81,43134,5,2,0:2:0:0:
113,69,43341,2,0,P|122:107|123:165,1,71.9999978027344,2|8,2:3|0:0,0:0:0:0:
45,127,43755,2,0,P|47:162|58:197,1,71.9999978027344,2|2,2:3|0:2,0:0:0:0:
141,226,44168,1,2,2:3:0:0:
141,226,44272,1,0,1:0:0:0:
141,226,44375,2,0,L|130:278,4,35.9999989013672,8|0|2|0|0,0:0|1:0|2:3|1:0|0:0,0:0:0:0:
227,223,44996,5,2,2:3:0:0:
227,223,45100,1,2,2:3:0:0:
227,223,45203,2,0,L|328:216,1,71.9999978027344,8|2,0:0|2:3,0:0:0:0:
356,287,45617,1,2,0:2:0:0:
356,287,45720,1,0,2:0:0:0:
356,287,45824,1,2,2:3:0:0:
434,299,46031,2,0,L|438:227,1,71.9999978027344,8|2,0:0|2:3,0:0:0:0:
500,177,46444,5,2,0:2:0:0:
443,120,46651,2,0,P|406:117|349:124,1,71.9999978027344,2|8,2:3|0:0,0:0:0:0:
363,40,47065,2,0,P|327:51|277:78,1,71.9999978027344,2|2,2:3|0:2,0:0:0:0:
239,120,47479,1,2,2:3:0:0:
239,120,47582,1,0,1:0:0:0:
239,120,47686,2,0,L|232:182,4,35.9999989013672,8|8|8|0|2,0:0|0:0|0:0|1:0|0:0,0:0:0:0:
168,83,48306,5,2,2:3:0:0:
105,131,48513,1,8,0:0:0:0:
35,92,48720,1,2,2:3:0:0:
1,163,48927,6,0,L|16:250,1,71.9999978027344,2|2,0:2|2:3,0:0:0:0:
92,232,49341,2,0,L|77:319,1,71.9999978027344,8|2,0:0|2:3,0:0:0:0:
149,340,49755,1,2,0:2:0:0:
217,299,49962,1,2,2:3:0:0:
274,352,50168,2,0,L|366:332,1,71.9999978027344,8|2,0:0|2:3,0:0:0:0:
421,317,50582,5,2,0:2:0:0:
287,231,50996,1,8,0:0:0:0:
153,145,51410,1,2,0:2:0:0:
228,120,51617,6,0,L|241:24,1,71.9999978027344,2|8,2:3|0:0,0:0:0:0:
310,79,52031,1,2,2:3:0:0:
381,45,52237,1,2,0:2:0:0:
381,45,52444,2,0,L|395:115,2,71.9999978027344,2|8|2,2:3|0:0|2:3,0:0:0:0:
473,131,53065,5,8,0:0:0:0:
460,209,53272,1,8,0:0:0:0:
380,202,53479,5,8,0:0:0:0:
393,280,53686,1,8,0:0:0:0:
471,293,53893,5,2,0:0:0:0:
469,303,53996,1,8,0:0:0:0:
467,313,54100,1,8,0:0:0:0:
465,323,54203,1,8,0:0:0:0:
463,333,54306,1,8,0:0:0:0:
306,359,54720,6,0,L|168:369,1,107.999996704102,4|4,3:1|0:0,0:0:0:0:
132,267,55341,1,4,0:0:0:0:
64,309,55548,1,4,0:0:0:0:
23,241,55755,2,0,L|9:138,2,71.9999978027344,8|2|2,0:0|2:3|0:2,0:0:0:0:
98,217,56375,6,0,L|181:227,1,71.9999978027344,2|2,0:2|2:3,0:0:0:0:
240,261,56789,2,0,L|311:249,1,71.9999978027344,8|2,0:0|2:3,0:0:0:0:
371,300,57203,1,2,0:2:0:0:
443,261,57410,1,2,2:3:0:0:
443,261,57513,1,0,2:0:0:0:
443,261,57617,2,0,L|454:189,1,71.9999978027344,8|2,0:0|2:3,0:0:0:0:
425,115,58031,6,0,P|373:120|308:112,1,107.999996704102,4|4,3:1|0:0,0:0:0:0:
238,25,58651,1,4,0:0:0:0:
173,71,58858,1,4,0:0:0:0:
113,18,59065,2,0,P|77:14|41:7,2,71.9999978027344,8|2|2,0:0|2:3|0:2,0:0:0:0:
96,95,59686,6,0,L|86:176,1,71.9999978027344,2|2,0:2|2:3,0:0:0:0:
10,187,60100,2,0,L|25:260,1,71.9999978027344,8|2,0:0|2:3,0:0:0:0:
101,277,60513,1,2,0:2:0:0:
141,356,60720,1,2,2:3:0:0:
141,356,60824,1,0,2:0:0:0:
141,356,60927,2,0,P|178:345|241:341,1,71.9999978027344,8|2,0:0|2:3,0:0:0:0:
289,353,61341,6,0,P|287:299|294:231,1,107.999996704102,4|4,3:1|0:0,0:0:0:0:
400,293,61962,1,4,0:0:0:0:
470,258,62168,1,4,0:0:0:0:
422,194,62375,2,0,L|432:118,2,71.9999978027344,8|2|2,0:0|2:3|0:2,0:0:0:0:
350,158,62996,6,0,P|313:159|252:172,1,71.9999978027344,2|2,0:2|2:3,0:0:0:0:
198,161,63410,2,0,P|161:159|100:147,1,71.9999978027344,8|2,0:0|2:3,0:0:0:0:
49,172,63824,1,2,0:2:0:0:
103,23,64237,6,0,L|216:36,1,107.999996704102,0|0,0:0|2:0,0:0:0:0:
244,15,64651,2,0,L|245:100,1,71.9999978027344,4|2,0:0|2:0,0:0:0:0:
277,110,64962,1,8,0:0:0:0:
306,136,65065,2,0,L|294:213,1,71.9999978027344,0|8,0:0|0:0,0:0:0:0:
216,219,65479,6,0,L|140:209,1,71.9999978027344,0|2,0:0|2:0,0:0:0:0:
115,237,65789,1,8,0:0:0:0:
82,260,65893,2,0,L|91:331,1,71.9999978027344,0|8,0:0|0:0,0:0:0:0:
165,357,66306,5,8,1:0:0:0:
186,352,66410,1,8,0:0:0:0:
207,347,66513,1,8,0:0:0:0:
283,325,66720,1,8,1:0:0:0:
293,328,66824,1,8,0:0:0:0:
303,331,66927,1,8,0:0:0:0:
313,334,67031,1,8,0:0:0:0:
323,337,67134,1,8,1:0:0:0:
323,337,67962,6,0,P|322:265|327:189,1,143.999995605469,4|8,3:1|0:0,0:0:0:0:
360,167,68375,2,0,L|453:178,1,47.9999985351563,2|0,0:2|2:0,0:0:0:0:
440,200,68582,2,0,L|486:192,1,47.9999985351563,8|0,0:0|2:0,0:0:0:0:
502,151,68789,6,0,P|478:100|434:70,1,95.9999970703126,2|0,0:2|1:0,0:0:0:0:
384,16,69203,1,2,0:2:0:0:
308,57,69410,1,8,0:0:0:0:
231,15,69617,6,0,P|232:87|227:163,1,143.999995605469,2|8,0:2|0:0,0:0:0:0:
190,136,70031,2,0,B|133:146|162:169|75:184,2,95.9999970703126,2|8|2,0:2|0:0|0:2,0:0:0:0:
191,229,70651,1,0,1:0:0:0:
191,229,70755,1,8,0:0:0:0:
191,229,70858,2,0,L|202:298,1,47.9999985351563,2|0,0:2|1:0,0:0:0:0:
200,319,71065,2,0,L|189:388,1,47.9999985351563,8|0,0:0|1:0,0:0:0:0:
234,378,71272,6,0,P|305:370|377:376,1,143.999995605469,4|8,3:1|0:0,0:0:0:0:
412,350,71686,1,2,0:2:0:0:
493,379,71893,1,8,0:0:0:0:
472,295,72100,6,0,L|492:191,1,95.9999970703126,2|0,0:2|1:0,0:0:0:0:
446,203,72410,1,8,0:0:0:0:
418,170,72513,2,0,L|297:178,1,95.9999970703126,2|8,0:2|0:0,0:0:0:0:
268,244,72927,6,0,B|215:228|243:201|168:176,1,95.9999970703126,2|0,0:2|1:0,0:0:0:0:
150,188,73237,1,8,0:0:0:0:
110,210,73341,2,0,L|121:127,1,47.9999985351563,2|0,0:2|2:0,0:0:0:0:
120,119,73548,2,0,L|109:36,1,47.9999985351563,8|0,0:0|2:0,0:0:0:0:
122,28,73755,6,0,L|244:37,1,95.9999970703126,2|8,0:2|0:0,0:0:0:0:
283,90,74168,1,8,0:0:0:0:
297,88,74272,1,8,0:0:0:0:
311,85,74375,1,8,0:0:0:0:
324,82,74479,1,8,0:0:0:0:
338,80,74582,6,0,B|419:94|386:128|480:155,1,143.999995605469,4|8,3:1|0:0,0:0:0:0:
505,144,74996,2,0,P|497:170|489:206,1,47.9999985351563,2|0,0:2|2:0,0:0:0:0:
464,223,75203,2,0,P|471:249|480:285,1,47.9999985351563,8|0,0:0|2:0,0:0:0:0:
502,304,75410,6,0,B|470:328|470:328|401:296,1,95.9999970703126,2|0,0:2|1:0,0:0:0:0:
341,265,75824,1,2,0:2:0:0:
289,334,76031,1,8,0:0:0:0:
212,294,76237,6,0,B|189:257|189:257|205:195,1,95.9999970703126,2|0,0:2|1:0,0:0:0:0:
240,185,76548,1,8,0:0:0:0:
246,142,76651,2,0,L|356:157,2,95.9999970703126,2|8|2,0:2|0:0|0:2,0:0:0:0:
195,85,77272,1,0,1:0:0:0:
195,85,77375,1,8,0:0:0:0:
195,85,77479,2,0,L|127:95,1,47.9999985351563,2|0,0:2|1:0,0:0:0:0:
106,107,77686,2,0,L|58:100,1,47.9999985351563,8|0,0:0|1:0,0:0:0:0:
15,101,77893,6,0,P|69:132|53:241,1,143.999995605469,4|8,3:1|0:0,0:0:0:0:
37,220,78306,1,2,0:2:0:0:
1,299,78513,1,8,0:0:0:0:
87,292,78720,6,0,B|151:306|108:318|186:351,1,95.9999970703126,2|0,0:2|1:0,0:0:0:0:
209,336,79031,1,8,0:0:0:0:
234,371,79134,2,0,B|262:339|262:339|242:265,1,95.9999970703126,2|8,0:2|0:0,0:0:0:0:
205,211,79548,6,0,L|147:222,3,47.9999985351563,8|8|8|8,0:0|0:0|0:0|0:0,0:0:0:0:
274,159,79962,2,0,L|332:170,3,47.9999985351563,8|8|8|8,0:0|0:0|0:0|0:0,0:0:0:0:
217,90,80375,1,10,1:0:0:0:
375,20,80582,6,0,L|432:9,1,47.9999985351563,8|8,0:1|0:1,0:0:0:0:
449,44,80789,1,8,0:1:0:0:
453,57,80893,1,8,0:1:0:0:
457,70,80996,1,8,0:1:0:0:
461,83,81100,1,8,0:1:0:0:
465,96,81203,2,0,L|453:155,3,47.9999985351563
416,162,81617,6,0,L|431:229,1,47.9999985351563,4|0,3:1|2:0,0:0:0:0:
464,230,81824,2,0,L|449:297,1,47.9999985351563,8|0,0:0|2:0,0:0:0:0:
483,308,82031,2,0,P|439:314|390:359,1,95.9999970703126,2|0,0:2|1:0,0:0:0:0:
319,378,82444,1,2,0:2:0:0:
266,309,82651,1,8,0:0:0:0:
183,334,82858,6,0,B|124:337|152:371|68:379,1,95.9999970703126,2|0,0:2|1:0,0:0:0:0:
55,383,83168,1,8,0:0:0:0:
33,345,83272,2,0,P|24:295|6:237,2,95.9999970703126,2|8|2,0:2|0:0|0:2,0:0:0:0:
107,296,83893,1,0,1:0:0:0:
107,296,83996,1,8,0:0:0:0:
107,296,84100,2,0,L|126:226,1,47.9999985351563,2|0,0:2|1:0,0:0:0:0:
158,231,84306,2,0,L|144:156,1,47.9999985351563,8|0,0:0|1:0,0:0:0:0:
113,159,84513,6,0,B|151:129|151:129|246:161,1,143.999995605469,4|8,3:1|0:0,0:0:0:0:
271,190,84927,1,2,0:2:0:0:
350,155,85134,1,8,0:0:0:0:
410,217,85341,6,0,P|400:263|400:344,1,95.9999970703126,2|0,0:2|1:0,0:0:0:0:
440,305,85651,1,8,0:0:0:0:
480,320,85755,2,0,P|490:274|490:193,1,95.9999970703126,2|8,0:2|0:0,0:0:0:0:
460,144,86168,6,0,L|476:37,1,95.9999970703126,2|0,0:2|1:0,0:0:0:0:
430,48,86479,1,8,0:0:0:0:
396,20,86582,2,0,L|331:31,1,47.9999985351563,2|0,0:2|2:0,0:0:0:0:
309,45,86789,2,0,L|261:36,1,47.9999985351563,8|0,0:0|2:0,0:0:0:0:
222,17,86996,6,0,P|224:65|222:137,1,95.9999970703126,2|8,0:2|0:0,0:0:0:0:
139,136,87410,1,8,0:0:0:0:
125,141,87513,1,8,0:0:0:0:
111,146,87617,1,8,0:0:0:0:
97,151,87720,1,8,0:0:0:0:
83,156,87824,6,0,B|83:248|137:202|137:311,1,143.999995605469,4|8,3:1|0:0,0:0:0:0:
117,324,88237,2,0,L|183:336,1,47.9999985351563,2|0,0:2|2:0,0:0:0:0:
200,357,88444,2,0,L|272:342,1,47.9999985351563,8|0,0:0|2:0,0:0:0:0:
282,322,88651,6,0,L|411:345,1,95.9999970703126,2|0,0:2|1:0,0:0:0:0:
453,378,89065,1,2,0:2:0:0:
493,301,89272,1,8,0:0:0:0:
416,261,89479,6,0,P|418:215|412:131,1,95.9999970703126,2|0,0:2|1:0,0:0:0:0:
403,123,89789,1,8,0:0:0:0:
392,80,89893,2,0,B|438:69|438:69|499:122,2,95.9999970703126,2|8|2,0:2|0:0|0:2,0:0:0:0:
327,135,90513,1,0,1:0:0:0:
327,135,90617,1,8,0:0:0:0:
327,135,90720,2,0,L|265:124,1,47.9999985351563,2|0,0:2|1:0,0:0:0:0:
237,136,90927,2,0,L|189:138,1,47.9999985351563,8|0,0:0|1:0,0:0:0:0:
156,166,91134,6,0,P|160:102|155:9,1,143.999995605469,4|8,3:1|0:0,0:0:0:0:
115,8,91548,1,2,0:2:0:0:
40,51,91755,1,8,0:0:0:0:
83,126,91962,6,0,P|70:171|61:231,1,95.9999970703126,2|0,0:2|1:0,0:0:0:0:
35,253,92272,1,8,0:0:0:0:
9,287,92375,2,0,P|22:332|31:392,1,95.9999970703126,2|8,0:2|0:0,0:0:0:0:
114,362,92789,6,0,B|167:345|137:318|223:303,1,95.9999970703126,2|0,0:2|1:0,0:0:0:0:
231,290,93100,1,8,0:0:0:0:
268,309,93203,2,0,L|256:393,1,47.9999985351563,2|0,0:2|2:0,0:0:0:0:
298,378,93410,2,0,L|345:371,1,47.9999985351563,8|0,0:0|2:0,0:0:0:0:
374,338,93617,6,0,L|473:352,1,95.9999970703126,2|8,0:2|0:0,0:0:0:0:
505,272,94031,1,8,0:0:0:0:
499,258,94134,1,8,0:0:0:0:
493,244,94237,1,8,0:0:0:0:
487,230,94341,1,8,0:0:0:0:
481,216,94444,6,0,B|420:239|420:239|340:168,1,143.999995605469,4|8,3:1|0:0,0:0:0:0:
392,156,94858,1,0,0:0:0:0:
455,96,95065,2,0,L|446:49,1,47.9999985351563,8|0,0:0|2:0,0:0:0:0:
419,14,95272,2,0,P|364:13|342:62,1,95.9999970703126,4|2,0:0|2:3,0:0:0:0:
325,82,95582,1,8,0:0:0:0:
307,121,95686,2,0,B|189:106,1,95.9999970703126,0|8,0:0|0:0,0:0:0:0:
194,23,96100,5,4,0:0:0:0:
107,18,96306,1,2,2:3:0:0:
102,42,96410,1,8,0:0:0:0:
97,67,96513,1,0,0:0:0:0:
53,141,96720,2,0,L|-9:126,2,47.9999985351563,8|2|4,0:0|0:0|0:0,0:0:0:0:
121,194,97134,1,2,2:3:0:0:
117,207,97237,1,8,0:0:0:0:
113,220,97341,2,0,L|120:291,1,47.9999985351563,0|0,0:0|2:0,0:0:0:0:
135,307,97548,2,0,L|129:356,1,47.9999985351563,8|0,0:0|2:0,0:0:0:0:
172,357,97755,6,0,B|222:384|222:384|328:326,1,143.999995605469,4|8,3:1|0:0,0:0:0:0:
330,313,98168,1,0,0:0:0:0:
410,343,98375,1,8,0:0:0:0:
464,275,98582,2,0,L|531:288,2,47.9999985351563,4|0|2,0:0|0:0|2:3,0:0:0:0:
383,242,98996,2,0,L|393:159,1,47.9999985351563,0|0,0:0|2:0,0:0:0:0:
398,151,99203,2,0,L|385:67,1,47.9999985351563,8|0,0:0|2:0,0:0:0:0:
348,95,99410,5,4,0:0:0:0:
285,155,99617,1,2,2:3:0:0:
263,166,99720,1,8,0:0:0:0:
243,152,99824,1,0,0:0:0:0:
219,68,100031,2,0,L|267:56,2,47.9999985351563,8|2|4,0:0|0:0|0:0,0:0:0:0:
155,127,100444,1,8,0:0:0:0:
155,127,100548,1,8,0:0:0:0:
155,127,100651,2,0,L|94:115,3,47.9999985351563,8|8|8|8,0:0|0:0|0:0|0:0,0:0:0:0:
83,81,101065,6,0,P|25:100|35:180,1,143.999995605469,4|8,3:1|0:0,0:0:0:0:
62,198,101479,1,0,0:0:0:0:
146,216,101686,2,0,L|133:279,1,47.9999985351563,8|0,0:0|2:0,0:0:0:0:
104,292,101893,2,0,P|151:300|193:322,1,95.9999970703126,4|2,0:0|2:3,0:0:0:0:
223,353,102203,1,8,0:0:0:0:
265,354,102306,2,0,B|285:318|285:318|259:235,1,95.9999970703126,0|8,0:0|0:0,0:0:0:0:
311,191,102720,5,4,0:0:0:0:
242,137,102927,1,2,2:3:0:0:
249,113,103031,1,8,0:0:0:0:
256,90,103134,1,0,0:0:0:0:
215,13,103341,2,0,L|152:22,2,47.9999985351563,8|2|4,0:0|0:0|0:0,0:0:0:0:
301,18,103755,1,2,2:3:0:0:
314,23,103858,1,8,0:0:0:0:
327,28,103962,2,0,L|385:17,1,47.9999985351563,0|0,0:0|2:0,0:0:0:0:
415,32,104168,2,0,L|487:45,1,47.9999985351563,8|0,0:0|2:0,0:0:0:0:
493,9,104375,6,0,B|520:53|520:53|484:160,1,143.999995605469,4|8,3:1|0:0,0:0:0:0:
495,183,104789,1,0,0:0:0:0:
414,151,104996,1,8,0:0:0:0:
366,223,105203,2,0,L|378:294,2,47.9999985351563,4|0|2,0:0|0:0|2:3,0:0:0:0:
282,197,105617,2,0,P|251:193|202:202,1,47.9999985351563,0|0,0:0|2:0,0:0:0:0:
193,177,105824,2,0,P|168:178|145:176,1,47.9999985351563,8|0,0:0|2:0,0:0:0:0:
104,192,106031,5,4,0:0:0:0:
24,159,106237,1,2,2:3:0:0:
20,183,106341,1,8,0:0:0:0:
16,206,106444,1,0,0:0:0:0:
69,273,106651,2,0,L|78:337,2,47.9999985351563,8|2|4,0:0|0:0|0:0,0:0:0:0:
154,286,107065,5,0,1:0:0:0:
176,294,107168,1,0,1:0:0:0:
198,302,107272,1,0,1:0:0:0:
269,351,107479,1,0,1:0:0:0:
323,291,107686,6,0,L|490:310,1,143.999995605469,4|4,3:1|0:0,0:0:0:0:
501,238,108306,1,0,2:0:0:0:
501,238,108513,2,0,L|487:139,1,71.9999978027344,2|0,0:2|2:0,0:0:0:0:
414,145,108927,2,0,L|431:46,1,71.9999978027344,4|2,0:0|2:0,0:0:0:0:
369,18,109341,5,2,0:2:0:0:
296,50,109548,1,2,2:0:0:0:
229,7,109755,2,0,L|125:23,1,71.9999978027344,4|2,0:0|2:0,0:0:0:0:
78,14,110168,1,2,0:2:0:0:
41,86,110375,1,0,1:0:0:0:
41,86,110479,1,0,1:0:0:0:
41,86,110582,2,0,L|52:137,3,35.9999989013672,4|0|0|0,1:3|1:0|1:0|1:0,0:0:0:0:
87,128,110996,6,0,P|141:133|165:220,1,143.999995605469,0|4,0:0|0:0,0:0:0:0:
93,234,111617,1,0,2:0:0:0:
93,234,111824,2,0,L|108:311,1,71.9999978027344,2|2,0:2|2:0,0:0:0:0:
169,352,112237,2,0,L|246:337,1,71.9999978027344,4|2,0:0|2:0,0:0:0:0:
305,294,112651,5,2,0:2:0:0:
361,349,112858,1,2,2:0:0:0:
437,328,113065,2,0,L|448:247,1,71.9999978027344,4|2,0:0|2:0,0:0:0:0:
404,189,113479,1,2,0:2:0:0:
478,153,113686,1,0,1:0:0:0:
478,153,113789,1,0,1:0:0:0:
478,153,113893,2,0,L|530:167,4,35.9999989013672,4|8|8|0|4,1:3|0:0|0:0|1:0|1:0,0:0:0:0:
371,35,114720,5,4,0:0:0:0:
294,12,114927,1,2,2:0:0:0:
237,67,115134,2,0,P|243:119|240:193,1,107.999996704102,2|0,0:2|2:0,0:0:0:0:
262,208,115548,2,0,P|297:201|341:205,1,71.9999978027344,4|0,0:0|2:0,0:0:0:0:
368,274,115962,6,0,P|362:310|361:360,1,71.9999978027344,2|2,0:2|2:0,0:0:0:0:
284,322,116375,1,4,0:0:0:0:
219,368,116582,1,0,2:0:0:0:
146,336,116789,1,2,0:2:0:0:
25,233,117203,6,0,P|79:227|155:234,1,107.999996704102,4|2,0:0|2:0,0:0:0:0:
161,203,117617,2,0,P|151:173|146:123,1,71.9999978027344,2|2,0:2|2:0,0:0:0:0:
204,78,118031,2,0,P|239:86|272:100,1,71.9999978027344,4|2,0:0|2:0,0:0:0:0:
285,182,118444,1,2,0:2:0:0:
285,182,118651,2,0,P|260:208|231:229,2,71.9999978027344,0|4|2,0:0|0:0|2:0,0:0:0:0:
349,228,119272,6,0,L|356:287,3,35.9999989013672,8|8|8|8,0:0|0:0|0:0|0:0,0:0:0:0:
432,268,119686,2,0,L|425:327,3,35.9999989013672,8|8|8|8,0:0|0:0|0:0|0:0,0:0:0:0:
506,290,120100,1,8,0:0:0:0:
368,368,120513,5,8,0:0:0:0:
357,367,120617,1,8,0:0:0:0:
346,366,120720,1,8,0:0:0:0:
335,365,120824,1,8,0:0:0:0:
324,364,120927,6,0,L|205:383,2,95.9999970703126,4|8|2,3:1|0:0|0:2,0:0:0:0:
336,277,121548,1,8,0:0:0:0:
408,323,121755,2,0,L|527:342,2,95.9999970703126,2|8|2,0:2|0:0|0:2,0:0:0:0:
336,277,122375,1,8,0:0:0:0:
259,317,122582,5,2,0:2:0:0:
256,302,122686,1,0,0:0:0:0:
254,288,122789,1,8,0:0:0:0:
251,273,122893,1,0,0:0:0:0:
249,259,122996,1,2,0:2:0:0:
278,177,123203,1,8,0:0:0:0:
269,90,123410,6,0,B|191:87|221:138|119:139,1,143.999995605469,2|0,0:2|2:0,0:0:0:0:
106,107,123824,1,2,0:2:0:0:
37,159,124031,1,8,0:0:0:0:
73,236,124237,6,0,L|51:354,2,95.9999970703126,4|8|2,3:1|0:0|0:2,0:0:0:0:
150,274,124857,1,8,0:0:0:0:
235,259,125065,2,0,L|213:141,2,95.9999970703126,2|8|2,0:2|0:0|0:2,0:0:0:0:
298,318,125685,1,8,0:0:0:0:
369,367,125893,6,0,B|410:344|410:344|431:281,1,95.9999970703126,2|8,0:2|0:0,0:0:0:0:
422,212,126306,2,0,L|315:222,1,95.9999970703126,2|8,0:2|0:0,0:0:0:0:
241,238,126720,2,0,L|251:131,1,95.9999970703126,2|8,0:2|0:0,0:0:0:0:
282,61,127134,1,2,0:2:0:0:
209,14,127341,1,8,0:0:0:0:
142,68,127548,6,0,L|24:46,2,95.9999970703126,4|8|2,3:1|0:0|0:2,0:0:0:0:
106,147,128168,1,8,0:0:0:0:
163,211,128375,2,0,L|281:189,2,95.9999970703126,2|8|2,0:2|0:0|0:2,0:0:0:0:
106,147,128996,1,8,0:0:0:0:
31,191,129203,5,2,0:2:0:0:
90,253,129410,1,8,0:0:0:0:
31,315,129617,1,2,0:2:0:0:
90,377,129824,1,8,0:0:0:0:
167,339,130031,6,0,L|271:356,1,95.9999970703126,2|8,0:2|0:0,0:0:0:0:
342,323,130444,1,8,0:0:0:0:
340,300,130548,1,8,0:0:0:0:
338,277,130651,1,8,0:0:0:0:
336,253,130755,1,8,0:0:0:0:
334,230,130858,6,0,L|485:246,1,143.999995605469,4|0,3:1|0:0,0:0:0:0:
497,170,131479,1,2,2:3:0:0:
497,170,131686,2,0,P|479:101|389:98,1,143.999995605469,2|0,0:2|0:0,0:0:0:0:
348,126,132306,1,2,2:3:0:0:
275,93,132513,5,4,3:1:0:0:
256,192,132617,12,2,134168,2:3:0:0:
348,126,135824,6,0,P|267:109|192:145,1,167.999994873047,4|0,1:0|2:0,0:0:0:0:
204,222,136651,2,0,P|284:238|359:202,1,167.999994873047,4|0,1:0|2:0,0:0:0:0:
437,212,137479,2,0,L|421:27,1,167.999994873047,4|0,1:0|2:0,0:0:0:0:
351,12,138306,6,0,L|292:22,1,55.9999982910157,4|0,0:0|2:0,0:0:0:0:
221,48,138720,2,0,L|165:38,1,55.9999982910157,4|0,0:0|2:0,0:0:0:0:
107,91,139134,6,0,B|189:72|189:72|255:124,1,167.999994873047,4|0,1:0|2:0,0:0:0:0:
242,200,139962,2,0,B|158:219|158:219|93:168,1,167.999994873047,4|0,1:0|2:0,0:0:0:0:
24,205,140789,2,0,P|52:287|61:380,1,167.999994873047,4|0,1:0|2:0,0:0:0:0:
136,343,141617,5,4,0:0:0:0:
211,384,141824,1,0,1:0:0:0:
211,384,141927,1,0,1:0:0:0:
211,384,142031,2,0,L|248:374,3,27.9999991455078,0|0|0|0,0:0|1:0|1:0|1:0,0:0:0:0:
272,359,142444,6,0,L|268:286,1,55.9999982910157,4|0,3:1|2:0,0:0:0:0:
335,260,142858,1,2,0:2:0:0:
398,305,143065,1,2,2:0:0:0:
467,269,143272,2,0,L|474:155,1,111.999996582031,4|2,0:0|0:2,0:0:0:0:
352,56,144100,6,0,B|285:64|313:99|233:103,2,111.999996582031,2|2|4,0:2|0:2|0:0,0:0:0:0:
363,141,145134,1,0,1:0:0:0:
363,141,145237,1,0,1:0:0:0:
363,141,145341,2,0,L|358:177,3,27.9999991455078,4|0|0|0,0:0|1:0|1:0|1:0,0:0:0:0:
324,187,145755,6,0,L|334:256,1,55.9999982910157,4|0,3:1|2:0,0:0:0:0:
267,286,146168,1,2,0:2:0:0:
194,256,146375,1,2,2:0:0:0:
149,320,146582,2,0,B|117:350|117:350|32:326,1,111.999996582031,4|2,0:0|0:2,0:0:0:0:
4,268,147203,1,2,2:0:0:0:
67,221,147410,6,0,L|79:262,3,27.9999991455078,8|8|8|8,0:0|0:0|0:0|0:0,0:0:0:0:
137,199,147824,2,0,L|144:172,3,27.9999991455078,8|8|8|8,0:0|0:0|0:0|0:0,0:0:0:0:
73,140,148237,1,10,1:0:0:0:
187,10,148444,6,0,L|179:63,1,47.9999985351563,8|8,0:1|0:1,0:0:0:0:
201,95,148651,1,8,0:1:0:0:
214,99,148755,1,8,0:1:0:0:
227,103,148858,1,8,0:1:0:0:
240,107,148962,1,8,0:1:0:0:
253,111,149065,2,0,L|245:178,3,47.9999985351563
286,140,149479,6,0,L|366:131,1,47.9999985351563,4|0,3:1|2:0,0:0:0:0:
370,112,149686,2,0,L|417:117,1,47.9999985351563,8|0,0:0|2:0,0:0:0:0:
443,82,149893,2,0,B|461:116|461:116|433:211,1,95.9999970703126,2|0,0:2|1:0,0:0:0:0:
364,203,150306,1,2,0:2:0:0:
429,259,150513,1,8,0:0:0:0:
348,290,150720,6,0,P|306:309|305:371,1,95.9999970703126,2|0,0:2|1:0,0:0:0:0:
260,329,151031,1,8,0:0:0:0:
218,340,151134,2,0,L|120:351,2,95.9999970703126,2|8|2,0:2|0:0|0:2,0:0:0:0:
211,261,151755,1,0,1:0:0:0:
211,261,151858,1,8,0:0:0:0:
211,261,151962,2,0,L|222:195,1,47.9999985351563,2|0,0:2|1:0,0:0:0:0:
244,178,152168,2,0,L|233:112,1,47.9999985351563,8|0,0:0|1:0,0:0:0:0:
250,89,152375,6,0,P|178:95|98:88,1,143.999995605469,4|8,3:1|0:0,0:0:0:0:
69,67,152789,1,2,0:2:0:0:
8,128,152996,1,8,0:0:0:0:
59,197,153203,6,0,P|67:243|71:305,1,95.9999970703126,2|0,0:2|1:0,0:0:0:0:
111,306,153513,1,8,0:0:0:0:
142,336,153617,2,0,P|181:312|238:287,1,95.9999970703126,2|8,0:2|0:0,0:0:0:0:
289,352,154031,6,0,B|323:372|323:372|400:330,1,95.9999970703126,2|0,0:2|1:0,0:0:0:0:
411,363,154341,1,8,0:0:0:0:
449,382,154444,2,0,L|457:334,1,47.9999985351563,2|0,0:2|2:0,0:0:0:0:
493,311,154651,2,0,L|481:264,1,47.9999985351563,8|0,0:0|2:0,0:0:0:0:
440,248,154858,6,0,L|458:129,1,95.9999970703126,2|8,0:2|0:0,0:0:0:0:
396,88,155272,1,8,0:0:0:0:
381,86,155375,1,8,0:0:0:0:
366,84,155479,1,8,0:0:0:0:
351,82,155582,1,8,0:0:0:0:
336,80,155686,6,0,B|254:94|295:145|179:152,1,143.999995605469,4|8,3:1|0:0,0:0:0:0:
169,147,156100,2,0,L|183:226,1,47.9999985351563,2|0,0:2|2:0,0:0:0:0:
202,229,156306,2,0,L|188:308,1,47.9999985351563,8|0,0:0|2:0,0:0:0:0:
210,316,156513,6,0,B|160:307|160:307|113:358,1,95.9999970703126,2|0,0:2|1:0,0:0:0:0:
51,379,156927,1,2,0:2:0:0:
12,301,157134,1,8,0:0:0:0:
90,262,157341,6,0,P|81:196|61:114,1,143.999995605469,2|8,0:2|0:0,0:0:0:0:
82,81,157755,2,0,B|36:70|36:70|-25:123,2,95.9999970703126,2|8|2,0:2|0:0|0:2,0:0:0:0:
156,143,158375,1,0,1:0:0:0:
156,143,158479,1,8,0:0:0:0:
156,143,158582,2,0,L|204:134,1,47.9999985351563,2|0,0:2|1:0,0:0:0:0:
239,110,158789,2,0,L|287:119,1,47.9999985351563,8|0,0:0|1:0,0:0:0:0:
306,157,158996,6,0,B|388:145|358:193|466:204,1,143.999995605469,4|8,3:1|0:0,0:0:0:0:
477,179,159410,1,2,0:2:0:0:
509,258,159617,1,8,0:0:0:0:
436,304,159824,6,0,L|318:288,1,95.9999970703126,2|0,0:2|1:0,0:0:0:0:
309,320,160134,1,8,0:0:0:0:
277,349,160237,2,0,L|181:361,1,95.9999970703126,2|8,0:2|0:0,0:0:0:0:
97,380,160651,6,0,B|64:341|64:341|95:240,1,143.999995605469,2|8,0:2|0:0,0:0:0:0:
134,249,161065,2,0,L|121:169,1,47.9999985351563,2|0,0:2|2:0,0:0:0:0:
102,165,161272,2,0,L|115:85,1,47.9999985351563,8|0,0:0|2:0,0:0:0:0:
118,75,161479,1,2,0:2:0:0:
280,14,161893,5,8,0:0:0:0:
303,17,161996,1,8,0:0:0:0:
326,20,162100,1,8,0:0:0:0:
349,23,162203,1,8,0:0:0:0:
372,26,162306,6,0,P|288:51|307:164,1,180.000006866455,4|8,3:1|0:0,0:0:0:0:
321,128,162720,2,0,L|393:139,1,60.0000022888184,2|0,0:2|2:0,0:0:0:0:
408,168,162927,2,0,L|467:158,1,60.0000022888184,8|0,0:0|2:0,0:0:0:0:
509,152,163134,6,0,P|498:215|492:289,1,120.000004577637,2|0,0:2|1:0,0:0:0:0:
456,346,163548,1,2,0:2:0:0:
380,308,163755,1,8,0:0:0:0:
322,369,163962,1,2,0:2:0:0:
256,317,164168,5,0,1:0:0:0:
238,321,164272,1,8,0:0:0:0:
220,325,164375,1,2,0:2:0:0:
143,360,164582,2,0,L|77:349,2,60.0000022888184,8|0|2,0:0|0:0|0:2,0:0:0:0:
151,276,164996,1,0,1:0:0:0:
159,247,165100,1,8,0:0:0:0:
167,218,165203,1,2,0:2:0:0:
145,136,165410,1,8,0:0:0:0:
174,57,165617,6,0,L|295:70,1,120.000004577637,4|0,3:1|1:0,0:0:0:0:
333,58,165927,1,8,0:0:0:0:
360,89,166031,2,0,L|479:76,2,120.000004577637,2|8|2,0:2|0:0|0:2,0:0:0:0:
326,166,166651,5,0,1:0:0:0:
246,139,166858,1,2,0:2:0:0:
193,204,167065,1,8,0:0:0:0:
111,184,167272,6,0,P|40:207|66:315,1,180.000006866455,2|8,0:2|0:0,0:0:0:0:
85,296,167686,2,0,L|148:289,1,60.0000022888184,2|0,0:2|2:0,0:0:0:0:
180,311,167893,2,0,L|259:324,1,60.0000022888184,8|0,0:0|2:0,0:0:0:0:
276,301,168100,5,2,0:2:0:0:
343,350,168306,1,8,0:0:0:0:
415,308,168513,1,8,0:0:0:0:
432,305,168617,1,8,0:0:0:0:
449,302,168720,1,8,0:0:0:0:
466,299,168824,1,8,0:0:0:0:
483,296,168927,6,0,P|483:204|473:78,1,180.000006866455,4|8,3:1|0:0,0:0:0:0:
461,77,169341,2,0,L|390:89,1,60.0000022888184,2|0,0:2|2:0,0:0:0:0:
366,109,169548,2,0,L|306:99,1,60.0000022888184,8|0,0:0|2:0,0:0:0:0:
280,131,169755,6,0,P|278:77|287:2,1,120.000004577637,2|0,0:2|1:0,0:0:0:0:
207,43,170168,1,2,0:2:0:0:
131,5,170375,1,8,0:0:0:0:
65,57,170582,1,2,0:2:0:0:
140,94,170789,5,0,1:0:0:0:
143,111,170893,1,8,0:0:0:0:
146,128,170996,1,2,0:2:0:0:
108,203,171203,2,0,L|37:193,2,60.0000022888184,8|0|2,0:0|0:0|0:2,0:0:0:0:
192,202,171617,1,0,1:0:0:0:
186,231,171720,1,8,0:0:0:0:
180,260,171824,1,2,0:2:0:0:
161,341,172031,1,8,0:0:0:0:
243,325,172237,6,0,P|303:322|383:334,1,120.000004577637,4|0,3:1|1:0,0:0:0:0:
400,310,172548,1,8,0:0:0:0:
392,268,172651,2,0,P|451:260|511:263,2,120.000004577637,2|8|2,0:2|0:0|0:2,0:0:0:0:
319,224,173272,5,0,1:0:0:0:
245,265,173479,1,2,0:2:0:0:
186,204,173686,1,8,0:0:0:0:
102,192,173893,6,0,L|110:255,3,60.0000022888184,8|8|8|8,0:0|0:0|0:0|0:0,0:0:0:0:
27,234,174306,2,0,L|19:297,3,60.0000022888184,8|8|8|8,0:0|0:0|0:0|0:0,0:0:0:0:
91,337,174720,1,10,1:0:0:0:
257,362,174927,6,0,L|242:277,1,60.0000022888184,8|8,0:1|0:1,0:0:0:0:
259,264,175134,1,8,0:1:0:0:
261,246,175237,1,8,0:1:0:0:
263,228,175341,1,8,0:1:0:0:
265,210,175444,1,8,0:1:0:0:
267,192,175548,2,0,L|204:179,3,60.0000022888184,0|0|0|0,1:0|1:0|1:0|1:0,0:0:0:0:
178,205,175962,5,4,3:1:0:0:
108,237,176168,1,8,0:0:0:0:
40,199,176375,2,0,P|39:152|32:103,1,95.9999970703126,2|2,0:2|2:3,0:0:0:0:
81,43,176789,5,2,0:2:0:0:
155,25,176996,1,8,0:0:0:0:
215,72,177203,2,0,P|260:62|325:56,1,95.9999970703126,2|2,0:2|2:3,0:0:0:0:
377,22,177617,5,2,0:2:0:0:
446,55,177824,1,8,0:0:0:0:
435,131,178031,2,0,P|438:178|437:234,1,95.9999970703126,2|2,0:2|2:3,0:0:0:0:
360,224,178444,5,2,1:0:0:0:
293,185,178651,1,2,1:0:0:0:
223,218,178858,1,2,1:0:0:0:
114,326,179272,5,2,1:0:0:0:
184,359,179479,1,2,1:0:0:0:
251,320,179686,1,2,1:0:0:0:
404,329,180100,5,2,1:0:0:0:
474,299,180306,1,2,1:0:0:0:
414,254,180513,1,2,1:0:0:0:
348,286,180720,1,2,1:0:0:0:
348,286,180824,1,2,1:0:0:0:
348,286,180927,1,2,1:0:0:0:
281,247,181134,1,2,1:0:0:0:
225,299,181341,2,0,L|117:284,1,95.9999970703126,2|8,1:0|0:0,0:0:0:0:
61,321,181755,5,8,0:0:0:0:
54,308,181858,1,8,0:0:0:0:
47,295,181962,1,8,0:0:0:0:
40,282,182065,1,8,0:0:0:0:
33,269,182168,6,0,L|54:150,1,95.9999970703126,2|2,0:2|2:3,0:0:0:0:
114,132,182582,1,2,0:2:0:0:
173,180,182789,1,8,0:0:0:0:
241,145,182996,6,0,L|232:17,1,95.9999970703126,2|2,0:2|2:3,0:0:0:0:
304,17,183410,1,2,0:2:0:0:
372,52,183617,1,8,0:0:0:0:
447,35,183824,6,0,L|453:130,1,95.9999970703126,0|2,0:0|2:3,0:0:0:0:
382,158,184237,1,2,0:2:0:0:
436,226,184444,1,8,0:0:0:0:
436,226,184548,1,2,2:0:0:0:
436,226,184651,2,0,L|423:324,1,95.9999970703126,2|2,0:2|2:3,0:0:0:0:
355,357,185065,5,2,1:0:0:0:
286,321,185272,1,2,1:0:0:0:
225,368,185479,1,2,1:0:0:0:
74,335,185893,5,2,1:0:0:0:
60,259,186100,1,2,1:0:0:0:
46,183,186306,1,2,1:0:0:0:
123,50,186720,5,2,1:0:0:0:
190,12,186927,1,2,1:0:0:0:
235,73,187134,6,0,L|225:183,1,95.9999970703126,2|2,1:0|2:3,0:0:0:0:
302,157,187548,2,0,L|402:148,1,95.9999970703126,2|8,1:0|0:0,0:0:0:0:
472,130,187962,2,0,L|482:240,1,95.9999970703126,2|8,1:0|0:0,0:0:0:0:
480,302,188375,5,8,0:1:0:0:
456,305,188479,1,8,0:1:0:0:
432,308,188582,1,8,0:1:0:0:
408,311,188686,1,8,0:1:0:0:
384,314,188789,6,0,B|298:316|333:365|233:367,1,143.999995605469,4|8,3:1|0:0,0:0:0:0:
196,326,189410,1,0,1:0:0:0:
196,326,189513,1,0,1:0:0:0:
196,326,189617,2,0,L|205:234,1,71.9999978027344,0|0,0:0|1:0,0:0:0:0:
201,174,190031,2,0,L|192:82,1,71.9999978027344,8|0,0:0|1:0,0:0:0:0:
228,31,190444,6,0,P|300:26|319:109,1,143.999995605469,0|8,0:0|0:0,0:0:0:0:
318,168,191065,1,0,1:0:0:0:
318,168,191168,1,0,1:0:0:0:
318,168,191272,2,0,L|472:160,1,143.999995605469,0|8,0:0|0:0,0:0:0:0:
478,238,191893,1,0,1:0:0:0:
475,255,191996,1,0,1:0:0:0:
472,272,192100,6,0,B|385:271|425:322|325:322,1,143.999995605469,4|8,3:1|0:0,0:0:0:0:
278,272,192720,1,0,1:0:0:0:
278,272,192824,1,0,1:0:0:0:
278,272,192927,1,0,0:0:0:0:
213,317,193134,1,0,1:0:0:0:
145,275,193341,1,8,0:0:0:0:
92,333,193548,1,0,1:0:0:0:
92,333,193651,1,0,1:0:0:0:
92,333,193755,6,0,L|-10:322,1,71.9999978027344,0|0,0:0|1:0,0:0:0:0:
18,246,194168,2,0,L|39:159,1,71.9999978027344,8|0,0:0|1:0,0:0:0:0:
112,159,194582,2,0,L|95:71,1,71.9999978027344
150,27,194996,5,8,0:0:0:0:
167,29,195100,1,8,0:0:0:0:
185,30,195203,1,8,0:0:0:0:
202,32,195306,1,8,0:0:0:0:
219,33,195410,6,0,P|211:92|209:186,1,120.000004577637,4|2,3:1|2:3,0:0:0:0:
247,227,195824,1,0,0:0:0:0:
170,226,196031,1,8,0:0:0:0:
170,226,196134,1,0,1:0:0:0:
170,226,196237,2,0,P|177:285|180:379,1,120.000004577637,0|2,0:0|2:3,0:0:0:0:
259,315,196651,1,0,0:0:0:0:
316,376,196858,1,8,0:0:0:0:
384,327,197065,5,0,0:0:0:0:
402,329,197168,1,0,1:0:0:0:
420,332,197272,1,2,2:3:0:0:
437,334,197375,1,8,0:0:0:0:
455,337,197479,6,0,P|461:279|474:209,1,120.000004577637,0|8,0:0|0:0,0:0:0:0:
409,161,197893,2,0,L|400:75,2,60.0000022888184,0|0|2,0:0|1:0|2:3,0:0:0:0:
339,208,198306,1,0,0:0:0:0:
339,208,198410,1,0,1:0:0:0:
339,208,198513,1,8,0:0:0:0:
277,264,198720,6,0,L|130:246,1,120.000004577637,4|2,3:1|2:3,0:0:0:0:
85,293,199134,1,0,0:0:0:0:
37,223,199341,1,8,0:0:0:0:
106,175,199548,2,0,L|137:28,1,120.000004577637,0|2,0:0|2:3,0:0:0:0:
203,15,199962,5,0,0:0:0:0:
220,19,200065,1,0,1:0:0:0:
237,23,200168,1,8,0:0:0:0:
254,27,200272,1,0,1:0:0:0:
271,31,200375,6,0,L|256:102,3,60.0000022888184,8|8|8|8,1:0|1:0|1:0|1:0,0:0:0:0:
342,86,200789,2,0,L|357:157,3,60.0000022888184,8|8|8|8,1:0|1:0|1:0|1:0,0:0:0:0:
274,172,201203,1,4,3:1:0:0:
274,172,203260,6,0,L|281:279,2,80,0|0|2,0:0|0:0|0:0,0:0:0:0:
199,200,204294,1,0,0:0:0:0:
143,142,204639,2,0,L|64:169,1,80
37,241,205328,2,0,L|62:316,1,80,2|0,0:0|0:0,0:0:0:0:
140,295,206018,5,0,0:0:0:0:
180,364,206363,1,0,0:0:0:0:
253,331,206708,1,2,0:0:0:0:
324,367,207053,2,0,L|377:380,2,40,0|0|2,0:0|0:0|0:0,0:0:0:0:
253,331,207742,5,0,0:0:0:0:
260,251,208087,2,0,L|251:165,1,80,2|0,0:0|0:0,0:0:0:0:
252,91,208777,6,0,L|136:73,2,80,0|0|2,0:0|0:0|0:0,0:0:0:0:
312,38,209811,1,0,0:0:0:0:
383,73,210156,2,0,L|471:63,1,80
501,134,210846,2,0,L|465:215,1,80,2|0,0:0|0:0,0:0:0:0:
391,187,211535,5,0,0:0:0:0:
335,244,211880,1,0,0:0:0:0:
409,273,212225,1,2,0:0:0:0:
406,353,212570,2,0,L|469:365,2,40,0|0|2,0:0|0:0|0:0,0:0:0:0:
329,378,213260,5,0,0:0:0:0:
268,326,213604,2,0,L|170:343,1,80,2|0,0:0|0:0,0:0:0:0:
114,369,214294,6,0,L|35:355,2,80,0|0|2,0:0|0:0|0:0,0:0:0:0:
130,290,215328,1,0,0:0:0:0:
190,237,215673,2,0,L|178:138,1,80
109,120,216363,2,0,L|121:21,1,80,2|0,0:0|0:0,0:0:0:0:
190,5,217054,5,0,0:0:0:0:
256,49,217397,1,0,0:0:0:0:
327,13,217742,1,2,0:0:0:0:
393,57,218087,2,0,L|441:47,2,40,0|0|2,0:0|0:0|0:0,0:0:0:0:
335,112,218777,5,0,0:0:0:0:
298,183,219122,2,0,L|201:166,1,80,2|0,0:0|0:0,0:0:0:0:
154,215,219811,6,0,L|165:307,2,80,0|0|2,0:0|0:0|0:0,0:0:0:0:
295,289,221191,6,0,L|273:374,2,80,0|0|2,0:0|0:0|0:0,0:0:0:0:
