osu file format v14

[General]
AudioFilename: audio.mp3
AudioLeadIn: 0
PreviewTime: 67444
Countdown: 0
SampleSet: Drum
StackLeniency: 0.4
Mode: 0
LetterboxInBreaks: 0
WidescreenStoryboard: 1

[Editor]
Bookmarks: 28221,54704,81187,107670,135808,162290,188773,221864
DistanceSpacing: 3
BeatDivisor: 4
GridSize: 32
TimelineZoom: 1.900001

[Metadata]
Title:Dareka no Shinzou ni Nareta Nara
TitleUnicode:だれかの心臓になれたなら
Artist:umu.
ArtistUnicode:ゆーむ
Creator:xbopost
Version:Collab Insane
Source:
Tags:Cappu Senseabel Tommy Phelps japanese vocaloid novelty cover utaite 歌い手 gumi ボーカロイド ボカロ yurry canon ユリイ・カノン kardia
BeatmapID:2321761
BeatmapSetID:1098181

[Difficulty]
HPDrainRate:6
CircleSize:4
OverallDifficulty:7.8
ApproachRate:8.3
SliderMultiplier:1.8
SliderTickRate:1

[Events]
//Background and Video events
0,0,"dca18291-7397-4cf0-9bb5-f666481a636f.jpg",0,0
//Break Periods
//Storyboard Layer 0 (Background)
//Storyboard Layer 1 (Fail)
//Storyboard Layer 2 (Pass)
//Storyboard Layer 3 (Foreground)
//Storyboard Layer 4 (Overlay)
//Storyboard Sound Samples

[TimingPoints]
100,413.793103448276,4,3,1,50,1,0
1755,-166.666666666667,4,3,1,50,0,0
8375,-166.666666666667,4,3,1,55,0,0
14168,-166.666666666667,4,3,1,60,0,0
14996,-76.9230769230769,4,3,1,70,0,1
15203,-76.9230769230769,4,3,88,70,0,1
15306,-76.9230769230769,4,3,1,70,0,1
16031,-76.9230769230769,4,3,88,70,0,1
16134,-76.9230769230769,4,3,1,70,0,1
16858,-76.9230769230769,4,3,88,70,0,1
16962,-76.9230769230769,4,3,1,70,0,1
17686,-76.9230769230769,4,3,88,70,0,1
17789,-76.9230769230769,4,3,1,70,0,1
18513,-76.9230769230769,4,3,88,70,0,1
18617,-76.9230769230769,4,3,1,70,0,1
19341,-76.9230769230769,4,3,88,70,0,1
19444,-76.9230769230769,4,3,1,70,0,1
20168,-76.9230769230769,4,3,88,70,0,1
20272,-76.9230769230769,4,3,1,70,0,1
21824,-76.9230769230769,4,3,88,70,0,1
21927,-76.9230769230769,4,3,1,70,0,1
22651,-76.9230769230769,4,3,88,70,0,1
22755,-76.9230769230769,4,3,1,70,0,1
23479,-76.9230769230769,4,3,88,70,0,1
23582,-76.9230769230769,4,3,1,70,0,1
24306,-76.9230769230769,4,3,88,70,0,1
24410,-76.9230769230769,4,3,1,70,0,1
25134,-76.9230769230769,4,3,88,70,0,1
25237,-76.9230769230769,4,3,1,70,0,1
25962,-76.9230769230769,4,3,88,70,0,1
26065,-76.9230769230769,4,3,1,70,0,1
26789,-76.9230769230769,4,3,88,70,0,1
26893,-76.9230769230769,4,3,1,70,0,1
28237,-100,4,3,1,45,0,0
31134,-125,4,3,1,45,0,0
31341,-166.666666666667,4,3,1,45,0,0
31548,-100,4,3,1,45,0,0
34444,-125,4,3,1,45,0,0
34651,-166.666666666667,4,3,1,45,0,0
34858,-100,4,3,1,45,0,0
42100,-100,4,3,88,45,0,0
42203,-100,4,3,1,45,0,0
42513,-100,4,3,88,45,0,0
42617,-100,4,3,1,45,0,0
42927,-100,4,3,88,45,0,0
43031,-100,4,3,1,45,0,0
43341,-100,4,3,88,45,0,0
43444,-100,4,3,1,45,0,0
43755,-100,4,3,88,45,0,0
43858,-100,4,3,1,45,0,0
44168,-100,4,3,88,45,0,0
44272,-100,4,3,1,45,0,0
44375,-125,4,3,1,45,0,0
44582,-166.666666666667,4,3,88,45,0,0
44686,-166.666666666667,4,3,1,45,0,0
44789,-100,4,3,1,45,0,0
44996,-100,4,3,88,45,0,0
45100,-100,4,3,1,45,0,0
45410,-100,4,3,88,45,0,0
45513,-100,4,3,1,45,0,0
45824,-100,4,3,88,45,0,0
45927,-100,4,3,1,45,0,0
46237,-100,4,3,88,45,0,0
46341,-100,4,3,1,45,0,0
46651,-100,4,3,88,45,0,0
46755,-100,4,3,1,45,0,0
47065,-100,4,3,88,45,0,0
47168,-100,4,3,1,45,0,0
47479,-100,4,3,88,45,0,0
47582,-100,4,3,1,45,0,0
47686,-125,4,3,1,45,0,0
47893,-166.666666666667,4,3,1,45,0,0
48100,-100,4,3,1,45,0,0
51617,-100,4,3,88,45,0,0
51720,-100,4,3,1,45,0,0
52031,-100,4,3,88,45,0,0
52134,-100,4,3,1,45,0,0
52444,-100,4,3,88,45,0,0
52548,-100,4,3,1,45,0,0
52858,-100,4,3,88,45,0,0
52962,-100,4,3,1,45,0,0
54720,-71.4285714285714,4,3,1,50,0,0
56375,-100,4,3,1,50,0,0
56582,-100,4,3,88,50,0,0
56686,-100,4,3,1,50,0,0
56996,-100,4,3,88,50,0,0
57100,-100,4,3,1,50,0,0
57410,-100,4,3,88,50,0,0
57513,-100,4,3,1,50,0,0
57824,-100,4,3,88,50,0,0
57927,-100,4,3,1,50,0,0
58031,-71.4285714285714,4,3,1,50,0,0
59686,-100,4,3,1,50,0,0
59893,-100,4,3,88,50,0,0
59996,-100,4,3,1,50,0,0
60306,-100,4,3,88,50,0,0
60410,-100,4,3,1,50,0,0
60720,-100,4,3,88,50,0,0
60824,-100,4,3,1,50,0,0
61134,-100,4,3,88,50,0,0
61237,-100,4,3,1,50,0,0
61341,-71.4285714285714,4,3,1,50,0,0
62996,-100,4,3,1,50,0,0
63203,-100,4,3,88,50,0,0
63306,-100,4,3,1,50,0,0
63617,-100,4,3,88,50,0,0
63720,-100,4,3,1,50,0,0
64237,-100,4,3,1,60,0,0
67548,-100,4,3,1,50,0,0
67962,-66.6666666666667,4,3,1,70,0,0
94444,-76.9230769230769,4,3,1,70,0,1
94651,-76.9230769230769,4,3,88,70,0,1
94754,-76.9230769230769,4,3,1,70,0,1
95479,-76.9230769230769,4,3,88,70,0,1
95582,-76.9230769230769,4,3,1,70,0,1
96306,-76.9230769230769,4,3,88,70,0,1
96410,-76.9230769230769,4,3,1,70,0,1
97134,-76.9230769230769,4,3,88,70,0,1
97237,-76.9230769230769,4,3,1,70,0,1
97961,-76.9230769230769,4,3,88,70,0,1
98065,-76.9230769230769,4,3,1,70,0,1
98789,-76.9230769230769,4,3,88,70,0,1
98892,-76.9230769230769,4,3,1,70,0,1
99616,-76.9230769230769,4,3,88,70,0,1
99720,-76.9230769230769,4,3,1,70,0,1
101272,-76.9230769230769,4,3,88,70,0,1
101375,-76.9230769230769,4,3,1,70,0,1
102099,-76.9230769230769,4,3,88,70,0,1
102203,-76.9230769230769,4,3,1,70,0,1
102927,-76.9230769230769,4,3,88,70,0,1
103030,-76.9230769230769,4,3,1,70,0,1
103754,-76.9230769230769,4,3,88,70,0,1
103858,-76.9230769230769,4,3,1,70,0,1
104582,-76.9230769230769,4,3,88,70,0,1
104685,-76.9230769230769,4,3,1,70,0,1
105410,-76.9230769230769,4,3,88,70,0,1
105513,-76.9230769230769,4,3,1,70,0,1
106237,-76.9230769230769,4,3,88,70,0,1
106341,-76.9230769230769,4,3,1,70,0,1
107686,-100,4,3,1,45,0,0
110582,-125,4,3,1,45,0,0
110789,-166.666666666667,4,3,1,45,0,0
111203,-100,4,3,1,45,0,0
114306,-100,4,3,1,50,0,0
119272,-100,4,3,1,60,0,0
120927,-83.3333333333333,4,3,1,75,0,0
130962,-83.3333333333333,4,3,1,50,0,0
132513,-250,4,3,1,50,0,0
134168,-250,4,3,1,40,0,0
134582,-250,4,3,88,40,0,0
134686,-250,4,3,1,40,0,0
135824,-166.666666666667,4,3,1,50,0,0
142444,-166.666666666667,4,3,1,55,0,0
147410,-166.666666666667,4,3,1,70,0,0
148444,-166.666666666667,4,3,1,60,0,0
149479,-166.666666666667,4,3,1,70,0,0
149893,-66.6666666666667,4,3,1,70,0,0
162306,-62.5,4,3,1,85,0,1
175962,-62.5,4,3,1,70,0,0
176582,-62.5,4,3,88,70,0,0
176686,-62.5,4,3,1,70,0,0
177410,-62.5,4,3,88,70,0,0
177513,-62.5,4,3,1,70,0,0
178237,-62.5,4,3,88,70,0,0
178341,-62.5,4,3,1,70,0,0
179065,-62.5,4,3,88,70,0,0
179168,-62.5,4,3,1,70,0,0
179893,-62.5,4,3,88,70,0,0
179996,-62.5,4,3,1,70,0,0
182375,-62.5,4,3,88,70,0,0
182479,-62.5,4,3,1,70,0,0
183203,-62.5,4,3,88,70,0,0
183306,-62.5,4,3,1,70,0,0
184031,-62.5,4,3,88,70,0,0
184134,-62.5,4,3,1,70,0,0
184858,-62.5,4,3,88,70,0,0
184962,-62.5,4,3,1,70,0,0
185686,-62.5,4,3,88,70,0,0
185789,-62.5,4,3,1,70,0,0
186513,-62.5,4,3,88,70,0,0
186617,-62.5,4,3,1,70,0,0
187341,-62.5,4,3,88,70,0,0
187444,-62.5,4,3,1,70,0,0
188789,-62.5,4,3,1,65,0,0
195410,-58.8235294117647,4,3,1,75,0,1
195617,-58.8235294117647,4,3,88,75,0,1
195720,-58.8235294117647,4,3,1,75,0,1
196444,-58.8235294117647,4,3,88,75,0,1
196548,-58.8235294117647,4,3,1,75,0,1
197272,-58.8235294117647,4,3,88,75,0,1
197375,-58.8235294117647,4,3,1,75,0,1
198100,-58.8235294117647,4,3,88,75,0,1
198203,-58.8235294117647,4,3,1,75,0,1
198927,-58.8235294117647,4,3,88,75,0,1
199031,-58.8235294117647,4,3,1,75,0,1
199755,-58.8235294117647,4,3,88,75,0,1
199858,-58.8235294117647,4,3,1,75,0,1
201203,-52.6315789473684,4,3,1,75,0,0
203260,689.655172413793,4,2,1,40,1,0
211535,-100,4,2,1,30,0,0
214294,-100,4,2,1,20,0,0
217053,-100,4,2,1,15,0,0
219811,-100,4,2,1,10,0,0

[Colours]
Combo1 : 52,143,177
Combo2 : 192,116,179
Combo3 : 147,36,69
Combo4 : 23,69,145

[HitObjects]
31,94,1755,6,0,P|94:36|185:46,1,161.999995056152,4|0,1:0|2:0,0:0:0:0:
204,123,2582,2,0,P|141:181|50:171,1,161.999995056152,4|0,1:0|2:0,0:0:0:0:
294,80,3410,6,0,L|285:205,2,107.999996704102,4|0|4,1:0|0:0|0:0,0:0:0:0:
500,249,4651,1,4,0:0:0:0:
500,249,4858,1,0,0:0:0:0:
500,249,5065,6,0,P|437:191|346:201,1,161.999995056152,4|0,1:0|2:0,0:0:0:0:
327,278,5893,2,0,P|390:336|481:326,1,161.999995056152,4|0,1:0|2:0,0:0:0:0:
226,227,6720,6,0,L|235:352,2,107.999996704102,4|0|4,1:0|0:0|0:0,0:0:0:0:
52,261,7755,1,0,1:0:0:0:
64,265,7858,1,0,1:0:0:0:
76,269,7962,1,0,0:0:0:0:
88,273,8065,1,0,1:0:0:0:
100,277,8168,1,0,1:0:0:0:
112,281,8272,1,0,1:0:0:0:
124,285,8375,5,4,3:1:0:0:
76,159,8789,1,2,0:2:0:0:
262,92,9203,5,4,0:0:0:0:
214,218,9617,1,2,0:2:0:0:
112,60,10031,6,0,L|-13:84,2,107.999996704102,4|2|4,3:1|0:2|0:0,0:0:0:0:
226,230,11272,1,4,0:0:0:0:
226,230,11479,1,0,1:0:0:0:
226,230,11686,6,0,P|218:270|215:289,1,53.9999983520508,4|0,3:1|2:0,0:0:0:0:
301,163,12100,2,0,P|309:203|312:222,1,53.9999983520508,2|2,0:2|2:0,0:0:0:0:
226,96,12513,2,0,P|218:136|215:155,1,53.9999983520508,4|0,0:0|2:0,0:0:0:0:
301,29,12927,2,0,P|309:69|312:88,1,53.9999983520508,2|2,0:2|2:0,0:0:0:0:
77,277,14168,5,4,0:0:0:0:
146,217,14375,1,0,1:0:0:0:
172,216,14479,1,0,1:0:0:0:
194,231,14582,1,0,0:0:0:0:
204,256,14686,1,0,1:0:0:0:
214,281,14789,1,0,1:0:0:0:
235,298,14893,1,0,1:0:0:0:
259,302,14996,6,0,P|315:290|397:282,1,116.999994644165,4|2,3:1|2:3,0:0:0:0:
446,342,15306,1,8,0:0:0:0:
446,342,15410,2,0,P|411:357|394:377,1,58.4999973220826,0|0,0:0|2:0,0:0:0:0:
461,240,15617,2,0,P|426:225|409:205,1,58.4999973220826,8|0,0:0|2:0,0:0:0:0:
326,41,15824,6,0,L|306:187,1,116.999994644165,4|2,0:0|2:3,0:0:0:0:
395,119,16134,1,8,0:0:0:0:
395,119,16237,2,0,L|471:101,1,58.4999973220826,0|0,0:0|2:0,0:0:0:0:
243,95,16444,2,0,L|176:54,1,58.4999973220826,8|0,0:0|2:0,0:0:0:0:
52,192,16651,6,0,P|136:234|191:194,1,116.999994644165,4|2,0:0|2:3,0:0:0:0:
173,196,16962,1,8,0:0:0:0:
162,158,17065,1,0,0:0:0:0:
73,267,17272,5,8,0:0:0:0:
60,287,17375,1,2,0:0:0:0:
66,309,17479,1,4,0:0:0:0:
81,107,17686,5,2,2:3:0:0:
81,107,17789,1,8,0:0:0:0:
81,107,17893,2,0,L|54:46,1,58.4999973220826,0|0,0:0|2:0,0:0:0:0:
135,16,18100,2,0,L|162:77,1,58.4999973220826,8|0,0:0|2:0,0:0:0:0:
317,185,18306,6,0,B|289:174|248:195|278:214|229:234|192:218,1,116.999994644165,4|2,3:1|2:3,0:0:0:0:
150,152,18617,1,8,0:0:0:0:
150,152,18720,2,0,P|178:142|219:148,1,58.4999973220826,0|0,0:0|2:0,0:0:0:0:
156,278,18927,2,0,P|127:267|100:236,1,58.4999973220826,8|0,0:0|2:0,0:0:0:0:
331,174,19134,6,0,L|305:334,1,116.999994644165,4|2,0:0|2:3,0:0:0:0:
361,375,19444,1,8,0:0:0:0:
361,375,19548,2,0,L|406:324,1,58.4999973220826,0|0,0:0|2:0,0:0:0:0:
255,369,19755,2,0,L|225:307,1,58.4999973220826,8|0,0:0|2:0,0:0:0:0:
404,221,19962,6,0,B|448:210|448:210|469:221|469:221|514:207,1,116.999994644165,4|2,0:0|2:3,0:0:0:0:
510,167,20272,1,8,0:0:0:0:
503,128,20375,1,0,0:0:0:0:
386,23,20582,5,8,0:0:0:0:
383,46,20686,1,2,0:0:0:0:
378,70,20789,1,4,0:0:0:0:
252,187,20996,5,8,0:0:0:0:
236,182,21100,1,8,0:0:0:0:
192,144,21203,5,8,0:0:0:0:
176,149,21306,1,8,0:0:0:0:
136,192,21410,5,8,0:0:0:0:
120,187,21513,1,8,0:0:0:0:
82,141,21617,6,0,L|64:25,1,116.999994644165,4|2,3:1|2:3,0:0:0:0:
162,8,21927,1,8,0:0:0:0:
162,8,22031,2,0,L|139:98,1,58.4999973220826,0|0,0:0|2:0,0:0:0:0:
7,164,22237,2,0,L|30:254,1,58.4999973220826,8|0,0:0|2:0,0:0:0:0:
223,197,22444,6,0,P|274:162|349:193,1,116.999994644165,4|2,0:0|2:3,0:0:0:0:
395,114,22755,1,8,0:0:0:0:
395,114,22858,2,0,P|364:90|348:58,1,58.4999973220826,0|0,0:0|2:0,0:0:0:0:
397,220,23065,2,0,P|366:244|350:276,1,58.4999973220826,8|0,0:0|2:0,0:0:0:0:
213,341,23272,6,0,B|161:333|161:333|147:339|147:339|80:330,1,116.999994644165,4|2,0:0|2:3,0:0:0:0:
75,300,23582,1,8,0:0:0:0:
87,262,23686,1,0,0:0:0:0:
198,145,23893,5,8,0:0:0:0:
211,164,23996,1,2,0:0:0:0:
204,187,24100,1,4,0:0:0:0:
44,73,24306,5,2,2:3:0:0:
44,73,24410,1,8,0:0:0:0:
44,73,24513,2,0,L|121:57,1,58.4999973220826,0|0,0:0|2:0,0:0:0:0:
184,39,24720,2,0,L|261:23,1,58.4999973220826,8|0,0:0|2:0,0:0:0:0:
420,6,24927,6,0,L|378:142,1,116.999994644165,4|2,3:1|2:3,0:0:0:0:
488,169,25237,1,8,0:0:0:0:
488,169,25341,2,0,L|475:112,1,58.4999973220826,0|0,0:0|2:0,0:0:0:0:
352,201,25548,2,0,L|326:282,1,58.4999973220826,8|0,0:0|2:0,0:0:0:0:
233,141,25755,6,0,B|210:160|179:158|191:132|142:129|120:152,1,116.999994644165,4|2,0:0|2:3,0:0:0:0:
36,127,26065,1,8,0:0:0:0:
36,127,26168,2,0,P|69:78|91:63,1,58.4999973220826,0|0,0:0|2:0,0:0:0:0:
72,210,26375,2,0,P|117:248|142:256,1,58.4999973220826,8|0,0:0|2:0,0:0:0:0:
247,127,26582,6,0,L|266:3,1,116.999994644165,4|2,0:0|2:3,0:0:0:0:
300,32,26893,1,8,0:0:0:0:
339,24,26996,1,0,0:0:0:0:
456,124,27203,5,8,0:0:0:0:
434,111,27306,1,2,0:0:0:0:
411,116,27410,1,4,0:0:0:0:
233,155,27617,5,8,0:0:0:0:
238,171,27720,1,8,0:0:0:0:
276,215,27824,5,8,0:0:0:0:
271,231,27927,1,8,0:0:0:0:
228,271,28031,5,8,0:0:0:0:
233,287,28134,1,8,0:0:0:0:
262,364,28237,5,0,0:0:0:0:
262,364,28444,2,0,P|288:356|332:346,1,45,2|2,2:3|2:3,0:0:0:0:
368,251,28651,6,0,P|414:301|447:341,2,90,4|2|2,0:0|2:3|0:2,0:0:0:0:
478,197,29272,2,0,P|468:221|460:252,1,45,2|2,2:0|2:0,0:0:0:0:
348,165,29479,2,0,P|410:153|416:108,1,90,4|2,0:0|2:0,0:0:0:0:
406,30,29893,5,2,0:2:0:0:
406,30,30100,1,2,2:0:0:0:
292,62,30306,6,0,P|241:49|180:32,1,90,4|2,0:0|2:0,0:0:0:0:
72,149,30720,1,2,0:2:0:0:
72,149,30927,6,0,P|66:183|61:202,1,45,0|0,1:0|1:0,0:0:0:0:
137,219,31134,2,0,L|151:257,1,36,4|0,1:3|1:0,0:0:0:0:
75,276,31341,2,0,L|63:319,1,26.9999991760254,0|0,1:0|1:0,0:0:0:0:
131,358,31548,1,0,0:0:0:0:
231,285,31755,6,0,P|264:299|290:311,1,45,2|2,2:3|2:3,0:0:0:0:
353,281,31962,2,0,P|336:355|322:398,1,90,4|2,0:0|2:3,0:0:0:0:
131,358,32375,6,0,P|114:330|83:295,1,45,2|0,0:2|2:0,0:0:0:0:
245,242,32582,2,0,P|231:281|225:312,1,45,2|2,2:0|2:0,0:0:0:0:
95,225,32789,2,0,P|132:225|162:171,1,90,4|2,0:0|2:0,0:0:0:0:
137,88,33203,1,2,0:2:0:0:
137,88,33410,1,2,2:0:0:0:
34,64,33617,6,0,P|37:108|40:153,1,90,4|2,0:0|2:0,0:0:0:0:
162,185,34031,1,2,0:2:0:0:
162,185,34237,6,0,P|200:176|228:171,1,45,0|0,1:0|1:0,0:0:0:0:
253,107,34444,2,0,P|269:112|290:119,1,36,4|8,1:3|0:0,0:0:0:0:
323,191,34651,2,0,P|337:187|358:180,1,26.9999991760254,8|0,0:0|1:0,0:0:0:0:
367,97,34858,6,0,B|426:130|432:60|500:105,1,135,2|0,0:2|2:0,0:0:0:0:
497,126,35272,2,0,P|492:151|483:187,1,45,4|0,0:0|2:0,0:0:0:0:
423,240,35479,1,2,2:0:0:0:
423,240,35686,2,0,P|437:289|447:339,1,90,2|0,0:2|0:0,0:0:0:0:
445,327,36100,6,0,P|480:336|518:348,1,45,2|0,2:0|2:0,0:0:0:0:
300,330,36513,6,0,P|275:340|246:357,1,45,2|0,0:2|2:0,0:0:0:0:
180,296,36720,5,2,2:0:0:0:
180,296,36927,2,0,P|107:282|59:270,1,90,4|2,0:0|2:0,0:0:0:0:
16,316,37341,6,0,P|27:357|26:395,1,45,2|0,0:2|2:0,0:0:0:0:
141,250,37755,6,0,P|153:188|171:115,1,135,4|2,0:0|2:0,0:0:0:0:
168,25,38168,2,0,P|221:56|263:73,1,90,2|2,0:2|2:0,0:0:0:0:
251,152,38582,5,4,0:0:0:0:
251,152,38789,1,2,2:0:0:0:
330,58,38996,6,0,P|317:25|313:8,2,45,2|2|0,0:2|2:0|0:0,0:0:0:0:
330,148,39306,2,0,P|385:133|425:123,1,90,2|0,2:0|2:0,0:0:0:0:
425,22,39617,6,0,P|464:49|493:66,1,45,2|0,2:0|2:0,0:0:0:0:
512,128,39824,5,2,0:2:0:0:
476,195,40031,1,2,2:3:0:0:
365,286,40237,5,4,0:0:0:0:
318,224,40444,1,2,2:3:0:0:
499,286,40651,5,0,0:0:0:0:
472,280,40755,1,0,1:0:0:0:
450,296,40858,2,0,L|442:355,1,45,0|0,1:0|1:0,0:0:0:0:
308,351,41065,5,4,1:3:0:0:
281,357,41168,1,0,1:0:0:0:
259,341,41272,2,0,L|251:282,1,45,0|0,1:0|1:0,0:0:0:0:
244,216,41479,5,0,0:0:0:0:
244,216,41686,2,0,P|204:213|168:211,1,45,2|2,2:3|2:3,0:0:0:0:
57,309,41893,6,0,P|42:264|9:199,2,90,8|2|2,0:0|2:3|0:2,0:0:0:0:
130,172,42513,2,0,P|114:198|94:232,1,45,2|2,2:3|2:0,0:0:0:0:
8,132,42720,2,0,P|45:142|76:101,1,90,8|2,0:0|2:3,0:0:0:0:
73,23,43134,5,2,0:2:0:0:
73,23,43341,1,2,2:3:0:0:
202,42,43548,6,0,P|273:56|322:66,1,90,8|2,0:0|2:3,0:0:0:0:
450,123,43962,1,2,0:2:0:0:
450,123,44168,6,0,P|440:157|430:189,1,45,2|0,2:3|1:0,0:0:0:0:
366,197,44375,2,0,L|380:238,1,36,8|0,0:0|1:0,0:0:0:0:
451,258,44582,2,0,L|441:294,1,26.9999991760254,2|0,2:3|1:0,0:0:0:0:
390,344,44789,1,0,0:0:0:0:
292,279,44996,6,0,P|246:293|213:303,1,45,2|2,2:3|2:3,0:0:0:0:
165,270,45203,2,0,P|180:333|189:386,1,90,8|2,0:0|2:3,0:0:0:0:
242,213,45617,6,0,P|221:206|199:203,1,45,2|0,0:2|2:0,0:0:0:0:
100,329,45824,2,0,P|76:342|50:348,1,45,2|0,2:3|2:0,0:0:0:0:
20,248,46031,2,0,P|31:194|41:134,1,90,8|2,0:0|2:3,0:0:0:0:
54,72,46444,5,2,0:2:0:0:
54,72,46651,1,2,2:3:0:0:
146,25,46858,6,0,P|196:37|223:74,1,90,8|2,0:0|2:3,0:0:0:0:
199,203,47272,1,2,0:2:0:0:
199,203,47479,6,0,P|221:198|252:192,1,45,2|0,2:3|1:0,0:0:0:0:
288,123,47686,2,0,P|309:127|333:131,1,36,8|8,0:0|0:0,0:0:0:0:
359,199,47893,2,0,P|379:192|394:188,1,26.9999991760254,8|0,0:0|1:0,0:0:0:0:
450,120,48100,6,0,P|458:156|470:235,1,90,2|2,0:0|2:3,0:0:0:0:
386,281,48513,2,0,P|326:273|265:264,1,90,8|2,0:0|2:3,0:0:0:0:
435,352,48927,6,0,P|464:344|504:331,1,45,2|0,0:2|2:0,0:0:0:0:
247,342,49341,6,0,P|231:333|198:310,1,45,8|0,0:0|2:0,0:0:0:0:
37,212,49755,6,0,P|54:169|77:115,1,90,2|2,0:2|2:3,0:0:0:0:
121,258,50168,2,0,P|91:274|52:292,1,45,8|0,0:0|2:0,0:0:0:0:
152,179,50375,2,0,L|145:126,1,45,2|0,2:3|2:0,0:0:0:0:
111,55,50582,6,0,L|62:38,1,45,2|0,0:2|2:0,0:0:0:0:
152,179,50996,6,0,P|217:164|299:150,1,135,8|0,0:0|2:0,0:0:0:0:
334,82,51410,2,0,P|362:131|378:167,1,90,2|2,0:2|2:3,0:0:0:0:
321,226,51824,5,8,0:0:0:0:
321,226,52031,1,2,2:3:0:0:
398,247,52237,6,0,P|429:227|453:208,2,45,2|2|2,0:2|2:0|2:3,0:0:0:0:
334,312,52548,6,0,P|405:344|444:360,1,90,0|0,2:0|2:0,0:0:0:0:
453,347,52858,6,0,P|413:366|381:379,1,45,2|2,2:3|2:0,0:0:0:0:
267,360,53065,5,8,0:0:0:0:
255,281,53272,1,8,0:0:0:0:
174,229,53479,5,8,0:0:0:0:
189,158,53686,1,8,0:0:0:0:
286,97,53893,5,2,0:0:0:0:
283,87,53996,1,8,0:0:0:0:
280,77,54100,1,8,0:0:0:0:
277,67,54203,1,8,0:0:0:0:
274,57,54306,1,8,0:0:0:0:
21,174,54720,6,0,B|67:164|121:241|50:231|77:307|151:315,2,188.999994232178,4|4|4,3:1|0:0|0:0,0:0:0:0:
160,233,55548,1,4,0:0:0:0:
230,200,55755,5,8,0:0:0:0:
375,269,56168,1,2,0:2:0:0:
425,203,56375,6,0,L|512:223,1,90,2|2,0:2|2:3,0:0:0:0:
386,104,56789,2,0,P|346:131|303:145,1,90,8|2,0:0|2:3,0:0:0:0:
181,76,57203,5,2,0:2:0:0:
181,76,57410,1,2,2:3:0:0:
207,158,57617,1,8,0:0:0:0:
252,33,57824,1,2,2:3:0:0:
72,18,58031,6,0,B|88:88|88:88|78:126|78:126|96:220,2,188.999994232178,4|4|4,3:1|0:0|0:0,0:0:0:0:
7,179,58858,1,4,0:0:0:0:
162,125,59065,5,8,0:0:0:0:
106,296,59479,1,2,0:2:0:0:
83,218,59686,6,0,P|139:223|196:259,1,90,2|2,0:2|2:3,0:0:0:0:
42,384,60100,2,0,L|18:282,1,90,8|2,0:0|2:3,0:0:0:0:
168,351,60513,5,2,0:2:0:0:
168,351,60720,1,2,2:3:0:0:
237,278,60927,1,8,0:0:0:0:
364,364,61134,1,2,2:3:0:0:
481,204,61341,6,0,P|408:195|335:318,2,188.999994232178,4|4|4,3:1|0:0|0:0,0:0:0:0:
334,142,62168,1,4,0:0:0:0:
385,85,62375,5,8,0:0:0:0:
385,85,62789,1,2,0:2:0:0:
343,13,62996,6,0,L|250:59,1,90,2|2,0:2|2:3,0:0:0:0:
463,79,63410,2,0,L|467:201,1,90,8|2,0:0|2:3,0:0:0:0:
303,215,63824,5,2,0:2:0:0:
417,338,64237,2,0,P|363:325|325:321,1,90,0|2,0:0|2:0,0:0:0:0:
264,364,64651,1,4,0:0:0:0:
187,270,64858,1,2,2:0:0:0:
190,258,64962,1,8,0:0:0:0:
194,246,65065,1,0,0:0:0:0:
151,181,65272,1,8,0:0:0:0:
245,120,65479,6,0,L|256:23,1,90,0|2,0:0|2:0,0:0:0:0:
255,30,65789,1,8,0:0:0:0:
255,30,65893,1,0,0:0:0:0:
329,82,66100,1,8,0:0:0:0:
168,61,66306,1,8,1:0:0:0:
142,60,66410,1,8,0:0:0:0:
120,75,66513,1,8,0:0:0:0:
110,100,66617,1,8,0:0:0:0:
100,125,66720,1,8,1:0:0:0:
79,142,66824,1,8,0:0:0:0:
56,146,66927,6,0,L|5:119,1,45,8|8,0:0|0:0,0:0:0:0:
42,33,67134,1,8,1:0:0:0:
42,33,67548,5,2,2:0:0:0:
42,33,67962,6,0,B|76:13|125:57|80:78|166:107,1,135.000005149842,4|0,3:1|1:0,0:0:0:0:
235,71,68272,1,8,0:0:0:0:
235,71,68375,2,0,P|204:37|198:-3,1,67.5000025749208,2|0,0:2|2:0,0:0:0:0:
202,173,68582,2,0,P|157:184|130:214,1,67.5000025749208,8|0,0:0|2:0,0:0:0:0:
337,67,68789,6,0,L|363:242,1,135.000005149842,2|0,0:2|1:0,0:0:0:0:
356,200,69100,1,8,0:0:0:0:
356,200,69203,1,2,0:2:0:0:
421,97,69410,1,8,0:0:0:0:
285,246,69617,6,0,P|358:243|414:313,1,135.000005149842,2|0,0:2|1:0,0:0:0:0:
494,241,69927,1,8,0:0:0:0:
494,241,70031,2,0,L|485:321,1,67.5000025749208,2|0,0:2|2:0,0:0:0:0:
327,317,70237,2,0,L|336:397,1,67.5000025749208,8|0,0:0|2:0,0:0:0:0:
170,220,70444,6,0,L|149:368,1,135.000005149842,2|0,0:2|1:0,0:0:0:0:
171,329,70755,1,8,0:0:0:0:
190,304,70858,1,2,0:2:0:0:
218,287,70962,1,0,1:0:0:0:
248,279,71065,1,8,0:0:0:0:
281,282,71168,1,0,1:0:0:0:
310,293,71272,6,0,B|399:305|343:334|428:353,1,135.000005149842,4|0,3:1|1:0,0:0:0:0:
501,272,71582,1,8,0:0:0:0:
501,272,71686,2,0,P|464:267|413:286,1,67.5000025749208,2|0,0:2|2:0,0:0:0:0:
359,160,71893,2,0,P|364:195|367:240,1,67.5000025749208,8|0,0:0|2:0,0:0:0:0:
497,105,72100,6,0,B|414:86|469:58|380:45,1,135.000005149842,2|0,0:2|1:0,0:0:0:0:
291,14,72410,1,8,0:0:0:0:
291,14,72513,2,0,L|283:85,1,67.5000025749208,2|0,0:2|1:0,0:0:0:0:
374,218,72720,2,0,L|366:146,1,67.5000025749208,8|0,0:0|2:0,0:0:0:0:
173,91,72927,6,0,B|182:142|182:142|173:171|173:171|182:225,1,135.000005149842,2|0,0:2|1:0,0:0:0:0:
253,294,73237,1,8,0:0:0:0:
253,294,73341,2,0,L|261:213,1,67.5000025749208,2|0,0:2|2:0,0:0:0:0:
131,313,73548,2,0,L|102:236,1,67.5000025749208,8|0,0:0|2:0,0:0:0:0:
60,107,73755,5,2,0:2:0:0:
60,107,73962,2,0,P|38:132|18:160,1,67.5000025749208,8|0,0:0|1:0,0:0:0:0:
72,15,74168,1,8,0:0:0:0:
104,19,74272,1,8,0:0:0:0:
126,42,74375,1,8,0:0:0:0:
143,70,74479,1,8,0:0:0:0:
173,82,74582,6,0,P|239:57|338:57,1,135.000005149842,4|0,3:1|1:0,0:0:0:0:
396,88,74893,1,8,0:0:0:0:
396,88,74996,2,0,P|406:50|419:16,1,67.5000025749208,2|0,0:2|2:0,0:0:0:0:
320,133,75203,2,0,P|331:164|339:197,1,67.5000025749208,8|0,0:0|2:0,0:0:0:0:
495,107,75410,6,0,P|465:179|451:255,1,135.000005149842,2|0,0:2|1:0,0:0:0:0:
447,338,75720,1,8,0:0:0:0:
447,338,75824,2,0,L|528:316,1,67.5000025749208,2|0,0:2|1:0,0:0:0:0:
372,278,76031,2,0,L|291:300,1,67.5000025749208,8|0,0:0|2:0,0:0:0:0:
183,201,76237,6,0,B|215:257|164:279|215:347,1,135.000005149842,2|0,0:2|1:0,0:0:0:0:
204,331,76548,1,8,0:0:0:0:
204,331,76651,1,2,0:2:0:0:
109,246,76858,1,8,0:0:0:0:
247,134,77065,2,0,P|177:109|115:131,1,135.000005149842,2|0,0:2|1:0,0:0:0:0:
99,151,77375,1,8,0:0:0:0:
86,120,77479,1,2,0:2:0:0:
60,100,77582,1,0,1:0:0:0:
48,70,77686,1,8,0:0:0:0:
55,38,77789,1,0,1:0:0:0:
79,16,77893,6,0,L|255:34,1,135.000005149842,4|0,3:1|1:0,0:0:0:0:
297,74,78203,1,8,0:0:0:0:
297,74,78306,2,0,P|319:25|337:7,1,67.5000025749208,2|0,0:2|2:0,0:0:0:0:
200,121,78513,2,0,P|219:148|230:179,1,67.5000025749208,8|0,0:0|2:0,0:0:0:0:
394,240,78720,6,0,L|417:98,1,135.000005149842,2|0,0:2|1:0,0:0:0:0:
429,94,79031,1,8,0:0:0:0:
443,82,79134,1,2,0:2:0:0:
326,158,79341,1,8,0:0:0:0:
401,329,79548,5,8,0:0:0:0:
369,347,79651,1,8,0:0:0:0:
334,335,79755,1,8,0:0:0:0:
320,301,79858,1,8,0:0:0:0:
314,264,79962,1,8,0:0:0:0:
285,244,80065,1,8,0:0:0:0:
250,253,80168,6,0,P|221:278|196:312,1,67.5000025749208,8|8,0:0|0:0,0:0:0:0:
143,176,80375,1,10,1:0:0:0:
0,287,80582,5,8,0:1:0:0:
1,295,80686,1,8,0:1:0:0:
56,316,80789,5,8,0:1:0:0:
61,310,80893,1,8,0:1:0:0:
54,253,80996,5,8,0:1:0:0:
46,252,81100,1,8,0:1:0:0:
0,287,81203,1,0,0:0:0:0:
1,302,81306,1,0,0:0:0:0:
3,317,81410,1,0,0:0:0:0:
5,333,81513,1,0,0:0:0:0:
7,348,81617,5,4,3:1:0:0:
141,360,81824,1,8,0:0:0:0:
250,253,82031,6,0,P|235:183|225:107,1,135.000005149842,2|0,0:2|1:0,0:0:0:0:
325,90,82341,1,8,0:0:0:0:
325,90,82444,2,0,P|298:71|272:50,1,67.5000025749208,2|0,0:2|2:0,0:0:0:0:
122,128,82651,2,0,P|142:101|157:72,1,67.5000025749208,8|0,0:0|2:0,0:0:0:0:
409,92,82858,6,0,P|345:119|316:192,1,135.000005149842,2|0,0:2|1:0,0:0:0:0:
493,177,83168,1,8,0:0:0:0:
493,177,83272,2,0,P|488:118|487:54,1,67.5000025749208,2|0,0:2|2:0,0:0:0:0:
372,228,83479,2,0,P|414:238|467:249,1,67.5000025749208,8|0,0:0|2:0,0:0:0:0:
512,315,83686,6,0,P|421:336|336:352,1,135.000005149842,2|0,0:2|1:0,0:0:0:0:
339,354,83996,5,8,0:0:0:0:
303,343,84100,1,2,0:2:0:0:
274,321,84203,1,0,1:0:0:0:
257,288,84306,1,8,0:0:0:0:
235,259,84410,1,0,1:0:0:0:
203,248,84513,6,0,B|133:279|193:322|135:366,1,135.000005149842,4|0,3:1|1:0,0:0:0:0:
64,308,84824,1,8,0:0:0:0:
64,308,84927,2,0,P|26:297|-24:284,1,67.5000025749208,2|0,0:2|2:0,0:0:0:0:
102,122,85134,2,0,P|128:141|157:159,1,67.5000025749208,8|0,0:0|2:0,0:0:0:0:
23,218,85341,6,0,B|58:151|-21:138|47:60,1,135.000005149842,2|0,0:2|1:0,0:0:0:0:
151,19,85651,1,8,0:0:0:0:
151,19,85755,2,0,P|114:41|65:27,1,67.5000025749208,2|0,0:2|1:0,0:0:0:0:
226,117,85962,2,0,P|219:84|230:52,1,67.5000025749208,8|0,0:0|2:0,0:0:0:0:
331,206,86168,6,0,P|256:229|167:261,1,135.000005149842,2|0,0:2|1:0,0:0:0:0:
296,361,86479,1,8,0:0:0:0:
296,361,86582,2,0,P|302:307|305:276,1,67.5000025749208,2|0,0:2|2:0,0:0:0:0:
417,246,86789,2,0,P|408:189|400:155,1,67.5000025749208,8|0,0:0|2:0,0:0:0:0:
349,60,86996,6,0,P|414:88|477:113,1,135.000005149842,2|8,0:2|0:0,0:0:0:0:
477,135,87306,5,0,1:0:0:0:
474,165,87410,1,8,0:0:0:0:
472,196,87513,1,8,0:0:0:0:
469,227,87617,1,8,0:0:0:0:
466,257,87720,1,8,0:0:0:0:
463,288,87824,6,0,B|387:283|411:338|339:353,1,135.000005149842,4|0,3:1|1:0,0:0:0:0:
303,209,88134,1,8,0:0:0:0:
303,209,88237,2,0,P|322:255|334:291,1,67.5000025749208,2|0,0:2|2:0,0:0:0:0:
171,357,88444,2,0,P|178:317|190:269,1,67.5000025749208,8|0,0:0|2:0,0:0:0:0:
102,177,88651,6,0,P|182:211|241:234,1,135.000005149842,2|0,0:2|1:0,0:0:0:0:
49,348,88962,1,8,0:0:0:0:
49,348,89065,2,0,P|48:295|40:243,1,67.5000025749208,2|0,0:2|1:0,0:0:0:0:
102,177,89272,2,0,P|110:132|119:85,1,67.5000025749208,8|0,0:0|2:0,0:0:0:0:
15,48,89479,6,0,B|76:32|76:32|78:36|78:36|164:14,1,135.000005149842,2|0,0:2|1:0,0:0:0:0:
252,166,89789,1,8,0:0:0:0:
252,166,89893,2,0,P|233:211|215:264,1,67.5000025749208,2|0,0:2|2:0,0:0:0:0:
352,52,90100,2,0,P|368:87|385:128,1,67.5000025749208,8|0,0:0|2:0,0:0:0:0:
183,105,90306,6,0,P|254:107|271:41,1,135.000005149842,2|0,0:2|1:0,0:0:0:0:
271,38,90617,5,8,0:0:0:0:
304,22,90720,1,2,0:2:0:0:
341,21,90824,1,0,1:0:0:0:
376,30,90927,1,8,0:0:0:0:
409,48,91031,1,0,1:0:0:0:
453,42,91134,6,0,P|436:111|423:187,1,135.000005149842,4|0,3:1|1:0,0:0:0:0:
343,283,91444,1,8,0:0:0:0:
343,283,91548,2,0,P|381:309|418:337,1,67.5000025749208,2|0,0:2|2:0,0:0:0:0:
509,228,91755,2,0,P|472:242|427:262,1,67.5000025749208,8|0,0:0|2:0,0:0:0:0:
306,357,91962,6,0,P|299:290|288:224,1,135.000005149842,2|0,0:2|1:0,0:0:0:0:
178,165,92272,1,8,0:0:0:0:
178,165,92375,2,0,P|133:202|105:225,1,67.5000025749208,2|0,0:2|2:0,0:0:0:0:
131,303,92582,2,0,P|167:336|193:357,1,67.5000025749208,8|0,0:0|2:0,0:0:0:0:
300,360,92789,6,0,P|293:292|281:226,1,135.000005149842,2|0,0:2|1:0,0:0:0:0:
281,226,93100,1,8,0:0:0:0:
281,226,93203,1,2,0:2:0:0:
424,173,93410,1,8,0:0:0:0:
328,154,93617,1,2,0:2:0:0:
328,154,93824,1,8,0:0:0:0:
478,85,94031,5,8,0:0:0:0:
471,134,94134,1,8,0:0:0:0:
466,185,94237,1,8,0:0:0:0:
461,233,94341,1,8,0:0:0:0:
457,283,94444,6,0,P|384:292|316:301,1,116.999994644165,4|2,3:1|2:3,0:0:0:0:
241,202,94755,1,8,0:0:0:0:
241,202,94858,2,0,P|270:227|311:239,1,58.4999973220826,0|0,0:0|2:0,0:0:0:0:
223,358,95065,2,0,P|250:338|285:329,1,58.4999973220826,8|0,0:0|2:0,0:0:0:0:
374,190,95272,6,0,P|360:120|347:68,1,116.999994644165,4|2,0:0|2:3,0:0:0:0:
414,35,95582,1,8,0:0:0:0:
414,35,95686,2,0,L|486:53,1,58.4999973220826,0|0,0:0|2:0,0:0:0:0:
276,56,95893,2,0,L|213:92,1,58.4999973220826,8|0,0:0|2:0,0:0:0:0:
158,195,96100,6,0,B|89:176|141:131|50:112,1,116.999994644165,4|2,0:0|2:3,0:0:0:0:
37,128,96410,5,8,0:0:0:0:
24,170,96513,1,0,0:0:0:0:
198,347,96720,5,8,0:0:0:0:
204,319,96824,1,2,0:0:0:0:
208,291,96927,1,4,0:0:0:0:
19,287,97134,5,2,2:3:0:0:
19,287,97237,1,8,0:0:0:0:
19,287,97341,2,0,P|30:322|42:351,1,58.4999973220826,0|0,0:0|2:0,0:0:0:0:
110,320,97548,2,0,P|98:284|82:252,1,58.4999973220826,8|0,0:0|2:0,0:0:0:0:
37,128,97755,6,0,P|51:63|63:-3,1,116.999994644165,4|2,3:1|2:3,0:0:0:0:
208,90,98065,1,8,0:0:0:0:
208,90,98168,2,0,P|171:97|127:105,1,58.4999973220826,0|0,0:0|2:0,0:0:0:0:
317,24,98375,2,0,P|281:8|243:-13,1,58.4999973220826,8|0,0:0|2:0,0:0:0:0:
150,100,98582,6,0,P|161:168|174:234,1,116.999994644165,4|2,0:0|2:3,0:0:0:0:
261,270,98893,1,8,0:0:0:0:
261,270,98996,2,0,P|265:231|272:167,1,58.4999973220826,0|0,0:0|2:0,0:0:0:0:
150,294,99203,2,0,P|163:327|175:359,1,58.4999973220826,8|0,0:0|2:0,0:0:0:0:
256,361,99410,6,0,B|323:370|302:301|395:328,1,116.999994644165,4|2,0:0|2:3,0:0:0:0:
384,334,99720,5,8,0:0:0:0:
394,363,99824,1,0,0:0:0:0:
483,237,100031,5,8,0:0:0:0:
487,212,100134,1,2,0:0:0:0:
491,188,100237,1,4,0:0:0:0:
302,43,100444,5,8,0:0:0:0:
305,60,100548,1,8,0:0:0:0:
343,94,100651,5,8,0:0:0:0:
335,115,100755,1,8,0:0:0:0:
304,144,100858,5,8,0:0:0:0:
314,178,100962,1,8,0:0:0:0:
352,207,101065,6,0,P|273:229|222:243,1,116.999994644165,4|2,3:1|2:3,0:0:0:0:
125,123,101375,1,8,0:0:0:0:
125,123,101479,2,0,P|145:148|177:172,1,58.4999973220826,0|0,0:0|2:0,0:0:0:0:
114,301,101686,2,0,P|137:271|154:246,1,58.4999973220826,8|0,0:0|2:0,0:0:0:0:
35,124,101893,6,0,B|41:178|41:178|44:182|44:182|50:239,1,116.999994644165,4|2,0:0|2:3,0:0:0:0:
2,333,102203,1,8,0:0:0:0:
2,333,102306,2,0,P|36:348|73:364,1,58.4999973220826,0|0,0:0|2:0,0:0:0:0:
153,384,102513,2,0,P|185:378|226:374,1,58.4999973220826,8|0,0:0|2:0,0:0:0:0:
277,242,102720,6,0,P|265:300|251:369,1,116.999994644165,4|2,0:0|2:3,0:0:0:0:
287,364,103031,5,8,0:0:0:0:
324,374,103134,1,0,0:0:0:0:
475,229,103341,5,8,0:0:0:0:
466,202,103444,1,2,0:0:0:0:
463,174,103548,1,4,0:0:0:0:
312,29,103755,5,2,2:3:0:0:
312,29,103858,1,8,0:0:0:0:
312,29,103962,2,0,L|295:94,1,58.4999973220826,0|0,0:0|2:0,0:0:0:0:
371,107,104168,2,0,L|386:48,1,58.4999973220826,8|0,0:0|2:0,0:0:0:0:
195,123,104375,6,0,P|271:159|332:193,1,116.999994644165,4|2,3:1|2:3,0:0:0:0:
235,280,104686,1,8,0:0:0:0:
235,280,104789,2,0,P|228:246|228:201,1,58.4999973220826,0|0,0:0|2:0,0:0:0:0:
116,105,104996,2,0,P|101:141|87:167,1,58.4999973220826,8|0,0:0|2:0,0:0:0:0:
22,319,105203,6,0,P|90:299|148:282,1,116.999994644165,4|2,0:0|2:3,0:0:0:0:
203,354,105513,1,8,0:0:0:0:
203,354,105617,2,0,P|208:330|218:275,1,58.4999973220826,0|0,0:0|2:0,0:0:0:0:
25,203,105824,2,0,P|47:247|64:288,1,58.4999973220826,8|0,0:0|2:0,0:0:0:0:
226,222,106031,6,0,B|313:241|239:278|353:292,1,116.999994644165,4|2,0:0|2:3,0:0:0:0:
349,271,106341,1,8,0:0:0:0:
356,235,106444,1,0,0:0:0:0:
416,60,106651,5,8,0:0:0:0:
424,86,106755,1,2,0:0:0:0:
433,113,106858,1,4,0:0:0:0:
490,347,107065,5,0,1:0:0:0:
474,339,107168,1,0,1:0:0:0:
446,326,107272,5,0,1:0:0:0:
423,334,107375,1,0,1:0:0:0:
404,357,107479,5,0,1:0:0:0:
372,342,107582,1,0,1:0:0:0:
357,354,107686,5,4,3:1:0:0:
309,290,107893,1,0,2:0:0:0:
361,234,108100,1,4,0:0:0:0:
323,165,108306,1,0,2:0:0:0:
313,174,108513,1,2,0:2:0:0:
379,244,108720,1,0,2:0:0:0:
379,244,108824,1,2,2:0:0:0:
379,244,108927,2,0,L|469:226,1,90,4|2,0:0|2:0,0:0:0:0:
423,41,109341,6,0,P|400:96|396:143,1,90,2|2,0:2|2:0,0:0:0:0:
194,52,109755,2,0,P|212:111|218:159,1,90,4|2,0:0|2:0,0:0:0:0:
290,31,110168,1,2,0:2:0:0:
290,31,110375,6,0,L|332:45,1,45,0|0,1:0|1:0,0:0:0:0:
392,137,110582,2,0,L|430:126,1,36,4|0,1:3|1:0,0:0:0:0:
490,212,110789,2,0,L|455:203,1,26.9999991760254,0|0,1:0|1:0,0:0:0:0:
403,274,110996,5,0,0:0:0:0:
491,341,111203,6,0,L|396:361,2,90,2|4|0,2:0|0:0|2:0,0:0:0:0:
323,219,111824,6,0,P|302:268|288:318,1,90,2|2,0:2|2:0,0:0:0:0:
291,303,112134,1,2,2:0:0:0:
291,303,112237,1,4,0:0:0:0:
230,247,112444,1,2,2:0:0:0:
98,340,112651,5,2,0:2:0:0:
98,340,112858,1,2,2:0:0:0:
169,384,113065,1,4,0:0:0:0:
169,384,113272,1,2,2:0:0:0:
145,220,113479,1,2,0:2:0:0:
145,220,113686,6,0,L|132:274,1,45,0|0,1:0|1:0,0:0:0:0:
40,191,113893,1,4,1:3:0:0:
60,157,113996,1,8,0:0:0:0:
45,137,114100,1,8,0:0:0:0:
56,118,114203,1,0,1:0:0:0:
56,118,114306,6,0,B|169:86|83:53|202:14,1,180,4|4,1:0|0:0,0:0:0:0:
109,17,114927,1,2,2:0:0:0:
225,193,115134,6,0,L|207:86,1,90,2|0,0:2|0:0,0:0:0:0:
304,9,115548,1,4,0:0:0:0:
304,9,115755,1,0,2:0:0:0:
426,141,115962,5,2,0:2:0:0:
436,111,116168,1,2,2:0:0:0:
331,87,116375,5,4,0:0:0:0:
354,176,116582,1,0,2:0:0:0:
452,298,116789,5,2,0:2:0:0:
452,298,117203,1,4,0:0:0:0:
512,231,117410,1,2,2:0:0:0:
512,231,117513,1,2,2:0:0:0:
512,231,117617,6,0,L|419:215,1,90,2|2,0:2|2:0,0:0:0:0:
308,328,118031,1,4,0:0:0:0:
308,328,118237,2,0,L|318:268,1,45,2|0,2:0|2:0,0:0:0:0:
262,208,118444,5,2,0:2:0:0:
259,197,118548,1,2,2:0:0:0:
346,108,118755,1,2,2:0:0:0:
355,85,118858,1,4,0:0:0:0:
301,29,119065,2,0,P|271:37|226:51,1,45,2|0,2:0|2:0,0:0:0:0:
185,139,119272,1,8,0:0:0:0:
163,124,119375,1,8,0:0:0:0:
137,124,119479,1,8,0:0:0:0:
115,140,119582,1,8,0:0:0:0:
93,155,119686,1,8,0:0:0:0:
66,158,119789,1,8,0:0:0:0:
40,151,119893,1,8,0:0:0:0:
26,128,119996,1,8,0:0:0:0:
37,103,120100,5,8,0:0:0:0:
264,19,120513,5,8,0:0:0:0:
238,57,120617,1,8,0:0:0:0:
260,82,120720,1,8,0:0:0:0:
245,109,120824,1,8,0:0:0:0:
251,125,120927,6,0,L|328:153,1,53.9999983520508,4|0,3:1|2:0,0:0:0:0:
361,63,121134,2,0,L|438:35,1,53.9999983520508,8|0,0:0|2:0,0:0:0:0:
510,158,121341,1,2,0:2:0:0:
510,158,121548,1,8,0:0:0:0:
380,327,121755,5,2,0:2:0:0:
375,315,121858,1,0,0:0:0:0:
384,274,121962,1,8,0:0:0:0:
379,262,122065,1,0,0:0:0:0:
394,215,122168,2,0,P|426:227|458:236,1,53.9999983520508,2|0,0:2|2:0,0:0:0:0:
306,283,122375,1,8,0:0:0:0:
462,317,122582,5,2,0:2:0:0:
462,317,122686,2,0,P|494:303|526:294,1,53.9999983520508,0|8,0:0|0:0,0:0:0:0:
315,202,122893,1,0,0:0:0:0:
315,202,122996,1,2,0:2:0:0:
238,224,123203,1,8,0:0:0:0:
150,314,123410,5,2,0:2:0:0:
114,307,123617,1,8,0:0:0:0:
81,208,123824,5,2,0:2:0:0:
0,244,124031,1,8,0:0:0:0:
261,125,124237,6,0,L|184:153,1,53.9999983520508,4|0,3:1|2:0,0:0:0:0:
151,63,124444,2,0,L|74:35,1,53.9999983520508,8|0,0:0|2:0,0:0:0:0:
2,158,124651,1,2,0:2:0:0:
2,158,124858,1,8,0:0:0:0:
172,354,125065,5,2,0:2:0:0:
177,342,125168,1,0,0:0:0:0:
118,215,125375,1,0,0:0:0:0:
118,215,125479,2,0,P|86:227|54:236,1,53.9999983520508,2|0,0:2|2:0,0:0:0:0:
198,247,125686,1,8,0:0:0:0:
243,54,125893,6,0,L|270:186,1,107.999996704102,2|8,0:2|0:0,0:0:0:0:
135,14,126306,2,0,L|108:146,1,107.999996704102,2|8,0:2|0:0,0:0:0:0:
254,41,126720,5,2,0:2:0:0:
123,111,126927,1,8,0:0:0:0:
272,168,127134,6,0,L|363:136,1,53.9999983520508,2|0,0:2|2:0,0:0:0:0:
409,58,127341,2,0,L|500:90,1,53.9999983520508,8|0,0:0|2:0,0:0:0:0:
509,237,127548,5,4,3:1:0:0:
497,243,127651,1,0,0:0:0:0:
457,230,127755,1,8,0:0:0:0:
445,236,127858,1,0,0:0:0:0:
405,223,127962,6,0,P|414:186|422:162,1,53.9999983520508,2|0,0:2|2:0,0:0:0:0:
327,301,128168,2,0,P|318:264|310:240,1,53.9999983520508,8|0,0:0|2:0,0:0:0:0:
257,158,128375,5,2,0:2:0:0:
245,152,128479,1,0,0:0:0:0:
205,165,128582,1,8,0:0:0:0:
193,159,128686,1,0,0:0:0:0:
153,172,128789,6,0,P|162:209|170:233,1,53.9999983520508,2|0,0:2|2:0,0:0:0:0:
75,94,128996,2,0,P|65:131|57:155,1,53.9999983520508,8|0,0:0|2:0,0:0:0:0:
284,41,129203,6,0,P|264:104|255:156,1,107.999996704102,2|8,0:2|0:0,0:0:0:0:
79,231,129617,2,0,P|99:294|108:346,1,107.999996704102,2|8,0:2|0:0,0:0:0:0:
1,211,130031,1,2,0:2:0:0:
1,211,130237,1,8,0:0:0:0:
185,271,130444,5,8,0:0:0:0:
227,244,130548,1,8,0:0:0:0:
254,270,130651,1,8,0:0:0:0:
276,261,130755,1,8,0:0:0:0:
284,271,130858,5,4,3:1:0:0:
309,182,131686,5,2,0:2:0:0:
230,89,132513,6,0,B|169:248|319:200|264:356,1,288,4|2,3:1|2:3,0:0:0:0:
256,349,134375,1,2,2:3:0:0:
247,354,134582,1,2,2:3:0:0:
454,276,134996,5,8,0:0:0:0:
406,331,135203,1,0,0:0:0:0:
324,269,135410,1,8,0:0:0:0:
191,57,135824,6,0,P|103:37|9:14,1,161.999995056153,4|0,1:0|2:0,0:0:0:0:
17,96,136651,2,0,P|85:115|195:140,1,161.999995056153,4|0,1:0|2:0,0:0:0:0:
262,204,137479,6,0,P|270:150|279:97,2,107.999996704102,4|0|4,1:0|0:0|0:0,0:0:0:0:
336,346,138720,5,4,0:0:0:0:
336,346,138927,1,0,0:0:0:0:
336,346,139134,6,0,P|416:335|495:321,1,161.999995056153,4|0,1:0|2:0,0:0:0:0:
483,242,139962,2,0,P|403:257|323:268,1,161.999995056153,4|0,1:0|2:0,0:0:0:0:
223,358,140789,6,0,P|212:297|199:233,2,107.999996704102,4|0|4,1:0|0:0|0:0,0:0:0:0:
132,317,141824,5,0,1:0:0:0:
112,313,141927,1,0,1:0:0:0:
92,310,142031,1,0,0:0:0:0:
72,306,142134,1,0,1:0:0:0:
53,303,142237,1,0,1:0:0:0:
33,299,142341,1,0,1:0:0:0:
13,296,142444,5,4,3:1:0:0:
59,173,142858,1,2,0:2:0:0:
157,37,143272,5,4,0:0:0:0:
192,177,143686,1,2,0:2:0:0:
329,259,144100,6,0,P|314:311|301:363,2,107.999996704102,2|2|4,0:2|0:2|0:0,0:0:0:0:
458,107,145341,5,4,0:0:0:0:
458,107,145548,1,0,1:0:0:0:
458,107,145755,6,0,P|431:65|416:41,1,53.9999983520508,4|0,3:1|2:0,0:0:0:0:
358,5,146168,2,0,P|345:38|330:78,1,53.9999983520508,2|2,0:2|2:0,0:0:0:0:
277,119,146582,2,0,P|263:78|254:45,1,53.9999983520508,4|0,0:0|2:0,0:0:0:0:
187,8,146996,2,0,P|183:50|180:83,1,53.9999983520508,2|2,0:2|2:0,0:0:0:0:
38,192,147410,5,8,0:0:0:0:
57,197,147513,1,8,0:0:0:0:
76,203,147617,1,8,0:0:0:0:
95,208,147720,1,8,0:0:0:0:
114,214,147824,1,8,0:0:0:0:
133,219,147927,1,8,0:0:0:0:
153,225,148031,1,8,0:0:0:0:
172,230,148134,1,8,0:0:0:0:
191,236,148237,1,10,1:0:0:0:
249,323,148444,5,8,0:1:0:0:
279,309,148548,1,8,0:1:0:0:
304,263,148651,5,8,0:1:0:0:
344,280,148755,1,8,0:1:0:0:
387,318,148858,5,8,0:1:0:0:
440,282,148962,1,8,0:1:0:0:
444,264,149065,5,0,0:0:0:0:
446,240,149168,1,0,0:0:0:0:
449,217,149272,1,0,0:0:0:0:
452,194,149375,1,0,0:0:0:0:
455,171,149479,5,4,3:1:0:0:
403,52,149686,1,8,0:0:0:0:
324,150,149893,6,0,P|258:163|169:178,1,135.000005149842,2|0,0:2|1:0,0:0:0:0:
110,186,150203,1,8,0:0:0:0:
110,186,150306,2,0,P|130:246|139:282,1,67.5000025749208,2|0,0:2|2:0,0:0:0:0:
136,96,150513,2,0,P|146:64|157:17,1,67.5000025749208,8|0,0:0|2:0,0:0:0:0:
272,31,150720,6,0,B|340:70|338:5|432:70,1,135.000005149842,2|0,0:2|1:0,0:0:0:0:
503,36,151031,1,8,0:0:0:0:
503,36,151134,2,0,P|486:79|474:120,1,67.5000025749208,2|0,0:2|2:0,0:0:0:0:
421,203,151341,2,0,P|409:158|395:115,1,67.5000025749208,8|0,0:0|2:0,0:0:0:0:
509,271,151548,6,0,P|428:290|337:322,1,135.000005149842,2|0,0:2|1:0,0:0:0:0:
353,335,151858,5,8,0:0:0:0:
318,320,151962,1,2,0:2:0:0:
290,297,152065,1,0,1:0:0:0:
268,266,152168,1,8,0:0:0:0:
243,240,152272,1,0,1:0:0:0:
206,235,152375,6,0,B|182:314|237:301|211:377,1,135.000005149842,4|0,3:1|1:0,0:0:0:0:
138,341,152686,1,8,0:0:0:0:
138,341,152789,2,0,P|92:325|63:319,1,67.5000025749208,2|0,0:2|2:0,0:0:0:0:
40,197,152996,2,0,P|77:186|123:170,1,67.5000025749208,8|0,0:0|2:0,0:0:0:0:
154,31,153203,6,0,P|240:54|323:81,1,135.000005149842,2|0,0:2|1:0,0:0:0:0:
396,70,153513,1,8,0:0:0:0:
396,70,153617,2,0,P|371:122|360:154,1,67.5000025749208,2|0,0:2|1:0,0:0:0:0:
312,217,153824,2,0,P|300:185|289:154,1,67.5000025749208,8|0,0:0|2:0,0:0:0:0:
417,237,154031,6,0,P|401:303|387:369,1,135.000005149842,2|0,0:2|1:0,0:0:0:0:
326,304,154341,1,8,0:0:0:0:
326,304,154444,2,0,P|283:315|247:321,1,67.5000025749208,2|0,0:2|2:0,0:0:0:0:
453,324,154651,2,0,P|491:349|533:371,1,67.5000025749208,8|0,0:0|2:0,0:0:0:0:
505,191,154858,6,0,B|499:127|499:127|494:124|494:124|481:18,1,135.000005149842,2|8,0:2|0:0,0:0:0:0:
477,35,155168,5,0,1:0:0:0:
436,27,155272,1,8,0:0:0:0:
395,28,155375,1,8,0:0:0:0:
359,47,155479,1,8,0:0:0:0:
328,74,155582,1,8,0:0:0:0:
291,91,155686,6,0,B|236:47|224:98|153:41,1,135.000005149842,4|0,3:1|1:0,0:0:0:0:
62,50,155996,1,8,0:0:0:0:
62,50,156100,2,0,P|77:96|87:139,1,67.5000025749208,2|0,0:2|2:0,0:0:0:0:
161,220,156306,2,0,P|174:188|196:144,1,67.5000025749208,8|0,0:0|2:0,0:0:0:0:
254,284,156513,6,0,P|170:300|113:312,1,135.000005149842,2|0,0:2|1:0,0:0:0:0:
34,239,156824,1,8,0:0:0:0:
34,239,156927,2,0,P|21:209|-1:154,1,67.5000025749208,2|0,0:2|1:0,0:0:0:0:
17,344,157134,2,0,P|57:361|102:384,1,67.5000025749208,8|0,0:0|2:0,0:0:0:0:
294,365,157341,6,0,P|300:317|318:203,1,135.000005149842,2|0,0:2|1:0,0:0:0:0:
403,187,157651,1,8,0:0:0:0:
403,187,157755,2,0,P|437:200|485:214,1,67.5000025749208,2|0,0:2|2:0,0:0:0:0:
360,99,157962,2,0,P|320:113|278:134,1,67.5000025749208,8|0,0:0|2:0,0:0:0:0:
182,89,158168,6,0,P|201:156|225:244,1,135.000005149842,2|0,0:2|1:0,0:0:0:0:
210,243,158479,5,8,0:0:0:0:
172,243,158582,1,2,0:2:0:0:
137,234,158686,1,0,1:0:0:0:
110,209,158789,1,8,0:0:0:0:
91,178,158893,1,0,1:0:0:0:
63,154,158996,6,0,P|47:213|23:307,1,135.000005149842,4|0,3:1|1:0,0:0:0:0:
103,360,159306,1,8,0:0:0:0:
103,360,159410,2,0,P|147:352|190:346,1,67.5000025749208,2|0,0:2|2:0,0:0:0:0:
281,311,159617,2,0,P|312:326|343:340,1,67.5000025749208,8|0,0:0|2:0,0:0:0:0:
480,228,159824,6,0,B|389:207|422:255|336:258,1,135.000005149842,2|0,0:2|1:0,0:0:0:0:
436,365,160134,1,8,0:0:0:0:
436,365,160237,2,0,P|442:334|451:300,1,67.5000025749208,2|0,0:2|2:0,0:0:0:0:
347,175,160444,2,0,P|338:142|324:111,1,67.5000025749208,8|0,0:0|2:0,0:0:0:0:
449,50,160651,6,0,P|381:38|316:23,1,135.000005149842,2|0,0:2|1:0,0:0:0:0:
230,48,160962,1,8,0:0:0:0:
230,48,161065,2,0,P|225:89|217:140,1,67.5000025749208,2|0,0:2|2:0,0:0:0:0:
130,195,161272,2,0,P|117:154|102:112,1,67.5000025749208,8|0,0:0|2:0,0:0:0:0:
89,58,161479,1,2,0:2:0:0:
34,265,161893,5,8,0:0:0:0:
69,272,161996,1,8,0:0:0:0:
104,279,162100,1,8,0:0:0:0:
139,287,162203,1,8,0:0:0:0:
174,294,162306,6,0,B|271:278|225:344|332:310,1,144,4|0,3:1|1:0,0:0:0:0:
365,237,162617,1,8,0:0:0:0:
365,237,162720,2,0,P|389:300|412:322,1,72,2|0,0:2|2:0,0:0:0:0:
512,244,162927,2,0,L|416:226,1,72,8|0,0:0|2:0,0:0:0:0:
319,54,163134,6,0,P|383:85|398:158,1,144,2|0,0:2|1:0,0:0:0:0:
314,152,163444,1,8,0:0:0:0:
314,152,163548,2,0,L|227:172,1,72,2|0,0:2|2:0,0:0:0:0:
412,63,163755,2,0,L|482:79,1,72,8|0,0:0|2:0,0:0:0:0:
245,87,163962,6,0,B|190:84|190:84|167:66|167:66|102:59,1,144,2|0,0:2|1:0,0:0:0:0:
26,103,164272,1,8,0:0:0:0:
26,103,164375,2,0,P|15:46|8:24,1,72,2|0,0:2|2:0,0:0:0:0:
130,148,164582,2,0,P|120:182|114:218,1,72,8|0,0:0|2:0,0:0:0:0:
4,355,164789,6,0,P|77:310|130:335,1,144,2|0,0:2|1:0,0:0:0:0:
135,360,165100,1,8,0:0:0:0:
164,375,165203,1,2,0:2:0:0:
196,379,165306,1,0,1:0:0:0:
224,363,165410,1,8,0:0:0:0:
240,335,165513,1,0,1:0:0:0:
247,303,165617,6,0,B|221:224|283:250|253:152,1,144,4|0,3:1|1:0,0:0:0:0:
316,91,165927,1,8,0:0:0:0:
316,91,166031,2,0,P|338:133|380:176,1,72,2|0,0:2|2:0,0:0:0:0:
213,82,166237,2,0,P|183:119|133:153,1,72,8|0,0:0|2:0,0:0:0:0:
408,88,166444,6,0,L|387:247,1,144,2|0,0:2|1:0,0:0:0:0:
326,299,166755,1,8,0:0:0:0:
326,299,166858,2,0,P|289:284|227:277,1,72,2|0,0:2|1:0,0:0:0:0:
382,372,167065,2,0,P|417:364|450:350,1,72,8|0,0:0|2:0,0:0:0:0:
201,208,167272,6,0,P|132:257|118:336,1,144,2|0,0:2|1:0,0:0:0:0:
169,382,167582,1,8,0:0:0:0:
169,382,167686,2,0,L|245:361,1,72,2|0,0:2|2:0,0:0:0:0:
105,233,167893,2,0,L|29:212,1,72,8|0,0:0|2:0,0:0:0:0:
126,61,168100,5,2,0:2:0:0:
126,61,168306,2,0,P|143:94|161:160,1,72,8|0,0:0|1:0,0:0:0:0:
217,220,168513,1,8,0:0:0:0:
246,206,168617,1,8,0:0:0:0:
277,215,168720,1,8,0:0:0:0:
306,230,168824,1,8,0:0:0:0:
338,232,168927,6,0,B|381:212|441:233|391:287|504:282,1,144,4|0,3:1|1:0,0:0:0:0:
506,212,169237,1,8,0:0:0:0:
506,212,169341,2,0,L|518:133,1,72,2|0,0:2|2:0,0:0:0:0:
360,307,169548,2,0,L|370:378,1,72,8|0,0:0|2:0,0:0:0:0:
432,94,169755,6,0,P|349:95|305:139,1,144,2|0,0:2|1:0,0:0:0:0:
219,136,170065,1,8,0:0:0:0:
219,136,170168,2,0,P|235:100|237:43,1,72,2|0,0:2|1:0,0:0:0:0:
258,215,170375,2,0,P|297:212|351:231,1,72,8|0,0:0|2:0,0:0:0:0:
119,89,170582,6,0,L|141:255,1,144,2|0,0:2|1:0,0:0:0:0:
195,308,170893,1,8,0:0:0:0:
195,308,170996,2,0,P|227:316|263:335,1,72,2|0,0:2|2:0,0:0:0:0:
66,276,171203,2,0,P|34:292|0:301,1,72,8|0,0:0|2:0,0:0:0:0:
228,128,171410,6,0,B|282:136|282:136|313:128|313:128|386:143,1,144,2|0,0:2|1:0,0:0:0:0:
400,130,171720,1,8,0:0:0:0:
428,146,171824,1,2,0:2:0:0:
444,174,171927,1,0,1:0:0:0:
440,206,172031,1,8,0:0:0:0:
425,235,172134,1,0,1:0:0:0:
397,252,172237,6,0,P|359:304|342:385,1,144,4|0,3:1|1:0,0:0:0:0:
426,359,172548,1,8,0:0:0:0:
426,359,172651,2,0,L|508:341,1,72,2|0,0:2|2:0,0:0:0:0:
328,291,172858,2,0,L|246:309,1,72,8|0,0:0|2:0,0:0:0:0:
218,62,173065,6,0,P|287:111|280:184,1,144,2|0,0:2|1:0,0:0:0:0:
221,219,173375,1,8,0:0:0:0:
221,219,173479,2,0,L|147:197,1,72,2|0,0:2|2:0,0:0:0:0:
308,85,173686,2,0,L|382:107,1,72,8|0,0:0|2:0,0:0:0:0:
98,37,173893,5,8,0:0:0:0:
93,74,173996,1,8,0:0:0:0:
88,112,174100,1,8,0:0:0:0:
83,149,174203,1,8,0:0:0:0:
31,195,174306,5,8,0:0:0:0:
26,232,174410,1,8,0:0:0:0:
21,269,174513,1,8,0:0:0:0:
16,307,174617,1,8,0:0:0:0:
56,364,174720,5,10,1:0:0:0:
249,315,174927,5,8,0:1:0:0:
252,307,175031,1,8,0:1:0:0:
215,263,175134,5,8,0:1:0:0:
207,265,175237,1,8,0:1:0:0:
185,318,175341,5,8,0:1:0:0:
191,324,175444,1,8,0:1:0:0:
249,315,175548,5,0,1:0:0:0:
252,307,175651,1,0,1:0:0:0:
260,304,175755,1,0,1:0:0:0:
268,302,175858,1,0,1:0:0:0:
277,304,175962,6,0,P|306:315|360:354,1,72,4|0,3:1|2:0,0:0:0:0:
448,223,176168,2,0,P|419:234|365:273,1,72,8|0,0:0|2:0,0:0:0:0:
251,68,176375,6,0,P|288:148|298:221,1,144,2|2,0:2|2:3,0:0:0:0:
205,159,176686,1,8,0:0:0:0:
205,159,176789,2,0,P|161:136|114:134,1,72,2|0,0:2|2:0,0:0:0:0:
362,118,176996,2,0,P|382:72|418:42,1,72,8|0,0:0|2:0,0:0:0:0:
101,61,177203,6,0,L|84:216,1,144,2|2,0:2|2:3,0:0:0:0:
125,293,177513,1,8,0:0:0:0:
125,293,177617,2,0,L|167:225,1,72,2|0,0:2|2:0,0:0:0:0:
19,285,177824,2,0,L|4:206,1,72,8|0,0:0|2:0,0:0:0:0:
228,307,178031,6,0,B|314:273|281:345|387:319,1,144,2|2,0:2|2:3,0:0:0:0:
458,351,178341,1,8,0:0:0:0:
458,351,178444,2,0,P|437:303|427:226,1,72,2|0,1:0|2:0,0:0:0:0:
503,94,178651,1,2,1:0:0:0:
503,94,178755,1,0,0:0:0:0:
503,94,178858,6,0,B|445:79|445:79|414:92|414:92|319:62,1,144,2|2,1:0|2:3,0:0:0:0:
282,79,179168,1,8,0:0:0:0:
282,79,179272,2,0,L|270:-4,1,72,2|0,1:0|2:0,0:0:0:0:
364,161,179479,2,0,L|352:244,1,72,2|0,1:0|2:0,0:0:0:0:
194,124,179686,6,0,P|122:176|19:162,1,144,2|2,1:0|2:3,0:0:0:0:
2,121,179996,1,8,0:0:0:0:
2,121,180100,2,0,P|39:97|73:59,1,72,2|0,1:0|2:0,0:0:0:0:
66,270,180306,2,0,P|34:253|0:244,1,72,2|0,1:0|2:0,0:0:0:0:
211,113,180513,6,0,L|226:202,1,72,2|0,1:0|0:0,0:0:0:0:
169,364,180720,1,2,1:0:0:0:
169,364,180824,1,2,1:0:0:0:
169,364,180927,2,0,L|136:288,1,72,2|0,1:0|2:0,0:0:0:0:
297,353,181134,2,0,L|314:272,1,72,2|0,1:0|2:0,0:0:0:0:
142,175,181341,5,2,1:0:0:0:
142,175,181548,2,0,L|57:187,1,72,8|0,0:0|1:0,0:0:0:0:
179,45,181755,1,8,0:0:0:0:
213,32,181858,1,8,0:0:0:0:
246,47,181962,1,8,0:0:0:0:
269,75,182065,1,8,0:0:0:0:
298,96,182168,6,0,B|384:65|356:127|439:88,1,144,2|2,0:2|2:3,0:0:0:0:
508,134,182479,1,8,0:0:0:0:
508,134,182582,2,0,P|482:149|455:213,1,72,2|0,0:2|2:0,0:0:0:0:
502,31,182789,2,0,P|472:24|427:-27,1,72,8|0,0:0|2:0,0:0:0:0:
336,178,182996,6,0,L|354:356,1,144,2|2,0:2|2:3,0:0:0:0:
431,361,183306,1,8,0:0:0:0:
431,361,183410,2,0,P|467:365|506:385,1,72,2|0,0:2|2:0,0:0:0:0:
260,303,183617,2,0,P|227:318|191:321,1,72,8|0,0:0|2:0,0:0:0:0:
20,148,183824,6,0,P|106:151|140:236,1,144,0|2,0:0|2:3,0:0:0:0:
227,219,184134,1,8,0:0:0:0:
227,219,184237,2,0,P|216:169|222:124,1,72,2|0,0:2|2:0,0:0:0:0:
121,283,184444,2,0,P|73:264|27:263,1,72,8|2,0:0|2:0,0:0:0:0:
159,39,184651,6,0,L|321:73,1,144,2|2,0:2|2:3,0:0:0:0:
439,61,184962,1,8,0:0:0:0:
439,61,185065,2,0,P|371:109|343:187,1,144,2|2,1:0|1:0,0:0:0:0:
207,217,185375,1,0,0:0:0:0:
207,217,185479,6,0,P|275:265|303:343,1,144,2|2,1:0|2:3,0:0:0:0:
379,368,185789,1,8,0:0:0:0:
379,368,185893,2,0,P|381:332|399:285,1,72,2|0,1:0|2:0,0:0:0:0:
241,384,186100,2,0,P|221:353|193:329,1,72,2|0,1:0|2:0,0:0:0:0:
306,85,186306,6,0,L|285:241,1,144,2|2,1:0|2:3,0:0:0:0:
197,205,186617,1,8,0:0:0:0:
197,205,186720,2,0,P|144:212|113:250,1,72,2|0,1:0|2:0,0:0:0:0:
324,161,186927,2,0,P|355:178|390:178,1,72,2|0,1:0|2:0,0:0:0:0:
181,28,187134,6,0,P|105:40|85:125,1,144,2|2,1:0|2:3,0:0:0:0:
171,124,187444,1,8,0:0:0:0:
171,124,187548,2,0,B|218:115|260:160|218:201|286:221,1,144,2|8,1:0|0:0,0:0:0:0:
170,262,187858,5,0,0:0:0:0:
170,262,187962,2,0,L|79:246,1,72,2|0,1:0|0:0,0:0:0:0:
222,349,188168,5,8,0:0:0:0:
294,200,188375,5,8,0:1:0:0:
341,174,188479,1,8,0:1:0:0:
368,210,188582,1,8,0:1:0:0:
407,195,188686,1,8,0:1:0:0:
449,233,188789,6,0,P|454:165|465:3,1,216,4|0,3:1|2:0,0:0:0:0:
420,54,189203,5,8,0:0:0:0:
396,47,189306,1,0,1:0:0:0:
374,40,189410,1,0,1:0:0:0:
353,34,189513,1,0,1:0:0:0:
330,28,189617,2,0,B|254:12|276:86|188:62,1,144,0|0,0:0|1:0,0:0:0:0:
133,11,190031,6,0,P|155:127|163:192,1,144,8|0,0:0|1:0,0:0:0:0:
59,257,190444,6,0,P|107:201|262:190,1,216,0|0,0:0|2:0,0:0:0:0:
241,181,190858,5,8,0:0:0:0:
323,282,191065,5,0,1:0:0:0:
318,301,191168,1,0,1:0:0:0:
313,318,191272,2,0,B|186:262|215:386|74:348,1,216,0|0,0:0|2:0,0:0:0:0:
59,257,191686,6,0,P|172:289|261:321,1,144,8|0,0:0|1:0,0:0:0:0:
418,358,191996,5,0,1:0:0:0:
418,358,192100,2,0,P|406:270|386:120,1,216,4|0,3:1|2:0,0:0:0:0:
413,52,192513,5,8,0:0:0:0:
387,45,192617,1,0,1:0:0:0:
363,38,192720,1,0,1:0:0:0:
341,31,192824,1,0,1:0:0:0:
320,27,192927,6,0,L|229:54,1,72,0|0,0:0|2:0,0:0:0:0:
93,64,193134,2,0,P|131:77|179:97,1,72,0|0,1:0|2:0,0:0:0:0:
310,145,193341,6,0,L|234:202,1,72,8|0,0:0|1:0,0:0:0:0:
107,252,193548,2,0,P|147:250|199:251,1,72,0|0,1:0|1:0,0:0:0:0:
241,335,193755,6,0,P|293:353|385:383,1,144,0|0,0:0|1:0,0:0:0:0:
414,223,194065,5,0,1:0:0:0:
414,223,194168,2,0,P|390:242|354:272,1,72,8|0,0:0|1:0,0:0:0:0:
245,343,194375,2,0,P|310:368|342:381,1,72,0|0,1:0|1:0,0:0:0:0:
467,353,194582,6,0,P|462:248|457:90,1,216,0|0,0:0|2:0,0:0:0:0:
442,32,194996,5,8,0:0:0:0:
416,48,195100,1,8,0:0:0:0:
390,64,195203,1,8,0:0:0:0:
364,79,195306,1,8,0:0:0:0:
337,93,195410,6,0,P|285:71|224:50,1,76.5000014591217,4|0,3:1|1:0,0:0:0:0:
195,27,195617,2,0,P|148:42|108:59,1,76.5000014591217,2|8,2:3|0:0,0:0:0:0:
26,27,195824,6,0,P|42:115|54:218,1,153.000002918243,0|8,0:0|0:0,0:0:0:0:
45,198,196134,5,0,1:0:0:0:
85,207,196237,1,0,0:0:0:0:
117,234,196341,1,0,1:0:0:0:
126,275,196444,1,2,2:3:0:0:
144,312,196548,1,8,0:0:0:0:
179,334,196651,5,0,0:0:0:0:
185,313,196755,1,0,1:0:0:0:
190,291,196858,1,8,0:0:0:0:
196,270,196962,1,0,1:0:0:0:
203,250,197065,6,0,P|210:220|242:78,1,153.000002918243,0|2,0:0|2:3,0:0:0:0:
307,0,197375,5,8,0:0:0:0:
307,0,197479,2,0,P|373:33|459:76,1,153.000002918243,0|8,0:0|0:0,0:0:0:0:
451,78,197789,5,0,1:0:0:0:
432,115,197893,1,0,0:0:0:0:
424,156,197996,1,0,1:0:0:0:
431,198,198100,1,2,2:3:0:0:
434,240,198203,1,8,0:0:0:0:
423,280,198306,5,0,0:0:0:0:
403,270,198410,1,0,1:0:0:0:
383,260,198513,1,8,0:0:0:0:
363,251,198617,1,0,1:0:0:0:
343,243,198720,6,0,B|252:227|304:314|171:312,1,153.000002918243,4|2,3:1|2:3,0:0:0:0:
109,352,199031,5,8,0:0:0:0:
109,352,199134,2,0,P|97:299|83:240,1,76.5000014591217,0|0,0:0|2:0,0:0:0:0:
227,160,199341,2,0,P|217:198|204:248,1,76.5000014591217,8|0,0:0|2:0,0:0:0:0:
29,198,199548,6,0,P|27:102|11:0,1,153.000002918243,0|2,0:0|2:3,0:0:0:0:
22,24,199858,5,8,0:0:0:0:
67,21,199962,1,0,0:0:0:0:
110,31,200065,1,0,1:0:0:0:
150,53,200168,1,8,0:0:0:0:
192,68,200272,1,0,1:0:0:0:
223,58,200375,5,8,1:0:0:0:
249,52,200479,1,8,1:0:0:0:
275,48,200582,1,8,1:0:0:0:
302,45,200686,1,8,1:0:0:0:
317,25,200789,1,8,1:0:0:0:
338,24,200893,1,8,1:0:0:0:
360,25,200996,1,8,1:0:0:0:
382,27,201100,1,8,1:0:0:0:
404,29,201203,1,4,3:1:0:0:
372,250,203260,5,0,0:0:0:0:
435,214,203604,1,0,0:0:0:0:
492,269,203949,2,0,P|468:338|454:381,1,90,2|0,0:0|0:0,0:0:0:0:
176,323,204639,5,0,0:0:0:0:
239,359,204983,1,0,0:0:0:0:
296,304,205328,2,0,P|272:235|258:192,1,90,2|0,0:0|0:0,0:0:0:0:
219,23,206018,5,0,0:0:0:0:
161,67,206363,1,0,0:0:0:0:
87,54,206708,1,2,0:0:0:0:
26,123,207053,5,0,0:0:0:0:
33,135,207225,1,0,0:0:0:0:
39,146,207397,1,2,0:0:0:0:
84,212,207742,5,0,0:0:0:0:
39,271,208087,2,0,P|15:340|1:383,1,90,2|0,0:0|0:0,0:0:0:0:
307,360,208777,5,0,0:0:0:0:
261,297,209122,1,0,0:0:0:0:
305,231,209466,2,0,P|291:189|275:145,1,90,2|0,0:0|0:0,0:0:0:0:
469,13,210156,5,0,0:0:0:0:
423,76,210501,1,0,0:0:0:0:
467,142,210846,2,0,P|453:184|437:227,1,90,2|0,0:0|0:0,0:0:0:0:
305,231,211535,5,0,0:0:0:0:
225,218,211880,1,0,0:0:0:0:
217,137,212225,1,2,0:0:0:0:
278,75,212570,5,0,0:0:0:0:
285,87,212742,1,0,0:0:0:0:
292,97,212914,1,2,0:0:0:0:
334,159,213260,5,0,0:0:0:0:
305,231,213604,2,0,P|316:289|328:344,1,90,2|0,0:0|0:0,0:0:0:0:
148,316,214294,5,0,0:0:0:0:
85,352,214638,1,0,0:0:0:0:
28,297,214983,2,0,P|52:228|66:185,1,90,2|0,0:0|0:0,0:0:0:0:
261,44,215674,5,0,0:0:0:0:
198,8,216018,1,0,0:0:0:0:
141,63,216363,2,0,P|165:132|179:175,1,90,2|0,0:0|0:0,0:0:0:0:
229,283,217053,5,0,0:0:0:0:
299,263,217398,1,0,0:0:0:0:
333,196,217743,1,2,0:0:0:0:
425,189,218088,5,0,0:0:0:0:
430,201,218260,1,0,0:0:0:0:
435,213,218432,1,2,0:0:0:0:
462,288,218777,5,0,0:0:0:0:
423,355,219122,2,0,P|364:341|298:330,1,90,2|0,0:0|0:0,0:0:0:0:
258,191,219811,5,0,0:0:0:0:
198,237,220156,1,0,0:0:0:0:
129,195,220501,2,0,P|74:206|27:219,1,90,2|0,0:0|0:0,0:0:0:0:
120,104,221191,5,0,0:0:0:0:
180,58,221536,1,0,0:0:0:0:
257,73,221880,1,2,0:0:0:0:
