osu file format v14

[General]
AudioFilename: audio.mp3
AudioLeadIn: 0
PreviewTime: 46942
Countdown: 0
SampleSet: Soft
StackLeniency: 0.4
Mode: 0
LetterboxInBreaks: 0
EpilepsyWarning: 1
WidescreenStoryboard: 1

[Editor]
DistanceSpacing: 1
BeatDivisor: 2
GridSize: 32
TimelineZoom: 2.930006

[Metadata]
Title:Ai no Sukima
TitleUnicode:哀の隙間
Artist:umu.
ArtistUnicode:ゆーむ
Creator:Half
Version:Normal
Source:
Tags:MIMI feat. 初音ミク Hatsune Miku 佐藤主税 歌ってみた vocaloid japanese female vocalist dora- doraemonelf pop jpop Sorrow's Gap
BeatmapID:2856079
BeatmapSetID:1371996

[Difficulty]
HPDrainRate:4
CircleSize:3
OverallDifficulty:5
ApproachRate:6
SliderMultiplier:1
SliderTickRate:1

[Events]
//Background and Video events
0,0,"BG.jpg",0,0
//Break Periods
2,29495,37657
2,67142,84715
//Storyboard Layer 0 (Background)
//Storyboard Layer 1 (Fail)
//Storyboard Layer 2 (Pass)
//Storyboard Layer 3 (Foreground)
Sprite,Foreground,Centre,"sb/d.png",0,0 S,7,10471,11271,0.3952487,0 M,7,10471,11271,191,147,254,200 P,0,10471,11271,A F,0,29221,,1,0
Sprite,Foreground,Centre,"sb/d.png",0,0 S,7,10471,11271,0.3952487,0 M,7,10471,11271,191,147,202,88 P,0,10471,11271,A F,0,29221,,1,0
Sprite,Foreground,Centre,"sb/d.png",0,0 S,7,10471,11271,0.3952487,0 M,7,10471,11271,191,147,202,228 P,0,10471,11271,A F,0,29221,,1,0
Sprite,Foreground,Centre,"sb/d.png",0,0 S,7,10471,11271,0.3952487,0 M,7,10471,11271,191,147,179,242 P,0,10471,11271,A F,0,29221,,1,0
Sprite,Foreground,Centre,"sb/d.png",0,0 S,7,10471,11271,0.3952487,0 M,7,10471,11271,191,147,145,105 P,0,10471,11271,A F,0,29221,,1,0
Sprite,Foreground,Centre,"sb/d.png",0,0 S,7,10471,11271,0.3952487,0 M,7,10471,11271,191,147,184,173 P,0,10471,11271,A F,0,29221,,1,0
Sprite,Foreground,Centre,"sb/d.png",0,0 S,7,10471,11271,0.3952487,0 M,7,10471,11271,191,147,184,243 P,0,10471,11271,A F,0,29221,,1,0
Sprite,Foreground,Centre,"sb/d.png",0,0 S,7,10471,11271,0.3952487,0 M,7,10471,11271,191,147,97,219 P,0,10471,11271,A F,0,29221,,1,0
Sprite,Foreground,Centre,"sb/d.png",0,0 S,7,10471,11271,0.3952487,0 M,7,10471,11271,191,147,290,182 P,0,10471,11271,A F,0,29221,,1,0
Sprite,Foreground,Centre,"sb/d.png",0,0 S,7,10471,11271,0.3952487,0 M,7,10471,11271,191,147,153,210 P,0,10471,11271,A F,0,29221,,1,0
Sprite,Foreground,Centre,"sb/d.png",0,0 S,7,11060,11860,0.4196104,0 M,7,11060,11860,114,211,212,117 P,0,11060,11860,A F,0,29221,,1,0
Sprite,Foreground,Centre,"sb/d.png",0,0 S,7,11060,11860,0.4196104,0 M,7,11060,11860,114,211,153,216 P,0,11060,11860,A F,0,29221,,1,0
Sprite,Foreground,Centre,"sb/d.png",0,0 S,7,11060,11860,0.4196104,0 M,7,11060,11860,114,211,200,248 P,0,11060,11860,A F,0,29221,,1,0
Sprite,Foreground,Centre,"sb/d.png",0,0 S,7,11060,11860,0.4196104,0 M,7,11060,11860,114,211,123,127 P,0,11060,11860,A F,0,29221,,1,0
Sprite,Foreground,Centre,"sb/d.png",0,0 S,7,11060,11860,0.4196104,0 M,7,11060,11860,114,211,51,201 P,0,11060,11860,A F,0,29221,,1,0
Sprite,Foreground,Centre,"sb/d.png",0,0 S,7,11060,11860,0.4196104,0 M,7,11060,11860,114,211,73,308 P,0,11060,11860,A F,0,29221,,1,0
Sprite,Foreground,Centre,"sb/d.png",0,0 S,7,11060,11860,0.4196104,0 M,7,11060,11860,114,211,142,263 P,0,11060,11860,A F,0,29221,,1,0
Sprite,Foreground,Centre,"sb/d.png",0,0 S,7,11060,11860,0.4196104,0 M,7,11060,11860,114,211,20,187 P,0,11060,11860,A F,0,29221,,1,0
Sprite,Foreground,Centre,"sb/d.png",0,0 S,7,11060,11860,0.4196104,0 M,7,11060,11860,114,211,82,302 P,0,11060,11860,A F,0,29221,,1,0
Sprite,Foreground,Centre,"sb/d.png",0,0 S,7,11060,11860,0.4196104,0 M,7,11060,11860,114,211,115,254 P,0,11060,11860,A F,0,29221,,1,0
Sprite,Foreground,Centre,"sb/d.png",0,0 S,7,11648,12448,0.2737916,0 M,7,11648,12448,156,396,110,477 P,0,11648,12448,A F,0,29221,,1,0
Sprite,Foreground,Centre,"sb/d.png",0,0 S,7,11648,12448,0.2737916,0 M,7,11648,12448,156,396,214,363 P,0,11648,12448,A F,0,29221,,1,0
Sprite,Foreground,Centre,"sb/d.png",0,0 S,7,11648,12448,0.2737916,0 M,7,11648,12448,156,396,147,325 P,0,11648,12448,A F,0,29221,,1,0
Sprite,Foreground,Centre,"sb/d.png",0,0 S,7,11648,12448,0.2737916,0 M,7,11648,12448,156,396,100,378 P,0,11648,12448,A F,0,29221,,1,0
Sprite,Foreground,Centre,"sb/d.png",0,0 S,7,11648,12448,0.2737916,0 M,7,11648,12448,156,396,199,419 P,0,11648,12448,A F,0,29221,,1,0
Sprite,Foreground,Centre,"sb/d.png",0,0 S,7,11648,12448,0.2737916,0 M,7,11648,12448,156,396,153,334 P,0,11648,12448,A F,0,29221,,1,0
Sprite,Foreground,Centre,"sb/d.png",0,0 S,7,11648,12448,0.2737916,0 M,7,11648,12448,156,396,231,461 P,0,11648,12448,A F,0,29221,,1,0
Sprite,Foreground,Centre,"sb/d.png",0,0 S,7,11648,12448,0.2737916,0 M,7,11648,12448,156,396,203,467 P,0,11648,12448,A F,0,29221,,1,0
Sprite,Foreground,Centre,"sb/d.png",0,0 S,7,11648,12448,0.2737916,0 M,7,11648,12448,156,396,191,420 P,0,11648,12448,A F,0,29221,,1,0
Sprite,Foreground,Centre,"sb/d.png",0,0 S,7,11648,12448,0.2737916,0 M,7,11648,12448,156,396,99,475 P,0,11648,12448,A F,0,29221,,1,0
Sprite,Foreground,Centre,"sb/d.png",0,0 S,7,12236,13036,0.429288,0 M,7,12236,13036,318,317,235,384 P,0,12236,13036,A F,0,29221,,1,0
Sprite,Foreground,Centre,"sb/d.png",0,0 S,7,12236,13036,0.429288,0 M,7,12236,13036,318,317,252,345 P,0,12236,13036,A F,0,29221,,1,0
Sprite,Foreground,Centre,"sb/d.png",0,0 S,7,12236,13036,0.429288,0 M,7,12236,13036,318,317,383,260 P,0,12236,13036,A F,0,29221,,1,0
Sprite,Foreground,Centre,"sb/d.png",0,0 S,7,12236,13036,0.429288,0 M,7,12236,13036,318,317,417,313 P,0,12236,13036,A F,0,29221,,1,0
Sprite,Foreground,Centre,"sb/d.png",0,0 S,7,12236,13036,0.429288,0 M,7,12236,13036,318,317,348,360 P,0,12236,13036,A F,0,29221,,1,0
Sprite,Foreground,Centre,"sb/d.png",0,0 S,7,12236,13036,0.429288,0 M,7,12236,13036,318,317,379,237 P,0,12236,13036,A F,0,29221,,1,0
Sprite,Foreground,Centre,"sb/d.png",0,0 S,7,12236,13036,0.429288,0 M,7,12236,13036,318,317,363,360 P,0,12236,13036,A F,0,29221,,1,0
Sprite,Foreground,Centre,"sb/d.png",0,0 S,7,12236,13036,0.429288,0 M,7,12236,13036,318,317,243,398 P,0,12236,13036,A F,0,29221,,1,0
Sprite,Foreground,Centre,"sb/d.png",0,0 S,7,12236,13036,0.429288,0 M,7,12236,13036,318,317,255,312 P,0,12236,13036,A F,0,29221,,1,0
Sprite,Foreground,Centre,"sb/d.png",0,0 S,7,12236,13036,0.429288,0 M,7,12236,13036,318,317,326,282 P,0,12236,13036,A F,0,29221,,1,0
Sprite,Foreground,Centre,"sb/d.png",0,0 S,7,12530,13330,0.3842073,0 M,7,12530,13330,408,360,401,426 P,0,12530,13330,A F,0,29221,,1,0
Sprite,Foreground,Centre,"sb/d.png",0,0 S,7,12530,13330,0.3842073,0 M,7,12530,13330,408,360,469,418 P,0,12530,13330,A F,0,29221,,1,0
Sprite,Foreground,Centre,"sb/d.png",0,0 S,7,12530,13330,0.3842073,0 M,7,12530,13330,408,360,460,447 P,0,12530,13330,A F,0,29221,,1,0
Sprite,Foreground,Centre,"sb/d.png",0,0 S,7,12530,13330,0.3842073,0 M,7,12530,13330,408,360,366,364 P,0,12530,13330,A F,0,29221,,1,0
Sprite,Foreground,Centre,"sb/d.png",0,0 S,7,12530,13330,0.3842073,0 M,7,12530,13330,408,360,440,326 P,0,12530,13330,A F,0,29221,,1,0
Sprite,Foreground,Centre,"sb/d.png",0,0 S,7,12530,13330,0.3842073,0 M,7,12530,13330,408,360,365,424 P,0,12530,13330,A F,0,29221,,1,0
Sprite,Foreground,Centre,"sb/d.png",0,0 S,7,12530,13330,0.3842073,0 M,7,12530,13330,408,360,352,297 P,0,12530,13330,A F,0,29221,,1,0
Sprite,Foreground,Centre,"sb/d.png",0,0 S,7,12530,13330,0.3842073,0 M,7,12530,13330,408,360,321,384 P,0,12530,13330,A F,0,29221,,1,0
Sprite,Foreground,Centre,"sb/d.png",0,0 S,7,12530,13330,0.3842073,0 M,7,12530,13330,408,360,446,386 P,0,12530,13330,A F,0,29221,,1,0
Sprite,Foreground,Centre,"sb/d.png",0,0 S,7,12530,13330,0.3842073,0 M,7,12530,13330,408,360,493,304 P,0,12530,13330,A F,0,29221,,1,0
Sprite,Foreground,Centre,"sb/d.png",0,0 S,7,12824,13624,0.4357415,0 M,7,12824,13624,498,316,411,396 P,0,12824,13624,A F,0,29221,,1,0
Sprite,Foreground,Centre,"sb/d.png",0,0 S,7,12824,13624,0.4357415,0 M,7,12824,13624,498,316,533,234 P,0,12824,13624,A F,0,29221,,1,0
Sprite,Foreground,Centre,"sb/d.png",0,0 S,7,12824,13624,0.4357415,0 M,7,12824,13624,498,316,427,237 P,0,12824,13624,A F,0,29221,,1,0
Sprite,Foreground,Centre,"sb/d.png",0,0 S,7,12824,13624,0.4357415,0 M,7,12824,13624,498,316,519,406 P,0,12824,13624,A F,0,29221,,1,0
Sprite,Foreground,Centre,"sb/d.png",0,0 S,7,12824,13624,0.4357415,0 M,7,12824,13624,498,316,496,245 P,0,12824,13624,A F,0,29221,,1,0
Sprite,Foreground,Centre,"sb/d.png",0,0 S,7,12824,13624,0.4357415,0 M,7,12824,13624,498,316,533,329 P,0,12824,13624,A F,0,29221,,1,0
Sprite,Foreground,Centre,"sb/d.png",0,0 S,7,12824,13624,0.4357415,0 M,7,12824,13624,498,316,443,339 P,0,12824,13624,A F,0,29221,,1,0
Sprite,Foreground,Centre,"sb/d.png",0,0 S,7,12824,13624,0.4357415,0 M,7,12824,13624,498,316,399,288 P,0,12824,13624,A F,0,29221,,1,0
Sprite,Foreground,Centre,"sb/d.png",0,0 S,7,12824,13624,0.4357415,0 M,7,12824,13624,498,316,568,228 P,0,12824,13624,A F,0,29221,,1,0
Sprite,Foreground,Centre,"sb/d.png",0,0 S,7,12824,13624,0.4357415,0 M,7,12824,13624,498,316,454,356 P,0,12824,13624,A F,0,29221,,1,0
Sprite,Foreground,Centre,"sb/d.png",0,0 S,7,13412,14212,0.4417161,0 M,7,13412,14212,450,138,547,115 P,0,13412,14212,A F,0,29221,,1,0
Sprite,Foreground,Centre,"sb/d.png",0,0 S,7,13412,14212,0.4417161,0 M,7,13412,14212,450,138,454,94 P,0,13412,14212,A F,0,29221,,1,0
Sprite,Foreground,Centre,"sb/d.png",0,0 S,7,13412,14212,0.4417161,0 M,7,13412,14212,450,138,451,144 P,0,13412,14212,A F,0,29221,,1,0
Sprite,Foreground,Centre,"sb/d.png",0,0 S,7,13412,14212,0.4417161,0 M,7,13412,14212,450,138,361,94 P,0,13412,14212,A F,0,29221,,1,0
Sprite,Foreground,Centre,"sb/d.png",0,0 S,7,13412,14212,0.4417161,0 M,7,13412,14212,450,138,449,207 P,0,13412,14212,A F,0,29221,,1,0
Sprite,Foreground,Centre,"sb/d.png",0,0 S,7,13412,14212,0.4417161,0 M,7,13412,14212,450,138,472,58 P,0,13412,14212,A F,0,29221,,1,0
Sprite,Foreground,Centre,"sb/d.png",0,0 S,7,13412,14212,0.4417161,0 M,7,13412,14212,450,138,498,118 P,0,13412,14212,A F,0,29221,,1,0
Sprite,Foreground,Centre,"sb/d.png",0,0 S,7,13412,14212,0.4417161,0 M,7,13412,14212,450,138,536,64 P,0,13412,14212,A F,0,29221,,1,0
Sprite,Foreground,Centre,"sb/d.png",0,0 S,7,13412,14212,0.4417161,0 M,7,13412,14212,450,138,489,161 P,0,13412,14212,A F,0,29221,,1,0
Sprite,Foreground,Centre,"sb/d.png",0,0 S,7,13412,14212,0.4417161,0 M,7,13412,14212,450,138,516,175 P,0,13412,14212,A F,0,29221,,1,0
Sprite,Foreground,Centre,"sb/d.png",0,0 S,7,14001,14801,0.3639485,0 M,7,14001,14801,364,190,298,126 P,0,14001,14801,A F,0,29221,,1,0
Sprite,Foreground,Centre,"sb/d.png",0,0 S,7,14001,14801,0.3639485,0 M,7,14001,14801,364,190,385,140 P,0,14001,14801,A F,0,29221,,1,0
Sprite,Foreground,Centre,"sb/d.png",0,0 S,7,14001,14801,0.3639485,0 M,7,14001,14801,364,190,463,203 P,0,14001,14801,A F,0,29221,,1,0
Sprite,Foreground,Centre,"sb/d.png",0,0 S,7,14001,14801,0.3639485,0 M,7,14001,14801,364,190,276,142 P,0,14001,14801,A F,0,29221,,1,0
Sprite,Foreground,Centre,"sb/d.png",0,0 S,7,14001,14801,0.3639485,0 M,7,14001,14801,364,190,432,203 P,0,14001,14801,A F,0,29221,,1,0
Sprite,Foreground,Centre,"sb/d.png",0,0 S,7,14001,14801,0.3639485,0 M,7,14001,14801,364,190,393,193 P,0,14001,14801,A F,0,29221,,1,0
Sprite,Foreground,Centre,"sb/d.png",0,0 S,7,14001,14801,0.3639485,0 M,7,14001,14801,364,190,458,105 P,0,14001,14801,A F,0,29221,,1,0
Sprite,Foreground,Centre,"sb/d.png",0,0 S,7,14001,14801,0.3639485,0 M,7,14001,14801,364,190,366,121 P,0,14001,14801,A F,0,29221,,1,0
Sprite,Foreground,Centre,"sb/d.png",0,0 S,7,14001,14801,0.3639485,0 M,7,14001,14801,364,190,426,218 P,0,14001,14801,A F,0,29221,,1,0
Sprite,Foreground,Centre,"sb/d.png",0,0 S,7,14001,14801,0.3639485,0 M,7,14001,14801,364,190,379,200 P,0,14001,14801,A F,0,29221,,1,0
Sprite,Foreground,Centre,"sb/d.png",0,0 S,7,14589,15389,0.3844979,0 M,7,14589,15389,281,133,379,93 P,0,14589,15389,A F,0,29221,,1,0
Sprite,Foreground,Centre,"sb/d.png",0,0 S,7,14589,15389,0.3844979,0 M,7,14589,15389,281,133,193,126 P,0,14589,15389,A F,0,29221,,1,0
Sprite,Foreground,Centre,"sb/d.png",0,0 S,7,14589,15389,0.3844979,0 M,7,14589,15389,281,133,277,76 P,0,14589,15389,A F,0,29221,,1,0
Sprite,Foreground,Centre,"sb/d.png",0,0 S,7,14589,15389,0.3844979,0 M,7,14589,15389,281,133,195,79 P,0,14589,15389,A F,0,29221,,1,0
Sprite,Foreground,Centre,"sb/d.png",0,0 S,7,14589,15389,0.3844979,0 M,7,14589,15389,281,133,211,122 P,0,14589,15389,A F,0,29221,,1,0
Sprite,Foreground,Centre,"sb/d.png",0,0 S,7,14589,15389,0.3844979,0 M,7,14589,15389,281,133,271,36 P,0,14589,15389,A F,0,29221,,1,0
Sprite,Foreground,Centre,"sb/d.png",0,0 S,7,14589,15389,0.3844979,0 M,7,14589,15389,281,133,258,196 P,0,14589,15389,A F,0,29221,,1,0
Sprite,Foreground,Centre,"sb/d.png",0,0 S,7,14589,15389,0.3844979,0 M,7,14589,15389,281,133,221,215 P,0,14589,15389,A F,0,29221,,1,0
Sprite,Foreground,Centre,"sb/d.png",0,0 S,7,14589,15389,0.3844979,0 M,7,14589,15389,281,133,186,134 P,0,14589,15389,A F,0,29221,,1,0
Sprite,Foreground,Centre,"sb/d.png",0,0 S,7,14589,15389,0.3844979,0 M,7,14589,15389,281,133,373,231 P,0,14589,15389,A F,0,29221,,1,0
Sprite,Foreground,Centre,"sb/d.png",0,0 S,7,15177,15977,0.253374,0 M,7,15177,15977,130,264,160,219 P,0,15177,15977,A F,0,29221,,1,0
Sprite,Foreground,Centre,"sb/d.png",0,0 S,7,15177,15977,0.253374,0 M,7,15177,15977,130,264,223,281 P,0,15177,15977,A F,0,29221,,1,0
Sprite,Foreground,Centre,"sb/d.png",0,0 S,7,15177,15977,0.253374,0 M,7,15177,15977,130,264,184,228 P,0,15177,15977,A F,0,29221,,1,0
Sprite,Foreground,Centre,"sb/d.png",0,0 S,7,15177,15977,0.253374,0 M,7,15177,15977,130,264,114,358 P,0,15177,15977,A F,0,29221,,1,0
Sprite,Foreground,Centre,"sb/d.png",0,0 S,7,15177,15977,0.253374,0 M,7,15177,15977,130,264,207,358 P,0,15177,15977,A F,0,29221,,1,0
Sprite,Foreground,Centre,"sb/d.png",0,0 S,7,15177,15977,0.253374,0 M,7,15177,15977,130,264,81,190 P,0,15177,15977,A F,0,29221,,1,0
Sprite,Foreground,Centre,"sb/d.png",0,0 S,7,15177,15977,0.253374,0 M,7,15177,15977,130,264,209,199 P,0,15177,15977,A F,0,29221,,1,0
Sprite,Foreground,Centre,"sb/d.png",0,0 S,7,15177,15977,0.253374,0 M,7,15177,15977,130,264,206,272 P,0,15177,15977,A F,0,29221,,1,0
Sprite,Foreground,Centre,"sb/d.png",0,0 S,7,15177,15977,0.253374,0 M,7,15177,15977,130,264,187,266 P,0,15177,15977,A F,0,29221,,1,0
Sprite,Foreground,Centre,"sb/d.png",0,0 S,7,15177,15977,0.253374,0 M,7,15177,15977,130,264,100,362 P,0,15177,15977,A F,0,29221,,1,0
Sprite,Foreground,Centre,"sb/d.png",0,0 S,7,15765,16565,0.2566886,0 M,7,15765,16565,188,342,226,266 P,0,15765,16565,A F,0,29221,,1,0
Sprite,Foreground,Centre,"sb/d.png",0,0 S,7,15765,16565,0.2566886,0 M,7,15765,16565,188,342,126,341 P,0,15765,16565,A F,0,29221,,1,0
Sprite,Foreground,Centre,"sb/d.png",0,0 S,7,15765,16565,0.2566886,0 M,7,15765,16565,188,342,204,294 P,0,15765,16565,A F,0,29221,,1,0
Sprite,Foreground,Centre,"sb/d.png",0,0 S,7,15765,16565,0.2566886,0 M,7,15765,16565,188,342,150,290 P,0,15765,16565,A F,0,29221,,1,0
Sprite,Foreground,Centre,"sb/d.png",0,0 S,7,15765,16565,0.2566886,0 M,7,15765,16565,188,342,244,268 P,0,15765,16565,A F,0,29221,,1,0
Sprite,Foreground,Centre,"sb/d.png",0,0 S,7,15765,16565,0.2566886,0 M,7,15765,16565,188,342,210,353 P,0,15765,16565,A F,0,29221,,1,0
Sprite,Foreground,Centre,"sb/d.png",0,0 S,7,15765,16565,0.2566886,0 M,7,15765,16565,188,342,219,310 P,0,15765,16565,A F,0,29221,,1,0
Sprite,Foreground,Centre,"sb/d.png",0,0 S,7,15765,16565,0.2566886,0 M,7,15765,16565,188,342,92,261 P,0,15765,16565,A F,0,29221,,1,0
Sprite,Foreground,Centre,"sb/d.png",0,0 S,7,15765,16565,0.2566886,0 M,7,15765,16565,188,342,263,384 P,0,15765,16565,A F,0,29221,,1,0
Sprite,Foreground,Centre,"sb/d.png",0,0 S,7,15765,16565,0.2566886,0 M,7,15765,16565,188,342,266,372 P,0,15765,16565,A F,0,29221,,1,0
Sprite,Foreground,Centre,"sb/d.png",0,0 S,7,16354,17154,0.3010615,0 M,7,16354,17154,375,299,327,293 P,0,16354,17154,A F,0,29221,,1,0
Sprite,Foreground,Centre,"sb/d.png",0,0 S,7,16354,17154,0.3010615,0 M,7,16354,17154,375,299,314,376 P,0,16354,17154,A F,0,29221,,1,0
Sprite,Foreground,Centre,"sb/d.png",0,0 S,7,16354,17154,0.3010615,0 M,7,16354,17154,375,299,373,326 P,0,16354,17154,A F,0,29221,,1,0
Sprite,Foreground,Centre,"sb/d.png",0,0 S,7,16354,17154,0.3010615,0 M,7,16354,17154,375,299,338,272 P,0,16354,17154,A F,0,29221,,1,0
Sprite,Foreground,Centre,"sb/d.png",0,0 S,7,16354,17154,0.3010615,0 M,7,16354,17154,375,299,323,398 P,0,16354,17154,A F,0,29221,,1,0
Sprite,Foreground,Centre,"sb/d.png",0,0 S,7,16354,17154,0.3010615,0 M,7,16354,17154,375,299,397,199 P,0,16354,17154,A F,0,29221,,1,0
Sprite,Foreground,Centre,"sb/d.png",0,0 S,7,16354,17154,0.3010615,0 M,7,16354,17154,375,299,471,391 P,0,16354,17154,A F,0,29221,,1,0
Sprite,Foreground,Centre,"sb/d.png",0,0 S,7,16354,17154,0.3010615,0 M,7,16354,17154,375,299,306,353 P,0,16354,17154,A F,0,29221,,1,0
Sprite,Foreground,Centre,"sb/d.png",0,0 S,7,16354,17154,0.3010615,0 M,7,16354,17154,375,299,293,237 P,0,16354,17154,A F,0,29221,,1,0
Sprite,Foreground,Centre,"sb/d.png",0,0 S,7,16354,17154,0.3010615,0 M,7,16354,17154,375,299,287,221 P,0,16354,17154,A F,0,29221,,1,0
Sprite,Foreground,Centre,"sb/d.png",0,0 S,7,16942,17742,0.3965594,0 M,7,16942,17742,572,331,492,398 P,0,16942,17742,A F,0,29221,,1,0
Sprite,Foreground,Centre,"sb/d.png",0,0 S,7,16942,17742,0.3965594,0 M,7,16942,17742,572,331,600,345 P,0,16942,17742,A F,0,29221,,1,0
Sprite,Foreground,Centre,"sb/d.png",0,0 S,7,16942,17742,0.3965594,0 M,7,16942,17742,572,331,520,398 P,0,16942,17742,A F,0,29221,,1,0
Sprite,Foreground,Centre,"sb/d.png",0,0 S,7,16942,17742,0.3965594,0 M,7,16942,17742,572,331,643,320 P,0,16942,17742,A F,0,29221,,1,0
Sprite,Foreground,Centre,"sb/d.png",0,0 S,7,16942,17742,0.3965594,0 M,7,16942,17742,572,331,653,391 P,0,16942,17742,A F,0,29221,,1,0
Sprite,Foreground,Centre,"sb/d.png",0,0 S,7,16942,17742,0.3965594,0 M,7,16942,17742,572,331,564,299 P,0,16942,17742,A F,0,29221,,1,0
Sprite,Foreground,Centre,"sb/d.png",0,0 S,7,16942,17742,0.3965594,0 M,7,16942,17742,572,331,627,316 P,0,16942,17742,A F,0,29221,,1,0
Sprite,Foreground,Centre,"sb/d.png",0,0 S,7,16942,17742,0.3965594,0 M,7,16942,17742,572,331,601,430 P,0,16942,17742,A F,0,29221,,1,0
Sprite,Foreground,Centre,"sb/d.png",0,0 S,7,16942,17742,0.3965594,0 M,7,16942,17742,572,331,593,248 P,0,16942,17742,A F,0,29221,,1,0
Sprite,Foreground,Centre,"sb/d.png",0,0 S,7,16942,17742,0.3965594,0 M,7,16942,17742,572,331,596,429 P,0,16942,17742,A F,0,29221,,1,0
Sprite,Foreground,Centre,"sb/d.png",0,0 S,7,17236,18036,0.4246328,0 M,7,17236,18036,555,232,562,159 P,0,17236,18036,A F,0,29221,,1,0
Sprite,Foreground,Centre,"sb/d.png",0,0 S,7,17236,18036,0.4246328,0 M,7,17236,18036,555,232,455,243 P,0,17236,18036,A F,0,29221,,1,0
Sprite,Foreground,Centre,"sb/d.png",0,0 S,7,17236,18036,0.4246328,0 M,7,17236,18036,555,232,589,207 P,0,17236,18036,A F,0,29221,,1,0
Sprite,Foreground,Centre,"sb/d.png",0,0 S,7,17236,18036,0.4246328,0 M,7,17236,18036,555,232,628,197 P,0,17236,18036,A F,0,29221,,1,0
Sprite,Foreground,Centre,"sb/d.png",0,0 S,7,17236,18036,0.4246328,0 M,7,17236,18036,555,232,612,235 P,0,17236,18036,A F,0,29221,,1,0
Sprite,Foreground,Centre,"sb/d.png",0,0 S,7,17236,18036,0.4246328,0 M,7,17236,18036,555,232,620,240 P,0,17236,18036,A F,0,29221,,1,0
Sprite,Foreground,Centre,"sb/d.png",0,0 S,7,17236,18036,0.4246328,0 M,7,17236,18036,555,232,559,164 P,0,17236,18036,A F,0,29221,,1,0
Sprite,Foreground,Centre,"sb/d.png",0,0 S,7,17236,18036,0.4246328,0 M,7,17236,18036,555,232,581,242 P,0,17236,18036,A F,0,29221,,1,0
Sprite,Foreground,Centre,"sb/d.png",0,0 S,7,17236,18036,0.4246328,0 M,7,17236,18036,555,232,517,181 P,0,17236,18036,A F,0,29221,,1,0
Sprite,Foreground,Centre,"sb/d.png",0,0 S,7,17236,18036,0.4246328,0 M,7,17236,18036,555,232,615,224 P,0,17236,18036,A F,0,29221,,1,0
Sprite,Foreground,Centre,"sb/d.png",0,0 S,7,17530,18330,0.4343202,0 M,7,17530,18330,537,133,504,71 P,0,17530,18330,A F,0,29221,,1,0
Sprite,Foreground,Centre,"sb/d.png",0,0 S,7,17530,18330,0.4343202,0 M,7,17530,18330,537,133,467,165 P,0,17530,18330,A F,0,29221,,1,0
Sprite,Foreground,Centre,"sb/d.png",0,0 S,7,17530,18330,0.4343202,0 M,7,17530,18330,537,133,478,139 P,0,17530,18330,A F,0,29221,,1,0
Sprite,Foreground,Centre,"sb/d.png",0,0 S,7,17530,18330,0.4343202,0 M,7,17530,18330,537,133,538,187 P,0,17530,18330,A F,0,29221,,1,0
Sprite,Foreground,Centre,"sb/d.png",0,0 S,7,17530,18330,0.4343202,0 M,7,17530,18330,537,133,533,53 P,0,17530,18330,A F,0,29221,,1,0
Sprite,Foreground,Centre,"sb/d.png",0,0 S,7,17530,18330,0.4343202,0 M,7,17530,18330,537,133,524,56 P,0,17530,18330,A F,0,29221,,1,0
Sprite,Foreground,Centre,"sb/d.png",0,0 S,7,17530,18330,0.4343202,0 M,7,17530,18330,537,133,608,145 P,0,17530,18330,A F,0,29221,,1,0
Sprite,Foreground,Centre,"sb/d.png",0,0 S,7,17530,18330,0.4343202,0 M,7,17530,18330,537,133,577,161 P,0,17530,18330,A F,0,29221,,1,0
Sprite,Foreground,Centre,"sb/d.png",0,0 S,7,17530,18330,0.4343202,0 M,7,17530,18330,537,133,440,146 P,0,17530,18330,A F,0,29221,,1,0
Sprite,Foreground,Centre,"sb/d.png",0,0 S,7,17530,18330,0.4343202,0 M,7,17530,18330,537,133,528,231 P,0,17530,18330,A F,0,29221,,1,0
Sprite,Foreground,Centre,"sb/d.png",0,0 S,7,18118,18918,0.2744685,0 M,7,18118,18918,369,211,293,167 P,0,18118,18918,A F,0,29221,,1,0
Sprite,Foreground,Centre,"sb/d.png",0,0 S,7,18118,18918,0.2744685,0 M,7,18118,18918,369,211,395,270 P,0,18118,18918,A F,0,29221,,1,0
Sprite,Foreground,Centre,"sb/d.png",0,0 S,7,18118,18918,0.2744685,0 M,7,18118,18918,369,211,320,163 P,0,18118,18918,A F,0,29221,,1,0
Sprite,Foreground,Centre,"sb/d.png",0,0 S,7,18118,18918,0.2744685,0 M,7,18118,18918,369,211,271,200 P,0,18118,18918,A F,0,29221,,1,0
Sprite,Foreground,Centre,"sb/d.png",0,0 S,7,18118,18918,0.2744685,0 M,7,18118,18918,369,211,327,278 P,0,18118,18918,A F,0,29221,,1,0
Sprite,Foreground,Centre,"sb/d.png",0,0 S,7,18118,18918,0.2744685,0 M,7,18118,18918,369,211,433,217 P,0,18118,18918,A F,0,29221,,1,0
Sprite,Foreground,Centre,"sb/d.png",0,0 S,7,18118,18918,0.2744685,0 M,7,18118,18918,369,211,459,151 P,0,18118,18918,A F,0,29221,,1,0
Sprite,Foreground,Centre,"sb/d.png",0,0 S,7,18118,18918,0.2744685,0 M,7,18118,18918,369,211,458,281 P,0,18118,18918,A F,0,29221,,1,0
Sprite,Foreground,Centre,"sb/d.png",0,0 S,7,18118,18918,0.2744685,0 M,7,18118,18918,369,211,448,204 P,0,18118,18918,A F,0,29221,,1,0
Sprite,Foreground,Centre,"sb/d.png",0,0 S,7,18118,18918,0.2744685,0 M,7,18118,18918,369,211,437,182 P,0,18118,18918,A F,0,29221,,1,0
Sprite,Foreground,Centre,"sb/d.png",0,0 S,7,18707,19507,0.3603556,0 M,7,18707,19507,287,153,247,136 P,0,18707,19507,A F,0,29221,,1,0
Sprite,Foreground,Centre,"sb/d.png",0,0 S,7,18707,19507,0.3603556,0 M,7,18707,19507,287,153,265,137 P,0,18707,19507,A F,0,29221,,1,0
Sprite,Foreground,Centre,"sb/d.png",0,0 S,7,18707,19507,0.3603556,0 M,7,18707,19507,287,153,319,173 P,0,18707,19507,A F,0,29221,,1,0
Sprite,Foreground,Centre,"sb/d.png",0,0 S,7,18707,19507,0.3603556,0 M,7,18707,19507,287,153,373,235 P,0,18707,19507,A F,0,29221,,1,0
Sprite,Foreground,Centre,"sb/d.png",0,0 S,7,18707,19507,0.3603556,0 M,7,18707,19507,287,153,246,189 P,0,18707,19507,A F,0,29221,,1,0
Sprite,Foreground,Centre,"sb/d.png",0,0 S,7,18707,19507,0.3603556,0 M,7,18707,19507,287,153,255,146 P,0,18707,19507,A F,0,29221,,1,0
Sprite,Foreground,Centre,"sb/d.png",0,0 S,7,18707,19507,0.3603556,0 M,7,18707,19507,287,153,346,96 P,0,18707,19507,A F,0,29221,,1,0
Sprite,Foreground,Centre,"sb/d.png",0,0 S,7,18707,19507,0.3603556,0 M,7,18707,19507,287,153,368,156 P,0,18707,19507,A F,0,29221,,1,0
Sprite,Foreground,Centre,"sb/d.png",0,0 S,7,18707,19507,0.3603556,0 M,7,18707,19507,287,153,359,242 P,0,18707,19507,A F,0,29221,,1,0
Sprite,Foreground,Centre,"sb/d.png",0,0 S,7,18707,19507,0.3603556,0 M,7,18707,19507,287,153,241,152 P,0,18707,19507,A F,0,29221,,1,0
Sprite,Foreground,Centre,"sb/d.png",0,0 S,7,19295,20095,0.3154958,0 M,7,19295,20095,199,200,136,152 P,0,19295,20095,A F,0,29221,,1,0
Sprite,Foreground,Centre,"sb/d.png",0,0 S,7,19295,20095,0.3154958,0 M,7,19295,20095,199,200,222,217 P,0,19295,20095,A F,0,29221,,1,0
Sprite,Foreground,Centre,"sb/d.png",0,0 S,7,19295,20095,0.3154958,0 M,7,19295,20095,199,200,280,172 P,0,19295,20095,A F,0,29221,,1,0
Sprite,Foreground,Centre,"sb/d.png",0,0 S,7,19295,20095,0.3154958,0 M,7,19295,20095,199,200,250,257 P,0,19295,20095,A F,0,29221,,1,0
Sprite,Foreground,Centre,"sb/d.png",0,0 S,7,19295,20095,0.3154958,0 M,7,19295,20095,199,200,122,120 P,0,19295,20095,A F,0,29221,,1,0
Sprite,Foreground,Centre,"sb/d.png",0,0 S,7,19295,20095,0.3154958,0 M,7,19295,20095,199,200,221,227 P,0,19295,20095,A F,0,29221,,1,0
Sprite,Foreground,Centre,"sb/d.png",0,0 S,7,19295,20095,0.3154958,0 M,7,19295,20095,199,200,213,263 P,0,19295,20095,A F,0,29221,,1,0
Sprite,Foreground,Centre,"sb/d.png",0,0 S,7,19295,20095,0.3154958,0 M,7,19295,20095,199,200,271,147 P,0,19295,20095,A F,0,29221,,1,0
Sprite,Foreground,Centre,"sb/d.png",0,0 S,7,19295,20095,0.3154958,0 M,7,19295,20095,199,200,174,218 P,0,19295,20095,A F,0,29221,,1,0
Sprite,Foreground,Centre,"sb/d.png",0,0 S,7,19295,20095,0.3154958,0 M,7,19295,20095,199,200,231,116 P,0,19295,20095,A F,0,29221,,1,0
Sprite,Foreground,Centre,"sb/d.png",0,0 S,7,19883,20683,0.3566422,0 M,7,19883,20683,100,373,199,304 P,0,19883,20683,A F,0,29221,,1,0
Sprite,Foreground,Centre,"sb/d.png",0,0 S,7,19883,20683,0.3566422,0 M,7,19883,20683,100,373,96,285 P,0,19883,20683,A F,0,29221,,1,0
Sprite,Foreground,Centre,"sb/d.png",0,0 S,7,19883,20683,0.3566422,0 M,7,19883,20683,100,373,30,470 P,0,19883,20683,A F,0,29221,,1,0
Sprite,Foreground,Centre,"sb/d.png",0,0 S,7,19883,20683,0.3566422,0 M,7,19883,20683,100,373,7,339 P,0,19883,20683,A F,0,29221,,1,0
Sprite,Foreground,Centre,"sb/d.png",0,0 S,7,19883,20683,0.3566422,0 M,7,19883,20683,100,373,6,376 P,0,19883,20683,A F,0,29221,,1,0
Sprite,Foreground,Centre,"sb/d.png",0,0 S,7,19883,20683,0.3566422,0 M,7,19883,20683,100,373,114,444 P,0,19883,20683,A F,0,29221,,1,0
Sprite,Foreground,Centre,"sb/d.png",0,0 S,7,19883,20683,0.3566422,0 M,7,19883,20683,100,373,44,296 P,0,19883,20683,A F,0,29221,,1,0
Sprite,Foreground,Centre,"sb/d.png",0,0 S,7,19883,20683,0.3566422,0 M,7,19883,20683,100,373,31,428 P,0,19883,20683,A F,0,29221,,1,0
Sprite,Foreground,Centre,"sb/d.png",0,0 S,7,19883,20683,0.3566422,0 M,7,19883,20683,100,373,166,423 P,0,19883,20683,A F,0,29221,,1,0
Sprite,Foreground,Centre,"sb/d.png",0,0 S,7,19883,20683,0.3566422,0 M,7,19883,20683,100,373,48,308 P,0,19883,20683,A F,0,29221,,1,0
Sprite,Foreground,Centre,"sb/d.png",0,0 S,7,20471,21271,0.2747247,0 M,7,20471,21271,80,274,15,289 P,0,20471,21271,A F,0,29221,,1,0
Sprite,Foreground,Centre,"sb/d.png",0,0 S,7,20471,21271,0.2747247,0 M,7,20471,21271,80,274,125,339 P,0,20471,21271,A F,0,29221,,1,0
Sprite,Foreground,Centre,"sb/d.png",0,0 S,7,20471,21271,0.2747247,0 M,7,20471,21271,80,274,25,254 P,0,20471,21271,A F,0,29221,,1,0
Sprite,Foreground,Centre,"sb/d.png",0,0 S,7,20471,21271,0.2747247,0 M,7,20471,21271,80,274,-12,230 P,0,20471,21271,A F,0,29221,,1,0
Sprite,Foreground,Centre,"sb/d.png",0,0 S,7,20471,21271,0.2747247,0 M,7,20471,21271,80,274,76,245 P,0,20471,21271,A F,0,29221,,1,0
Sprite,Foreground,Centre,"sb/d.png",0,0 S,7,20471,21271,0.2747247,0 M,7,20471,21271,80,274,101,257 P,0,20471,21271,A F,0,29221,,1,0
Sprite,Foreground,Centre,"sb/d.png",0,0 S,7,20471,21271,0.2747247,0 M,7,20471,21271,80,274,138,212 P,0,20471,21271,A F,0,29221,,1,0
Sprite,Foreground,Centre,"sb/d.png",0,0 S,7,20471,21271,0.2747247,0 M,7,20471,21271,80,274,0,200 P,0,20471,21271,A F,0,29221,,1,0
Sprite,Foreground,Centre,"sb/d.png",0,0 S,7,20471,21271,0.2747247,0 M,7,20471,21271,80,274,85,325 P,0,20471,21271,A F,0,29221,,1,0
Sprite,Foreground,Centre,"sb/d.png",0,0 S,7,20471,21271,0.2747247,0 M,7,20471,21271,80,274,54,318 P,0,20471,21271,A F,0,29221,,1,0
Sprite,Foreground,Centre,"sb/d.png",0,0 S,7,21060,21860,0.3413711,0 M,7,21060,21860,260,259,177,276 P,0,21060,21860,A F,0,29221,,1,0
Sprite,Foreground,Centre,"sb/d.png",0,0 S,7,21060,21860,0.3413711,0 M,7,21060,21860,260,259,168,314 P,0,21060,21860,A F,0,29221,,1,0
Sprite,Foreground,Centre,"sb/d.png",0,0 S,7,21060,21860,0.3413711,0 M,7,21060,21860,260,259,229,298 P,0,21060,21860,A F,0,29221,,1,0
Sprite,Foreground,Centre,"sb/d.png",0,0 S,7,21060,21860,0.3413711,0 M,7,21060,21860,260,259,301,251 P,0,21060,21860,A F,0,29221,,1,0
Sprite,Foreground,Centre,"sb/d.png",0,0 S,7,21060,21860,0.3413711,0 M,7,21060,21860,260,259,268,326 P,0,21060,21860,A F,0,29221,,1,0
Sprite,Foreground,Centre,"sb/d.png",0,0 S,7,21060,21860,0.3413711,0 M,7,21060,21860,260,259,244,340 P,0,21060,21860,A F,0,29221,,1,0
Sprite,Foreground,Centre,"sb/d.png",0,0 S,7,21060,21860,0.3413711,0 M,7,21060,21860,260,259,241,322 P,0,21060,21860,A F,0,29221,,1,0
Sprite,Foreground,Centre,"sb/d.png",0,0 S,7,21060,21860,0.3413711,0 M,7,21060,21860,260,259,276,309 P,0,21060,21860,A F,0,29221,,1,0
Sprite,Foreground,Centre,"sb/d.png",0,0 S,7,21060,21860,0.3413711,0 M,7,21060,21860,260,259,206,343 P,0,21060,21860,A F,0,29221,,1,0
Sprite,Foreground,Centre,"sb/d.png",0,0 S,7,21060,21860,0.3413711,0 M,7,21060,21860,260,259,276,357 P,0,21060,21860,A F,0,29221,,1,0
Sprite,Foreground,Centre,"sb/d.png",0,0 S,7,21648,22448,0.2604122,0 M,7,21648,22448,313,82,322,14 P,0,21648,22448,A F,0,29221,,1,0
Sprite,Foreground,Centre,"sb/d.png",0,0 S,7,21648,22448,0.2604122,0 M,7,21648,22448,313,82,406,70 P,0,21648,22448,A F,0,29221,,1,0
Sprite,Foreground,Centre,"sb/d.png",0,0 S,7,21648,22448,0.2604122,0 M,7,21648,22448,313,82,299,166 P,0,21648,22448,A F,0,29221,,1,0
Sprite,Foreground,Centre,"sb/d.png",0,0 S,7,21648,22448,0.2604122,0 M,7,21648,22448,313,82,224,110 P,0,21648,22448,A F,0,29221,,1,0
Sprite,Foreground,Centre,"sb/d.png",0,0 S,7,21648,22448,0.2604122,0 M,7,21648,22448,313,82,274,181 P,0,21648,22448,A F,0,29221,,1,0
Sprite,Foreground,Centre,"sb/d.png",0,0 S,7,21648,22448,0.2604122,0 M,7,21648,22448,313,82,386,72 P,0,21648,22448,A F,0,29221,,1,0
Sprite,Foreground,Centre,"sb/d.png",0,0 S,7,21648,22448,0.2604122,0 M,7,21648,22448,313,82,346,0 P,0,21648,22448,A F,0,29221,,1,0
Sprite,Foreground,Centre,"sb/d.png",0,0 S,7,21648,22448,0.2604122,0 M,7,21648,22448,313,82,411,119 P,0,21648,22448,A F,0,29221,,1,0
Sprite,Foreground,Centre,"sb/d.png",0,0 S,7,21648,22448,0.2604122,0 M,7,21648,22448,313,82,223,158 P,0,21648,22448,A F,0,29221,,1,0
Sprite,Foreground,Centre,"sb/d.png",0,0 S,7,21648,22448,0.2604122,0 M,7,21648,22448,313,82,353,49 P,0,21648,22448,A F,0,29221,,1,0
Sprite,Foreground,Centre,"sb/d.png",0,0 S,7,21942,22742,0.4131823,0 M,7,21942,22742,403,123,490,126 P,0,21942,22742,A F,0,29221,,1,0
Sprite,Foreground,Centre,"sb/d.png",0,0 S,7,21942,22742,0.4131823,0 M,7,21942,22742,403,123,339,125 P,0,21942,22742,A F,0,29221,,1,0
Sprite,Foreground,Centre,"sb/d.png",0,0 S,7,21942,22742,0.4131823,0 M,7,21942,22742,403,123,379,98 P,0,21942,22742,A F,0,29221,,1,0
Sprite,Foreground,Centre,"sb/d.png",0,0 S,7,21942,22742,0.4131823,0 M,7,21942,22742,403,123,407,99 P,0,21942,22742,A F,0,29221,,1,0
Sprite,Foreground,Centre,"sb/d.png",0,0 S,7,21942,22742,0.4131823,0 M,7,21942,22742,403,123,361,189 P,0,21942,22742,A F,0,29221,,1,0
Sprite,Foreground,Centre,"sb/d.png",0,0 S,7,21942,22742,0.4131823,0 M,7,21942,22742,403,123,461,168 P,0,21942,22742,A F,0,29221,,1,0
Sprite,Foreground,Centre,"sb/d.png",0,0 S,7,21942,22742,0.4131823,0 M,7,21942,22742,403,123,383,130 P,0,21942,22742,A F,0,29221,,1,0
Sprite,Foreground,Centre,"sb/d.png",0,0 S,7,21942,22742,0.4131823,0 M,7,21942,22742,403,123,387,37 P,0,21942,22742,A F,0,29221,,1,0
Sprite,Foreground,Centre,"sb/d.png",0,0 S,7,21942,22742,0.4131823,0 M,7,21942,22742,403,123,369,206 P,0,21942,22742,A F,0,29221,,1,0
Sprite,Foreground,Centre,"sb/d.png",0,0 S,7,21942,22742,0.4131823,0 M,7,21942,22742,403,123,458,153 P,0,21942,22742,A F,0,29221,,1,0
Sprite,Foreground,Centre,"sb/d.png",0,0 S,7,22236,23036,0.4146999,0 M,7,22236,23036,487,69,434,136 P,0,22236,23036,A F,0,29221,,1,0
Sprite,Foreground,Centre,"sb/d.png",0,0 S,7,22236,23036,0.4146999,0 M,7,22236,23036,487,69,498,59 P,0,22236,23036,A F,0,29221,,1,0
Sprite,Foreground,Centre,"sb/d.png",0,0 S,7,22236,23036,0.4146999,0 M,7,22236,23036,487,69,535,113 P,0,22236,23036,A F,0,29221,,1,0
Sprite,Foreground,Centre,"sb/d.png",0,0 S,7,22236,23036,0.4146999,0 M,7,22236,23036,487,69,504,-19 P,0,22236,23036,A F,0,29221,,1,0
Sprite,Foreground,Centre,"sb/d.png",0,0 S,7,22236,23036,0.4146999,0 M,7,22236,23036,487,69,423,-23 P,0,22236,23036,A F,0,29221,,1,0
Sprite,Foreground,Centre,"sb/d.png",0,0 S,7,22236,23036,0.4146999,0 M,7,22236,23036,487,69,563,99 P,0,22236,23036,A F,0,29221,,1,0
Sprite,Foreground,Centre,"sb/d.png",0,0 S,7,22236,23036,0.4146999,0 M,7,22236,23036,487,69,434,90 P,0,22236,23036,A F,0,29221,,1,0
Sprite,Foreground,Centre,"sb/d.png",0,0 S,7,22236,23036,0.4146999,0 M,7,22236,23036,487,69,515,125 P,0,22236,23036,A F,0,29221,,1,0
Sprite,Foreground,Centre,"sb/d.png",0,0 S,7,22236,23036,0.4146999,0 M,7,22236,23036,487,69,573,-22 P,0,22236,23036,A F,0,29221,,1,0
Sprite,Foreground,Centre,"sb/d.png",0,0 S,7,22236,23036,0.4146999,0 M,7,22236,23036,487,69,496,75 P,0,22236,23036,A F,0,29221,,1,0
Sprite,Foreground,Centre,"sb/d.png",0,0 S,7,22824,23624,0.3014354,0 M,7,22824,23624,428,235,331,168 P,0,22824,23624,A F,0,29221,,1,0
Sprite,Foreground,Centre,"sb/d.png",0,0 S,7,22824,23624,0.3014354,0 M,7,22824,23624,428,235,342,280 P,0,22824,23624,A F,0,29221,,1,0
Sprite,Foreground,Centre,"sb/d.png",0,0 S,7,22824,23624,0.3014354,0 M,7,22824,23624,428,235,380,246 P,0,22824,23624,A F,0,29221,,1,0
Sprite,Foreground,Centre,"sb/d.png",0,0 S,7,22824,23624,0.3014354,0 M,7,22824,23624,428,235,441,257 P,0,22824,23624,A F,0,29221,,1,0
Sprite,Foreground,Centre,"sb/d.png",0,0 S,7,22824,23624,0.3014354,0 M,7,22824,23624,428,235,471,328 P,0,22824,23624,A F,0,29221,,1,0
Sprite,Foreground,Centre,"sb/d.png",0,0 S,7,22824,23624,0.3014354,0 M,7,22824,23624,428,235,512,272 P,0,22824,23624,A F,0,29221,,1,0
Sprite,Foreground,Centre,"sb/d.png",0,0 S,7,22824,23624,0.3014354,0 M,7,22824,23624,428,235,526,275 P,0,22824,23624,A F,0,29221,,1,0
Sprite,Foreground,Centre,"sb/d.png",0,0 S,7,22824,23624,0.3014354,0 M,7,22824,23624,428,235,464,260 P,0,22824,23624,A F,0,29221,,1,0
Sprite,Foreground,Centre,"sb/d.png",0,0 S,7,22824,23624,0.3014354,0 M,7,22824,23624,428,235,339,263 P,0,22824,23624,A F,0,29221,,1,0
Sprite,Foreground,Centre,"sb/d.png",0,0 S,7,22824,23624,0.3014354,0 M,7,22824,23624,428,235,459,321 P,0,22824,23624,A F,0,29221,,1,0
Sprite,Foreground,Centre,"sb/d.png",0,0 S,7,23412,24212,0.3141639,0 M,7,23412,24212,503,300,424,358 P,0,23412,24212,A F,0,29221,,1,0
Sprite,Foreground,Centre,"sb/d.png",0,0 S,7,23412,24212,0.3141639,0 M,7,23412,24212,503,300,584,214 P,0,23412,24212,A F,0,29221,,1,0
Sprite,Foreground,Centre,"sb/d.png",0,0 S,7,23412,24212,0.3141639,0 M,7,23412,24212,503,300,436,385 P,0,23412,24212,A F,0,29221,,1,0
Sprite,Foreground,Centre,"sb/d.png",0,0 S,7,23412,24212,0.3141639,0 M,7,23412,24212,503,300,559,258 P,0,23412,24212,A F,0,29221,,1,0
Sprite,Foreground,Centre,"sb/d.png",0,0 S,7,23412,24212,0.3141639,0 M,7,23412,24212,503,300,483,374 P,0,23412,24212,A F,0,29221,,1,0
Sprite,Foreground,Centre,"sb/d.png",0,0 S,7,23412,24212,0.3141639,0 M,7,23412,24212,503,300,449,223 P,0,23412,24212,A F,0,29221,,1,0
Sprite,Foreground,Centre,"sb/d.png",0,0 S,7,23412,24212,0.3141639,0 M,7,23412,24212,503,300,516,243 P,0,23412,24212,A F,0,29221,,1,0
Sprite,Foreground,Centre,"sb/d.png",0,0 S,7,23412,24212,0.3141639,0 M,7,23412,24212,503,300,537,296 P,0,23412,24212,A F,0,29221,,1,0
Sprite,Foreground,Centre,"sb/d.png",0,0 S,7,23412,24212,0.3141639,0 M,7,23412,24212,503,300,548,296 P,0,23412,24212,A F,0,29221,,1,0
Sprite,Foreground,Centre,"sb/d.png",0,0 S,7,23412,24212,0.3141639,0 M,7,23412,24212,503,300,435,204 P,0,23412,24212,A F,0,29221,,1,0
Sprite,Foreground,Centre,"sb/d.png",0,0 S,7,24001,24801,0.3395926,0 M,7,24001,24801,445,382,438,296 P,0,24001,24801,A F,0,29221,,1,0
Sprite,Foreground,Centre,"sb/d.png",0,0 S,7,24001,24801,0.3395926,0 M,7,24001,24801,445,382,536,475 P,0,24001,24801,A F,0,29221,,1,0
Sprite,Foreground,Centre,"sb/d.png",0,0 S,7,24001,24801,0.3395926,0 M,7,24001,24801,445,382,393,463 P,0,24001,24801,A F,0,29221,,1,0
Sprite,Foreground,Centre,"sb/d.png",0,0 S,7,24001,24801,0.3395926,0 M,7,24001,24801,445,382,537,313 P,0,24001,24801,A F,0,29221,,1,0
Sprite,Foreground,Centre,"sb/d.png",0,0 S,7,24001,24801,0.3395926,0 M,7,24001,24801,445,382,519,362 P,0,24001,24801,A F,0,29221,,1,0
Sprite,Foreground,Centre,"sb/d.png",0,0 S,7,24001,24801,0.3395926,0 M,7,24001,24801,445,382,522,402 P,0,24001,24801,A F,0,29221,,1,0
Sprite,Foreground,Centre,"sb/d.png",0,0 S,7,24001,24801,0.3395926,0 M,7,24001,24801,445,382,532,463 P,0,24001,24801,A F,0,29221,,1,0
Sprite,Foreground,Centre,"sb/d.png",0,0 S,7,24001,24801,0.3395926,0 M,7,24001,24801,445,382,420,315 P,0,24001,24801,A F,0,29221,,1,0
Sprite,Foreground,Centre,"sb/d.png",0,0 S,7,24001,24801,0.3395926,0 M,7,24001,24801,445,382,475,300 P,0,24001,24801,A F,0,29221,,1,0
Sprite,Foreground,Centre,"sb/d.png",0,0 S,7,24001,24801,0.3395926,0 M,7,24001,24801,445,382,471,438 P,0,24001,24801,A F,0,29221,,1,0
Sprite,Foreground,Centre,"sb/d.png",0,0 S,7,24589,25389,0.314422,0 M,7,24589,25389,258,308,220,227 P,0,24589,25389,A F,0,29221,,1,0
Sprite,Foreground,Centre,"sb/d.png",0,0 S,7,24589,25389,0.314422,0 M,7,24589,25389,258,308,296,321 P,0,24589,25389,A F,0,29221,,1,0
Sprite,Foreground,Centre,"sb/d.png",0,0 S,7,24589,25389,0.314422,0 M,7,24589,25389,258,308,243,304 P,0,24589,25389,A F,0,29221,,1,0
Sprite,Foreground,Centre,"sb/d.png",0,0 S,7,24589,25389,0.314422,0 M,7,24589,25389,258,308,159,236 P,0,24589,25389,A F,0,29221,,1,0
Sprite,Foreground,Centre,"sb/d.png",0,0 S,7,24589,25389,0.314422,0 M,7,24589,25389,258,308,224,240 P,0,24589,25389,A F,0,29221,,1,0
Sprite,Foreground,Centre,"sb/d.png",0,0 S,7,24589,25389,0.314422,0 M,7,24589,25389,258,308,256,390 P,0,24589,25389,A F,0,29221,,1,0
Sprite,Foreground,Centre,"sb/d.png",0,0 S,7,24589,25389,0.314422,0 M,7,24589,25389,258,308,332,336 P,0,24589,25389,A F,0,29221,,1,0
Sprite,Foreground,Centre,"sb/d.png",0,0 S,7,24589,25389,0.314422,0 M,7,24589,25389,258,308,301,397 P,0,24589,25389,A F,0,29221,,1,0
Sprite,Foreground,Centre,"sb/d.png",0,0 S,7,24589,25389,0.314422,0 M,7,24589,25389,258,308,179,392 P,0,24589,25389,A F,0,29221,,1,0
Sprite,Foreground,Centre,"sb/d.png",0,0 S,7,24589,25389,0.314422,0 M,7,24589,25389,258,308,162,372 P,0,24589,25389,A F,0,29221,,1,0
Sprite,Foreground,Centre,"sb/d.png",0,0 S,7,25177,25977,0.2774628,0 M,7,25177,25977,332,374,337,367 P,0,25177,25977,A F,0,29221,,1,0
Sprite,Foreground,Centre,"sb/d.png",0,0 S,7,25177,25977,0.2774628,0 M,7,25177,25977,332,374,300,377 P,0,25177,25977,A F,0,29221,,1,0
Sprite,Foreground,Centre,"sb/d.png",0,0 S,7,25177,25977,0.2774628,0 M,7,25177,25977,332,374,357,336 P,0,25177,25977,A F,0,29221,,1,0
Sprite,Foreground,Centre,"sb/d.png",0,0 S,7,25177,25977,0.2774628,0 M,7,25177,25977,332,374,291,336 P,0,25177,25977,A F,0,29221,,1,0
Sprite,Foreground,Centre,"sb/d.png",0,0 S,7,25177,25977,0.2774628,0 M,7,25177,25977,332,374,246,351 P,0,25177,25977,A F,0,29221,,1,0
Sprite,Foreground,Centre,"sb/d.png",0,0 S,7,25177,25977,0.2774628,0 M,7,25177,25977,332,374,338,321 P,0,25177,25977,A F,0,29221,,1,0
Sprite,Foreground,Centre,"sb/d.png",0,0 S,7,25177,25977,0.2774628,0 M,7,25177,25977,332,374,257,304 P,0,25177,25977,A F,0,29221,,1,0
Sprite,Foreground,Centre,"sb/d.png",0,0 S,7,25177,25977,0.2774628,0 M,7,25177,25977,332,374,427,327 P,0,25177,25977,A F,0,29221,,1,0
Sprite,Foreground,Centre,"sb/d.png",0,0 S,7,25177,25977,0.2774628,0 M,7,25177,25977,332,374,312,437 P,0,25177,25977,A F,0,29221,,1,0
Sprite,Foreground,Centre,"sb/d.png",0,0 S,7,25177,25977,0.2774628,0 M,7,25177,25977,332,374,316,464 P,0,25177,25977,A F,0,29221,,1,0
Sprite,Foreground,Centre,"sb/d.png",0,0 S,7,25765,26565,0.2523468,0 M,7,25765,26565,173,355,180,303 P,0,25765,26565,A F,0,29221,,1,0
Sprite,Foreground,Centre,"sb/d.png",0,0 S,7,25765,26565,0.2523468,0 M,7,25765,26565,173,355,152,393 P,0,25765,26565,A F,0,29221,,1,0
Sprite,Foreground,Centre,"sb/d.png",0,0 S,7,25765,26565,0.2523468,0 M,7,25765,26565,173,355,85,308 P,0,25765,26565,A F,0,29221,,1,0
Sprite,Foreground,Centre,"sb/d.png",0,0 S,7,25765,26565,0.2523468,0 M,7,25765,26565,173,355,204,299 P,0,25765,26565,A F,0,29221,,1,0
Sprite,Foreground,Centre,"sb/d.png",0,0 S,7,25765,26565,0.2523468,0 M,7,25765,26565,173,355,182,288 P,0,25765,26565,A F,0,29221,,1,0
Sprite,Foreground,Centre,"sb/d.png",0,0 S,7,25765,26565,0.2523468,0 M,7,25765,26565,173,355,195,447 P,0,25765,26565,A F,0,29221,,1,0
Sprite,Foreground,Centre,"sb/d.png",0,0 S,7,25765,26565,0.2523468,0 M,7,25765,26565,173,355,109,412 P,0,25765,26565,A F,0,29221,,1,0
Sprite,Foreground,Centre,"sb/d.png",0,0 S,7,25765,26565,0.2523468,0 M,7,25765,26565,173,355,198,325 P,0,25765,26565,A F,0,29221,,1,0
Sprite,Foreground,Centre,"sb/d.png",0,0 S,7,25765,26565,0.2523468,0 M,7,25765,26565,173,355,83,414 P,0,25765,26565,A F,0,29221,,1,0
Sprite,Foreground,Centre,"sb/d.png",0,0 S,7,25765,26565,0.2523468,0 M,7,25765,26565,173,355,107,397 P,0,25765,26565,A F,0,29221,,1,0
Sprite,Foreground,Centre,"sb/d.png",0,0 S,7,26354,27154,0.4157625,0 M,7,26354,27154,208,168,160,222 P,0,26354,27154,A F,0,29221,,1,0
Sprite,Foreground,Centre,"sb/d.png",0,0 S,7,26354,27154,0.4157625,0 M,7,26354,27154,208,168,300,202 P,0,26354,27154,A F,0,29221,,1,0
Sprite,Foreground,Centre,"sb/d.png",0,0 S,7,26354,27154,0.4157625,0 M,7,26354,27154,208,168,257,166 P,0,26354,27154,A F,0,29221,,1,0
Sprite,Foreground,Centre,"sb/d.png",0,0 S,7,26354,27154,0.4157625,0 M,7,26354,27154,208,168,255,204 P,0,26354,27154,A F,0,29221,,1,0
Sprite,Foreground,Centre,"sb/d.png",0,0 S,7,26354,27154,0.4157625,0 M,7,26354,27154,208,168,248,89 P,0,26354,27154,A F,0,29221,,1,0
Sprite,Foreground,Centre,"sb/d.png",0,0 S,7,26354,27154,0.4157625,0 M,7,26354,27154,208,168,227,241 P,0,26354,27154,A F,0,29221,,1,0
Sprite,Foreground,Centre,"sb/d.png",0,0 S,7,26354,27154,0.4157625,0 M,7,26354,27154,208,168,133,265 P,0,26354,27154,A F,0,29221,,1,0
Sprite,Foreground,Centre,"sb/d.png",0,0 S,7,26354,27154,0.4157625,0 M,7,26354,27154,208,168,152,256 P,0,26354,27154,A F,0,29221,,1,0
Sprite,Foreground,Centre,"sb/d.png",0,0 S,7,26354,27154,0.4157625,0 M,7,26354,27154,208,168,273,181 P,0,26354,27154,A F,0,29221,,1,0
Sprite,Foreground,Centre,"sb/d.png",0,0 S,7,26354,27154,0.4157625,0 M,7,26354,27154,208,168,116,195 P,0,26354,27154,A F,0,29221,,1,0
Sprite,Foreground,Centre,"sb/d.png",0,0 S,7,26648,27448,0.2686976,0 M,7,26648,27448,300,205,305,148 P,0,26648,27448,A F,0,29221,,1,0
Sprite,Foreground,Centre,"sb/d.png",0,0 S,7,26648,27448,0.2686976,0 M,7,26648,27448,300,205,383,160 P,0,26648,27448,A F,0,29221,,1,0
Sprite,Foreground,Centre,"sb/d.png",0,0 S,7,26648,27448,0.2686976,0 M,7,26648,27448,300,205,388,177 P,0,26648,27448,A F,0,29221,,1,0
Sprite,Foreground,Centre,"sb/d.png",0,0 S,7,26648,27448,0.2686976,0 M,7,26648,27448,300,205,270,287 P,0,26648,27448,A F,0,29221,,1,0
Sprite,Foreground,Centre,"sb/d.png",0,0 S,7,26648,27448,0.2686976,0 M,7,26648,27448,300,205,270,109 P,0,26648,27448,A F,0,29221,,1,0
Sprite,Foreground,Centre,"sb/d.png",0,0 S,7,26648,27448,0.2686976,0 M,7,26648,27448,300,205,250,153 P,0,26648,27448,A F,0,29221,,1,0
Sprite,Foreground,Centre,"sb/d.png",0,0 S,7,26648,27448,0.2686976,0 M,7,26648,27448,300,205,236,160 P,0,26648,27448,A F,0,29221,,1,0
Sprite,Foreground,Centre,"sb/d.png",0,0 S,7,26648,27448,0.2686976,0 M,7,26648,27448,300,205,293,191 P,0,26648,27448,A F,0,29221,,1,0
Sprite,Foreground,Centre,"sb/d.png",0,0 S,7,26648,27448,0.2686976,0 M,7,26648,27448,300,205,203,168 P,0,26648,27448,A F,0,29221,,1,0
Sprite,Foreground,Centre,"sb/d.png",0,0 S,7,26648,27448,0.2686976,0 M,7,26648,27448,300,205,355,289 P,0,26648,27448,A F,0,29221,,1,0
Sprite,Foreground,Centre,"sb/d.png",0,0 S,7,26942,27742,0.3579287,0 M,7,26942,27742,346,116,414,28 P,0,26942,27742,A F,0,29221,,1,0
Sprite,Foreground,Centre,"sb/d.png",0,0 S,7,26942,27742,0.3579287,0 M,7,26942,27742,346,116,249,34 P,0,26942,27742,A F,0,29221,,1,0
Sprite,Foreground,Centre,"sb/d.png",0,0 S,7,26942,27742,0.3579287,0 M,7,26942,27742,346,116,257,175 P,0,26942,27742,A F,0,29221,,1,0
Sprite,Foreground,Centre,"sb/d.png",0,0 S,7,26942,27742,0.3579287,0 M,7,26942,27742,346,116,326,97 P,0,26942,27742,A F,0,29221,,1,0
Sprite,Foreground,Centre,"sb/d.png",0,0 S,7,26942,27742,0.3579287,0 M,7,26942,27742,346,116,291,61 P,0,26942,27742,A F,0,29221,,1,0
Sprite,Foreground,Centre,"sb/d.png",0,0 S,7,26942,27742,0.3579287,0 M,7,26942,27742,346,116,271,31 P,0,26942,27742,A F,0,29221,,1,0
Sprite,Foreground,Centre,"sb/d.png",0,0 S,7,26942,27742,0.3579287,0 M,7,26942,27742,346,116,393,162 P,0,26942,27742,A F,0,29221,,1,0
Sprite,Foreground,Centre,"sb/d.png",0,0 S,7,26942,27742,0.3579287,0 M,7,26942,27742,346,116,356,25 P,0,26942,27742,A F,0,29221,,1,0
Sprite,Foreground,Centre,"sb/d.png",0,0 S,7,26942,27742,0.3579287,0 M,7,26942,27742,346,116,325,177 P,0,26942,27742,A F,0,29221,,1,0
Sprite,Foreground,Centre,"sb/d.png",0,0 S,7,26942,27742,0.3579287,0 M,7,26942,27742,346,116,271,92 P,0,26942,27742,A F,0,29221,,1,0
Sprite,Foreground,Centre,"sb/d.png",0,0 S,7,27530,28330,0.4039415,0 M,7,27530,28330,517,162,487,79 P,0,27530,28330,A F,0,29221,,1,0
Sprite,Foreground,Centre,"sb/d.png",0,0 S,7,27530,28330,0.4039415,0 M,7,27530,28330,517,162,486,187 P,0,27530,28330,A F,0,29221,,1,0
Sprite,Foreground,Centre,"sb/d.png",0,0 S,7,27530,28330,0.4039415,0 M,7,27530,28330,517,162,605,203 P,0,27530,28330,A F,0,29221,,1,0
Sprite,Foreground,Centre,"sb/d.png",0,0 S,7,27530,28330,0.4039415,0 M,7,27530,28330,517,162,568,164 P,0,27530,28330,A F,0,29221,,1,0
Sprite,Foreground,Centre,"sb/d.png",0,0 S,7,27530,28330,0.4039415,0 M,7,27530,28330,517,162,578,111 P,0,27530,28330,A F,0,29221,,1,0
Sprite,Foreground,Centre,"sb/d.png",0,0 S,7,27530,28330,0.4039415,0 M,7,27530,28330,517,162,470,204 P,0,27530,28330,A F,0,29221,,1,0
Sprite,Foreground,Centre,"sb/d.png",0,0 S,7,27530,28330,0.4039415,0 M,7,27530,28330,517,162,527,198 P,0,27530,28330,A F,0,29221,,1,0
Sprite,Foreground,Centre,"sb/d.png",0,0 S,7,27530,28330,0.4039415,0 M,7,27530,28330,517,162,448,242 P,0,27530,28330,A F,0,29221,,1,0
Sprite,Foreground,Centre,"sb/d.png",0,0 S,7,27530,28330,0.4039415,0 M,7,27530,28330,517,162,453,238 P,0,27530,28330,A F,0,29221,,1,0
Sprite,Foreground,Centre,"sb/d.png",0,0 S,7,27530,28330,0.4039415,0 M,7,27530,28330,517,162,529,251 P,0,27530,28330,A F,0,29221,,1,0
Sprite,Foreground,Centre,"sb/d.png",0,0 S,7,28118,28918,0.350412,0 M,7,28118,28918,446,232,370,290 P,0,28118,28918,A F,0,29221,,1,0
Sprite,Foreground,Centre,"sb/d.png",0,0 S,7,28118,28918,0.350412,0 M,7,28118,28918,446,232,370,165 P,0,28118,28918,A F,0,29221,,1,0
Sprite,Foreground,Centre,"sb/d.png",0,0 S,7,28118,28918,0.350412,0 M,7,28118,28918,446,232,435,241 P,0,28118,28918,A F,0,29221,,1,0
Sprite,Foreground,Centre,"sb/d.png",0,0 S,7,28118,28918,0.350412,0 M,7,28118,28918,446,232,528,209 P,0,28118,28918,A F,0,29221,,1,0
Sprite,Foreground,Centre,"sb/d.png",0,0 S,7,28118,28918,0.350412,0 M,7,28118,28918,446,232,469,234 P,0,28118,28918,A F,0,29221,,1,0
Sprite,Foreground,Centre,"sb/d.png",0,0 S,7,28118,28918,0.350412,0 M,7,28118,28918,446,232,475,239 P,0,28118,28918,A F,0,29221,,1,0
Sprite,Foreground,Centre,"sb/d.png",0,0 S,7,28118,28918,0.350412,0 M,7,28118,28918,446,232,499,229 P,0,28118,28918,A F,0,29221,,1,0
Sprite,Foreground,Centre,"sb/d.png",0,0 S,7,28118,28918,0.350412,0 M,7,28118,28918,446,232,541,265 P,0,28118,28918,A F,0,29221,,1,0
Sprite,Foreground,Centre,"sb/d.png",0,0 S,7,28118,28918,0.350412,0 M,7,28118,28918,446,232,438,155 P,0,28118,28918,A F,0,29221,,1,0
Sprite,Foreground,Centre,"sb/d.png",0,0 S,7,28118,28918,0.350412,0 M,7,28118,28918,446,232,363,261 P,0,28118,28918,A F,0,29221,,1,0
Sprite,Foreground,Centre,"sb/d.png",0,0 S,7,28707,29507,0.4297897,0 M,7,28707,29507,513,306,496,401 P,0,28707,29507,A F,0,29221,,1,0
Sprite,Foreground,Centre,"sb/d.png",0,0 S,7,28707,29507,0.4297897,0 M,7,28707,29507,513,306,585,278 P,0,28707,29507,A F,0,29221,,1,0
Sprite,Foreground,Centre,"sb/d.png",0,0 S,7,28707,29507,0.4297897,0 M,7,28707,29507,513,306,449,215 P,0,28707,29507,A F,0,29221,,1,0
Sprite,Foreground,Centre,"sb/d.png",0,0 S,7,28707,29507,0.4297897,0 M,7,28707,29507,513,306,492,234 P,0,28707,29507,A F,0,29221,,1,0
Sprite,Foreground,Centre,"sb/d.png",0,0 S,7,28707,29507,0.4297897,0 M,7,28707,29507,513,306,456,390 P,0,28707,29507,A F,0,29221,,1,0
Sprite,Foreground,Centre,"sb/d.png",0,0 S,7,28707,29507,0.4297897,0 M,7,28707,29507,513,306,525,293 P,0,28707,29507,A F,0,29221,,1,0
Sprite,Foreground,Centre,"sb/d.png",0,0 S,7,28707,29507,0.4297897,0 M,7,28707,29507,513,306,466,251 P,0,28707,29507,A F,0,29221,,1,0
Sprite,Foreground,Centre,"sb/d.png",0,0 S,7,28707,29507,0.4297897,0 M,7,28707,29507,513,306,471,251 P,0,28707,29507,A F,0,29221,,1,0
Sprite,Foreground,Centre,"sb/d.png",0,0 S,7,28707,29507,0.4297897,0 M,7,28707,29507,513,306,505,305 P,0,28707,29507,A F,0,29221,,1,0
Sprite,Foreground,Centre,"sb/d.png",0,0 S,7,28707,29507,0.4297897,0 M,7,28707,29507,513,306,445,374 P,0,28707,29507,A F,0,29221,,1,0
Animation,Foreground,Centre,"sb/circleani/Ellipse.png",65,103,31,25,LoopOnce S,7,208118,208893,0,0.512 C,0,208118,,0,151,75
Sprite,Foreground,Centre,"sb/ring.png",0,0 M,0,103412,,376,202 F,0,103412,,0 S,7,103412,104412,0,1.8 F,7,103412,104412,1,0 P,0,103412,,A M,0,104515,,320,2000
Sprite,Foreground,Centre,"sb/ring.png",0,0 M,0,103412,,295,262 F,0,103412,,0 S,7,103707,104707,0,1.8 F,7,103707,104707,1,0 P,0,103707,,A M,0,104515,,320,2000
Sprite,Foreground,Centre,"sb/ring.png",0,0 M,0,103412,,207,213 F,0,103412,,0 S,7,104001,105001,0,1.8 F,7,104001,105001,1,0 P,0,104001,,A M,0,104515,,320,2000
Sprite,Foreground,Centre,"sb/d.png",0,0 S,7,198707,199507,0.3952487,0 M,7,198707,199507,205,387,268,440 P,0,198707,199507,A F,0,208118,,1,0
Sprite,Foreground,Centre,"sb/d.png",0,0 S,7,198707,199507,0.3952487,0 M,7,198707,199507,205,387,216,328 P,0,198707,199507,A F,0,208118,,1,0
Sprite,Foreground,Centre,"sb/d.png",0,0 S,7,198707,199507,0.3952487,0 M,7,198707,199507,205,387,216,468 P,0,198707,199507,A F,0,208118,,1,0
Sprite,Foreground,Centre,"sb/d.png",0,0 S,7,198707,199507,0.3952487,0 M,7,198707,199507,205,387,193,482 P,0,198707,199507,A F,0,208118,,1,0
Sprite,Foreground,Centre,"sb/d.png",0,0 S,7,198707,199507,0.3952487,0 M,7,198707,199507,205,387,159,345 P,0,198707,199507,A F,0,208118,,1,0
Sprite,Foreground,Centre,"sb/d.png",0,0 S,7,198707,199507,0.3952487,0 M,7,198707,199507,205,387,198,413 P,0,198707,199507,A F,0,208118,,1,0
Sprite,Foreground,Centre,"sb/d.png",0,0 S,7,198707,199507,0.3952487,0 M,7,198707,199507,205,387,198,483 P,0,198707,199507,A F,0,208118,,1,0
Sprite,Foreground,Centre,"sb/d.png",0,0 S,7,198707,199507,0.3952487,0 M,7,198707,199507,205,387,111,459 P,0,198707,199507,A F,0,208118,,1,0
Sprite,Foreground,Centre,"sb/d.png",0,0 S,7,198707,199507,0.3952487,0 M,7,198707,199507,205,387,304,422 P,0,198707,199507,A F,0,208118,,1,0
Sprite,Foreground,Centre,"sb/d.png",0,0 S,7,198707,199507,0.3952487,0 M,7,198707,199507,205,387,167,450 P,0,198707,199507,A F,0,208118,,1,0
Sprite,Foreground,Centre,"sb/d.png",0,0 S,7,199295,200095,0.4196104,0 M,7,199295,200095,269,310,367,216 P,0,199295,200095,A F,0,208118,,1,0
Sprite,Foreground,Centre,"sb/d.png",0,0 S,7,199295,200095,0.4196104,0 M,7,199295,200095,269,310,308,315 P,0,199295,200095,A F,0,208118,,1,0
Sprite,Foreground,Centre,"sb/d.png",0,0 S,7,199295,200095,0.4196104,0 M,7,199295,200095,269,310,355,347 P,0,199295,200095,A F,0,208118,,1,0
Sprite,Foreground,Centre,"sb/d.png",0,0 S,7,199295,200095,0.4196104,0 M,7,199295,200095,269,310,278,226 P,0,199295,200095,A F,0,208118,,1,0
Sprite,Foreground,Centre,"sb/d.png",0,0 S,7,199295,200095,0.4196104,0 M,7,199295,200095,269,310,206,300 P,0,199295,200095,A F,0,208118,,1,0
Sprite,Foreground,Centre,"sb/d.png",0,0 S,7,199295,200095,0.4196104,0 M,7,199295,200095,269,310,228,407 P,0,199295,200095,A F,0,208118,,1,0
Sprite,Foreground,Centre,"sb/d.png",0,0 S,7,199295,200095,0.4196104,0 M,7,199295,200095,269,310,297,362 P,0,199295,200095,A F,0,208118,,1,0
Sprite,Foreground,Centre,"sb/d.png",0,0 S,7,199295,200095,0.4196104,0 M,7,199295,200095,269,310,175,286 P,0,199295,200095,A F,0,208118,,1,0
Sprite,Foreground,Centre,"sb/d.png",0,0 S,7,199295,200095,0.4196104,0 M,7,199295,200095,269,310,237,401 P,0,199295,200095,A F,0,208118,,1,0
Sprite,Foreground,Centre,"sb/d.png",0,0 S,7,199295,200095,0.4196104,0 M,7,199295,200095,269,310,270,353 P,0,199295,200095,A F,0,208118,,1,0
Sprite,Foreground,Centre,"sb/d.png",0,0 S,7,199883,200683,0.2737916,0 M,7,199883,200683,281,112,235,193 P,0,199883,200683,A F,0,208118,,1,0
Sprite,Foreground,Centre,"sb/d.png",0,0 S,7,199883,200683,0.2737916,0 M,7,199883,200683,281,112,339,79 P,0,199883,200683,A F,0,208118,,1,0
Sprite,Foreground,Centre,"sb/d.png",0,0 S,7,199883,200683,0.2737916,0 M,7,199883,200683,281,112,272,41 P,0,199883,200683,A F,0,208118,,1,0
Sprite,Foreground,Centre,"sb/d.png",0,0 S,7,199883,200683,0.2737916,0 M,7,199883,200683,281,112,225,94 P,0,199883,200683,A F,0,208118,,1,0
Sprite,Foreground,Centre,"sb/d.png",0,0 S,7,199883,200683,0.2737916,0 M,7,199883,200683,281,112,324,135 P,0,199883,200683,A F,0,208118,,1,0
Sprite,Foreground,Centre,"sb/d.png",0,0 S,7,199883,200683,0.2737916,0 M,7,199883,200683,281,112,278,50 P,0,199883,200683,A F,0,208118,,1,0
Sprite,Foreground,Centre,"sb/d.png",0,0 S,7,199883,200683,0.2737916,0 M,7,199883,200683,281,112,356,177 P,0,199883,200683,A F,0,208118,,1,0
Sprite,Foreground,Centre,"sb/d.png",0,0 S,7,199883,200683,0.2737916,0 M,7,199883,200683,281,112,328,183 P,0,199883,200683,A F,0,208118,,1,0
Sprite,Foreground,Centre,"sb/d.png",0,0 S,7,199883,200683,0.2737916,0 M,7,199883,200683,281,112,316,136 P,0,199883,200683,A F,0,208118,,1,0
Sprite,Foreground,Centre,"sb/d.png",0,0 S,7,199883,200683,0.2737916,0 M,7,199883,200683,281,112,224,191 P,0,199883,200683,A F,0,208118,,1,0
Sprite,Foreground,Centre,"sb/d.png",0,0 S,7,200471,201271,0.429288,0 M,7,200471,201271,432,172,349,239 P,0,200471,201271,A F,0,208118,,1,0
Sprite,Foreground,Centre,"sb/d.png",0,0 S,7,200471,201271,0.429288,0 M,7,200471,201271,432,172,366,200 P,0,200471,201271,A F,0,208118,,1,0
Sprite,Foreground,Centre,"sb/d.png",0,0 S,7,200471,201271,0.429288,0 M,7,200471,201271,432,172,497,115 P,0,200471,201271,A F,0,208118,,1,0
Sprite,Foreground,Centre,"sb/d.png",0,0 S,7,200471,201271,0.429288,0 M,7,200471,201271,432,172,531,168 P,0,200471,201271,A F,0,208118,,1,0
Sprite,Foreground,Centre,"sb/d.png",0,0 S,7,200471,201271,0.429288,0 M,7,200471,201271,432,172,462,215 P,0,200471,201271,A F,0,208118,,1,0
Sprite,Foreground,Centre,"sb/d.png",0,0 S,7,200471,201271,0.429288,0 M,7,200471,201271,432,172,493,92 P,0,200471,201271,A F,0,208118,,1,0
Sprite,Foreground,Centre,"sb/d.png",0,0 S,7,200471,201271,0.429288,0 M,7,200471,201271,432,172,477,215 P,0,200471,201271,A F,0,208118,,1,0
Sprite,Foreground,Centre,"sb/d.png",0,0 S,7,200471,201271,0.429288,0 M,7,200471,201271,432,172,357,253 P,0,200471,201271,A F,0,208118,,1,0
Sprite,Foreground,Centre,"sb/d.png",0,0 S,7,200471,201271,0.429288,0 M,7,200471,201271,432,172,369,167 P,0,200471,201271,A F,0,208118,,1,0
Sprite,Foreground,Centre,"sb/d.png",0,0 S,7,200471,201271,0.429288,0 M,7,200471,201271,432,172,440,137 P,0,200471,201271,A F,0,208118,,1,0
Sprite,Foreground,Centre,"sb/d.png",0,0 S,7,200765,201565,0.3842073,0 M,7,200765,201565,515,117,508,183 P,0,200765,201565,A F,0,208118,,1,0
Sprite,Foreground,Centre,"sb/d.png",0,0 S,7,200765,201565,0.3842073,0 M,7,200765,201565,515,117,576,175 P,0,200765,201565,A F,0,208118,,1,0
Sprite,Foreground,Centre,"sb/d.png",0,0 S,7,200765,201565,0.3842073,0 M,7,200765,201565,515,117,567,204 P,0,200765,201565,A F,0,208118,,1,0
Sprite,Foreground,Centre,"sb/d.png",0,0 S,7,200765,201565,0.3842073,0 M,7,200765,201565,515,117,473,121 P,0,200765,201565,A F,0,208118,,1,0
Sprite,Foreground,Centre,"sb/d.png",0,0 S,7,200765,201565,0.3842073,0 M,7,200765,201565,515,117,547,83 P,0,200765,201565,A F,0,208118,,1,0
Sprite,Foreground,Centre,"sb/d.png",0,0 S,7,200765,201565,0.3842073,0 M,7,200765,201565,515,117,472,181 P,0,200765,201565,A F,0,208118,,1,0
Sprite,Foreground,Centre,"sb/d.png",0,0 S,7,200765,201565,0.3842073,0 M,7,200765,201565,515,117,459,54 P,0,200765,201565,A F,0,208118,,1,0
Sprite,Foreground,Centre,"sb/d.png",0,0 S,7,200765,201565,0.3842073,0 M,7,200765,201565,515,117,428,141 P,0,200765,201565,A F,0,208118,,1,0
Sprite,Foreground,Centre,"sb/d.png",0,0 S,7,200765,201565,0.3842073,0 M,7,200765,201565,515,117,553,143 P,0,200765,201565,A F,0,208118,,1,0
Sprite,Foreground,Centre,"sb/d.png",0,0 S,7,200765,201565,0.3842073,0 M,7,200765,201565,515,117,600,61 P,0,200765,201565,A F,0,208118,,1,0
Sprite,Foreground,Centre,"sb/d.png",0,0 S,7,201060,201860,0.4357415,0 M,7,201060,201860,574,197,487,277 P,0,201060,201860,A F,0,208118,,1,0
Sprite,Foreground,Centre,"sb/d.png",0,0 S,7,201060,201860,0.4357415,0 M,7,201060,201860,574,197,609,115 P,0,201060,201860,A F,0,208118,,1,0
Sprite,Foreground,Centre,"sb/d.png",0,0 S,7,201060,201860,0.4357415,0 M,7,201060,201860,574,197,503,118 P,0,201060,201860,A F,0,208118,,1,0
Sprite,Foreground,Centre,"sb/d.png",0,0 S,7,201060,201860,0.4357415,0 M,7,201060,201860,574,197,595,287 P,0,201060,201860,A F,0,208118,,1,0
Sprite,Foreground,Centre,"sb/d.png",0,0 S,7,201060,201860,0.4357415,0 M,7,201060,201860,574,197,572,126 P,0,201060,201860,A F,0,208118,,1,0
Sprite,Foreground,Centre,"sb/d.png",0,0 S,7,201060,201860,0.4357415,0 M,7,201060,201860,574,197,609,210 P,0,201060,201860,A F,0,208118,,1,0
Sprite,Foreground,Centre,"sb/d.png",0,0 S,7,201060,201860,0.4357415,0 M,7,201060,201860,574,197,519,220 P,0,201060,201860,A F,0,208118,,1,0
Sprite,Foreground,Centre,"sb/d.png",0,0 S,7,201060,201860,0.4357415,0 M,7,201060,201860,574,197,475,169 P,0,201060,201860,A F,0,208118,,1,0
Sprite,Foreground,Centre,"sb/d.png",0,0 S,7,201060,201860,0.4357415,0 M,7,201060,201860,574,197,644,109 P,0,201060,201860,A F,0,208118,,1,0
Sprite,Foreground,Centre,"sb/d.png",0,0 S,7,201060,201860,0.4357415,0 M,7,201060,201860,574,197,530,237 P,0,201060,201860,A F,0,208118,,1,0
Sprite,Foreground,Centre,"sb/d.png",0,0 S,7,201648,202448,0.4417161,0 M,7,201648,202448,498,372,595,349 P,0,201648,202448,A F,0,208118,,1,0
Sprite,Foreground,Centre,"sb/d.png",0,0 S,7,201648,202448,0.4417161,0 M,7,201648,202448,498,372,502,328 P,0,201648,202448,A F,0,208118,,1,0
Sprite,Foreground,Centre,"sb/d.png",0,0 S,7,201648,202448,0.4417161,0 M,7,201648,202448,498,372,499,378 P,0,201648,202448,A F,0,208118,,1,0
Sprite,Foreground,Centre,"sb/d.png",0,0 S,7,201648,202448,0.4417161,0 M,7,201648,202448,498,372,409,328 P,0,201648,202448,A F,0,208118,,1,0
Sprite,Foreground,Centre,"sb/d.png",0,0 S,7,201648,202448,0.4417161,0 M,7,201648,202448,498,372,497,441 P,0,201648,202448,A F,0,208118,,1,0
Sprite,Foreground,Centre,"sb/d.png",0,0 S,7,201648,202448,0.4417161,0 M,7,201648,202448,498,372,520,292 P,0,201648,202448,A F,0,208118,,1,0
Sprite,Foreground,Centre,"sb/d.png",0,0 S,7,201648,202448,0.4417161,0 M,7,201648,202448,498,372,546,352 P,0,201648,202448,A F,0,208118,,1,0
Sprite,Foreground,Centre,"sb/d.png",0,0 S,7,201648,202448,0.4417161,0 M,7,201648,202448,498,372,584,298 P,0,201648,202448,A F,0,208118,,1,0
Sprite,Foreground,Centre,"sb/d.png",0,0 S,7,201648,202448,0.4417161,0 M,7,201648,202448,498,372,537,395 P,0,201648,202448,A F,0,208118,,1,0
Sprite,Foreground,Centre,"sb/d.png",0,0 S,7,201648,202448,0.4417161,0 M,7,201648,202448,498,372,564,409 P,0,201648,202448,A F,0,208118,,1,0
Sprite,Foreground,Centre,"sb/d.png",0,0 S,7,202236,203036,0.3639485,0 M,7,202236,203036,412,320,346,256 P,0,202236,203036,A F,0,208118,,1,0
Sprite,Foreground,Centre,"sb/d.png",0,0 S,7,202236,203036,0.3639485,0 M,7,202236,203036,412,320,433,270 P,0,202236,203036,A F,0,208118,,1,0
Sprite,Foreground,Centre,"sb/d.png",0,0 S,7,202236,203036,0.3639485,0 M,7,202236,203036,412,320,511,333 P,0,202236,203036,A F,0,208118,,1,0
Sprite,Foreground,Centre,"sb/d.png",0,0 S,7,202236,203036,0.3639485,0 M,7,202236,203036,412,320,324,272 P,0,202236,203036,A F,0,208118,,1,0
Sprite,Foreground,Centre,"sb/d.png",0,0 S,7,202236,203036,0.3639485,0 M,7,202236,203036,412,320,480,333 P,0,202236,203036,A F,0,208118,,1,0
Sprite,Foreground,Centre,"sb/d.png",0,0 S,7,202236,203036,0.3639485,0 M,7,202236,203036,412,320,441,323 P,0,202236,203036,A F,0,208118,,1,0
Sprite,Foreground,Centre,"sb/d.png",0,0 S,7,202236,203036,0.3639485,0 M,7,202236,203036,412,320,506,235 P,0,202236,203036,A F,0,208118,,1,0
Sprite,Foreground,Centre,"sb/d.png",0,0 S,7,202236,203036,0.3639485,0 M,7,202236,203036,412,320,414,251 P,0,202236,203036,A F,0,208118,,1,0
Sprite,Foreground,Centre,"sb/d.png",0,0 S,7,202236,203036,0.3639485,0 M,7,202236,203036,412,320,474,348 P,0,202236,203036,A F,0,208118,,1,0
Sprite,Foreground,Centre,"sb/d.png",0,0 S,7,202236,203036,0.3639485,0 M,7,202236,203036,412,320,427,330 P,0,202236,203036,A F,0,208118,,1,0
Sprite,Foreground,Centre,"sb/d.png",0,0 S,7,202824,203624,0.3844979,0 M,7,202824,203624,327,372,425,332 P,0,202824,203624,A F,0,208118,,1,0
Sprite,Foreground,Centre,"sb/d.png",0,0 S,7,202824,203624,0.3844979,0 M,7,202824,203624,327,372,239,365 P,0,202824,203624,A F,0,208118,,1,0
Sprite,Foreground,Centre,"sb/d.png",0,0 S,7,202824,203624,0.3844979,0 M,7,202824,203624,327,372,323,315 P,0,202824,203624,A F,0,208118,,1,0
Sprite,Foreground,Centre,"sb/d.png",0,0 S,7,202824,203624,0.3844979,0 M,7,202824,203624,327,372,241,318 P,0,202824,203624,A F,0,208118,,1,0
Sprite,Foreground,Centre,"sb/d.png",0,0 S,7,202824,203624,0.3844979,0 M,7,202824,203624,327,372,257,361 P,0,202824,203624,A F,0,208118,,1,0
Sprite,Foreground,Centre,"sb/d.png",0,0 S,7,202824,203624,0.3844979,0 M,7,202824,203624,327,372,317,275 P,0,202824,203624,A F,0,208118,,1,0
Sprite,Foreground,Centre,"sb/d.png",0,0 S,7,202824,203624,0.3844979,0 M,7,202824,203624,327,372,304,435 P,0,202824,203624,A F,0,208118,,1,0
Sprite,Foreground,Centre,"sb/d.png",0,0 S,7,202824,203624,0.3844979,0 M,7,202824,203624,327,372,267,454 P,0,202824,203624,A F,0,208118,,1,0
Sprite,Foreground,Centre,"sb/d.png",0,0 S,7,202824,203624,0.3844979,0 M,7,202824,203624,327,372,232,373 P,0,202824,203624,A F,0,208118,,1,0
Sprite,Foreground,Centre,"sb/d.png",0,0 S,7,202824,203624,0.3844979,0 M,7,202824,203624,327,372,419,470 P,0,202824,203624,A F,0,208118,,1,0
Sprite,Foreground,Centre,"sb/d.png",0,0 S,7,203412,204212,0.253374,0 M,7,203412,204212,236,193,266,148 P,0,203412,204212,A F,0,208118,,1,0
Sprite,Foreground,Centre,"sb/d.png",0,0 S,7,203412,204212,0.253374,0 M,7,203412,204212,236,193,329,210 P,0,203412,204212,A F,0,208118,,1,0
Sprite,Foreground,Centre,"sb/d.png",0,0 S,7,203412,204212,0.253374,0 M,7,203412,204212,236,193,290,157 P,0,203412,204212,A F,0,208118,,1,0
Sprite,Foreground,Centre,"sb/d.png",0,0 S,7,203412,204212,0.253374,0 M,7,203412,204212,236,193,220,287 P,0,203412,204212,A F,0,208118,,1,0
Sprite,Foreground,Centre,"sb/d.png",0,0 S,7,203412,204212,0.253374,0 M,7,203412,204212,236,193,313,287 P,0,203412,204212,A F,0,208118,,1,0
Sprite,Foreground,Centre,"sb/d.png",0,0 S,7,203412,204212,0.253374,0 M,7,203412,204212,236,193,187,119 P,0,203412,204212,A F,0,208118,,1,0
Sprite,Foreground,Centre,"sb/d.png",0,0 S,7,203412,204212,0.253374,0 M,7,203412,204212,236,193,315,128 P,0,203412,204212,A F,0,208118,,1,0
Sprite,Foreground,Centre,"sb/d.png",0,0 S,7,203412,204212,0.253374,0 M,7,203412,204212,236,193,312,201 P,0,203412,204212,A F,0,208118,,1,0
Sprite,Foreground,Centre,"sb/d.png",0,0 S,7,203412,204212,0.253374,0 M,7,203412,204212,236,193,293,195 P,0,203412,204212,A F,0,208118,,1,0
Sprite,Foreground,Centre,"sb/d.png",0,0 S,7,203412,204212,0.253374,0 M,7,203412,204212,236,193,206,291 P,0,203412,204212,A F,0,208118,,1,0
Sprite,Foreground,Centre,"sb/d.png",0,0 S,7,204001,204801,0.2566886,0 M,7,204001,204801,153,250,191,174 P,0,204001,204801,A F,0,208118,,1,0
Sprite,Foreground,Centre,"sb/d.png",0,0 S,7,204001,204801,0.2566886,0 M,7,204001,204801,153,250,91,249 P,0,204001,204801,A F,0,208118,,1,0
Sprite,Foreground,Centre,"sb/d.png",0,0 S,7,204001,204801,0.2566886,0 M,7,204001,204801,153,250,169,202 P,0,204001,204801,A F,0,208118,,1,0
Sprite,Foreground,Centre,"sb/d.png",0,0 S,7,204001,204801,0.2566886,0 M,7,204001,204801,153,250,115,198 P,0,204001,204801,A F,0,208118,,1,0
Sprite,Foreground,Centre,"sb/d.png",0,0 S,7,204001,204801,0.2566886,0 M,7,204001,204801,153,250,209,176 P,0,204001,204801,A F,0,208118,,1,0
Sprite,Foreground,Centre,"sb/d.png",0,0 S,7,204001,204801,0.2566886,0 M,7,204001,204801,153,250,175,261 P,0,204001,204801,A F,0,208118,,1,0
Sprite,Foreground,Centre,"sb/d.png",0,0 S,7,204001,204801,0.2566886,0 M,7,204001,204801,153,250,184,218 P,0,204001,204801,A F,0,208118,,1,0
Sprite,Foreground,Centre,"sb/d.png",0,0 S,7,204001,204801,0.2566886,0 M,7,204001,204801,153,250,57,169 P,0,204001,204801,A F,0,208118,,1,0
Sprite,Foreground,Centre,"sb/d.png",0,0 S,7,204001,204801,0.2566886,0 M,7,204001,204801,153,250,228,292 P,0,204001,204801,A F,0,208118,,1,0
Sprite,Foreground,Centre,"sb/d.png",0,0 S,7,204001,204801,0.2566886,0 M,7,204001,204801,153,250,231,280 P,0,204001,204801,A F,0,208118,,1,0
Sprite,Foreground,Centre,"sb/d.png",0,0 S,7,204589,205389,0.3010615,0 M,7,204589,205389,185,430,137,424 P,0,204589,205389,A F,0,208118,,1,0
Sprite,Foreground,Centre,"sb/d.png",0,0 S,7,204589,205389,0.3010615,0 M,7,204589,205389,185,430,124,507 P,0,204589,205389,A F,0,208118,,1,0
Sprite,Foreground,Centre,"sb/d.png",0,0 S,7,204589,205389,0.3010615,0 M,7,204589,205389,185,430,183,457 P,0,204589,205389,A F,0,208118,,1,0
Sprite,Foreground,Centre,"sb/d.png",0,0 S,7,204589,205389,0.3010615,0 M,7,204589,205389,185,430,148,403 P,0,204589,205389,A F,0,208118,,1,0
Sprite,Foreground,Centre,"sb/d.png",0,0 S,7,204589,205389,0.3010615,0 M,7,204589,205389,185,430,133,529 P,0,204589,205389,A F,0,208118,,1,0
Sprite,Foreground,Centre,"sb/d.png",0,0 S,7,204589,205389,0.3010615,0 M,7,204589,205389,185,430,207,330 P,0,204589,205389,A F,0,208118,,1,0
Sprite,Foreground,Centre,"sb/d.png",0,0 S,7,204589,205389,0.3010615,0 M,7,204589,205389,185,430,281,522 P,0,204589,205389,A F,0,208118,,1,0
Sprite,Foreground,Centre,"sb/d.png",0,0 S,7,204589,205389,0.3010615,0 M,7,204589,205389,185,430,116,484 P,0,204589,205389,A F,0,208118,,1,0
Sprite,Foreground,Centre,"sb/d.png",0,0 S,7,204589,205389,0.3010615,0 M,7,204589,205389,185,430,103,368 P,0,204589,205389,A F,0,208118,,1,0
Sprite,Foreground,Centre,"sb/d.png",0,0 S,7,204589,205389,0.3010615,0 M,7,204589,205389,185,430,97,352 P,0,204589,205389,A F,0,208118,,1,0
Sprite,Foreground,Centre,"sb/d.png",0,0 S,7,205177,205977,0.3965594,0 M,7,205177,205977,341,336,261,403 P,0,205177,205977,A F,0,208118,,1,0
Sprite,Foreground,Centre,"sb/d.png",0,0 S,7,205177,205977,0.3965594,0 M,7,205177,205977,341,336,369,350 P,0,205177,205977,A F,0,208118,,1,0
Sprite,Foreground,Centre,"sb/d.png",0,0 S,7,205177,205977,0.3965594,0 M,7,205177,205977,341,336,289,403 P,0,205177,205977,A F,0,208118,,1,0
Sprite,Foreground,Centre,"sb/d.png",0,0 S,7,205177,205977,0.3965594,0 M,7,205177,205977,341,336,412,325 P,0,205177,205977,A F,0,208118,,1,0
Sprite,Foreground,Centre,"sb/d.png",0,0 S,7,205177,205977,0.3965594,0 M,7,205177,205977,341,336,422,396 P,0,205177,205977,A F,0,208118,,1,0
Sprite,Foreground,Centre,"sb/d.png",0,0 S,7,205177,205977,0.3965594,0 M,7,205177,205977,341,336,333,304 P,0,205177,205977,A F,0,208118,,1,0
Sprite,Foreground,Centre,"sb/d.png",0,0 S,7,205177,205977,0.3965594,0 M,7,205177,205977,341,336,396,321 P,0,205177,205977,A F,0,208118,,1,0
Sprite,Foreground,Centre,"sb/d.png",0,0 S,7,205177,205977,0.3965594,0 M,7,205177,205977,341,336,370,435 P,0,205177,205977,A F,0,208118,,1,0
Sprite,Foreground,Centre,"sb/d.png",0,0 S,7,205177,205977,0.3965594,0 M,7,205177,205977,341,336,362,253 P,0,205177,205977,A F,0,208118,,1,0
Sprite,Foreground,Centre,"sb/d.png",0,0 S,7,205177,205977,0.3965594,0 M,7,205177,205977,341,336,365,434 P,0,205177,205977,A F,0,208118,,1,0
Sprite,Foreground,Centre,"sb/d.png",0,0 S,7,205471,206271,0.4246328,0 M,7,205471,206271,433,373,440,300 P,0,205471,206271,A F,0,208118,,1,0
Sprite,Foreground,Centre,"sb/d.png",0,0 S,7,205471,206271,0.4246328,0 M,7,205471,206271,433,373,333,384 P,0,205471,206271,A F,0,208118,,1,0
Sprite,Foreground,Centre,"sb/d.png",0,0 S,7,205471,206271,0.4246328,0 M,7,205471,206271,433,373,467,348 P,0,205471,206271,A F,0,208118,,1,0
Sprite,Foreground,Centre,"sb/d.png",0,0 S,7,205471,206271,0.4246328,0 M,7,205471,206271,433,373,506,338 P,0,205471,206271,A F,0,208118,,1,0
Sprite,Foreground,Centre,"sb/d.png",0,0 S,7,205471,206271,0.4246328,0 M,7,205471,206271,433,373,490,376 P,0,205471,206271,A F,0,208118,,1,0
Sprite,Foreground,Centre,"sb/d.png",0,0 S,7,205471,206271,0.4246328,0 M,7,205471,206271,433,373,498,381 P,0,205471,206271,A F,0,208118,,1,0
Sprite,Foreground,Centre,"sb/d.png",0,0 S,7,205471,206271,0.4246328,0 M,7,205471,206271,433,373,437,305 P,0,205471,206271,A F,0,208118,,1,0
Sprite,Foreground,Centre,"sb/d.png",0,0 S,7,205471,206271,0.4246328,0 M,7,205471,206271,433,373,459,383 P,0,205471,206271,A F,0,208118,,1,0
Sprite,Foreground,Centre,"sb/d.png",0,0 S,7,205471,206271,0.4246328,0 M,7,205471,206271,433,373,395,322 P,0,205471,206271,A F,0,208118,,1,0
Sprite,Foreground,Centre,"sb/d.png",0,0 S,7,205471,206271,0.4246328,0 M,7,205471,206271,433,373,493,365 P,0,205471,206271,A F,0,208118,,1,0
Sprite,Foreground,Centre,"sb/d.png",0,0 S,7,205765,206565,0.4343202,0 M,7,205765,206565,494,294,461,232 P,0,205765,206565,A F,0,208118,,1,0
Sprite,Foreground,Centre,"sb/d.png",0,0 S,7,205765,206565,0.4343202,0 M,7,205765,206565,494,294,424,326 P,0,205765,206565,A F,0,208118,,1,0
Sprite,Foreground,Centre,"sb/d.png",0,0 S,7,205765,206565,0.4343202,0 M,7,205765,206565,494,294,435,300 P,0,205765,206565,A F,0,208118,,1,0
Sprite,Foreground,Centre,"sb/d.png",0,0 S,7,205765,206565,0.4343202,0 M,7,205765,206565,494,294,495,348 P,0,205765,206565,A F,0,208118,,1,0
Sprite,Foreground,Centre,"sb/d.png",0,0 S,7,205765,206565,0.4343202,0 M,7,205765,206565,494,294,490,214 P,0,205765,206565,A F,0,208118,,1,0
Sprite,Foreground,Centre,"sb/d.png",0,0 S,7,205765,206565,0.4343202,0 M,7,205765,206565,494,294,481,217 P,0,205765,206565,A F,0,208118,,1,0
Sprite,Foreground,Centre,"sb/d.png",0,0 S,7,205765,206565,0.4343202,0 M,7,205765,206565,494,294,565,306 P,0,205765,206565,A F,0,208118,,1,0
Sprite,Foreground,Centre,"sb/d.png",0,0 S,7,205765,206565,0.4343202,0 M,7,205765,206565,494,294,534,322 P,0,205765,206565,A F,0,208118,,1,0
Sprite,Foreground,Centre,"sb/d.png",0,0 S,7,205765,206565,0.4343202,0 M,7,205765,206565,494,294,397,307 P,0,205765,206565,A F,0,208118,,1,0
Sprite,Foreground,Centre,"sb/d.png",0,0 S,7,205765,206565,0.4343202,0 M,7,205765,206565,494,294,485,392 P,0,205765,206565,A F,0,208118,,1,0
Sprite,Foreground,Centre,"sb/d.png",0,0 S,7,206354,207154,0.2744685,0 M,7,206354,207154,407,128,331,84 P,0,206354,207154,A F,0,208118,,1,0
Sprite,Foreground,Centre,"sb/d.png",0,0 S,7,206354,207154,0.2744685,0 M,7,206354,207154,407,128,433,187 P,0,206354,207154,A F,0,208118,,1,0
Sprite,Foreground,Centre,"sb/d.png",0,0 S,7,206354,207154,0.2744685,0 M,7,206354,207154,407,128,358,80 P,0,206354,207154,A F,0,208118,,1,0
Sprite,Foreground,Centre,"sb/d.png",0,0 S,7,206354,207154,0.2744685,0 M,7,206354,207154,407,128,309,117 P,0,206354,207154,A F,0,208118,,1,0
Sprite,Foreground,Centre,"sb/d.png",0,0 S,7,206354,207154,0.2744685,0 M,7,206354,207154,407,128,365,195 P,0,206354,207154,A F,0,208118,,1,0
Sprite,Foreground,Centre,"sb/d.png",0,0 S,7,206354,207154,0.2744685,0 M,7,206354,207154,407,128,471,134 P,0,206354,207154,A F,0,208118,,1,0
Sprite,Foreground,Centre,"sb/d.png",0,0 S,7,206354,207154,0.2744685,0 M,7,206354,207154,407,128,497,68 P,0,206354,207154,A F,0,208118,,1,0
Sprite,Foreground,Centre,"sb/d.png",0,0 S,7,206354,207154,0.2744685,0 M,7,206354,207154,407,128,496,198 P,0,206354,207154,A F,0,208118,,1,0
Sprite,Foreground,Centre,"sb/d.png",0,0 S,7,206354,207154,0.2744685,0 M,7,206354,207154,407,128,486,121 P,0,206354,207154,A F,0,208118,,1,0
Sprite,Foreground,Centre,"sb/d.png",0,0 S,7,206354,207154,0.2744685,0 M,7,206354,207154,407,128,475,99 P,0,206354,207154,A F,0,208118,,1,0
Sprite,Foreground,Centre,"sb/d.png",0,0 S,7,206942,207742,0.3603556,0 M,7,206942,207742,318,173,278,156 P,0,206942,207742,A F,0,208118,,1,0
Sprite,Foreground,Centre,"sb/d.png",0,0 S,7,206942,207742,0.3603556,0 M,7,206942,207742,318,173,296,157 P,0,206942,207742,A F,0,208118,,1,0
Sprite,Foreground,Centre,"sb/d.png",0,0 S,7,206942,207742,0.3603556,0 M,7,206942,207742,318,173,350,193 P,0,206942,207742,A F,0,208118,,1,0
Sprite,Foreground,Centre,"sb/d.png",0,0 S,7,206942,207742,0.3603556,0 M,7,206942,207742,318,173,404,255 P,0,206942,207742,A F,0,208118,,1,0
Sprite,Foreground,Centre,"sb/d.png",0,0 S,7,206942,207742,0.3603556,0 M,7,206942,207742,318,173,277,209 P,0,206942,207742,A F,0,208118,,1,0
Sprite,Foreground,Centre,"sb/d.png",0,0 S,7,206942,207742,0.3603556,0 M,7,206942,207742,318,173,286,166 P,0,206942,207742,A F,0,208118,,1,0
Sprite,Foreground,Centre,"sb/d.png",0,0 S,7,206942,207742,0.3603556,0 M,7,206942,207742,318,173,377,116 P,0,206942,207742,A F,0,208118,,1,0
Sprite,Foreground,Centre,"sb/d.png",0,0 S,7,206942,207742,0.3603556,0 M,7,206942,207742,318,173,399,176 P,0,206942,207742,A F,0,208118,,1,0
Sprite,Foreground,Centre,"sb/d.png",0,0 S,7,206942,207742,0.3603556,0 M,7,206942,207742,318,173,390,262 P,0,206942,207742,A F,0,208118,,1,0
Sprite,Foreground,Centre,"sb/d.png",0,0 S,7,206942,207742,0.3603556,0 M,7,206942,207742,318,173,272,172 P,0,206942,207742,A F,0,208118,,1,0
Sprite,Foreground,Centre,"sb/d.png",0,0 S,7,207530,208330,0.3154958,0 M,7,207530,208330,236,114,173,66 P,0,207530,208330,A F,0,208118,,1,0
Sprite,Foreground,Centre,"sb/d.png",0,0 S,7,207530,208330,0.3154958,0 M,7,207530,208330,236,114,259,131 P,0,207530,208330,A F,0,208118,,1,0
Sprite,Foreground,Centre,"sb/d.png",0,0 S,7,207530,208330,0.3154958,0 M,7,207530,208330,236,114,317,86 P,0,207530,208330,A F,0,208118,,1,0
Sprite,Foreground,Centre,"sb/d.png",0,0 S,7,207530,208330,0.3154958,0 M,7,207530,208330,236,114,287,171 P,0,207530,208330,A F,0,208118,,1,0
Sprite,Foreground,Centre,"sb/d.png",0,0 S,7,207530,208330,0.3154958,0 M,7,207530,208330,236,114,159,34 P,0,207530,208330,A F,0,208118,,1,0
Sprite,Foreground,Centre,"sb/d.png",0,0 S,7,207530,208330,0.3154958,0 M,7,207530,208330,236,114,258,141 P,0,207530,208330,A F,0,208118,,1,0
Sprite,Foreground,Centre,"sb/d.png",0,0 S,7,207530,208330,0.3154958,0 M,7,207530,208330,236,114,250,177 P,0,207530,208330,A F,0,208118,,1,0
Sprite,Foreground,Centre,"sb/d.png",0,0 S,7,207530,208330,0.3154958,0 M,7,207530,208330,236,114,308,61 P,0,207530,208330,A F,0,208118,,1,0
Sprite,Foreground,Centre,"sb/d.png",0,0 S,7,207530,208330,0.3154958,0 M,7,207530,208330,236,114,211,132 P,0,207530,208330,A F,0,208118,,1,0
Sprite,Foreground,Centre,"sb/d.png",0,0 S,7,207530,208330,0.3154958,0 M,7,207530,208330,236,114,268,30 P,0,207530,208330,A F,0,208118,,1,0
Sprite,Foreground,Centre,"sb/d.png",0,0 S,7,207824,208624,0.3566422,0 M,7,207824,208624,147,161,246,92 P,0,207824,208624,A F,0,208118,,1,0
Sprite,Foreground,Centre,"sb/d.png",0,0 S,7,207824,208624,0.3566422,0 M,7,207824,208624,147,161,143,73 P,0,207824,208624,A F,0,208118,,1,0
Sprite,Foreground,Centre,"sb/d.png",0,0 S,7,207824,208624,0.3566422,0 M,7,207824,208624,147,161,77,258 P,0,207824,208624,A F,0,208118,,1,0
Sprite,Foreground,Centre,"sb/d.png",0,0 S,7,207824,208624,0.3566422,0 M,7,207824,208624,147,161,54,127 P,0,207824,208624,A F,0,208118,,1,0
Sprite,Foreground,Centre,"sb/d.png",0,0 S,7,207824,208624,0.3566422,0 M,7,207824,208624,147,161,53,164 P,0,207824,208624,A F,0,208118,,1,0
Sprite,Foreground,Centre,"sb/d.png",0,0 S,7,207824,208624,0.3566422,0 M,7,207824,208624,147,161,161,232 P,0,207824,208624,A F,0,208118,,1,0
Sprite,Foreground,Centre,"sb/d.png",0,0 S,7,207824,208624,0.3566422,0 M,7,207824,208624,147,161,91,84 P,0,207824,208624,A F,0,208118,,1,0
Sprite,Foreground,Centre,"sb/d.png",0,0 S,7,207824,208624,0.3566422,0 M,7,207824,208624,147,161,78,216 P,0,207824,208624,A F,0,208118,,1,0
Sprite,Foreground,Centre,"sb/d.png",0,0 S,7,207824,208624,0.3566422,0 M,7,207824,208624,147,161,213,211 P,0,207824,208624,A F,0,208118,,1,0
Sprite,Foreground,Centre,"sb/d.png",0,0 S,7,207824,208624,0.3566422,0 M,7,207824,208624,147,161,95,96 P,0,207824,208624,A F,0,208118,,1,0
Sprite,Foreground,Centre,"sb/d.png",0,0 S,7,123412,124212,0.3952487,0 M,7,123412,124212,444,345,507,398 P,0,123412,124212,A F,0,142236,,1,0
Sprite,Foreground,Centre,"sb/d.png",0,0 S,7,123412,124212,0.3952487,0 M,7,123412,124212,444,345,455,286 P,0,123412,124212,A F,0,142236,,1,0
Sprite,Foreground,Centre,"sb/d.png",0,0 S,7,123412,124212,0.3952487,0 M,7,123412,124212,444,345,455,426 P,0,123412,124212,A F,0,142236,,1,0
Sprite,Foreground,Centre,"sb/d.png",0,0 S,7,123412,124212,0.3952487,0 M,7,123412,124212,444,345,432,440 P,0,123412,124212,A F,0,142236,,1,0
Sprite,Foreground,Centre,"sb/d.png",0,0 S,7,123412,124212,0.3952487,0 M,7,123412,124212,444,345,398,303 P,0,123412,124212,A F,0,142236,,1,0
Sprite,Foreground,Centre,"sb/d.png",0,0 S,7,123412,124212,0.3952487,0 M,7,123412,124212,444,345,437,371 P,0,123412,124212,A F,0,142236,,1,0
Sprite,Foreground,Centre,"sb/d.png",0,0 S,7,123412,124212,0.3952487,0 M,7,123412,124212,444,345,437,441 P,0,123412,124212,A F,0,142236,,1,0
Sprite,Foreground,Centre,"sb/d.png",0,0 S,7,123412,124212,0.3952487,0 M,7,123412,124212,444,345,350,417 P,0,123412,124212,A F,0,142236,,1,0
Sprite,Foreground,Centre,"sb/d.png",0,0 S,7,123412,124212,0.3952487,0 M,7,123412,124212,444,345,543,380 P,0,123412,124212,A F,0,142236,,1,0
Sprite,Foreground,Centre,"sb/d.png",0,0 S,7,123412,124212,0.3952487,0 M,7,123412,124212,444,345,406,408 P,0,123412,124212,A F,0,142236,,1,0
Sprite,Foreground,Centre,"sb/d.png",0,0 S,7,124001,124801,0.4196104,0 M,7,124001,124801,282,398,380,304 P,0,124001,124801,A F,0,142236,,1,0
Sprite,Foreground,Centre,"sb/d.png",0,0 S,7,124001,124801,0.4196104,0 M,7,124001,124801,282,398,321,403 P,0,124001,124801,A F,0,142236,,1,0
Sprite,Foreground,Centre,"sb/d.png",0,0 S,7,124001,124801,0.4196104,0 M,7,124001,124801,282,398,368,435 P,0,124001,124801,A F,0,142236,,1,0
Sprite,Foreground,Centre,"sb/d.png",0,0 S,7,124001,124801,0.4196104,0 M,7,124001,124801,282,398,291,314 P,0,124001,124801,A F,0,142236,,1,0
Sprite,Foreground,Centre,"sb/d.png",0,0 S,7,124001,124801,0.4196104,0 M,7,124001,124801,282,398,219,388 P,0,124001,124801,A F,0,142236,,1,0
Sprite,Foreground,Centre,"sb/d.png",0,0 S,7,124001,124801,0.4196104,0 M,7,124001,124801,282,398,241,495 P,0,124001,124801,A F,0,142236,,1,0
Sprite,Foreground,Centre,"sb/d.png",0,0 S,7,124001,124801,0.4196104,0 M,7,124001,124801,282,398,310,450 P,0,124001,124801,A F,0,142236,,1,0
Sprite,Foreground,Centre,"sb/d.png",0,0 S,7,124001,124801,0.4196104,0 M,7,124001,124801,282,398,188,374 P,0,124001,124801,A F,0,142236,,1,0
Sprite,Foreground,Centre,"sb/d.png",0,0 S,7,124001,124801,0.4196104,0 M,7,124001,124801,282,398,250,489 P,0,124001,124801,A F,0,142236,,1,0
Sprite,Foreground,Centre,"sb/d.png",0,0 S,7,124001,124801,0.4196104,0 M,7,124001,124801,282,398,283,441 P,0,124001,124801,A F,0,142236,,1,0
Sprite,Foreground,Centre,"sb/d.png",0,0 S,7,124589,125389,0.2737916,0 M,7,124589,125389,88,380,42,461 P,0,124589,125389,A F,0,142236,,1,0
Sprite,Foreground,Centre,"sb/d.png",0,0 S,7,124589,125389,0.2737916,0 M,7,124589,125389,88,380,146,347 P,0,124589,125389,A F,0,142236,,1,0
Sprite,Foreground,Centre,"sb/d.png",0,0 S,7,124589,125389,0.2737916,0 M,7,124589,125389,88,380,79,309 P,0,124589,125389,A F,0,142236,,1,0
Sprite,Foreground,Centre,"sb/d.png",0,0 S,7,124589,125389,0.2737916,0 M,7,124589,125389,88,380,32,362 P,0,124589,125389,A F,0,142236,,1,0
Sprite,Foreground,Centre,"sb/d.png",0,0 S,7,124589,125389,0.2737916,0 M,7,124589,125389,88,380,131,403 P,0,124589,125389,A F,0,142236,,1,0
Sprite,Foreground,Centre,"sb/d.png",0,0 S,7,124589,125389,0.2737916,0 M,7,124589,125389,88,380,85,318 P,0,124589,125389,A F,0,142236,,1,0
Sprite,Foreground,Centre,"sb/d.png",0,0 S,7,124589,125389,0.2737916,0 M,7,124589,125389,88,380,163,445 P,0,124589,125389,A F,0,142236,,1,0
Sprite,Foreground,Centre,"sb/d.png",0,0 S,7,124589,125389,0.2737916,0 M,7,124589,125389,88,380,135,451 P,0,124589,125389,A F,0,142236,,1,0
Sprite,Foreground,Centre,"sb/d.png",0,0 S,7,124589,125389,0.2737916,0 M,7,124589,125389,88,380,123,404 P,0,124589,125389,A F,0,142236,,1,0
Sprite,Foreground,Centre,"sb/d.png",0,0 S,7,124589,125389,0.2737916,0 M,7,124589,125389,88,380,31,459 P,0,124589,125389,A F,0,142236,,1,0
Sprite,Foreground,Centre,"sb/d.png",0,0 S,7,125177,125977,0.429288,0 M,7,125177,125977,66,181,-17,248 P,0,125177,125977,A F,0,142236,,1,0
Sprite,Foreground,Centre,"sb/d.png",0,0 S,7,125177,125977,0.429288,0 M,7,125177,125977,66,181,0,209 P,0,125177,125977,A F,0,142236,,1,0
Sprite,Foreground,Centre,"sb/d.png",0,0 S,7,125177,125977,0.429288,0 M,7,125177,125977,66,181,131,124 P,0,125177,125977,A F,0,142236,,1,0
Sprite,Foreground,Centre,"sb/d.png",0,0 S,7,125177,125977,0.429288,0 M,7,125177,125977,66,181,165,177 P,0,125177,125977,A F,0,142236,,1,0
Sprite,Foreground,Centre,"sb/d.png",0,0 S,7,125177,125977,0.429288,0 M,7,125177,125977,66,181,96,224 P,0,125177,125977,A F,0,142236,,1,0
Sprite,Foreground,Centre,"sb/d.png",0,0 S,7,125177,125977,0.429288,0 M,7,125177,125977,66,181,127,101 P,0,125177,125977,A F,0,142236,,1,0
Sprite,Foreground,Centre,"sb/d.png",0,0 S,7,125177,125977,0.429288,0 M,7,125177,125977,66,181,111,224 P,0,125177,125977,A F,0,142236,,1,0
Sprite,Foreground,Centre,"sb/d.png",0,0 S,7,125177,125977,0.429288,0 M,7,125177,125977,66,181,-9,262 P,0,125177,125977,A F,0,142236,,1,0
Sprite,Foreground,Centre,"sb/d.png",0,0 S,7,125177,125977,0.429288,0 M,7,125177,125977,66,181,3,176 P,0,125177,125977,A F,0,142236,,1,0
Sprite,Foreground,Centre,"sb/d.png",0,0 S,7,125177,125977,0.429288,0 M,7,125177,125977,66,181,74,146 P,0,125177,125977,A F,0,142236,,1,0
Sprite,Foreground,Centre,"sb/d.png",0,0 S,7,125471,126271,0.3842073,0 M,7,125471,126271,134,108,127,174 P,0,125471,126271,A F,0,142236,,1,0
Sprite,Foreground,Centre,"sb/d.png",0,0 S,7,125471,126271,0.3842073,0 M,7,125471,126271,134,108,195,166 P,0,125471,126271,A F,0,142236,,1,0
Sprite,Foreground,Centre,"sb/d.png",0,0 S,7,125471,126271,0.3842073,0 M,7,125471,126271,134,108,186,195 P,0,125471,126271,A F,0,142236,,1,0
Sprite,Foreground,Centre,"sb/d.png",0,0 S,7,125471,126271,0.3842073,0 M,7,125471,126271,134,108,92,112 P,0,125471,126271,A F,0,142236,,1,0
Sprite,Foreground,Centre,"sb/d.png",0,0 S,7,125471,126271,0.3842073,0 M,7,125471,126271,134,108,166,74 P,0,125471,126271,A F,0,142236,,1,0
Sprite,Foreground,Centre,"sb/d.png",0,0 S,7,125471,126271,0.3842073,0 M,7,125471,126271,134,108,91,172 P,0,125471,126271,A F,0,142236,,1,0
Sprite,Foreground,Centre,"sb/d.png",0,0 S,7,125471,126271,0.3842073,0 M,7,125471,126271,134,108,78,45 P,0,125471,126271,A F,0,142236,,1,0
Sprite,Foreground,Centre,"sb/d.png",0,0 S,7,125471,126271,0.3842073,0 M,7,125471,126271,134,108,47,132 P,0,125471,126271,A F,0,142236,,1,0
Sprite,Foreground,Centre,"sb/d.png",0,0 S,7,125471,126271,0.3842073,0 M,7,125471,126271,134,108,172,134 P,0,125471,126271,A F,0,142236,,1,0
Sprite,Foreground,Centre,"sb/d.png",0,0 S,7,125471,126271,0.3842073,0 M,7,125471,126271,134,108,219,52 P,0,125471,126271,A F,0,142236,,1,0
Sprite,Foreground,Centre,"sb/d.png",0,0 S,7,125765,126565,0.4357415,0 M,7,125765,126565,199,183,112,263 P,0,125765,126565,A F,0,142236,,1,0
Sprite,Foreground,Centre,"sb/d.png",0,0 S,7,125765,126565,0.4357415,0 M,7,125765,126565,199,183,234,101 P,0,125765,126565,A F,0,142236,,1,0
Sprite,Foreground,Centre,"sb/d.png",0,0 S,7,125765,126565,0.4357415,0 M,7,125765,126565,199,183,128,104 P,0,125765,126565,A F,0,142236,,1,0
Sprite,Foreground,Centre,"sb/d.png",0,0 S,7,125765,126565,0.4357415,0 M,7,125765,126565,199,183,220,273 P,0,125765,126565,A F,0,142236,,1,0
Sprite,Foreground,Centre,"sb/d.png",0,0 S,7,125765,126565,0.4357415,0 M,7,125765,126565,199,183,197,112 P,0,125765,126565,A F,0,142236,,1,0
Sprite,Foreground,Centre,"sb/d.png",0,0 S,7,125765,126565,0.4357415,0 M,7,125765,126565,199,183,234,196 P,0,125765,126565,A F,0,142236,,1,0
Sprite,Foreground,Centre,"sb/d.png",0,0 S,7,125765,126565,0.4357415,0 M,7,125765,126565,199,183,144,206 P,0,125765,126565,A F,0,142236,,1,0
Sprite,Foreground,Centre,"sb/d.png",0,0 S,7,125765,126565,0.4357415,0 M,7,125765,126565,199,183,100,155 P,0,125765,126565,A F,0,142236,,1,0
Sprite,Foreground,Centre,"sb/d.png",0,0 S,7,125765,126565,0.4357415,0 M,7,125765,126565,199,183,269,95 P,0,125765,126565,A F,0,142236,,1,0
Sprite,Foreground,Centre,"sb/d.png",0,0 S,7,125765,126565,0.4357415,0 M,7,125765,126565,199,183,155,223 P,0,125765,126565,A F,0,142236,,1,0
Sprite,Foreground,Centre,"sb/d.png",0,0 S,7,126207,127007,0.4417161,0 M,7,126207,127007,302,109,399,86 P,0,126207,127007,A F,0,142236,,1,0
Sprite,Foreground,Centre,"sb/d.png",0,0 S,7,126207,127007,0.4417161,0 M,7,126207,127007,302,109,306,65 P,0,126207,127007,A F,0,142236,,1,0
Sprite,Foreground,Centre,"sb/d.png",0,0 S,7,126207,127007,0.4417161,0 M,7,126207,127007,302,109,303,115 P,0,126207,127007,A F,0,142236,,1,0
Sprite,Foreground,Centre,"sb/d.png",0,0 S,7,126207,127007,0.4417161,0 M,7,126207,127007,302,109,213,65 P,0,126207,127007,A F,0,142236,,1,0
Sprite,Foreground,Centre,"sb/d.png",0,0 S,7,126207,127007,0.4417161,0 M,7,126207,127007,302,109,301,178 P,0,126207,127007,A F,0,142236,,1,0
Sprite,Foreground,Centre,"sb/d.png",0,0 S,7,126207,127007,0.4417161,0 M,7,126207,127007,302,109,324,29 P,0,126207,127007,A F,0,142236,,1,0
Sprite,Foreground,Centre,"sb/d.png",0,0 S,7,126207,127007,0.4417161,0 M,7,126207,127007,302,109,350,89 P,0,126207,127007,A F,0,142236,,1,0
Sprite,Foreground,Centre,"sb/d.png",0,0 S,7,126207,127007,0.4417161,0 M,7,126207,127007,302,109,388,35 P,0,126207,127007,A F,0,142236,,1,0
Sprite,Foreground,Centre,"sb/d.png",0,0 S,7,126207,127007,0.4417161,0 M,7,126207,127007,302,109,341,132 P,0,126207,127007,A F,0,142236,,1,0
Sprite,Foreground,Centre,"sb/d.png",0,0 S,7,126207,127007,0.4417161,0 M,7,126207,127007,302,109,368,146 P,0,126207,127007,A F,0,142236,,1,0
Sprite,Foreground,Centre,"sb/d.png",0,0 S,7,126354,127154,0.3639485,0 M,7,126354,127154,348,89,282,25 P,0,126354,127154,A F,0,142236,,1,0
Sprite,Foreground,Centre,"sb/d.png",0,0 S,7,126354,127154,0.3639485,0 M,7,126354,127154,348,89,369,39 P,0,126354,127154,A F,0,142236,,1,0
Sprite,Foreground,Centre,"sb/d.png",0,0 S,7,126354,127154,0.3639485,0 M,7,126354,127154,348,89,447,102 P,0,126354,127154,A F,0,142236,,1,0
Sprite,Foreground,Centre,"sb/d.png",0,0 S,7,126354,127154,0.3639485,0 M,7,126354,127154,348,89,260,41 P,0,126354,127154,A F,0,142236,,1,0
Sprite,Foreground,Centre,"sb/d.png",0,0 S,7,126354,127154,0.3639485,0 M,7,126354,127154,348,89,416,102 P,0,126354,127154,A F,0,142236,,1,0
Sprite,Foreground,Centre,"sb/d.png",0,0 S,7,126354,127154,0.3639485,0 M,7,126354,127154,348,89,377,92 P,0,126354,127154,A F,0,142236,,1,0
Sprite,Foreground,Centre,"sb/d.png",0,0 S,7,126354,127154,0.3639485,0 M,7,126354,127154,348,89,442,4 P,0,126354,127154,A F,0,142236,,1,0
Sprite,Foreground,Centre,"sb/d.png",0,0 S,7,126354,127154,0.3639485,0 M,7,126354,127154,348,89,350,20 P,0,126354,127154,A F,0,142236,,1,0
Sprite,Foreground,Centre,"sb/d.png",0,0 S,7,126354,127154,0.3639485,0 M,7,126354,127154,348,89,410,117 P,0,126354,127154,A F,0,142236,,1,0
Sprite,Foreground,Centre,"sb/d.png",0,0 S,7,126354,127154,0.3639485,0 M,7,126354,127154,348,89,363,99 P,0,126354,127154,A F,0,142236,,1,0
Sprite,Foreground,Centre,"sb/d.png",0,0 S,7,126942,127742,0.3844979,0 M,7,126942,127742,545,116,643,76 P,0,126942,127742,A F,0,142236,,1,0
Sprite,Foreground,Centre,"sb/d.png",0,0 S,7,126942,127742,0.3844979,0 M,7,126942,127742,545,116,457,109 P,0,126942,127742,A F,0,142236,,1,0
Sprite,Foreground,Centre,"sb/d.png",0,0 S,7,126942,127742,0.3844979,0 M,7,126942,127742,545,116,541,59 P,0,126942,127742,A F,0,142236,,1,0
Sprite,Foreground,Centre,"sb/d.png",0,0 S,7,126942,127742,0.3844979,0 M,7,126942,127742,545,116,459,62 P,0,126942,127742,A F,0,142236,,1,0
Sprite,Foreground,Centre,"sb/d.png",0,0 S,7,126942,127742,0.3844979,0 M,7,126942,127742,545,116,475,105 P,0,126942,127742,A F,0,142236,,1,0
Sprite,Foreground,Centre,"sb/d.png",0,0 S,7,126942,127742,0.3844979,0 M,7,126942,127742,545,116,535,19 P,0,126942,127742,A F,0,142236,,1,0
Sprite,Foreground,Centre,"sb/d.png",0,0 S,7,126942,127742,0.3844979,0 M,7,126942,127742,545,116,522,179 P,0,126942,127742,A F,0,142236,,1,0
Sprite,Foreground,Centre,"sb/d.png",0,0 S,7,126942,127742,0.3844979,0 M,7,126942,127742,545,116,485,198 P,0,126942,127742,A F,0,142236,,1,0
Sprite,Foreground,Centre,"sb/d.png",0,0 S,7,126942,127742,0.3844979,0 M,7,126942,127742,545,116,450,117 P,0,126942,127742,A F,0,142236,,1,0
Sprite,Foreground,Centre,"sb/d.png",0,0 S,7,126942,127742,0.3844979,0 M,7,126942,127742,545,116,637,214 P,0,126942,127742,A F,0,142236,,1,0
Sprite,Foreground,Centre,"sb/d.png",0,0 S,7,127530,128330,0.253374,0 M,7,127530,128330,526,315,556,270 P,0,127530,128330,A F,0,142236,,1,0
Sprite,Foreground,Centre,"sb/d.png",0,0 S,7,127530,128330,0.253374,0 M,7,127530,128330,526,315,619,332 P,0,127530,128330,A F,0,142236,,1,0
Sprite,Foreground,Centre,"sb/d.png",0,0 S,7,127530,128330,0.253374,0 M,7,127530,128330,526,315,580,279 P,0,127530,128330,A F,0,142236,,1,0
Sprite,Foreground,Centre,"sb/d.png",0,0 S,7,127530,128330,0.253374,0 M,7,127530,128330,526,315,510,409 P,0,127530,128330,A F,0,142236,,1,0
Sprite,Foreground,Centre,"sb/d.png",0,0 S,7,127530,128330,0.253374,0 M,7,127530,128330,526,315,603,409 P,0,127530,128330,A F,0,142236,,1,0
Sprite,Foreground,Centre,"sb/d.png",0,0 S,7,127530,128330,0.253374,0 M,7,127530,128330,526,315,477,241 P,0,127530,128330,A F,0,142236,,1,0
Sprite,Foreground,Centre,"sb/d.png",0,0 S,7,127530,128330,0.253374,0 M,7,127530,128330,526,315,605,250 P,0,127530,128330,A F,0,142236,,1,0
Sprite,Foreground,Centre,"sb/d.png",0,0 S,7,127530,128330,0.253374,0 M,7,127530,128330,526,315,602,323 P,0,127530,128330,A F,0,142236,,1,0
Sprite,Foreground,Centre,"sb/d.png",0,0 S,7,127530,128330,0.253374,0 M,7,127530,128330,526,315,583,317 P,0,127530,128330,A F,0,142236,,1,0
Sprite,Foreground,Centre,"sb/d.png",0,0 S,7,127530,128330,0.253374,0 M,7,127530,128330,526,315,496,413 P,0,127530,128330,A F,0,142236,,1,0
Sprite,Foreground,Centre,"sb/d.png",0,0 S,7,127824,128624,0.2566886,0 M,7,127824,128624,443,371,481,295 P,0,127824,128624,A F,0,142236,,1,0
Sprite,Foreground,Centre,"sb/d.png",0,0 S,7,127824,128624,0.2566886,0 M,7,127824,128624,443,371,381,370 P,0,127824,128624,A F,0,142236,,1,0
Sprite,Foreground,Centre,"sb/d.png",0,0 S,7,127824,128624,0.2566886,0 M,7,127824,128624,443,371,459,323 P,0,127824,128624,A F,0,142236,,1,0
Sprite,Foreground,Centre,"sb/d.png",0,0 S,7,127824,128624,0.2566886,0 M,7,127824,128624,443,371,405,319 P,0,127824,128624,A F,0,142236,,1,0
Sprite,Foreground,Centre,"sb/d.png",0,0 S,7,127824,128624,0.2566886,0 M,7,127824,128624,443,371,499,297 P,0,127824,128624,A F,0,142236,,1,0
Sprite,Foreground,Centre,"sb/d.png",0,0 S,7,127824,128624,0.2566886,0 M,7,127824,128624,443,371,465,382 P,0,127824,128624,A F,0,142236,,1,0
Sprite,Foreground,Centre,"sb/d.png",0,0 S,7,127824,128624,0.2566886,0 M,7,127824,128624,443,371,474,339 P,0,127824,128624,A F,0,142236,,1,0
Sprite,Foreground,Centre,"sb/d.png",0,0 S,7,127824,128624,0.2566886,0 M,7,127824,128624,443,371,347,290 P,0,127824,128624,A F,0,142236,,1,0
Sprite,Foreground,Centre,"sb/d.png",0,0 S,7,127824,128624,0.2566886,0 M,7,127824,128624,443,371,518,413 P,0,127824,128624,A F,0,142236,,1,0
Sprite,Foreground,Centre,"sb/d.png",0,0 S,7,127824,128624,0.2566886,0 M,7,127824,128624,443,371,521,401 P,0,127824,128624,A F,0,142236,,1,0
Sprite,Foreground,Centre,"sb/d.png",0,0 S,7,128118,128918,0.3010615,0 M,7,128118,128918,356,320,308,314 P,0,128118,128918,A F,0,142236,,1,0
Sprite,Foreground,Centre,"sb/d.png",0,0 S,7,128118,128918,0.3010615,0 M,7,128118,128918,356,320,295,397 P,0,128118,128918,A F,0,142236,,1,0
Sprite,Foreground,Centre,"sb/d.png",0,0 S,7,128118,128918,0.3010615,0 M,7,128118,128918,356,320,354,347 P,0,128118,128918,A F,0,142236,,1,0
Sprite,Foreground,Centre,"sb/d.png",0,0 S,7,128118,128918,0.3010615,0 M,7,128118,128918,356,320,319,293 P,0,128118,128918,A F,0,142236,,1,0
Sprite,Foreground,Centre,"sb/d.png",0,0 S,7,128118,128918,0.3010615,0 M,7,128118,128918,356,320,304,419 P,0,128118,128918,A F,0,142236,,1,0
Sprite,Foreground,Centre,"sb/d.png",0,0 S,7,128118,128918,0.3010615,0 M,7,128118,128918,356,320,378,220 P,0,128118,128918,A F,0,142236,,1,0
Sprite,Foreground,Centre,"sb/d.png",0,0 S,7,128118,128918,0.3010615,0 M,7,128118,128918,356,320,452,412 P,0,128118,128918,A F,0,142236,,1,0
Sprite,Foreground,Centre,"sb/d.png",0,0 S,7,128118,128918,0.3010615,0 M,7,128118,128918,356,320,287,374 P,0,128118,128918,A F,0,142236,,1,0
Sprite,Foreground,Centre,"sb/d.png",0,0 S,7,128118,128918,0.3010615,0 M,7,128118,128918,356,320,274,258 P,0,128118,128918,A F,0,142236,,1,0
Sprite,Foreground,Centre,"sb/d.png",0,0 S,7,128118,128918,0.3010615,0 M,7,128118,128918,356,320,268,242 P,0,128118,128918,A F,0,142236,,1,0
Sprite,Foreground,Centre,"sb/d.png",0,0 S,7,128707,129507,0.3965594,0 M,7,128707,129507,367,120,287,187 P,0,128707,129507,A F,0,142236,,1,0
Sprite,Foreground,Centre,"sb/d.png",0,0 S,7,128707,129507,0.3965594,0 M,7,128707,129507,367,120,395,134 P,0,128707,129507,A F,0,142236,,1,0
Sprite,Foreground,Centre,"sb/d.png",0,0 S,7,128707,129507,0.3965594,0 M,7,128707,129507,367,120,315,187 P,0,128707,129507,A F,0,142236,,1,0
Sprite,Foreground,Centre,"sb/d.png",0,0 S,7,128707,129507,0.3965594,0 M,7,128707,129507,367,120,438,109 P,0,128707,129507,A F,0,142236,,1,0
Sprite,Foreground,Centre,"sb/d.png",0,0 S,7,128707,129507,0.3965594,0 M,7,128707,129507,367,120,448,180 P,0,128707,129507,A F,0,142236,,1,0
Sprite,Foreground,Centre,"sb/d.png",0,0 S,7,128707,129507,0.3965594,0 M,7,128707,129507,367,120,359,88 P,0,128707,129507,A F,0,142236,,1,0
Sprite,Foreground,Centre,"sb/d.png",0,0 S,7,128707,129507,0.3965594,0 M,7,128707,129507,367,120,422,105 P,0,128707,129507,A F,0,142236,,1,0
Sprite,Foreground,Centre,"sb/d.png",0,0 S,7,128707,129507,0.3965594,0 M,7,128707,129507,367,120,396,219 P,0,128707,129507,A F,0,142236,,1,0
Sprite,Foreground,Centre,"sb/d.png",0,0 S,7,128707,129507,0.3965594,0 M,7,128707,129507,367,120,388,37 P,0,128707,129507,A F,0,142236,,1,0
Sprite,Foreground,Centre,"sb/d.png",0,0 S,7,128707,129507,0.3965594,0 M,7,128707,129507,367,120,391,218 P,0,128707,129507,A F,0,142236,,1,0
Sprite,Foreground,Centre,"sb/d.png",0,0 S,7,129295,130095,0.4246328,0 M,7,129295,130095,183,151,190,78 P,0,129295,130095,A F,0,142236,,1,0
Sprite,Foreground,Centre,"sb/d.png",0,0 S,7,129295,130095,0.4246328,0 M,7,129295,130095,183,151,83,162 P,0,129295,130095,A F,0,142236,,1,0
Sprite,Foreground,Centre,"sb/d.png",0,0 S,7,129295,130095,0.4246328,0 M,7,129295,130095,183,151,217,126 P,0,129295,130095,A F,0,142236,,1,0
Sprite,Foreground,Centre,"sb/d.png",0,0 S,7,129295,130095,0.4246328,0 M,7,129295,130095,183,151,256,116 P,0,129295,130095,A F,0,142236,,1,0
Sprite,Foreground,Centre,"sb/d.png",0,0 S,7,129295,130095,0.4246328,0 M,7,129295,130095,183,151,240,154 P,0,129295,130095,A F,0,142236,,1,0
Sprite,Foreground,Centre,"sb/d.png",0,0 S,7,129295,130095,0.4246328,0 M,7,129295,130095,183,151,248,159 P,0,129295,130095,A F,0,142236,,1,0
Sprite,Foreground,Centre,"sb/d.png",0,0 S,7,129295,130095,0.4246328,0 M,7,129295,130095,183,151,187,83 P,0,129295,130095,A F,0,142236,,1,0
Sprite,Foreground,Centre,"sb/d.png",0,0 S,7,129295,130095,0.4246328,0 M,7,129295,130095,183,151,209,161 P,0,129295,130095,A F,0,142236,,1,0
Sprite,Foreground,Centre,"sb/d.png",0,0 S,7,129295,130095,0.4246328,0 M,7,129295,130095,183,151,145,100 P,0,129295,130095,A F,0,142236,,1,0
Sprite,Foreground,Centre,"sb/d.png",0,0 S,7,129295,130095,0.4246328,0 M,7,129295,130095,183,151,243,143 P,0,129295,130095,A F,0,142236,,1,0
Sprite,Foreground,Centre,"sb/d.png",0,0 S,7,129883,130683,0.4343202,0 M,7,129883,130683,166,350,133,288 P,0,129883,130683,A F,0,142236,,1,0
Sprite,Foreground,Centre,"sb/d.png",0,0 S,7,129883,130683,0.4343202,0 M,7,129883,130683,166,350,96,382 P,0,129883,130683,A F,0,142236,,1,0
Sprite,Foreground,Centre,"sb/d.png",0,0 S,7,129883,130683,0.4343202,0 M,7,129883,130683,166,350,107,356 P,0,129883,130683,A F,0,142236,,1,0
Sprite,Foreground,Centre,"sb/d.png",0,0 S,7,129883,130683,0.4343202,0 M,7,129883,130683,166,350,167,404 P,0,129883,130683,A F,0,142236,,1,0
Sprite,Foreground,Centre,"sb/d.png",0,0 S,7,129883,130683,0.4343202,0 M,7,129883,130683,166,350,162,270 P,0,129883,130683,A F,0,142236,,1,0
Sprite,Foreground,Centre,"sb/d.png",0,0 S,7,129883,130683,0.4343202,0 M,7,129883,130683,166,350,153,273 P,0,129883,130683,A F,0,142236,,1,0
Sprite,Foreground,Centre,"sb/d.png",0,0 S,7,129883,130683,0.4343202,0 M,7,129883,130683,166,350,237,362 P,0,129883,130683,A F,0,142236,,1,0
Sprite,Foreground,Centre,"sb/d.png",0,0 S,7,129883,130683,0.4343202,0 M,7,129883,130683,166,350,206,378 P,0,129883,130683,A F,0,142236,,1,0
Sprite,Foreground,Centre,"sb/d.png",0,0 S,7,129883,130683,0.4343202,0 M,7,129883,130683,166,350,69,363 P,0,129883,130683,A F,0,142236,,1,0
Sprite,Foreground,Centre,"sb/d.png",0,0 S,7,129883,130683,0.4343202,0 M,7,129883,130683,166,350,157,448 P,0,129883,130683,A F,0,142236,,1,0
Sprite,Foreground,Centre,"sb/d.png",0,0 S,7,130177,130977,0.2744685,0 M,7,130177,130977,240,416,164,372 P,0,130177,130977,A F,0,142236,,1,0
Sprite,Foreground,Centre,"sb/d.png",0,0 S,7,130177,130977,0.2744685,0 M,7,130177,130977,240,416,266,475 P,0,130177,130977,A F,0,142236,,1,0
Sprite,Foreground,Centre,"sb/d.png",0,0 S,7,130177,130977,0.2744685,0 M,7,130177,130977,240,416,191,368 P,0,130177,130977,A F,0,142236,,1,0
Sprite,Foreground,Centre,"sb/d.png",0,0 S,7,130177,130977,0.2744685,0 M,7,130177,130977,240,416,142,405 P,0,130177,130977,A F,0,142236,,1,0
Sprite,Foreground,Centre,"sb/d.png",0,0 S,7,130177,130977,0.2744685,0 M,7,130177,130977,240,416,198,483 P,0,130177,130977,A F,0,142236,,1,0
Sprite,Foreground,Centre,"sb/d.png",0,0 S,7,130177,130977,0.2744685,0 M,7,130177,130977,240,416,304,422 P,0,130177,130977,A F,0,142236,,1,0
Sprite,Foreground,Centre,"sb/d.png",0,0 S,7,130177,130977,0.2744685,0 M,7,130177,130977,240,416,330,356 P,0,130177,130977,A F,0,142236,,1,0
Sprite,Foreground,Centre,"sb/d.png",0,0 S,7,130177,130977,0.2744685,0 M,7,130177,130977,240,416,329,486 P,0,130177,130977,A F,0,142236,,1,0
Sprite,Foreground,Centre,"sb/d.png",0,0 S,7,130177,130977,0.2744685,0 M,7,130177,130977,240,416,319,409 P,0,130177,130977,A F,0,142236,,1,0
Sprite,Foreground,Centre,"sb/d.png",0,0 S,7,130177,130977,0.2744685,0 M,7,130177,130977,240,416,308,387 P,0,130177,130977,A F,0,142236,,1,0
Sprite,Foreground,Centre,"sb/d.png",0,0 S,7,130471,131271,0.3603556,0 M,7,130471,131271,303,339,263,322 P,0,130471,131271,A F,0,142236,,1,0
Sprite,Foreground,Centre,"sb/d.png",0,0 S,7,130471,131271,0.3603556,0 M,7,130471,131271,303,339,281,323 P,0,130471,131271,A F,0,142236,,1,0
Sprite,Foreground,Centre,"sb/d.png",0,0 S,7,130471,131271,0.3603556,0 M,7,130471,131271,303,339,335,359 P,0,130471,131271,A F,0,142236,,1,0
Sprite,Foreground,Centre,"sb/d.png",0,0 S,7,130471,131271,0.3603556,0 M,7,130471,131271,303,339,389,421 P,0,130471,131271,A F,0,142236,,1,0
Sprite,Foreground,Centre,"sb/d.png",0,0 S,7,130471,131271,0.3603556,0 M,7,130471,131271,303,339,262,375 P,0,130471,131271,A F,0,142236,,1,0
Sprite,Foreground,Centre,"sb/d.png",0,0 S,7,130471,131271,0.3603556,0 M,7,130471,131271,303,339,271,332 P,0,130471,131271,A F,0,142236,,1,0
Sprite,Foreground,Centre,"sb/d.png",0,0 S,7,130471,131271,0.3603556,0 M,7,130471,131271,303,339,362,282 P,0,130471,131271,A F,0,142236,,1,0
Sprite,Foreground,Centre,"sb/d.png",0,0 S,7,130471,131271,0.3603556,0 M,7,130471,131271,303,339,384,342 P,0,130471,131271,A F,0,142236,,1,0
Sprite,Foreground,Centre,"sb/d.png",0,0 S,7,130471,131271,0.3603556,0 M,7,130471,131271,303,339,375,428 P,0,130471,131271,A F,0,142236,,1,0
Sprite,Foreground,Centre,"sb/d.png",0,0 S,7,130471,131271,0.3603556,0 M,7,130471,131271,303,339,257,338 P,0,130471,131271,A F,0,142236,,1,0
Sprite,Foreground,Centre,"sb/d.png",0,0 S,7,130912,131712,0.3154958,0 M,7,130912,131712,441,340,378,292 P,0,130912,131712,A F,0,142236,,1,0
Sprite,Foreground,Centre,"sb/d.png",0,0 S,7,130912,131712,0.3154958,0 M,7,130912,131712,441,340,464,357 P,0,130912,131712,A F,0,142236,,1,0
Sprite,Foreground,Centre,"sb/d.png",0,0 S,7,130912,131712,0.3154958,0 M,7,130912,131712,441,340,522,312 P,0,130912,131712,A F,0,142236,,1,0
Sprite,Foreground,Centre,"sb/d.png",0,0 S,7,130912,131712,0.3154958,0 M,7,130912,131712,441,340,492,397 P,0,130912,131712,A F,0,142236,,1,0
Sprite,Foreground,Centre,"sb/d.png",0,0 S,7,130912,131712,0.3154958,0 M,7,130912,131712,441,340,364,260 P,0,130912,131712,A F,0,142236,,1,0
Sprite,Foreground,Centre,"sb/d.png",0,0 S,7,130912,131712,0.3154958,0 M,7,130912,131712,441,340,463,367 P,0,130912,131712,A F,0,142236,,1,0
Sprite,Foreground,Centre,"sb/d.png",0,0 S,7,130912,131712,0.3154958,0 M,7,130912,131712,441,340,455,403 P,0,130912,131712,A F,0,142236,,1,0
Sprite,Foreground,Centre,"sb/d.png",0,0 S,7,130912,131712,0.3154958,0 M,7,130912,131712,441,340,513,287 P,0,130912,131712,A F,0,142236,,1,0
Sprite,Foreground,Centre,"sb/d.png",0,0 S,7,130912,131712,0.3154958,0 M,7,130912,131712,441,340,416,358 P,0,130912,131712,A F,0,142236,,1,0
Sprite,Foreground,Centre,"sb/d.png",0,0 S,7,130912,131712,0.3154958,0 M,7,130912,131712,441,340,473,256 P,0,130912,131712,A F,0,142236,,1,0
Sprite,Foreground,Centre,"sb/d.png",0,0 S,7,131060,131860,0.3566422,0 M,7,131060,131860,480,310,579,241 P,0,131060,131860,A F,0,142236,,1,0
Sprite,Foreground,Centre,"sb/d.png",0,0 S,7,131060,131860,0.3566422,0 M,7,131060,131860,480,310,476,222 P,0,131060,131860,A F,0,142236,,1,0
Sprite,Foreground,Centre,"sb/d.png",0,0 S,7,131060,131860,0.3566422,0 M,7,131060,131860,480,310,410,407 P,0,131060,131860,A F,0,142236,,1,0
Sprite,Foreground,Centre,"sb/d.png",0,0 S,7,131060,131860,0.3566422,0 M,7,131060,131860,480,310,387,276 P,0,131060,131860,A F,0,142236,,1,0
Sprite,Foreground,Centre,"sb/d.png",0,0 S,7,131060,131860,0.3566422,0 M,7,131060,131860,480,310,386,313 P,0,131060,131860,A F,0,142236,,1,0
Sprite,Foreground,Centre,"sb/d.png",0,0 S,7,131060,131860,0.3566422,0 M,7,131060,131860,480,310,494,381 P,0,131060,131860,A F,0,142236,,1,0
Sprite,Foreground,Centre,"sb/d.png",0,0 S,7,131060,131860,0.3566422,0 M,7,131060,131860,480,310,424,233 P,0,131060,131860,A F,0,142236,,1,0
Sprite,Foreground,Centre,"sb/d.png",0,0 S,7,131060,131860,0.3566422,0 M,7,131060,131860,480,310,411,365 P,0,131060,131860,A F,0,142236,,1,0
Sprite,Foreground,Centre,"sb/d.png",0,0 S,7,131060,131860,0.3566422,0 M,7,131060,131860,480,310,546,360 P,0,131060,131860,A F,0,142236,,1,0
Sprite,Foreground,Centre,"sb/d.png",0,0 S,7,131060,131860,0.3566422,0 M,7,131060,131860,480,310,428,245 P,0,131060,131860,A F,0,142236,,1,0
Sprite,Foreground,Centre,"sb/d.png",0,0 S,7,131648,132448,0.2747247,0 M,7,131648,132448,459,111,394,126 P,0,131648,132448,A F,0,142236,,1,0
Sprite,Foreground,Centre,"sb/d.png",0,0 S,7,131648,132448,0.2747247,0 M,7,131648,132448,459,111,504,176 P,0,131648,132448,A F,0,142236,,1,0
Sprite,Foreground,Centre,"sb/d.png",0,0 S,7,131648,132448,0.2747247,0 M,7,131648,132448,459,111,404,91 P,0,131648,132448,A F,0,142236,,1,0
Sprite,Foreground,Centre,"sb/d.png",0,0 S,7,131648,132448,0.2747247,0 M,7,131648,132448,459,111,367,67 P,0,131648,132448,A F,0,142236,,1,0
Sprite,Foreground,Centre,"sb/d.png",0,0 S,7,131648,132448,0.2747247,0 M,7,131648,132448,459,111,455,82 P,0,131648,132448,A F,0,142236,,1,0
Sprite,Foreground,Centre,"sb/d.png",0,0 S,7,131648,132448,0.2747247,0 M,7,131648,132448,459,111,480,94 P,0,131648,132448,A F,0,142236,,1,0
Sprite,Foreground,Centre,"sb/d.png",0,0 S,7,131648,132448,0.2747247,0 M,7,131648,132448,459,111,517,49 P,0,131648,132448,A F,0,142236,,1,0
Sprite,Foreground,Centre,"sb/d.png",0,0 S,7,131648,132448,0.2747247,0 M,7,131648,132448,459,111,379,37 P,0,131648,132448,A F,0,142236,,1,0
Sprite,Foreground,Centre,"sb/d.png",0,0 S,7,131648,132448,0.2747247,0 M,7,131648,132448,459,111,464,162 P,0,131648,132448,A F,0,142236,,1,0
Sprite,Foreground,Centre,"sb/d.png",0,0 S,7,131648,132448,0.2747247,0 M,7,131648,132448,459,111,433,155 P,0,131648,132448,A F,0,142236,,1,0
Sprite,Foreground,Centre,"sb/d.png",0,0 S,7,132236,133036,0.3413711,0 M,7,132236,133036,295,148,212,165 P,0,132236,133036,A F,0,142236,,1,0
Sprite,Foreground,Centre,"sb/d.png",0,0 S,7,132236,133036,0.3413711,0 M,7,132236,133036,295,148,203,203 P,0,132236,133036,A F,0,142236,,1,0
Sprite,Foreground,Centre,"sb/d.png",0,0 S,7,132236,133036,0.3413711,0 M,7,132236,133036,295,148,264,187 P,0,132236,133036,A F,0,142236,,1,0
Sprite,Foreground,Centre,"sb/d.png",0,0 S,7,132236,133036,0.3413711,0 M,7,132236,133036,295,148,336,140 P,0,132236,133036,A F,0,142236,,1,0
Sprite,Foreground,Centre,"sb/d.png",0,0 S,7,132236,133036,0.3413711,0 M,7,132236,133036,295,148,303,215 P,0,132236,133036,A F,0,142236,,1,0
Sprite,Foreground,Centre,"sb/d.png",0,0 S,7,132236,133036,0.3413711,0 M,7,132236,133036,295,148,279,229 P,0,132236,133036,A F,0,142236,,1,0
Sprite,Foreground,Centre,"sb/d.png",0,0 S,7,132236,133036,0.3413711,0 M,7,132236,133036,295,148,276,211 P,0,132236,133036,A F,0,142236,,1,0
Sprite,Foreground,Centre,"sb/d.png",0,0 S,7,132236,133036,0.3413711,0 M,7,132236,133036,295,148,311,198 P,0,132236,133036,A F,0,142236,,1,0
Sprite,Foreground,Centre,"sb/d.png",0,0 S,7,132236,133036,0.3413711,0 M,7,132236,133036,295,148,241,232 P,0,132236,133036,A F,0,142236,,1,0
Sprite,Foreground,Centre,"sb/d.png",0,0 S,7,132236,133036,0.3413711,0 M,7,132236,133036,295,148,311,246 P,0,132236,133036,A F,0,142236,,1,0
Sprite,Foreground,Centre,"sb/d.png",0,0 S,7,132530,133330,0.2604122,0 M,7,132530,133330,203,107,212,39 P,0,132530,133330,A F,0,142236,,1,0
Sprite,Foreground,Centre,"sb/d.png",0,0 S,7,132530,133330,0.2604122,0 M,7,132530,133330,203,107,296,95 P,0,132530,133330,A F,0,142236,,1,0
Sprite,Foreground,Centre,"sb/d.png",0,0 S,7,132530,133330,0.2604122,0 M,7,132530,133330,203,107,189,191 P,0,132530,133330,A F,0,142236,,1,0
Sprite,Foreground,Centre,"sb/d.png",0,0 S,7,132530,133330,0.2604122,0 M,7,132530,133330,203,107,114,135 P,0,132530,133330,A F,0,142236,,1,0
Sprite,Foreground,Centre,"sb/d.png",0,0 S,7,132530,133330,0.2604122,0 M,7,132530,133330,203,107,164,206 P,0,132530,133330,A F,0,142236,,1,0
Sprite,Foreground,Centre,"sb/d.png",0,0 S,7,132530,133330,0.2604122,0 M,7,132530,133330,203,107,276,97 P,0,132530,133330,A F,0,142236,,1,0
Sprite,Foreground,Centre,"sb/d.png",0,0 S,7,132530,133330,0.2604122,0 M,7,132530,133330,203,107,236,25 P,0,132530,133330,A F,0,142236,,1,0
Sprite,Foreground,Centre,"sb/d.png",0,0 S,7,132530,133330,0.2604122,0 M,7,132530,133330,203,107,301,144 P,0,132530,133330,A F,0,142236,,1,0
Sprite,Foreground,Centre,"sb/d.png",0,0 S,7,132530,133330,0.2604122,0 M,7,132530,133330,203,107,113,183 P,0,132530,133330,A F,0,142236,,1,0
Sprite,Foreground,Centre,"sb/d.png",0,0 S,7,132530,133330,0.2604122,0 M,7,132530,133330,203,107,243,74 P,0,132530,133330,A F,0,142236,,1,0
Sprite,Foreground,Centre,"sb/d.png",0,0 S,7,132824,133624,0.4131823,0 M,7,132824,133624,123,167,210,170 P,0,132824,133624,A F,0,142236,,1,0
Sprite,Foreground,Centre,"sb/d.png",0,0 S,7,132824,133624,0.4131823,0 M,7,132824,133624,123,167,59,169 P,0,132824,133624,A F,0,142236,,1,0
Sprite,Foreground,Centre,"sb/d.png",0,0 S,7,132824,133624,0.4131823,0 M,7,132824,133624,123,167,99,142 P,0,132824,133624,A F,0,142236,,1,0
Sprite,Foreground,Centre,"sb/d.png",0,0 S,7,132824,133624,0.4131823,0 M,7,132824,133624,123,167,127,143 P,0,132824,133624,A F,0,142236,,1,0
Sprite,Foreground,Centre,"sb/d.png",0,0 S,7,132824,133624,0.4131823,0 M,7,132824,133624,123,167,81,233 P,0,132824,133624,A F,0,142236,,1,0
Sprite,Foreground,Centre,"sb/d.png",0,0 S,7,132824,133624,0.4131823,0 M,7,132824,133624,123,167,181,212 P,0,132824,133624,A F,0,142236,,1,0
Sprite,Foreground,Centre,"sb/d.png",0,0 S,7,132824,133624,0.4131823,0 M,7,132824,133624,123,167,103,174 P,0,132824,133624,A F,0,142236,,1,0
Sprite,Foreground,Centre,"sb/d.png",0,0 S,7,132824,133624,0.4131823,0 M,7,132824,133624,123,167,107,81 P,0,132824,133624,A F,0,142236,,1,0
Sprite,Foreground,Centre,"sb/d.png",0,0 S,7,132824,133624,0.4131823,0 M,7,132824,133624,123,167,89,250 P,0,132824,133624,A F,0,142236,,1,0
Sprite,Foreground,Centre,"sb/d.png",0,0 S,7,132824,133624,0.4131823,0 M,7,132824,133624,123,167,178,197 P,0,132824,133624,A F,0,142236,,1,0
Sprite,Foreground,Centre,"sb/d.png",0,0 S,7,133412,134212,0.4146999,0 M,7,133412,134212,144,365,91,432 P,0,133412,134212,A F,0,142236,,1,0
Sprite,Foreground,Centre,"sb/d.png",0,0 S,7,133412,134212,0.4146999,0 M,7,133412,134212,144,365,155,355 P,0,133412,134212,A F,0,142236,,1,0
Sprite,Foreground,Centre,"sb/d.png",0,0 S,7,133412,134212,0.4146999,0 M,7,133412,134212,144,365,192,409 P,0,133412,134212,A F,0,142236,,1,0
Sprite,Foreground,Centre,"sb/d.png",0,0 S,7,133412,134212,0.4146999,0 M,7,133412,134212,144,365,161,277 P,0,133412,134212,A F,0,142236,,1,0
Sprite,Foreground,Centre,"sb/d.png",0,0 S,7,133412,134212,0.4146999,0 M,7,133412,134212,144,365,80,273 P,0,133412,134212,A F,0,142236,,1,0
Sprite,Foreground,Centre,"sb/d.png",0,0 S,7,133412,134212,0.4146999,0 M,7,133412,134212,144,365,220,395 P,0,133412,134212,A F,0,142236,,1,0
Sprite,Foreground,Centre,"sb/d.png",0,0 S,7,133412,134212,0.4146999,0 M,7,133412,134212,144,365,91,386 P,0,133412,134212,A F,0,142236,,1,0
Sprite,Foreground,Centre,"sb/d.png",0,0 S,7,133412,134212,0.4146999,0 M,7,133412,134212,144,365,172,421 P,0,133412,134212,A F,0,142236,,1,0
Sprite,Foreground,Centre,"sb/d.png",0,0 S,7,133412,134212,0.4146999,0 M,7,133412,134212,144,365,230,274 P,0,133412,134212,A F,0,142236,,1,0
Sprite,Foreground,Centre,"sb/d.png",0,0 S,7,133412,134212,0.4146999,0 M,7,133412,134212,144,365,153,371 P,0,133412,134212,A F,0,142236,,1,0
Sprite,Foreground,Centre,"sb/d.png",0,0 S,7,134001,134801,0.3014354,0 M,7,134001,134801,322,417,225,350 P,0,134001,134801,A F,0,142236,,1,0
Sprite,Foreground,Centre,"sb/d.png",0,0 S,7,134001,134801,0.3014354,0 M,7,134001,134801,322,417,236,462 P,0,134001,134801,A F,0,142236,,1,0
Sprite,Foreground,Centre,"sb/d.png",0,0 S,7,134001,134801,0.3014354,0 M,7,134001,134801,322,417,274,428 P,0,134001,134801,A F,0,142236,,1,0
Sprite,Foreground,Centre,"sb/d.png",0,0 S,7,134001,134801,0.3014354,0 M,7,134001,134801,322,417,335,439 P,0,134001,134801,A F,0,142236,,1,0
Sprite,Foreground,Centre,"sb/d.png",0,0 S,7,134001,134801,0.3014354,0 M,7,134001,134801,322,417,365,510 P,0,134001,134801,A F,0,142236,,1,0
Sprite,Foreground,Centre,"sb/d.png",0,0 S,7,134001,134801,0.3014354,0 M,7,134001,134801,322,417,406,454 P,0,134001,134801,A F,0,142236,,1,0
Sprite,Foreground,Centre,"sb/d.png",0,0 S,7,134001,134801,0.3014354,0 M,7,134001,134801,322,417,420,457 P,0,134001,134801,A F,0,142236,,1,0
Sprite,Foreground,Centre,"sb/d.png",0,0 S,7,134001,134801,0.3014354,0 M,7,134001,134801,322,417,358,442 P,0,134001,134801,A F,0,142236,,1,0
Sprite,Foreground,Centre,"sb/d.png",0,0 S,7,134001,134801,0.3014354,0 M,7,134001,134801,322,417,233,445 P,0,134001,134801,A F,0,142236,,1,0
Sprite,Foreground,Centre,"sb/d.png",0,0 S,7,134001,134801,0.3014354,0 M,7,134001,134801,322,417,353,503 P,0,134001,134801,A F,0,142236,,1,0
Sprite,Foreground,Centre,"sb/d.png",0,0 S,7,134589,135389,0.3141639,0 M,7,134589,135389,521,434,442,492 P,0,134589,135389,A F,0,142236,,1,0
Sprite,Foreground,Centre,"sb/d.png",0,0 S,7,134589,135389,0.3141639,0 M,7,134589,135389,521,434,602,348 P,0,134589,135389,A F,0,142236,,1,0
Sprite,Foreground,Centre,"sb/d.png",0,0 S,7,134589,135389,0.3141639,0 M,7,134589,135389,521,434,454,519 P,0,134589,135389,A F,0,142236,,1,0
Sprite,Foreground,Centre,"sb/d.png",0,0 S,7,134589,135389,0.3141639,0 M,7,134589,135389,521,434,577,392 P,0,134589,135389,A F,0,142236,,1,0
Sprite,Foreground,Centre,"sb/d.png",0,0 S,7,134589,135389,0.3141639,0 M,7,134589,135389,521,434,501,508 P,0,134589,135389,A F,0,142236,,1,0
Sprite,Foreground,Centre,"sb/d.png",0,0 S,7,134589,135389,0.3141639,0 M,7,134589,135389,521,434,467,357 P,0,134589,135389,A F,0,142236,,1,0
Sprite,Foreground,Centre,"sb/d.png",0,0 S,7,134589,135389,0.3141639,0 M,7,134589,135389,521,434,534,377 P,0,134589,135389,A F,0,142236,,1,0
Sprite,Foreground,Centre,"sb/d.png",0,0 S,7,134589,135389,0.3141639,0 M,7,134589,135389,521,434,555,430 P,0,134589,135389,A F,0,142236,,1,0
Sprite,Foreground,Centre,"sb/d.png",0,0 S,7,134589,135389,0.3141639,0 M,7,134589,135389,521,434,566,430 P,0,134589,135389,A F,0,142236,,1,0
Sprite,Foreground,Centre,"sb/d.png",0,0 S,7,134589,135389,0.3141639,0 M,7,134589,135389,521,434,453,338 P,0,134589,135389,A F,0,142236,,1,0
Sprite,Foreground,Centre,"sb/d.png",0,0 S,7,134883,135683,0.3395926,0 M,7,134883,135683,569,344,562,258 P,0,134883,135683,A F,0,142236,,1,0
Sprite,Foreground,Centre,"sb/d.png",0,0 S,7,134883,135683,0.3395926,0 M,7,134883,135683,569,344,660,437 P,0,134883,135683,A F,0,142236,,1,0
Sprite,Foreground,Centre,"sb/d.png",0,0 S,7,134883,135683,0.3395926,0 M,7,134883,135683,569,344,517,425 P,0,134883,135683,A F,0,142236,,1,0
Sprite,Foreground,Centre,"sb/d.png",0,0 S,7,134883,135683,0.3395926,0 M,7,134883,135683,569,344,661,275 P,0,134883,135683,A F,0,142236,,1,0
Sprite,Foreground,Centre,"sb/d.png",0,0 S,7,134883,135683,0.3395926,0 M,7,134883,135683,569,344,643,324 P,0,134883,135683,A F,0,142236,,1,0
Sprite,Foreground,Centre,"sb/d.png",0,0 S,7,134883,135683,0.3395926,0 M,7,134883,135683,569,344,646,364 P,0,134883,135683,A F,0,142236,,1,0
Sprite,Foreground,Centre,"sb/d.png",0,0 S,7,134883,135683,0.3395926,0 M,7,134883,135683,569,344,656,425 P,0,134883,135683,A F,0,142236,,1,0
Sprite,Foreground,Centre,"sb/d.png",0,0 S,7,134883,135683,0.3395926,0 M,7,134883,135683,569,344,544,277 P,0,134883,135683,A F,0,142236,,1,0
Sprite,Foreground,Centre,"sb/d.png",0,0 S,7,134883,135683,0.3395926,0 M,7,134883,135683,569,344,599,262 P,0,134883,135683,A F,0,142236,,1,0
Sprite,Foreground,Centre,"sb/d.png",0,0 S,7,134883,135683,0.3395926,0 M,7,134883,135683,569,344,595,400 P,0,134883,135683,A F,0,142236,,1,0
Sprite,Foreground,Centre,"sb/d.png",0,0 S,7,135177,135977,0.314422,0 M,7,135177,135977,496,275,458,194 P,0,135177,135977,A F,0,142236,,1,0
Sprite,Foreground,Centre,"sb/d.png",0,0 S,7,135177,135977,0.314422,0 M,7,135177,135977,496,275,534,288 P,0,135177,135977,A F,0,142236,,1,0
Sprite,Foreground,Centre,"sb/d.png",0,0 S,7,135177,135977,0.314422,0 M,7,135177,135977,496,275,481,271 P,0,135177,135977,A F,0,142236,,1,0
Sprite,Foreground,Centre,"sb/d.png",0,0 S,7,135177,135977,0.314422,0 M,7,135177,135977,496,275,397,203 P,0,135177,135977,A F,0,142236,,1,0
Sprite,Foreground,Centre,"sb/d.png",0,0 S,7,135177,135977,0.314422,0 M,7,135177,135977,496,275,462,207 P,0,135177,135977,A F,0,142236,,1,0
Sprite,Foreground,Centre,"sb/d.png",0,0 S,7,135177,135977,0.314422,0 M,7,135177,135977,496,275,494,357 P,0,135177,135977,A F,0,142236,,1,0
Sprite,Foreground,Centre,"sb/d.png",0,0 S,7,135177,135977,0.314422,0 M,7,135177,135977,496,275,570,303 P,0,135177,135977,A F,0,142236,,1,0
Sprite,Foreground,Centre,"sb/d.png",0,0 S,7,135177,135977,0.314422,0 M,7,135177,135977,496,275,539,364 P,0,135177,135977,A F,0,142236,,1,0
Sprite,Foreground,Centre,"sb/d.png",0,0 S,7,135177,135977,0.314422,0 M,7,135177,135977,496,275,417,359 P,0,135177,135977,A F,0,142236,,1,0
Sprite,Foreground,Centre,"sb/d.png",0,0 S,7,135177,135977,0.314422,0 M,7,135177,135977,496,275,400,339 P,0,135177,135977,A F,0,142236,,1,0
Sprite,Foreground,Centre,"sb/d.png",0,0 S,7,135618,136418,0.2774628,0 M,7,135618,136418,522,143,527,136 P,0,135618,136418,A F,0,142236,,1,0
Sprite,Foreground,Centre,"sb/d.png",0,0 S,7,135618,136418,0.2774628,0 M,7,135618,136418,522,143,490,146 P,0,135618,136418,A F,0,142236,,1,0
Sprite,Foreground,Centre,"sb/d.png",0,0 S,7,135618,136418,0.2774628,0 M,7,135618,136418,522,143,547,105 P,0,135618,136418,A F,0,142236,,1,0
Sprite,Foreground,Centre,"sb/d.png",0,0 S,7,135618,136418,0.2774628,0 M,7,135618,136418,522,143,481,105 P,0,135618,136418,A F,0,142236,,1,0
Sprite,Foreground,Centre,"sb/d.png",0,0 S,7,135618,136418,0.2774628,0 M,7,135618,136418,522,143,436,120 P,0,135618,136418,A F,0,142236,,1,0
Sprite,Foreground,Centre,"sb/d.png",0,0 S,7,135618,136418,0.2774628,0 M,7,135618,136418,522,143,528,90 P,0,135618,136418,A F,0,142236,,1,0
Sprite,Foreground,Centre,"sb/d.png",0,0 S,7,135618,136418,0.2774628,0 M,7,135618,136418,522,143,447,73 P,0,135618,136418,A F,0,142236,,1,0
Sprite,Foreground,Centre,"sb/d.png",0,0 S,7,135618,136418,0.2774628,0 M,7,135618,136418,522,143,617,96 P,0,135618,136418,A F,0,142236,,1,0
Sprite,Foreground,Centre,"sb/d.png",0,0 S,7,135618,136418,0.2774628,0 M,7,135618,136418,522,143,502,206 P,0,135618,136418,A F,0,142236,,1,0
Sprite,Foreground,Centre,"sb/d.png",0,0 S,7,135618,136418,0.2774628,0 M,7,135618,136418,522,143,506,233 P,0,135618,136418,A F,0,142236,,1,0
Sprite,Foreground,Centre,"sb/d.png",0,0 S,7,135766,136566,0.2523468,0 M,7,135766,136566,497,99,504,47 P,0,135766,136566,A F,0,142236,,1,0
Sprite,Foreground,Centre,"sb/d.png",0,0 S,7,135766,136566,0.2523468,0 M,7,135766,136566,497,99,476,137 P,0,135766,136566,A F,0,142236,,1,0
Sprite,Foreground,Centre,"sb/d.png",0,0 S,7,135766,136566,0.2523468,0 M,7,135766,136566,497,99,409,52 P,0,135766,136566,A F,0,142236,,1,0
Sprite,Foreground,Centre,"sb/d.png",0,0 S,7,135766,136566,0.2523468,0 M,7,135766,136566,497,99,528,43 P,0,135766,136566,A F,0,142236,,1,0
Sprite,Foreground,Centre,"sb/d.png",0,0 S,7,135766,136566,0.2523468,0 M,7,135766,136566,497,99,506,32 P,0,135766,136566,A F,0,142236,,1,0
Sprite,Foreground,Centre,"sb/d.png",0,0 S,7,135766,136566,0.2523468,0 M,7,135766,136566,497,99,519,191 P,0,135766,136566,A F,0,142236,,1,0
Sprite,Foreground,Centre,"sb/d.png",0,0 S,7,135766,136566,0.2523468,0 M,7,135766,136566,497,99,433,156 P,0,135766,136566,A F,0,142236,,1,0
Sprite,Foreground,Centre,"sb/d.png",0,0 S,7,135766,136566,0.2523468,0 M,7,135766,136566,497,99,522,69 P,0,135766,136566,A F,0,142236,,1,0
Sprite,Foreground,Centre,"sb/d.png",0,0 S,7,135766,136566,0.2523468,0 M,7,135766,136566,497,99,407,158 P,0,135766,136566,A F,0,142236,,1,0
Sprite,Foreground,Centre,"sb/d.png",0,0 S,7,135766,136566,0.2523468,0 M,7,135766,136566,497,99,431,141 P,0,135766,136566,A F,0,142236,,1,0
Sprite,Foreground,Centre,"sb/d.png",0,0 S,7,136354,137154,0.4157625,0 M,7,136354,137154,346,176,298,230 P,0,136354,137154,A F,0,142236,,1,0
Sprite,Foreground,Centre,"sb/d.png",0,0 S,7,136354,137154,0.4157625,0 M,7,136354,137154,346,176,438,210 P,0,136354,137154,A F,0,142236,,1,0
Sprite,Foreground,Centre,"sb/d.png",0,0 S,7,136354,137154,0.4157625,0 M,7,136354,137154,346,176,395,174 P,0,136354,137154,A F,0,142236,,1,0
Sprite,Foreground,Centre,"sb/d.png",0,0 S,7,136354,137154,0.4157625,0 M,7,136354,137154,346,176,393,212 P,0,136354,137154,A F,0,142236,,1,0
Sprite,Foreground,Centre,"sb/d.png",0,0 S,7,136354,137154,0.4157625,0 M,7,136354,137154,346,176,386,97 P,0,136354,137154,A F,0,142236,,1,0
Sprite,Foreground,Centre,"sb/d.png",0,0 S,7,136354,137154,0.4157625,0 M,7,136354,137154,346,176,365,249 P,0,136354,137154,A F,0,142236,,1,0
Sprite,Foreground,Centre,"sb/d.png",0,0 S,7,136354,137154,0.4157625,0 M,7,136354,137154,346,176,271,273 P,0,136354,137154,A F,0,142236,,1,0
Sprite,Foreground,Centre,"sb/d.png",0,0 S,7,136354,137154,0.4157625,0 M,7,136354,137154,346,176,290,264 P,0,136354,137154,A F,0,142236,,1,0
Sprite,Foreground,Centre,"sb/d.png",0,0 S,7,136354,137154,0.4157625,0 M,7,136354,137154,346,176,411,189 P,0,136354,137154,A F,0,142236,,1,0
Sprite,Foreground,Centre,"sb/d.png",0,0 S,7,136354,137154,0.4157625,0 M,7,136354,137154,346,176,254,203 P,0,136354,137154,A F,0,142236,,1,0
Sprite,Foreground,Centre,"sb/d.png",0,0 S,7,136942,137742,0.2686976,0 M,7,136942,137742,179,163,184,106 P,0,136942,137742,A F,0,142236,,1,0
Sprite,Foreground,Centre,"sb/d.png",0,0 S,7,136942,137742,0.2686976,0 M,7,136942,137742,179,163,262,118 P,0,136942,137742,A F,0,142236,,1,0
Sprite,Foreground,Centre,"sb/d.png",0,0 S,7,136942,137742,0.2686976,0 M,7,136942,137742,179,163,267,135 P,0,136942,137742,A F,0,142236,,1,0
Sprite,Foreground,Centre,"sb/d.png",0,0 S,7,136942,137742,0.2686976,0 M,7,136942,137742,179,163,149,245 P,0,136942,137742,A F,0,142236,,1,0
Sprite,Foreground,Centre,"sb/d.png",0,0 S,7,136942,137742,0.2686976,0 M,7,136942,137742,179,163,149,67 P,0,136942,137742,A F,0,142236,,1,0
Sprite,Foreground,Centre,"sb/d.png",0,0 S,7,136942,137742,0.2686976,0 M,7,136942,137742,179,163,129,111 P,0,136942,137742,A F,0,142236,,1,0
Sprite,Foreground,Centre,"sb/d.png",0,0 S,7,136942,137742,0.2686976,0 M,7,136942,137742,179,163,115,118 P,0,136942,137742,A F,0,142236,,1,0
Sprite,Foreground,Centre,"sb/d.png",0,0 S,7,136942,137742,0.2686976,0 M,7,136942,137742,179,163,172,149 P,0,136942,137742,A F,0,142236,,1,0
Sprite,Foreground,Centre,"sb/d.png",0,0 S,7,136942,137742,0.2686976,0 M,7,136942,137742,179,163,82,126 P,0,136942,137742,A F,0,142236,,1,0
Sprite,Foreground,Centre,"sb/d.png",0,0 S,7,136942,137742,0.2686976,0 M,7,136942,137742,179,163,234,247 P,0,136942,137742,A F,0,142236,,1,0
Sprite,Foreground,Centre,"sb/d.png",0,0 S,7,137236,138036,0.3579287,0 M,7,137236,138036,79,176,147,88 P,0,137236,138036,A F,0,142236,,1,0
Sprite,Foreground,Centre,"sb/d.png",0,0 S,7,137236,138036,0.3579287,0 M,7,137236,138036,79,176,-18,94 P,0,137236,138036,A F,0,142236,,1,0
Sprite,Foreground,Centre,"sb/d.png",0,0 S,7,137236,138036,0.3579287,0 M,7,137236,138036,79,176,-10,235 P,0,137236,138036,A F,0,142236,,1,0
Sprite,Foreground,Centre,"sb/d.png",0,0 S,7,137236,138036,0.3579287,0 M,7,137236,138036,79,176,59,157 P,0,137236,138036,A F,0,142236,,1,0
Sprite,Foreground,Centre,"sb/d.png",0,0 S,7,137236,138036,0.3579287,0 M,7,137236,138036,79,176,24,121 P,0,137236,138036,A F,0,142236,,1,0
Sprite,Foreground,Centre,"sb/d.png",0,0 S,7,137236,138036,0.3579287,0 M,7,137236,138036,79,176,4,91 P,0,137236,138036,A F,0,142236,,1,0
Sprite,Foreground,Centre,"sb/d.png",0,0 S,7,137236,138036,0.3579287,0 M,7,137236,138036,79,176,126,222 P,0,137236,138036,A F,0,142236,,1,0
Sprite,Foreground,Centre,"sb/d.png",0,0 S,7,137236,138036,0.3579287,0 M,7,137236,138036,79,176,89,85 P,0,137236,138036,A F,0,142236,,1,0
Sprite,Foreground,Centre,"sb/d.png",0,0 S,7,137236,138036,0.3579287,0 M,7,137236,138036,79,176,58,237 P,0,137236,138036,A F,0,142236,,1,0
Sprite,Foreground,Centre,"sb/d.png",0,0 S,7,137236,138036,0.3579287,0 M,7,137236,138036,79,176,4,152 P,0,137236,138036,A F,0,142236,,1,0
Sprite,Foreground,Centre,"sb/d.png",0,0 S,7,137530,138330,0.4039415,0 M,7,137530,138330,91,275,61,192 P,0,137530,138330,A F,0,142236,,1,0
Sprite,Foreground,Centre,"sb/d.png",0,0 S,7,137530,138330,0.4039415,0 M,7,137530,138330,91,275,60,300 P,0,137530,138330,A F,0,142236,,1,0
Sprite,Foreground,Centre,"sb/d.png",0,0 S,7,137530,138330,0.4039415,0 M,7,137530,138330,91,275,179,316 P,0,137530,138330,A F,0,142236,,1,0
Sprite,Foreground,Centre,"sb/d.png",0,0 S,7,137530,138330,0.4039415,0 M,7,137530,138330,91,275,142,277 P,0,137530,138330,A F,0,142236,,1,0
Sprite,Foreground,Centre,"sb/d.png",0,0 S,7,137530,138330,0.4039415,0 M,7,137530,138330,91,275,152,224 P,0,137530,138330,A F,0,142236,,1,0
Sprite,Foreground,Centre,"sb/d.png",0,0 S,7,137530,138330,0.4039415,0 M,7,137530,138330,91,275,44,317 P,0,137530,138330,A F,0,142236,,1,0
Sprite,Foreground,Centre,"sb/d.png",0,0 S,7,137530,138330,0.4039415,0 M,7,137530,138330,91,275,101,311 P,0,137530,138330,A F,0,142236,,1,0
Sprite,Foreground,Centre,"sb/d.png",0,0 S,7,137530,138330,0.4039415,0 M,7,137530,138330,91,275,22,355 P,0,137530,138330,A F,0,142236,,1,0
Sprite,Foreground,Centre,"sb/d.png",0,0 S,7,137530,138330,0.4039415,0 M,7,137530,138330,91,275,27,351 P,0,137530,138330,A F,0,142236,,1,0
Sprite,Foreground,Centre,"sb/d.png",0,0 S,7,137530,138330,0.4039415,0 M,7,137530,138330,91,275,103,364 P,0,137530,138330,A F,0,142236,,1,0
Sprite,Foreground,Centre,"sb/d.png",0,0 S,7,138118,138918,0.350412,0 M,7,138118,138918,181,437,105,495 P,0,138118,138918,A F,0,142236,,1,0
Sprite,Foreground,Centre,"sb/d.png",0,0 S,7,138118,138918,0.350412,0 M,7,138118,138918,181,437,105,370 P,0,138118,138918,A F,0,142236,,1,0
Sprite,Foreground,Centre,"sb/d.png",0,0 S,7,138118,138918,0.350412,0 M,7,138118,138918,181,437,170,446 P,0,138118,138918,A F,0,142236,,1,0
Sprite,Foreground,Centre,"sb/d.png",0,0 S,7,138118,138918,0.350412,0 M,7,138118,138918,181,437,263,414 P,0,138118,138918,A F,0,142236,,1,0
Sprite,Foreground,Centre,"sb/d.png",0,0 S,7,138118,138918,0.350412,0 M,7,138118,138918,181,437,204,439 P,0,138118,138918,A F,0,142236,,1,0
Sprite,Foreground,Centre,"sb/d.png",0,0 S,7,138118,138918,0.350412,0 M,7,138118,138918,181,437,210,444 P,0,138118,138918,A F,0,142236,,1,0
Sprite,Foreground,Centre,"sb/d.png",0,0 S,7,138118,138918,0.350412,0 M,7,138118,138918,181,437,234,434 P,0,138118,138918,A F,0,142236,,1,0
Sprite,Foreground,Centre,"sb/d.png",0,0 S,7,138118,138918,0.350412,0 M,7,138118,138918,181,437,276,470 P,0,138118,138918,A F,0,142236,,1,0
Sprite,Foreground,Centre,"sb/d.png",0,0 S,7,138118,138918,0.350412,0 M,7,138118,138918,181,437,173,360 P,0,138118,138918,A F,0,142236,,1,0
Sprite,Foreground,Centre,"sb/d.png",0,0 S,7,138118,138918,0.350412,0 M,7,138118,138918,181,437,98,466 P,0,138118,138918,A F,0,142236,,1,0
Sprite,Foreground,Centre,"sb/d.png",0,0 S,7,138707,139507,0.4297897,0 M,7,138707,139507,378,403,361,498 P,0,138707,139507,A F,0,142236,,1,0
Sprite,Foreground,Centre,"sb/d.png",0,0 S,7,138707,139507,0.4297897,0 M,7,138707,139507,378,403,450,375 P,0,138707,139507,A F,0,142236,,1,0
Sprite,Foreground,Centre,"sb/d.png",0,0 S,7,138707,139507,0.4297897,0 M,7,138707,139507,378,403,314,312 P,0,138707,139507,A F,0,142236,,1,0
Sprite,Foreground,Centre,"sb/d.png",0,0 S,7,138707,139507,0.4297897,0 M,7,138707,139507,378,403,357,331 P,0,138707,139507,A F,0,142236,,1,0
Sprite,Foreground,Centre,"sb/d.png",0,0 S,7,138707,139507,0.4297897,0 M,7,138707,139507,378,403,321,487 P,0,138707,139507,A F,0,142236,,1,0
Sprite,Foreground,Centre,"sb/d.png",0,0 S,7,138707,139507,0.4297897,0 M,7,138707,139507,378,403,390,390 P,0,138707,139507,A F,0,142236,,1,0
Sprite,Foreground,Centre,"sb/d.png",0,0 S,7,138707,139507,0.4297897,0 M,7,138707,139507,378,403,331,348 P,0,138707,139507,A F,0,142236,,1,0
Sprite,Foreground,Centre,"sb/d.png",0,0 S,7,138707,139507,0.4297897,0 M,7,138707,139507,378,403,336,348 P,0,138707,139507,A F,0,142236,,1,0
Sprite,Foreground,Centre,"sb/d.png",0,0 S,7,138707,139507,0.4297897,0 M,7,138707,139507,378,403,370,402 P,0,138707,139507,A F,0,142236,,1,0
Sprite,Foreground,Centre,"sb/d.png",0,0 S,7,138707,139507,0.4297897,0 M,7,138707,139507,378,403,310,471 P,0,138707,139507,A F,0,142236,,1,0
Sprite,Foreground,Centre,"sb/d.png",0,0 S,7,139295,140095,0.2745848,0 M,7,139295,140095,315,240,253,287 P,0,139295,140095,A F,0,142236,,1,0
Sprite,Foreground,Centre,"sb/d.png",0,0 S,7,139295,140095,0.2745848,0 M,7,139295,140095,315,240,338,174 P,0,139295,140095,A F,0,142236,,1,0
Sprite,Foreground,Centre,"sb/d.png",0,0 S,7,139295,140095,0.2745848,0 M,7,139295,140095,315,240,371,179 P,0,139295,140095,A F,0,142236,,1,0
Sprite,Foreground,Centre,"sb/d.png",0,0 S,7,139295,140095,0.2745848,0 M,7,139295,140095,315,240,251,186 P,0,139295,140095,A F,0,142236,,1,0
Sprite,Foreground,Centre,"sb/d.png",0,0 S,7,139295,140095,0.2745848,0 M,7,139295,140095,315,240,358,293 P,0,139295,140095,A F,0,142236,,1,0
Sprite,Foreground,Centre,"sb/d.png",0,0 S,7,139295,140095,0.2745848,0 M,7,139295,140095,315,240,309,200 P,0,139295,140095,A F,0,142236,,1,0
Sprite,Foreground,Centre,"sb/d.png",0,0 S,7,139295,140095,0.2745848,0 M,7,139295,140095,315,240,335,281 P,0,139295,140095,A F,0,142236,,1,0
Sprite,Foreground,Centre,"sb/d.png",0,0 S,7,139295,140095,0.2745848,0 M,7,139295,140095,315,240,377,191 P,0,139295,140095,A F,0,142236,,1,0
Sprite,Foreground,Centre,"sb/d.png",0,0 S,7,139295,140095,0.2745848,0 M,7,139295,140095,315,240,375,193 P,0,139295,140095,A F,0,142236,,1,0
Sprite,Foreground,Centre,"sb/d.png",0,0 S,7,139295,140095,0.2745848,0 M,7,139295,140095,315,240,314,243 P,0,139295,140095,A F,0,142236,,1,0
Sprite,Foreground,Centre,"sb/d.png",0,0 S,7,139589,140389,0.2991575,0 M,7,139589,140389,241,307,221,324 P,0,139589,140389,A F,0,142236,,1,0
Sprite,Foreground,Centre,"sb/d.png",0,0 S,7,139589,140389,0.2991575,0 M,7,139589,140389,241,307,158,227 P,0,139589,140389,A F,0,142236,,1,0
Sprite,Foreground,Centre,"sb/d.png",0,0 S,7,139589,140389,0.2991575,0 M,7,139589,140389,241,307,241,258 P,0,139589,140389,A F,0,142236,,1,0
Sprite,Foreground,Centre,"sb/d.png",0,0 S,7,139589,140389,0.2991575,0 M,7,139589,140389,241,307,277,295 P,0,139589,140389,A F,0,142236,,1,0
Sprite,Foreground,Centre,"sb/d.png",0,0 S,7,139589,140389,0.2991575,0 M,7,139589,140389,241,307,141,331 P,0,139589,140389,A F,0,142236,,1,0
Sprite,Foreground,Centre,"sb/d.png",0,0 S,7,139589,140389,0.2991575,0 M,7,139589,140389,241,307,326,368 P,0,139589,140389,A F,0,142236,,1,0
Sprite,Foreground,Centre,"sb/d.png",0,0 S,7,139589,140389,0.2991575,0 M,7,139589,140389,241,307,296,251 P,0,139589,140389,A F,0,142236,,1,0
Sprite,Foreground,Centre,"sb/d.png",0,0 S,7,139589,140389,0.2991575,0 M,7,139589,140389,241,307,189,255 P,0,139589,140389,A F,0,142236,,1,0
Sprite,Foreground,Centre,"sb/d.png",0,0 S,7,139589,140389,0.2991575,0 M,7,139589,140389,241,307,178,286 P,0,139589,140389,A F,0,142236,,1,0
Sprite,Foreground,Centre,"sb/d.png",0,0 S,7,139589,140389,0.2991575,0 M,7,139589,140389,241,307,311,249 P,0,139589,140389,A F,0,142236,,1,0
Sprite,Foreground,Centre,"sb/d.png",0,0 S,7,139883,140683,0.4314323,0 M,7,139883,140683,147,271,146,202 P,0,139883,140683,A F,0,142236,,1,0
Sprite,Foreground,Centre,"sb/d.png",0,0 S,7,139883,140683,0.4314323,0 M,7,139883,140683,147,271,64,197 P,0,139883,140683,A F,0,142236,,1,0
Sprite,Foreground,Centre,"sb/d.png",0,0 S,7,139883,140683,0.4314323,0 M,7,139883,140683,147,271,179,275 P,0,139883,140683,A F,0,142236,,1,0
Sprite,Foreground,Centre,"sb/d.png",0,0 S,7,139883,140683,0.4314323,0 M,7,139883,140683,147,271,143,364 P,0,139883,140683,A F,0,142236,,1,0
Sprite,Foreground,Centre,"sb/d.png",0,0 S,7,139883,140683,0.4314323,0 M,7,139883,140683,147,271,179,216 P,0,139883,140683,A F,0,142236,,1,0
Sprite,Foreground,Centre,"sb/d.png",0,0 S,7,139883,140683,0.4314323,0 M,7,139883,140683,147,271,180,235 P,0,139883,140683,A F,0,142236,,1,0
Sprite,Foreground,Centre,"sb/d.png",0,0 S,7,139883,140683,0.4314323,0 M,7,139883,140683,147,271,222,329 P,0,139883,140683,A F,0,142236,,1,0
Sprite,Foreground,Centre,"sb/d.png",0,0 S,7,139883,140683,0.4314323,0 M,7,139883,140683,147,271,77,277 P,0,139883,140683,A F,0,142236,,1,0
Sprite,Foreground,Centre,"sb/d.png",0,0 S,7,139883,140683,0.4314323,0 M,7,139883,140683,147,271,60,227 P,0,139883,140683,A F,0,142236,,1,0
Sprite,Foreground,Centre,"sb/d.png",0,0 S,7,139883,140683,0.4314323,0 M,7,139883,140683,147,271,234,271 P,0,139883,140683,A F,0,142236,,1,0
Sprite,Foreground,Centre,"sb/d.png",0,0 S,7,140324,141124,0.408531,0 M,7,140324,141124,91,144,134,72 P,0,140324,141124,A F,0,142236,,1,0
Sprite,Foreground,Centre,"sb/d.png",0,0 S,7,140324,141124,0.408531,0 M,7,140324,141124,91,144,100,143 P,0,140324,141124,A F,0,142236,,1,0
Sprite,Foreground,Centre,"sb/d.png",0,0 S,7,140324,141124,0.408531,0 M,7,140324,141124,91,144,156,140 P,0,140324,141124,A F,0,142236,,1,0
Sprite,Foreground,Centre,"sb/d.png",0,0 S,7,140324,141124,0.408531,0 M,7,140324,141124,91,144,105,47 P,0,140324,141124,A F,0,142236,,1,0
Sprite,Foreground,Centre,"sb/d.png",0,0 S,7,140324,141124,0.408531,0 M,7,140324,141124,91,144,113,217 P,0,140324,141124,A F,0,142236,,1,0
Sprite,Foreground,Centre,"sb/d.png",0,0 S,7,140324,141124,0.408531,0 M,7,140324,141124,91,144,119,104 P,0,140324,141124,A F,0,142236,,1,0
Sprite,Foreground,Centre,"sb/d.png",0,0 S,7,140324,141124,0.408531,0 M,7,140324,141124,91,144,58,224 P,0,140324,141124,A F,0,142236,,1,0
Sprite,Foreground,Centre,"sb/d.png",0,0 S,7,140324,141124,0.408531,0 M,7,140324,141124,91,144,76,44 P,0,140324,141124,A F,0,142236,,1,0
Sprite,Foreground,Centre,"sb/d.png",0,0 S,7,140324,141124,0.408531,0 M,7,140324,141124,91,144,184,211 P,0,140324,141124,A F,0,142236,,1,0
Sprite,Foreground,Centre,"sb/d.png",0,0 S,7,140324,141124,0.408531,0 M,7,140324,141124,91,144,138,83 P,0,140324,141124,A F,0,142236,,1,0
Sprite,Foreground,Centre,"sb/d.png",0,0 S,7,140471,141271,0.3452249,0 M,7,140471,141271,112,98,80,76 P,0,140471,141271,A F,0,142236,,1,0
Sprite,Foreground,Centre,"sb/d.png",0,0 S,7,140471,141271,0.3452249,0 M,7,140471,141271,112,98,63,94 P,0,140471,141271,A F,0,142236,,1,0
Sprite,Foreground,Centre,"sb/d.png",0,0 S,7,140471,141271,0.3452249,0 M,7,140471,141271,112,98,191,84 P,0,140471,141271,A F,0,142236,,1,0
Sprite,Foreground,Centre,"sb/d.png",0,0 S,7,140471,141271,0.3452249,0 M,7,140471,141271,112,98,29,140 P,0,140471,141271,A F,0,142236,,1,0
Sprite,Foreground,Centre,"sb/d.png",0,0 S,7,140471,141271,0.3452249,0 M,7,140471,141271,112,98,35,21 P,0,140471,141271,A F,0,142236,,1,0
Sprite,Foreground,Centre,"sb/d.png",0,0 S,7,140471,141271,0.3452249,0 M,7,140471,141271,112,98,195,140 P,0,140471,141271,A F,0,142236,,1,0
Sprite,Foreground,Centre,"sb/d.png",0,0 S,7,140471,141271,0.3452249,0 M,7,140471,141271,112,98,34,154 P,0,140471,141271,A F,0,142236,,1,0
Sprite,Foreground,Centre,"sb/d.png",0,0 S,7,140471,141271,0.3452249,0 M,7,140471,141271,112,98,15,105 P,0,140471,141271,A F,0,142236,,1,0
Sprite,Foreground,Centre,"sb/d.png",0,0 S,7,140471,141271,0.3452249,0 M,7,140471,141271,112,98,139,165 P,0,140471,141271,A F,0,142236,,1,0
Sprite,Foreground,Centre,"sb/d.png",0,0 S,7,140471,141271,0.3452249,0 M,7,140471,141271,112,98,19,179 P,0,140471,141271,A F,0,142236,,1,0
Sprite,Foreground,Centre,"sb/d.png",0,0 S,7,141060,141860,0.4399963,0 M,7,141060,141860,285,150,194,122 P,0,141060,141860,A F,0,142236,,1,0
Sprite,Foreground,Centre,"sb/d.png",0,0 S,7,141060,141860,0.4399963,0 M,7,141060,141860,285,150,189,53 P,0,141060,141860,A F,0,142236,,1,0
Sprite,Foreground,Centre,"sb/d.png",0,0 S,7,141060,141860,0.4399963,0 M,7,141060,141860,285,150,292,227 P,0,141060,141860,A F,0,142236,,1,0
Sprite,Foreground,Centre,"sb/d.png",0,0 S,7,141060,141860,0.4399963,0 M,7,141060,141860,285,150,330,156 P,0,141060,141860,A F,0,142236,,1,0
Sprite,Foreground,Centre,"sb/d.png",0,0 S,7,141060,141860,0.4399963,0 M,7,141060,141860,285,150,205,138 P,0,141060,141860,A F,0,142236,,1,0
Sprite,Foreground,Centre,"sb/d.png",0,0 S,7,141060,141860,0.4399963,0 M,7,141060,141860,285,150,224,110 P,0,141060,141860,A F,0,142236,,1,0
Sprite,Foreground,Centre,"sb/d.png",0,0 S,7,141060,141860,0.4399963,0 M,7,141060,141860,285,150,248,125 P,0,141060,141860,A F,0,142236,,1,0
Sprite,Foreground,Centre,"sb/d.png",0,0 S,7,141060,141860,0.4399963,0 M,7,141060,141860,285,150,335,107 P,0,141060,141860,A F,0,142236,,1,0
Sprite,Foreground,Centre,"sb/d.png",0,0 S,7,141060,141860,0.4399963,0 M,7,141060,141860,285,150,187,235 P,0,141060,141860,A F,0,142236,,1,0
Sprite,Foreground,Centre,"sb/d.png",0,0 S,7,141060,141860,0.4399963,0 M,7,141060,141860,285,150,195,146 P,0,141060,141860,A F,0,142236,,1,0
Sprite,Foreground,Centre,"sb/d.png",0,0 S,7,141648,142448,0.3107208,0 M,7,141648,142448,452,123,450,173 P,0,141648,142448,A F,0,142236,,1,0
Sprite,Foreground,Centre,"sb/d.png",0,0 S,7,141648,142448,0.3107208,0 M,7,141648,142448,452,123,497,141 P,0,141648,142448,A F,0,142236,,1,0
Sprite,Foreground,Centre,"sb/d.png",0,0 S,7,141648,142448,0.3107208,0 M,7,141648,142448,452,123,396,47 P,0,141648,142448,A F,0,142236,,1,0
Sprite,Foreground,Centre,"sb/d.png",0,0 S,7,141648,142448,0.3107208,0 M,7,141648,142448,452,123,434,115 P,0,141648,142448,A F,0,142236,,1,0
Sprite,Foreground,Centre,"sb/d.png",0,0 S,7,141648,142448,0.3107208,0 M,7,141648,142448,452,123,418,23 P,0,141648,142448,A F,0,142236,,1,0
Sprite,Foreground,Centre,"sb/d.png",0,0 S,7,141648,142448,0.3107208,0 M,7,141648,142448,452,123,492,81 P,0,141648,142448,A F,0,142236,,1,0
Sprite,Foreground,Centre,"sb/d.png",0,0 S,7,141648,142448,0.3107208,0 M,7,141648,142448,452,123,457,81 P,0,141648,142448,A F,0,142236,,1,0
Sprite,Foreground,Centre,"sb/d.png",0,0 S,7,141648,142448,0.3107208,0 M,7,141648,142448,452,123,358,70 P,0,141648,142448,A F,0,142236,,1,0
Sprite,Foreground,Centre,"sb/d.png",0,0 S,7,141648,142448,0.3107208,0 M,7,141648,142448,452,123,444,95 P,0,141648,142448,A F,0,142236,,1,0
Sprite,Foreground,Centre,"sb/d.png",0,0 S,7,141648,142448,0.3107208,0 M,7,141648,142448,452,123,460,95 P,0,141648,142448,A F,0,142236,,1,0
Sprite,Foreground,Centre,"sb/d.png",0,0 S,7,141942,142742,0.2864169,0 M,7,141942,142742,548,148,451,182 P,0,141942,142742,A F,0,142236,,1,0
Sprite,Foreground,Centre,"sb/d.png",0,0 S,7,141942,142742,0.2864169,0 M,7,141942,142742,548,148,591,130 P,0,141942,142742,A F,0,142236,,1,0
Sprite,Foreground,Centre,"sb/d.png",0,0 S,7,141942,142742,0.2864169,0 M,7,141942,142742,548,148,607,128 P,0,141942,142742,A F,0,142236,,1,0
Sprite,Foreground,Centre,"sb/d.png",0,0 S,7,141942,142742,0.2864169,0 M,7,141942,142742,548,148,500,97 P,0,141942,142742,A F,0,142236,,1,0
Sprite,Foreground,Centre,"sb/d.png",0,0 S,7,141942,142742,0.2864169,0 M,7,141942,142742,548,148,572,229 P,0,141942,142742,A F,0,142236,,1,0
Sprite,Foreground,Centre,"sb/d.png",0,0 S,7,141942,142742,0.2864169,0 M,7,141942,142742,548,148,644,133 P,0,141942,142742,A F,0,142236,,1,0
Sprite,Foreground,Centre,"sb/d.png",0,0 S,7,141942,142742,0.2864169,0 M,7,141942,142742,548,148,577,159 P,0,141942,142742,A F,0,142236,,1,0
Sprite,Foreground,Centre,"sb/d.png",0,0 S,7,141942,142742,0.2864169,0 M,7,141942,142742,548,148,569,106 P,0,141942,142742,A F,0,142236,,1,0
Sprite,Foreground,Centre,"sb/d.png",0,0 S,7,141942,142742,0.2864169,0 M,7,141942,142742,548,148,533,110 P,0,141942,142742,A F,0,142236,,1,0
Sprite,Foreground,Centre,"sb/d.png",0,0 S,7,141942,142742,0.2864169,0 M,7,141942,142742,548,148,601,110 P,0,141942,142742,A F,0,142236,,1,0
Sprite,Foreground,Centre,"sb/ring.png",0,0 M,0,46942,,284,167 F,0,46942,,0 S,7,46942,47942,0,1.8 F,7,46942,47942,1,0 P,0,46942,,A M,0,48045,,320,2000
Sprite,Foreground,Centre,"sb/ring.png",0,0 M,0,46942,,483,153 F,0,46942,,0 S,7,47530,48530,0,1.8 F,7,47530,48530,1,0 P,0,47530,,A M,0,48045,,320,2000
//Storyboard Sound Samples

[TimingPoints]
1060,294.117647058824,4,2,1,50,1,0
10471,-100,4,2,1,85,0,0
10618,-100,4,2,1,85,0,0
11648,-100,4,2,1,85,0,0
11942,-100,4,2,1,85,0,0
12824,-100,4,2,1,85,0,0
13118,-100,4,2,1,85,0,0
14001,-100,4,2,1,85,0,0
14148,-100,4,2,1,85,0,0
14295,-100,4,2,1,85,0,0
15324,-100,4,2,1,85,0,0
16354,-100,4,2,1,85,0,0
16648,-100,4,2,1,85,0,0
17530,-100,4,2,1,85,0,0
17824,-100,4,2,1,85,0,0
18707,-100,4,2,1,85,0,0
18854,-100,4,2,1,85,0,0
19295,-100,4,2,1,85,0,0
20030,-100,4,2,1,85,0,0
21060,-100,4,2,1,85,0,0
21354,-100,4,2,1,85,0,0
22236,-100,4,2,1,85,0,0
22530,-100,4,2,1,85,0,0
23412,-100,4,2,1,85,0,0
23559,-100,4,2,1,85,0,0
23706,-100,4,2,1,85,0,0
24736,-100,4,2,1,85,0,0
25765,-100,4,2,1,85,0,0
26059,-100,4,2,1,85,0,0
26942,-100,4,2,1,85,0,0
27236,-100,4,2,1,85,0,0
28118,-100,4,2,1,85,0,0
28265,-100,4,2,1,85,0,0
28707,-100,4,2,1,85,0,0
29295,-100,4,2,1,50,0,0
38707,-100,4,2,1,70,0,0
39883,-100,4,2,1,70,0,0
40471,-100,4,2,1,70,0,0
40765,-100,4,2,1,70,0,0
41648,-100,4,2,1,70,0,0
42236,-100,4,2,1,70,0,0
42824,-100,4,2,1,70,0,0
43118,-100,4,2,1,70,0,0
44000,-100,4,2,1,70,0,0
44295,-100,4,2,1,70,0,0
44589,-100,4,2,1,70,0,0
45177,-100,4,2,1,70,0,0
45471,-100,4,2,1,70,0,0
46059,-100,4,2,1,70,0,0
46353,-100,4,2,1,70,0,0
46648,-100,4,2,1,70,0,0
46942,-100,4,2,1,80,0,0
47236,-100,4,2,1,80,0,0
47530,-100,4,2,1,80,0,0
47824,-100,4,2,1,80,0,0
48118,-100,4,2,1,90,0,1
48412,-100,4,2,1,90,0,1
48560,-100,4,2,1,90,0,1
48854,-100,4,2,1,90,0,1
49001,-100,4,2,1,90,0,1
49295,-100,4,2,1,90,0,1
49589,-100,4,2,1,90,0,1
49736,-100,4,2,1,90,0,1
50030,-100,4,2,1,90,0,1
50177,-100,4,2,1,90,0,1
50471,-100,4,2,1,90,0,1
51942,-100,4,2,1,90,0,1
52089,-100,4,2,1,90,0,1
52383,-100,4,2,1,90,0,1
52530,-100,4,2,1,90,0,1
53118,-100,4,2,1,90,0,1
53265,-100,4,2,1,90,0,1
53559,-100,4,2,1,90,0,1
53707,-100,4,2,1,90,0,1
54001,-100,4,2,1,90,0,1
54295,-100,4,2,1,90,0,1
54442,-100,4,2,1,90,0,1
54736,-100,4,2,1,90,0,1
54883,-100,4,2,1,90,0,1
55177,-100,4,2,1,90,0,1
56648,-100,4,2,1,90,0,1
56942,-100,4,2,1,90,0,1
57236,-100,4,2,1,90,0,1
57530,-100,4,2,1,90,0,1
57824,-100,4,2,1,90,0,1
57971,-100,4,2,1,90,0,1
58265,-100,4,2,1,90,0,1
58412,-100,4,2,1,90,0,1
58707,-100,4,2,1,90,0,1
59001,-100,4,2,1,90,0,1
59148,-100,4,2,1,90,0,1
59442,-100,4,2,1,90,0,1
59589,-100,4,2,1,90,0,1
59883,-100,4,2,1,90,0,1
61354,-100,4,2,1,90,0,1
61501,-100,4,2,1,90,0,1
61795,-100,4,2,1,90,0,1
61942,-100,4,2,1,90,0,1
62530,-100,4,2,1,90,0,1
62677,-100,4,2,1,90,0,1
62971,-100,4,2,1,90,0,1
63118,-100,4,2,1,90,0,1
63412,-100,4,2,1,90,0,1
63707,-100,4,2,1,90,0,1
63854,-100,4,2,1,90,0,1
64148,-100,4,2,1,90,0,1
64295,-100,4,2,1,90,0,1
64589,-100,4,2,1,90,0,1
66059,-100,4,2,1,90,0,1
66207,-100,4,2,1,90,0,1
66501,-100,4,2,1,90,0,1
66648,-100,4,2,1,90,0,1
66942,-100,4,2,1,85,0,0
85765,-100,4,2,1,50,0,0
86353,-100,4,2,1,50,0,0
86648,-100,4,2,1,50,0,0
86942,-100,4,2,1,50,0,0
87236,-100,4,2,1,50,0,0
87530,-100,4,2,1,50,0,0
87824,-100,4,2,1,50,0,0
88118,-100,4,2,1,50,0,0
88706,-100,4,2,1,50,0,0
89001,-100,4,2,1,50,0,0
89295,-100,4,2,1,50,0,0
89589,-100,4,2,1,50,0,0
89883,-100,4,2,1,50,0,0
90177,-100,4,2,1,50,0,0
90471,-100,4,2,1,50,0,0
91059,-100,4,2,1,50,0,0
91354,-100,4,2,1,50,0,0
91648,-100,4,2,1,50,0,0
91942,-100,4,2,1,50,0,0
92236,-100,4,2,1,50,0,0
92530,-100,4,2,1,50,0,0
92824,-100,4,2,1,50,0,0
93118,-100,4,2,1,50,0,0
93412,-100,4,2,1,50,0,0
93706,-100,4,2,1,50,0,0
94001,-100,4,2,1,50,0,0
95177,-100,4,2,1,70,0,0
95765,-100,4,2,1,70,0,0
96060,-100,4,2,1,70,0,0
96354,-100,4,2,1,70,0,0
96942,-100,4,2,1,70,0,0
97236,-100,4,2,1,70,0,0
98118,-100,4,2,1,70,0,0
98412,-100,4,2,1,70,0,0
98707,-100,4,2,1,70,0,0
99295,-100,4,2,1,70,0,0
99589,-100,4,2,1,70,0,0
100471,-100,4,2,1,70,0,0
100765,-100,4,2,1,70,0,0
101060,-100,4,2,1,70,0,0
101648,-100,4,2,1,70,0,0
101942,-100,4,2,1,70,0,0
102530,-100,4,2,1,70,0,0
102824,-100,4,2,1,70,0,0
103118,-100,4,2,1,70,0,0
103412,-100,4,2,1,80,0,0
103707,-100,4,2,1,80,0,0
104001,-100,4,2,1,80,0,0
104295,-100,4,2,1,80,0,0
104589,-100,4,2,1,90,0,1
104883,-100,4,2,1,90,0,1
105030,-100,4,2,1,90,0,1
105324,-100,4,2,1,90,0,1
105471,-100,4,2,1,90,0,1
105765,-100,4,2,1,90,0,1
106060,-100,4,2,1,90,0,1
106207,-100,4,2,1,90,0,1
106501,-100,4,2,1,90,0,1
106648,-100,4,2,1,90,0,1
106942,-100,4,2,1,90,0,1
108412,-100,4,2,1,90,0,1
108560,-100,4,2,1,90,0,1
108854,-100,4,2,1,90,0,1
109001,-100,4,2,1,90,0,1
109589,-100,4,2,1,90,0,1
109736,-100,4,2,1,90,0,1
110030,-100,4,2,1,90,0,1
110177,-100,4,2,1,90,0,1
110471,-100,4,2,1,90,0,1
110765,-100,4,2,1,90,0,1
110912,-100,4,2,1,90,0,1
111206,-100,4,2,1,90,0,1
111354,-100,4,2,1,90,0,1
111648,-100,4,2,1,90,0,1
113265,-100,4,2,1,90,0,1
113412,-100,4,2,1,90,0,1
113706,-100,4,2,1,90,0,1
114001,-100,4,2,1,90,0,1
114295,-100,4,2,1,90,0,1
114442,-100,4,2,1,90,0,1
114736,-100,4,2,1,90,0,1
114883,-100,4,2,1,90,0,1
115177,-100,4,2,1,90,0,1
115471,-100,4,2,1,90,0,1
115618,-100,4,2,1,90,0,1
115912,-100,4,2,1,90,0,1
116060,-100,4,2,1,90,0,1
116354,-100,4,2,1,90,0,1
117824,-100,4,2,1,90,0,1
117971,-100,4,2,1,90,0,1
118265,-100,4,2,1,90,0,1
118412,-100,4,2,1,90,0,1
119001,-100,4,2,1,90,0,1
119148,-100,4,2,1,90,0,1
119442,-100,4,2,1,90,0,1
119589,-100,4,2,1,90,0,1
119883,-100,4,2,1,90,0,1
120177,-100,4,2,1,90,0,1
120324,-100,4,2,1,90,0,1
120618,-100,4,2,1,90,0,1
120765,-100,4,2,1,90,0,1
121060,-100,4,2,1,90,0,1
122530,-100,4,2,1,90,0,1
122677,-100,4,2,1,90,0,1
122971,-100,4,2,1,90,0,1
123118,-100,4,2,1,90,0,1
123412,-100,4,2,1,85,0,0
123706,-100,4,2,1,85,0,0
142236,-100,4,2,1,55,0,0
143412,-100,4,2,1,55,0,0
144589,-100,4,2,1,55,0,0
144883,-100,4,2,1,55,0,0
145765,-100,4,2,1,55,0,0
146059,-100,4,2,1,55,0,0
146942,-100,4,2,1,55,0,0
149295,-100,4,2,1,55,0,0
149589,-100,4,2,1,55,0,0
150471,-100,4,2,1,55,0,0
150765,-100,4,2,1,55,0,0
151648,-100,4,2,1,60,0,0
152089,-100,4,2,1,60,0,0
152530,-100,4,2,1,60,0,0
152824,-100,4,2,1,60,0,0
153265,-100,4,2,1,60,0,0
153706,-100,4,2,1,60,0,0
154001,-100,4,2,1,60,0,0
154295,-100,4,2,1,60,0,0
154883,-100,4,2,1,60,0,0
155177,-100,4,2,1,60,0,0
155471,-100,4,2,1,60,0,0
156354,-100,4,2,1,60,0,0
156795,-100,4,2,1,60,0,0
157236,-100,4,2,1,60,0,0
157530,-100,4,2,1,60,0,0
157971,-100,4,2,1,60,0,0
158412,-100,4,2,1,60,0,0
158707,-100,4,2,1,70,0,0
159001,-100,4,2,1,70,0,0
159589,-100,4,2,1,70,0,0
159883,-100,4,2,1,80,0,0
160177,-100,4,2,1,80,0,0
160471,-100,4,2,1,80,0,0
161060,-100,4,2,1,90,0,1
161354,-100,4,2,1,90,0,1
161501,-100,4,2,1,90,0,1
161795,-100,4,2,1,90,0,1
161942,-100,4,2,1,90,0,1
162236,-100,4,2,1,90,0,1
162530,-100,4,2,1,90,0,1
162677,-100,4,2,1,90,0,1
162971,-100,4,2,1,90,0,1
163118,-100,4,2,1,90,0,1
163412,-100,4,2,1,90,0,1
164883,-100,4,2,1,90,0,1
165030,-100,4,2,1,90,0,1
165324,-100,4,2,1,90,0,1
165471,-100,4,2,1,90,0,1
166059,-100,4,2,1,90,0,1
166207,-100,4,2,1,90,0,1
166501,-100,4,2,1,90,0,1
166648,-100,4,2,1,90,0,1
166942,-100,4,2,1,90,0,1
167236,-100,4,2,1,90,0,1
167383,-100,4,2,1,90,0,1
167677,-100,4,2,1,90,0,1
167824,-100,4,2,1,90,0,1
168118,-100,4,2,1,90,0,1
169589,-100,4,2,1,90,0,1
169883,-100,4,2,1,90,0,1
170177,-100,4,2,1,90,0,1
170471,-100,4,2,1,90,0,1
170765,-100,4,2,1,90,0,1
170912,-100,4,2,1,90,0,1
171206,-100,4,2,1,90,0,1
171354,-100,4,2,1,90,0,1
171648,-100,4,2,1,90,0,1
171942,-100,4,2,1,90,0,1
172089,-100,4,2,1,90,0,1
172383,-100,4,2,1,90,0,1
172530,-100,4,2,1,90,0,1
172824,-100,4,2,1,90,0,1
174295,-100,4,2,1,90,0,1
174442,-100,4,2,1,90,0,1
174736,-100,4,2,1,90,0,1
174883,-100,4,2,1,90,0,1
175471,-100,4,2,1,90,0,1
175618,-100,4,2,1,90,0,1
175912,-100,4,2,1,90,0,1
176060,-100,4,2,1,90,0,1
176354,-100,4,2,1,90,0,1
176648,-100,4,2,1,90,0,1
176795,-100,4,2,1,90,0,1
177089,-100,4,2,1,90,0,1
177236,-100,4,2,1,90,0,1
177530,-100,4,2,1,90,0,1
179001,-100,4,2,1,90,0,1
179295,-100,4,2,1,90,0,0
179589,-100,4,2,1,90,0,0
179883,-100,4,2,1,95,0,1
180177,-100,4,2,1,95,0,1
180324,-100,4,2,1,95,0,1
180618,-100,4,2,1,95,0,1
180765,-100,4,2,1,95,0,1
181060,-100,4,2,1,95,0,1
181354,-100,4,2,1,95,0,1
181501,-100,4,2,1,95,0,1
181795,-100,4,2,1,95,0,1
181942,-100,4,2,1,95,0,1
182236,-100,4,2,1,95,0,1
183706,-100,4,2,1,95,0,1
183854,-100,4,2,1,95,0,1
184148,-100,4,2,1,95,0,1
184295,-100,4,2,1,95,0,1
184883,-100,4,2,1,95,0,1
185030,-100,4,2,1,95,0,1
185324,-100,4,2,1,95,0,1
185471,-100,4,2,1,95,0,1
185765,-100,4,2,1,95,0,1
186060,-100,4,2,1,95,0,1
186207,-100,4,2,1,95,0,1
186501,-100,4,2,1,95,0,1
186648,-100,4,2,1,95,0,1
186942,-100,4,2,1,95,0,1
188412,-100,4,2,1,95,0,1
188707,-100,4,2,1,95,0,1
189001,-100,4,2,1,95,0,1
189295,-100,4,2,1,95,0,1
189589,-100,4,2,1,95,0,1
189736,-100,4,2,1,95,0,1
190030,-100,4,2,1,95,0,1
190177,-100,4,2,1,95,0,1
190471,-100,4,2,1,95,0,1
190765,-100,4,2,1,95,0,1
190912,-100,4,2,1,95,0,1
191206,-100,4,2,1,95,0,1
191354,-100,4,2,1,95,0,1
191648,-100,4,2,1,95,0,1
193118,-100,4,2,1,95,0,1
193265,-100,4,2,1,95,0,1
193559,-100,4,2,1,95,0,1
193707,-100,4,2,1,95,0,1
194295,-100,4,2,1,95,0,1
194442,-100,4,2,1,95,0,1
194736,-100,4,2,1,95,0,1
194883,-100,4,2,1,95,0,1
195177,-100,4,2,1,95,0,1
195471,-100,4,2,1,95,0,1
195618,-100,4,2,1,95,0,1
195912,-100,4,2,1,95,0,1
196060,-100,4,2,1,95,0,1
196354,-100,4,2,1,95,0,1
197824,-100,4,2,1,95,0,1
197971,-100,4,2,1,95,0,1
198265,-100,4,2,1,95,0,1
198412,-100,4,2,1,95,0,1
198707,-100,4,2,1,85,0,0
198854,-100,4,2,1,85,0,0
199883,-100,4,2,1,85,0,0
200177,-100,4,2,1,85,0,0
201060,-100,4,2,1,85,0,0
201354,-100,4,2,1,85,0,0
202236,-100,4,2,1,85,0,0
202383,-100,4,2,1,85,0,0
202530,-100,4,2,1,85,0,0
202824,-100,4,2,1,85,0,0
203412,-100,4,2,1,85,0,0
203559,-100,4,2,1,85,0,0
204589,-100,4,2,1,85,0,0
204883,-100,4,2,1,85,0,0
205177,-100,4,2,1,85,0,0
205471,-100,4,2,1,85,0,0
205765,-100,4,2,1,85,0,0
206059,-100,4,2,1,85,0,0
206354,-100,4,2,1,85,0,0
206501,-100,4,2,1,85,0,0
206942,-100,4,2,1,85,0,0
207089,-100,4,2,1,85,0,0
207530,-100,4,2,1,85,0,0
207824,-100,4,2,1,85,0,0
208118,-100,4,2,1,60,0,0

[Colours]
Combo1 : 0,151,75
Combo2 : 212,212,212

[HitObjects]
127,91,10471,6,0,L|139:28,2,50,6|2|2,3:2|2:0|1:2,0:0:0:0:
50,155,11060,2,0,B|90:241|28:219|66:302,1,150,2|2,3:2|3:2,0:0:0:0:
92,340,11648,2,0,P|136:353|186:331,1,100,2|2,2:0|1:2,0:0:0:0:
254,261,12236,1,2,3:2:0:0:
344,304,12530,1,2,1:2:0:0:
434,260,12824,6,0,L|450:155,1,100,2|2,3:2|1:2,0:0:0:0:
386,82,13412,2,0,L|377:24,2,50,2|2|2,3:2|2:0|1:2,0:0:0:0:
300,134,14001,2,0,L|292:183,2,50,2|2|2,3:2|3:2|1:2,0:0:0:0:
217,77,14589,1,2,3:2:0:0:
66,208,15177,6,0,L|2:200,2,50,2|2|2,3:2|2:0|1:2,0:0:0:0:
124,286,15765,2,0,B|176:277|176:277|216:285|216:285|277:273,1,150,2|2,3:2|3:2,0:0:0:0:
311,243,16354,2,0,P|363:251|410:259,1,100,2|2,2:0|1:2,0:0:0:0:
508,275,16942,1,2,3:2:0:0:
491,176,17236,1,2,1:2:0:0:
473,77,17530,6,0,P|426:68|379:89,1,100,2|2,3:2|1:2,0:0:0:0:
305,155,18118,2,0,L|313:219,2,50,2|2|2,3:2|2:0|1:2,0:0:0:0:
223,97,18707,2,0,L|229:47,2,50,2|2|2,3:2|3:2|1:2,0:0:0:0:
135,144,19295,1,2,3:2:0:0:
36,317,19883,6,0,L|27:375,2,50,2|2|2,3:2|2:0|1:2,0:0:0:0:
16,218,20471,2,0,B|100:202|75:258|160:237,1,150,2|2,3:2|3:2,0:0:0:0:
196,203,21060,2,0,L|186:100,1,100,2|2,2:0|1:2,0:0:0:0:
249,26,21648,1,2,3:2:0:0:
339,67,21942,1,2,1:2:0:0:
423,13,22236,6,0,P|443:61|433:108,1,100,2|2,3:2|1:2,0:0:0:0:
364,179,22824,2,0,L|304:173,2,50,2|2|2,3:2|2:0|1:2,0:0:0:0:
439,244,23412,2,0,L|499:238,2,50,2|2|2,3:2|3:2|1:2,0:0:0:0:
381,326,24001,1,2,3:2:0:0:
194,252,24589,6,0,B|186:184,2,50,2|2|2,3:2|2:0|1:2,0:0:0:0:
268,318,25177,2,0,P|203:360|135:338,1,150,2|2,3:2|3:2,0:0:0:0:
109,299,25765,2,0,L|92:184,1,100,2|2,2:0|1:2,0:0:0:0:
144,112,26354,1,2,3:2:0:0:
236,149,26648,1,2,1:2:0:0:
282,60,26942,6,0,P|313:41|377:45,1,100,2|2,3:2|1:2,0:0:0:0:
453,106,27530,2,0,P|477:103|509:99,2,50,2|2|2,3:2|2:0|1:2,0:0:0:0:
382,176,28118,2,0,P|358:173|326:169,2,50,2|2|2,3:2|3:2|1:2,0:0:0:0:
449,250,28707,2,0,L|460:353,2,100,2|0|2,3:2|1:0|2:0,0:0:0:0:
449,250,38707,6,0,B|401:139|499:172|442:53,2,200,2|0|2,3:2|3:0|3:2,0:0:0:0:
276,351,40471,2,0,P|237:370|183:357,1,100,0|2,3:0|2:0,0:0:0:0:
117,282,41060,6,0,B|109:197|109:197|94:165|94:165|88:82,2,200,2|0|2,3:2|3:0|3:2,0:0:0:0:
216,108,42824,2,0,P|262:104|326:98,1,100,0|2,3:0|3:2,0:0:0:0:
415,89,43412,6,0,P|469:174|444:265,1,200,2|2,3:2|3:2,0:0:0:0:
361,320,44295,1,2,2:0:0:0:
278,263,44589,2,0,L|71:285,1,200,2|0,3:2|3:0,0:0:0:0:
5,215,45471,1,2,2:0:0:0:
59,130,45765,6,0,L|49:24,2,100,2|2|2,3:2|2:0|3:2,0:0:0:0:
146,179,46648,1,2,2:0:0:0:
220,111,46942,2,0,P|273:107|326:103,1,100,2|2,3:2|3:2,0:0:0:0:
419,97,47530,2,0,P|423:150|427:203,1,100,2|2,3:2|3:2,0:0:0:0:
481,280,48118,6,0,P|436:299|385:286,1,100,6|0,3:2|1:0,0:0:0:0:
354,249,48560,2,0,P|309:230|258:243,1,100,2|2,2:0|2:0,0:0:0:0:
221,272,49001,1,2,1:2:0:0:
164,354,49295,1,2,3:2:0:0:
68,325,49589,1,2,1:2:0:0:
68,325,49736,2,0,L|58:211,1,100,2|2,2:0|2:0,0:0:0:0:
53,175,50177,1,2,1:2:0:0:
0,90,50471,6,0,P|48:71|98:83,1,100,2|2,3:2|1:2,0:0:0:0:
161,154,51060,2,0,L|172:288,1,100,2|2,3:2|1:2,0:0:0:0:
269,249,51648,2,0,L|261:135,1,100,2|2,3:2|1:2,0:0:0:0:
258,99,52089,2,0,P|301:73|353:78,1,100,2|2,2:0|2:0,0:0:0:0:
393,97,52530,1,2,1:2:0:0:
488,68,52824,6,0,P|484:120|479:191,1,100,2|2,3:2|1:2,0:0:0:0:
511,206,53265,2,0,L|501:330,1,100,2|2,2:0|2:0,0:0:0:0:
462,336,53707,1,2,1:2:0:0:
378,281,54001,1,2,3:2:0:0:
303,351,54295,1,2,1:2:0:0:
303,351,54442,2,0,P|255:370|204:360,1,100,2|2,2:0|2:0,0:0:0:0:
175,324,54883,1,2,1:2:0:0:
75,332,55177,6,0,L|64:222,1,100,2|2,3:2|1:2,0:0:0:0:
1,155,55765,2,0,L|12:45,1,100,2|2,3:2|1:2,0:0:0:0:
102,7,56354,1,2,3:2:0:0:
179,70,56648,1,2,1:2:0:0:
266,21,56942,2,0,P|314:8|362:20,1,100,2|2,3:2|1:2,0:0:0:0:
444,76,57530,6,0,L|461:192,1,100,6|2,3:2|1:2,0:0:0:0:
464,224,57971,2,0,L|361:240,1,100,2|2,2:0|2:0,0:0:0:0:
315,245,58412,1,2,1:2:0:0:
242,314,58707,1,2,3:2:0:0:
168,246,59001,1,2,1:2:0:0:
168,246,59148,2,0,L|179:138,1,100,2|2,2:0|2:0,0:0:0:0:
203,103,59589,1,2,1:2:0:0:
148,19,59883,6,0,L|34:28,1,100,2|2,3:2|1:2,0:0:0:0:
1,115,60471,2,0,L|8:214,1,100,2|2,3:2|1:2,0:0:0:0:
17,314,61060,2,0,P|61:342|114:335,1,100,2|2,3:2|1:2,0:0:0:0:
133,295,61501,2,0,P|181:288|226:313,1,100,2|2,2:0|2:0,0:0:0:0:
252,353,61942,1,2,1:2:0:0:
351,319,62236,6,0,L|364:209,1,100,2|2,3:2|1:2,0:0:0:0:
369,170,62677,2,0,P|333:149|272:151,1,100,2|2,2:0|2:0,0:0:0:0:
231,172,63118,1,2,1:2:0:0:
148,228,63412,1,2,3:2:0:0:
65,170,63707,1,2,1:2:0:0:
65,170,63854,2,0,L|77:60,1,100,2|2,2:0|2:0,0:0:0:0:
84,21,64295,1,2,1:2:0:0:
159,86,64589,6,0,P|206:94|251:68,1,100,2|2,3:2|1:2,0:0:0:0:
324,2,65177,2,0,P|373:1|420:22,1,100,2|2,3:2|1:2,0:0:0:0:
453,113,65765,2,0,L|441:221,1,100,2|2,3:2|1:2,0:0:0:0:
433,262,66207,2,0,P|384:282|331:265,1,100,2|2,2:0|2:0,0:0:0:0:
303,236,66648,1,0,1:0:0:0:
209,272,66942,5,6,3:2:0:0:
109,331,85765,6,0,P|103:270|89:126,1,200,6|2,3:2|1:2,0:0:0:0:
173,76,86648,1,2,3:2:0:0:
259,126,86942,2,0,L|251:240,2,100,2|2|2,2:0|3:2|1:2,0:0:0:0:
351,88,87824,1,2,2:0:0:0:
444,52,88118,6,0,P|491:92|450:210,1,200,2|2,3:2|1:2,0:0:0:0:
355,184,89001,1,2,3:2:0:0:
277,246,89295,2,0,L|282:351,2,100,2|2|2,2:0|3:2|1:2,0:0:0:0:
176,218,90177,1,2,2:0:0:0:
85,261,90471,6,0,B|38:172|38:172|65:69,1,200,2|2,3:2|1:2,0:0:0:0:
157,40,91354,1,2,3:2:0:0:
231,106,91648,2,0,P|283:116|330:87,2,100,2|2|2,2:0|3:2|1:2,0:0:0:0:
157,173,92530,1,2,2:0:0:0:
215,254,92824,6,0,L|321:239,1,100,2|2,3:2|2:0,0:0:0:0:
413,226,93412,2,0,L|428:343,1,100,2|2,1:2|3:2,0:0:0:0:
341,379,94001,1,6,3:2:0:0:
80,307,95177,6,0,P|69:229|52:102,1,200,2|2,3:2|1:2,0:0:0:0:
123,37,96060,1,2,2:0:0:0:
204,94,96354,2,0,P|285:118|372:49,1,200,2|2,3:2|1:2,0:0:0:0:
466,24,97236,1,2,2:0:0:0:
512,111,97530,6,0,L|492:309,1,200,2|2,3:2|1:2,0:0:0:0:
405,360,98412,1,2,2:0:0:0:
351,274,98707,2,0,P|285:230|165:260,1,200,2|2,3:2|1:2,0:0:0:0:
97,319,99589,1,2,3:2:0:0:
11,267,99883,6,0,L|37:69,1,200,2|2,3:2|1:2,0:0:0:0:
125,22,100765,1,2,2:0:0:0:
200,87,101060,2,0,B|327:64|266:139|393:112,1,200,2|2,3:2|1:2,0:0:0:0:
488,93,101942,1,2,2:0:0:0:
498,192,102236,6,0,L|505:304,1,100,2|2,3:2|2:0,0:0:0:0:
404,298,102824,2,0,L|397:198,1,100,2|2,1:2|2:0,0:0:0:0:
312,146,103412,1,2,1:2:0:0:
231,206,103707,1,2,3:2:0:0:
143,157,104001,2,0,L|136:57,1,100,2|2,3:2|3:2,0:0:0:0:
36,62,104589,6,0,L|42:161,1,100,6|2,3:2|1:2,0:0:0:0:
13,202,105030,2,0,L|19:301,1,100,2|2,2:0|2:0,0:0:0:0:
49,341,105471,1,2,1:2:0:0:
129,281,105765,1,2,3:2:0:0:
207,343,106060,1,2,1:2:0:0:
207,343,106207,2,0,P|257:353|301:332,1,100,2|2,2:0|2:0,0:0:0:0:
332,295,106648,1,2,1:2:0:0:
324,195,106942,6,0,L|315:92,1,100,2|2,3:2|1:2,0:0:0:0:
244,25,107530,2,0,L|142:33,1,100,2|2,3:2|1:2,0:0:0:0:
44,41,108118,2,0,P|14:81|18:137,1,100,2|2,3:2|1:2,0:0:0:0:
38,173,108560,2,0,P|95:180|153:186,1,100,2|2,2:0|2:0,0:0:0:0:
186,191,109001,1,2,1:2:0:0:
276,234,109295,6,0,P|331:228|396:221,1,100,2|2,3:2|1:2,0:0:0:0:
423,213,109736,2,0,P|433:164|416:118,1,100,2|2,2:0|2:0,0:0:0:0:
385,78,110177,1,2,1:2:0:0:
291,40,110471,1,2,3:2:0:0:
232,121,110765,1,2,1:2:0:0:
232,121,110912,2,0,P|183:139|121:119,1,100,2|2,2:0|2:0,0:0:0:0:
97,99,111354,1,2,1:2:0:0:
23,166,111648,6,0,L|36:281,1,100,2|2,3:2|1:2,0:0:0:0:
50,363,112236,2,0,P|89:374|147:348,1,100,2|2,3:2|1:2,0:0:0:0:
192,266,112824,2,0,P|238:233|323:258,1,150,2|2,3:2|2:0,0:0:0:0:
342,302,113412,2,0,P|379:324|434:323,1,100,2|2,3:2|1:2,0:0:0:0:
501,248,114001,6,0,L|489:143,1,100,6|2,3:2|1:2,0:0:0:0:
479,99,114442,2,0,P|436:86|377:102,1,100,2|2,2:0|2:0,0:0:0:0:
357,140,114883,1,2,1:2:0:0:
293,216,115177,1,2,3:2:0:0:
202,174,115471,1,2,1:2:0:0:
202,174,115618,2,0,L|212:61,1,100,2|2,2:0|2:0,0:0:0:0:
190,28,116060,1,2,1:2:0:0:
88,39,116354,6,0,L|79:151,1,100,2|2,3:2|1:2,0:0:0:0:
7,207,116942,2,0,L|-1:307,1,100,2|2,3:2|1:2,0:0:0:0:
77,369,117530,2,0,P|126:378|174:353,1,100,2|2,3:2|1:2,0:0:0:0:
188,310,117971,2,0,P|228:285|290:298,1,100,2|2,2:0|2:0,0:0:0:0:
314,325,118412,1,2,1:2:0:0:
405,268,118707,6,0,L|395:160,1,100,2|2,3:2|1:2,0:0:0:0:
387,119,119148,2,0,P|339:101|294:114,1,100,2|2,2:0|2:0,0:0:0:0:
256,146,119589,1,2,1:2:0:0:
190,221,119883,1,2,3:2:0:0:
91,204,120177,1,2,1:2:0:0:
91,204,120324,2,0,L|85:103,1,100,2|2,2:0|2:0,0:0:0:0:
80,54,120765,1,2,1:2:0:0:
178,32,121060,6,0,P|229:28|274:56,1,100,2|2,3:2|1:2,0:0:0:0:
295,148,121648,2,0,P|343:147|383:116,1,100,2|2,3:2|1:2,0:0:0:0:
456,37,122236,2,0,P|461:90|474:139,1,100,2|2,3:2|1:2,0:0:0:0:
512,169,122677,2,0,P|509:226|501:278,1,100,2|2,2:0|2:0,0:0:0:0:
477,310,123118,1,2,1:2:0:0:
380,289,123412,6,0,P|331:273|281:265,1,100,6|2,3:2|1:2,0:0:0:0:
218,342,124001,2,0,P|168:353|113:356,1,100,2|2,3:2|1:2,0:0:0:0:
24,324,124589,2,0,P|16:251|9:162,1,150,2|2,2:0|2:0,0:0:0:0:
2,125,125177,1,2,3:2:0:0:
70,52,125471,1,2,1:2:0:0:
135,127,125765,6,0,P|189:127|228:100,1,100,2|2,3:2|1:2,0:0:0:0:
238,53,126207,1,2,2:0:0:0:
284,33,126354,2,0,L|402:47,1,100,2|0,3:2|1:2,0:0:0:0:
481,60,126942,2,0,P|475:144|467:227,1,150,2|2,3:2|2:0,0:0:0:0:
462,259,127530,1,2,3:2:0:0:
379,315,127824,1,2,1:2:0:0:
292,264,128118,6,0,P|296:209|298:161,1,100,2|2,3:2|1:2,0:0:0:0:
303,64,128707,2,0,P|259:45|197:56,1,100,2|2,3:2|1:2,0:0:0:0:
119,95,129295,2,0,L|105:251,1,150,2|2,2:0|2:0,0:0:0:0:
102,294,129883,1,2,3:2:0:0:
176,360,130177,1,2,1:2:0:0:
239,283,130471,6,0,P|281:261|340:266,1,100,2|2,3:2|1:2,0:0:0:0:
377,284,130912,1,2,2:0:0:0:
416,254,131060,2,0,L|405:153,1,100,2|2,3:2|1:2,0:0:0:0:
395,55,131648,2,0,P|330:24|259:57,1,150,2|2,3:2|2:0,0:0:0:0:
231,92,132236,1,2,3:2:0:0:
139,51,132530,1,2,1:2:0:0:
59,111,132824,6,0,P|63:163|68:214,1,100,2|2,3:2|1:2,0:0:0:0:
80,309,133412,2,0,P|129:304|179:300,1,100,2|2,3:2|1:2,0:0:0:0:
258,361,134001,2,0,P|331:367|410:373,1,150,2|2,2:0|2:0,0:0:0:0:
457,378,134589,1,2,3:2:0:0:
505,288,134883,1,2,1:2:0:0:
432,219,135177,6,0,P|413:176|430:124,1,100,2|2,3:2|1:2,0:0:0:0:
458,87,135618,1,2,2:0:0:0:
433,43,135766,2,0,L|333:35,1,100,2|0,3:2|1:2,0:0:0:0:
282,120,136354,2,0,P|222:161|148:137,1,150,2|2,3:2|2:0,0:0:0:0:
115,107,136942,1,2,3:2:0:0:
15,120,137236,1,2,1:2:0:0:
27,219,137530,6,0,L|43:341,1,100,2|2,3:2|1:2,0:0:0:0:
117,381,138118,2,0,L|216:367,1,100,2|2,3:2|1:2,0:0:0:0:
314,347,138707,2,0,P|332:294|288:212,1,150,2|2,2:0|2:0,0:0:0:0:
251,184,139295,1,2,3:2:0:0:
177,251,139589,1,2,1:2:0:0:
83,215,139883,6,0,P|88:169|62:123,1,100,2|2,3:2|1:2,0:0:0:0:
27,88,140324,1,2,2:0:0:0:
48,42,140471,2,0,L|164:25,1,100,2|2,3:2|1:2,0:0:0:0:
221,94,141060,2,0,P|293:129|356:100,1,150,2|2,3:2|2:0,0:0:0:0:
388,67,141648,1,2,3:2:0:0:
484,92,141942,1,2,1:2:0:0:
462,189,142236,5,6,2:0:0:0:
394,263,143412,1,2,2:0:0:0:
314,201,144589,2,0,P|272:184|214:187,1,100,2|2,2:0|2:0,0:0:0:0:
163,269,145177,2,0,P|124:292|67:284,1,100,2|2,2:0|2:0,0:0:0:0:
12,206,145765,2,0,L|-1:102,1,100,2|2,2:0|2:0,0:0:0:0:
13,59,146207,1,2,2:0:0:0:
198,33,146942,5,2,2:0:0:0:
251,117,148118,1,2,2:0:0:0:
172,179,149295,2,0,P|148:225|154:275,1,100,2|2,2:0|2:0,0:0:0:0:
207,355,149883,2,0,P|256:350|299:374,1,100,2|2,2:0|2:0,0:0:0:0:
397,351,150471,2,0,P|420:307|416:258,1,100,2|2,2:0|2:0,0:0:0:0:
395,213,150912,1,2,2:0:0:0:
215,162,151648,6,0,L|232:4,2,150,2|2|2,2:0|2:0|2:0,0:0:0:0:
116,179,152824,2,0,L|133:21,2,150,2|2|2,2:0|2:0|2:0,0:0:0:0:
50,254,154001,6,0,P|96:283|141:278,1,100,2|2,2:0|2:0,0:0:0:0:
208,207,154589,2,0,P|257:203|297:231,1,100,2|2,2:0|2:0,0:0:0:0:
354,314,155177,2,0,P|405:313|467:301,1,100,2|2,2:0|2:0,0:0:0:0:
501,290,155618,1,2,2:0:0:0:
366,161,156354,6,0,L|349:5,2,150,2|2|2,2:0|2:0|2:0,0:0:0:0:
278,209,157530,2,0,L|261:53,2,150,2|2|2,2:0|2:0|2:0,0:0:0:0:
336,290,158707,2,0,P|291:314|241:305,1,100,2|2,2:0|2:0,0:0:0:0:
188,223,159295,2,0,P|143:199|93:208,1,100,2|2,2:0|2:0,0:0:0:0:
13,261,159883,2,0,L|23:368,2,100,2|2|6,2:0|2:0|2:0,0:0:0:0:
93,77,161060,6,0,P|136:54|191:60,1,100,6|2,3:2|1:2,0:0:0:0:
232,75,161501,2,0,L|243:185,1,100,2|2,2:0|2:0,0:0:0:0:
247,224,161942,1,2,1:2:0:0:
192,308,162236,1,2,3:2:0:0:
267,373,162530,1,2,1:2:0:0:
267,373,162677,2,0,P|317:368|372:360,1,100,2|2,2:0|2:0,0:0:0:0:
415,347,163118,1,2,1:2:0:0:
478,269,163412,6,0,L|465:164,1,100,2|2,3:2|1:2,0:0:0:0:
504,77,164001,2,0,P|456:67|406:89,1,100,2|2,3:2|1:2,0:0:0:0:
343,160,164589,2,0,L|225:149,1,100,2|2,3:2|1:2,0:0:0:0:
213,110,165030,2,0,L|105:99,1,100,2|2,2:0|2:0,0:0:0:0:
64,92,165471,1,2,1:2:0:0:
42,189,165765,6,0,L|54:307,1,100,2|2,3:2|1:2,0:0:0:0:
60,338,166207,2,0,P|111:354|156:338,1,100,2|2,2:0|2:0,0:0:0:0:
194,311,166648,1,2,1:2:0:0:
289,340,166942,1,2,3:2:0:0:
356,266,167236,1,2,1:2:0:0:
356,266,167383,2,0,L|347:162,1,100,2|2,2:0|2:0,0:0:0:0:
342,116,167824,1,2,1:2:0:0:
328,16,168118,6,0,L|216:26,1,100,2|2,3:2|1:2,0:0:0:0:
174,109,168707,2,0,L|67:101,1,100,2|2,3:2|1:2,0:0:0:0:
8,177,169295,1,2,3:2:0:0:
44,269,169589,1,2,1:2:0:0:
6,361,169883,2,0,L|126:349,1,100,2|2,3:2|1:2,0:0:0:0:
204,343,170471,6,0,L|193:232,1,100,6|2,3:2|1:2,0:0:0:0:
156,210,170912,2,0,L|145:99,1,100,2|2,2:0|2:0,0:0:0:0:
174,69,171354,1,2,1:2:0:0:
268,102,171648,1,2,3:2:0:0:
332,25,171942,1,2,1:2:0:0:
332,25,172089,2,0,P|386:11|432:26,1,100,2|2,2:0|2:0,0:0:0:0:
461,59,172530,1,2,1:2:0:0:
511,145,172824,6,0,L|503:252,1,100,2|2,3:2|1:2,0:0:0:0:
495,344,173412,2,0,L|388:336,1,100,2|2,3:2|1:2,0:0:0:0:
294,325,174001,2,0,P|287:276|313:231,1,100,2|2,3:2|1:2,0:0:0:0:
353,208,174442,2,0,P|365:166|344:112,1,100,2|2,2:0|2:0,0:0:0:0:
302,90,174883,1,2,1:2:0:0:
238,167,175177,6,0,L|125:181,1,100,2|2,3:2|1:2,0:0:0:0:
88,182,175618,2,0,P|60:145|59:93,1,100,2|2,2:0|2:0,0:0:0:0:
71,44,176060,1,2,1:2:0:0:
163,5,176354,1,2,3:2:0:0:
237,72,176648,1,2,1:2:0:0:
237,72,176795,2,0,P|293:77|336:54,1,100,2|2,2:0|2:0,0:0:0:0:
364,20,177236,1,2,1:2:0:0:
435,90,177530,6,0,P|451:139|433:185,1,100,2|2,3:2|1:2,0:0:0:0:
372,261,178118,2,0,L|258:249,1,100,2|2,3:2|1:2,0:0:0:0:
197,186,178707,1,2,3:2:0:0:
115,243,179001,1,2,1:2:0:0:
29,191,179295,2,0,L|21:92,1,100,2|2,3:2|1:2,0:0:0:0:
85,15,179883,6,0,L|184:7,1,100,6|2,3:2|1:2,0:0:0:0:
234,5,180324,2,0,P|260:50|257:102,1,100,2|2,2:0|2:0,0:0:0:0:
241,143,180765,1,2,1:2:0:0:
174,217,181060,1,2,3:2:0:0:
205,311,181354,1,2,1:2:0:0:
205,311,181501,2,0,L|319:323,1,100,2|2,2:0|2:0,0:0:0:0:
352,327,181942,1,2,1:2:0:0:
450,342,182236,6,0,L|433:229,1,100,2|2,3:2|1:2,0:0:0:0:
347,194,182824,2,0,L|330:81,1,100,2|2,3:2|1:2,0:0:0:0:
272,15,183412,2,0,P|317:-5|372:5,1,100,2|2,3:2|1:2,0:0:0:0:
412,20,183854,2,0,L|429:140,1,100,2|2,2:0|2:0,0:0:0:0:
433,168,184295,1,2,1:2:0:0:
386,256,184589,6,0,P|340:235|287:246,1,100,2|2,3:2|1:2,0:0:0:0:
267,286,185030,2,0,P|221:307|168:296,1,100,2|2,2:0|2:0,0:0:0:0:
127,279,185471,1,2,1:2:0:0:
80,190,185765,1,2,3:2:0:0:
141,111,186060,1,2,1:2:0:0:
141,111,186207,2,0,B|261:122,1,100,2|2,2:0|2:0,0:0:0:0:
290,126,186648,1,2,1:2:0:0:
317,30,186942,6,0,L|429:15,1,100,2|2,3:2|1:2,0:0:0:0:
497,74,187530,2,0,L|512:186,1,100,2|2,3:2|1:2,0:0:0:0:
428,231,188118,1,2,3:2:0:0:
340,182,188412,1,2,1:2:0:0:
259,238,188707,2,0,L|272:345,1,100,2|2,3:2|1:2,0:0:0:0:
171,349,189295,6,0,L|158:249,1,100,6|2,3:2|1:2,0:0:0:0:
116,223,189736,2,0,L|103:123,1,100,2|2,2:0|2:0,0:0:0:0:
126,78,190177,1,2,1:2:0:0:
210,131,190471,1,2,3:2:0:0:
288,68,190765,1,2,1:2:0:0:
288,68,190912,2,0,P|337:51|385:62,1,100,2|2,2:0|2:0,0:0:0:0:
419,95,191354,1,2,1:2:0:0:
472,179,191648,6,0,L|464:286,1,100,2|2,3:2|1:2,0:0:0:0:
397,353,192236,2,0,L|290:345,1,100,2|2,3:2|1:2,0:0:0:0:
228,271,192824,2,0,L|236:164,1,100,2|2,3:2|1:2,0:0:0:0:
279,147,193265,2,0,L|287:40,1,100,2|2,2:0|2:0,0:0:0:0:
264,2,193707,1,2,1:2:0:0:
182,59,194001,6,0,L|69:71,1,100,2|2,3:2|1:2,0:0:0:0:
32,74,194442,2,0,L|45:202,1,100,2|2,2:0|2:0,0:0:0:0:
48,222,194883,1,2,1:2:0:0:
142,188,195177,1,2,3:2:0:0:
193,273,195471,1,2,1:2:0:0:
193,273,195618,2,0,P|239:298|289:286,1,100,2|2,2:0|2:0,0:0:0:0:
325,260,196060,1,2,1:2:0:0:
351,163,196354,6,0,L|341:59,1,100,2|2,3:2|1:2,0:0:0:0:
241,66,196942,2,0,L|141:75,1,100,2|2,3:2|1:2,0:0:0:0:
50,33,197530,2,0,P|36:87|53:128,1,100,2|2,3:2|1:2,0:0:0:0:
91,156,197971,2,0,P|106:210|87:259,1,100,2|2,2:0|2:0,0:0:0:0:
54,282,198412,1,2,1:2:0:0:
141,331,198707,6,0,L|146:393,2,50,6|2|2,3:2|2:0|1:2,0:0:0:0:
205,254,199295,2,0,B|210:190|210:190|204:176|204:176|211:101,1,150,2|2,3:2|3:2,0:0:0:0:
217,56,199883,2,0,P|259:30|310:39,1,100,2|2,2:0|1:2,0:0:0:0:
368,116,200471,1,2,3:2:0:0:
451,61,200765,1,2,1:2:0:0:
510,141,201060,6,0,L|499:251,1,100,2|2,3:2|1:2,0:0:0:0:
434,316,201648,2,0,L|439:369,2,50,2|2|2,3:2|2:0|1:2,0:0:0:0:
348,264,202236,2,0,L|352:214,2,50,2|2|2,3:2|3:2|1:2,0:0:0:0:
263,316,202824,1,2,3:2:0:0:
172,137,203412,6,0,L|176:83,2,50,2|2|2,3:2|2:0|1:2,0:0:0:0:
89,194,204001,2,0,B|82:264|82:264|88:278|88:278|83:342,1,150,2|2,3:2|3:2,0:0:0:0:
121,374,204589,2,0,L|242:360,1,100,2|2,2:0|1:2,0:0:0:0:
277,280,205177,1,2,3:2:0:0:
369,317,205471,1,2,1:2:0:0:
430,238,205765,6,0,L|418:136,1,100,2|2,3:2|1:2,0:0:0:0:
343,72,206354,2,0,L|349:10,2,50,2|2|2,3:2|2:0|1:2,0:0:0:0:
254,117,206942,2,0,L|258:166,2,50,2|2|2,3:2|3:2|1:2,0:0:0:0:
172,58,207530,1,2,3:2:0:0:
83,105,207824,1,2,1:2:0:0:
1,47,208118,5,6,2:0:0:0:
