osu file format v14

[General]
AudioFilename: audio.mp3
AudioLeadIn: 0
PreviewTime: 46942
Countdown: 0
SampleSet: Soft
StackLeniency: 0.7
Mode: 0
LetterboxInBreaks: 0
EpilepsyWarning: 1
WidescreenStoryboard: 1

[Editor]
DistanceSpacing: 1.6
BeatDivisor: 4
GridSize: 32
TimelineZoom: 2.930006

[Metadata]
Title:Ai no Sukima
TitleUnicode:哀の隙間
Artist:umu.
ArtistUnicode:ゆーむ
Creator:Half
Version:Hard
Source:
Tags:MIMI feat. 初音ミク Hatsune Miku 佐藤主税 歌ってみた vocaloid japanese female vocalist dora- doraemonelf pop jpop Sorrow's Gap
BeatmapID:2856077
BeatmapSetID:1371996

[Difficulty]
HPDrainRate:5
CircleSize:4
OverallDifficulty:7
ApproachRate:8
SliderMultiplier:1.4
SliderTickRate:1

[Events]
//Background and Video events
0,0,"BG.jpg",0,0
//Break Periods
2,67142,84721
//Storyboard Layer 0 (Background)
//Storyboard Layer 1 (Fail)
//Storyboard Layer 2 (Pass)
//Storyboard Layer 3 (Foreground)
Sprite,Foreground,Centre,"sb/d.png",0,0 S,7,10471,11271,0.3952487,0 M,7,10471,11271,273,159,336,212 P,0,10471,11271,A F,0,29221,,1,0
Sprite,Foreground,Centre,"sb/d.png",0,0 S,7,10471,11271,0.3952487,0 M,7,10471,11271,273,159,284,100 P,0,10471,11271,A F,0,29221,,1,0
Sprite,Foreground,Centre,"sb/d.png",0,0 S,7,10471,11271,0.3952487,0 M,7,10471,11271,273,159,284,240 P,0,10471,11271,A F,0,29221,,1,0
Sprite,Foreground,Centre,"sb/d.png",0,0 S,7,10471,11271,0.3952487,0 M,7,10471,11271,273,159,261,254 P,0,10471,11271,A F,0,29221,,1,0
Sprite,Foreground,Centre,"sb/d.png",0,0 S,7,10471,11271,0.3952487,0 M,7,10471,11271,273,159,227,117 P,0,10471,11271,A F,0,29221,,1,0
Sprite,Foreground,Centre,"sb/d.png",0,0 S,7,10471,11271,0.3952487,0 M,7,10471,11271,273,159,266,185 P,0,10471,11271,A F,0,29221,,1,0
Sprite,Foreground,Centre,"sb/d.png",0,0 S,7,10471,11271,0.3952487,0 M,7,10471,11271,273,159,266,255 P,0,10471,11271,A F,0,29221,,1,0
Sprite,Foreground,Centre,"sb/d.png",0,0 S,7,10471,11271,0.3952487,0 M,7,10471,11271,273,159,179,231 P,0,10471,11271,A F,0,29221,,1,0
Sprite,Foreground,Centre,"sb/d.png",0,0 S,7,10471,11271,0.3952487,0 M,7,10471,11271,273,159,372,194 P,0,10471,11271,A F,0,29221,,1,0
Sprite,Foreground,Centre,"sb/d.png",0,0 S,7,10471,11271,0.3952487,0 M,7,10471,11271,273,159,235,222 P,0,10471,11271,A F,0,29221,,1,0
Sprite,Foreground,Centre,"sb/d.png",0,0 S,7,10765,11565,0.4196104,0 M,7,10765,11565,356,273,454,179 P,0,10765,11565,A F,0,29221,,1,0
Sprite,Foreground,Centre,"sb/d.png",0,0 S,7,10765,11565,0.4196104,0 M,7,10765,11565,356,273,395,278 P,0,10765,11565,A F,0,29221,,1,0
Sprite,Foreground,Centre,"sb/d.png",0,0 S,7,10765,11565,0.4196104,0 M,7,10765,11565,356,273,442,310 P,0,10765,11565,A F,0,29221,,1,0
Sprite,Foreground,Centre,"sb/d.png",0,0 S,7,10765,11565,0.4196104,0 M,7,10765,11565,356,273,365,189 P,0,10765,11565,A F,0,29221,,1,0
Sprite,Foreground,Centre,"sb/d.png",0,0 S,7,10765,11565,0.4196104,0 M,7,10765,11565,356,273,293,263 P,0,10765,11565,A F,0,29221,,1,0
Sprite,Foreground,Centre,"sb/d.png",0,0 S,7,10765,11565,0.4196104,0 M,7,10765,11565,356,273,315,370 P,0,10765,11565,A F,0,29221,,1,0
Sprite,Foreground,Centre,"sb/d.png",0,0 S,7,10765,11565,0.4196104,0 M,7,10765,11565,356,273,384,325 P,0,10765,11565,A F,0,29221,,1,0
Sprite,Foreground,Centre,"sb/d.png",0,0 S,7,10765,11565,0.4196104,0 M,7,10765,11565,356,273,262,249 P,0,10765,11565,A F,0,29221,,1,0
Sprite,Foreground,Centre,"sb/d.png",0,0 S,7,10765,11565,0.4196104,0 M,7,10765,11565,356,273,324,364 P,0,10765,11565,A F,0,29221,,1,0
Sprite,Foreground,Centre,"sb/d.png",0,0 S,7,10765,11565,0.4196104,0 M,7,10765,11565,356,273,357,316 P,0,10765,11565,A F,0,29221,,1,0
Sprite,Foreground,Centre,"sb/d.png",0,0 S,7,11207,12007,0.2737916,0 M,7,11207,12007,248,427,202,508 P,0,11207,12007,A F,0,29221,,1,0
Sprite,Foreground,Centre,"sb/d.png",0,0 S,7,11207,12007,0.2737916,0 M,7,11207,12007,248,427,306,394 P,0,11207,12007,A F,0,29221,,1,0
Sprite,Foreground,Centre,"sb/d.png",0,0 S,7,11207,12007,0.2737916,0 M,7,11207,12007,248,427,239,356 P,0,11207,12007,A F,0,29221,,1,0
Sprite,Foreground,Centre,"sb/d.png",0,0 S,7,11207,12007,0.2737916,0 M,7,11207,12007,248,427,192,409 P,0,11207,12007,A F,0,29221,,1,0
Sprite,Foreground,Centre,"sb/d.png",0,0 S,7,11207,12007,0.2737916,0 M,7,11207,12007,248,427,291,450 P,0,11207,12007,A F,0,29221,,1,0
Sprite,Foreground,Centre,"sb/d.png",0,0 S,7,11207,12007,0.2737916,0 M,7,11207,12007,248,427,245,365 P,0,11207,12007,A F,0,29221,,1,0
Sprite,Foreground,Centre,"sb/d.png",0,0 S,7,11207,12007,0.2737916,0 M,7,11207,12007,248,427,323,492 P,0,11207,12007,A F,0,29221,,1,0
Sprite,Foreground,Centre,"sb/d.png",0,0 S,7,11207,12007,0.2737916,0 M,7,11207,12007,248,427,295,498 P,0,11207,12007,A F,0,29221,,1,0
Sprite,Foreground,Centre,"sb/d.png",0,0 S,7,11207,12007,0.2737916,0 M,7,11207,12007,248,427,283,451 P,0,11207,12007,A F,0,29221,,1,0
Sprite,Foreground,Centre,"sb/d.png",0,0 S,7,11207,12007,0.2737916,0 M,7,11207,12007,248,427,191,506 P,0,11207,12007,A F,0,29221,,1,0
Sprite,Foreground,Centre,"sb/d.png",0,0 S,7,11354,12154,0.429288,0 M,7,11354,12154,178,366,95,433 P,0,11354,12154,A F,0,29221,,1,0
Sprite,Foreground,Centre,"sb/d.png",0,0 S,7,11354,12154,0.429288,0 M,7,11354,12154,178,366,112,394 P,0,11354,12154,A F,0,29221,,1,0
Sprite,Foreground,Centre,"sb/d.png",0,0 S,7,11354,12154,0.429288,0 M,7,11354,12154,178,366,243,309 P,0,11354,12154,A F,0,29221,,1,0
Sprite,Foreground,Centre,"sb/d.png",0,0 S,7,11354,12154,0.429288,0 M,7,11354,12154,178,366,277,362 P,0,11354,12154,A F,0,29221,,1,0
Sprite,Foreground,Centre,"sb/d.png",0,0 S,7,11354,12154,0.429288,0 M,7,11354,12154,178,366,208,409 P,0,11354,12154,A F,0,29221,,1,0
Sprite,Foreground,Centre,"sb/d.png",0,0 S,7,11354,12154,0.429288,0 M,7,11354,12154,178,366,239,286 P,0,11354,12154,A F,0,29221,,1,0
Sprite,Foreground,Centre,"sb/d.png",0,0 S,7,11354,12154,0.429288,0 M,7,11354,12154,178,366,223,409 P,0,11354,12154,A F,0,29221,,1,0
Sprite,Foreground,Centre,"sb/d.png",0,0 S,7,11354,12154,0.429288,0 M,7,11354,12154,178,366,103,447 P,0,11354,12154,A F,0,29221,,1,0
Sprite,Foreground,Centre,"sb/d.png",0,0 S,7,11354,12154,0.429288,0 M,7,11354,12154,178,366,115,361 P,0,11354,12154,A F,0,29221,,1,0
Sprite,Foreground,Centre,"sb/d.png",0,0 S,7,11354,12154,0.429288,0 M,7,11354,12154,178,366,186,331 P,0,11354,12154,A F,0,29221,,1,0
Sprite,Foreground,Centre,"sb/d.png",0,0 S,7,11648,12448,0.3842073,0 M,7,11648,12448,87,286,80,352 P,0,11648,12448,A F,0,29221,,1,0
Sprite,Foreground,Centre,"sb/d.png",0,0 S,7,11648,12448,0.3842073,0 M,7,11648,12448,87,286,148,344 P,0,11648,12448,A F,0,29221,,1,0
Sprite,Foreground,Centre,"sb/d.png",0,0 S,7,11648,12448,0.3842073,0 M,7,11648,12448,87,286,139,373 P,0,11648,12448,A F,0,29221,,1,0
Sprite,Foreground,Centre,"sb/d.png",0,0 S,7,11648,12448,0.3842073,0 M,7,11648,12448,87,286,45,290 P,0,11648,12448,A F,0,29221,,1,0
Sprite,Foreground,Centre,"sb/d.png",0,0 S,7,11648,12448,0.3842073,0 M,7,11648,12448,87,286,119,252 P,0,11648,12448,A F,0,29221,,1,0
Sprite,Foreground,Centre,"sb/d.png",0,0 S,7,11648,12448,0.3842073,0 M,7,11648,12448,87,286,44,350 P,0,11648,12448,A F,0,29221,,1,0
Sprite,Foreground,Centre,"sb/d.png",0,0 S,7,11648,12448,0.3842073,0 M,7,11648,12448,87,286,31,223 P,0,11648,12448,A F,0,29221,,1,0
Sprite,Foreground,Centre,"sb/d.png",0,0 S,7,11648,12448,0.3842073,0 M,7,11648,12448,87,286,0,310 P,0,11648,12448,A F,0,29221,,1,0
Sprite,Foreground,Centre,"sb/d.png",0,0 S,7,11648,12448,0.3842073,0 M,7,11648,12448,87,286,125,312 P,0,11648,12448,A F,0,29221,,1,0
Sprite,Foreground,Centre,"sb/d.png",0,0 S,7,11648,12448,0.3842073,0 M,7,11648,12448,87,286,172,230 P,0,11648,12448,A F,0,29221,,1,0
Sprite,Foreground,Centre,"sb/d.png",0,0 S,7,12383,13183,0.4357415,0 M,7,12383,13183,87,286,0,366 P,0,12383,13183,A F,0,29221,,1,0
Sprite,Foreground,Centre,"sb/d.png",0,0 S,7,12383,13183,0.4357415,0 M,7,12383,13183,87,286,122,204 P,0,12383,13183,A F,0,29221,,1,0
Sprite,Foreground,Centre,"sb/d.png",0,0 S,7,12383,13183,0.4357415,0 M,7,12383,13183,87,286,16,207 P,0,12383,13183,A F,0,29221,,1,0
Sprite,Foreground,Centre,"sb/d.png",0,0 S,7,12383,13183,0.4357415,0 M,7,12383,13183,87,286,108,376 P,0,12383,13183,A F,0,29221,,1,0
Sprite,Foreground,Centre,"sb/d.png",0,0 S,7,12383,13183,0.4357415,0 M,7,12383,13183,87,286,85,215 P,0,12383,13183,A F,0,29221,,1,0
Sprite,Foreground,Centre,"sb/d.png",0,0 S,7,12383,13183,0.4357415,0 M,7,12383,13183,87,286,122,299 P,0,12383,13183,A F,0,29221,,1,0
Sprite,Foreground,Centre,"sb/d.png",0,0 S,7,12383,13183,0.4357415,0 M,7,12383,13183,87,286,32,309 P,0,12383,13183,A F,0,29221,,1,0
Sprite,Foreground,Centre,"sb/d.png",0,0 S,7,12383,13183,0.4357415,0 M,7,12383,13183,87,286,-12,258 P,0,12383,13183,A F,0,29221,,1,0
Sprite,Foreground,Centre,"sb/d.png",0,0 S,7,12383,13183,0.4357415,0 M,7,12383,13183,87,286,157,198 P,0,12383,13183,A F,0,29221,,1,0
Sprite,Foreground,Centre,"sb/d.png",0,0 S,7,12383,13183,0.4357415,0 M,7,12383,13183,87,286,43,326 P,0,12383,13183,A F,0,29221,,1,0
Sprite,Foreground,Centre,"sb/d.png",0,0 S,7,12530,13330,0.4417161,0 M,7,12530,13330,167,244,264,221 P,0,12530,13330,A F,0,29221,,1,0
Sprite,Foreground,Centre,"sb/d.png",0,0 S,7,12530,13330,0.4417161,0 M,7,12530,13330,167,244,171,200 P,0,12530,13330,A F,0,29221,,1,0
Sprite,Foreground,Centre,"sb/d.png",0,0 S,7,12530,13330,0.4417161,0 M,7,12530,13330,167,244,168,250 P,0,12530,13330,A F,0,29221,,1,0
Sprite,Foreground,Centre,"sb/d.png",0,0 S,7,12530,13330,0.4417161,0 M,7,12530,13330,167,244,78,200 P,0,12530,13330,A F,0,29221,,1,0
Sprite,Foreground,Centre,"sb/d.png",0,0 S,7,12530,13330,0.4417161,0 M,7,12530,13330,167,244,166,313 P,0,12530,13330,A F,0,29221,,1,0
Sprite,Foreground,Centre,"sb/d.png",0,0 S,7,12530,13330,0.4417161,0 M,7,12530,13330,167,244,189,164 P,0,12530,13330,A F,0,29221,,1,0
Sprite,Foreground,Centre,"sb/d.png",0,0 S,7,12530,13330,0.4417161,0 M,7,12530,13330,167,244,215,224 P,0,12530,13330,A F,0,29221,,1,0
Sprite,Foreground,Centre,"sb/d.png",0,0 S,7,12530,13330,0.4417161,0 M,7,12530,13330,167,244,253,170 P,0,12530,13330,A F,0,29221,,1,0
Sprite,Foreground,Centre,"sb/d.png",0,0 S,7,12530,13330,0.4417161,0 M,7,12530,13330,167,244,206,267 P,0,12530,13330,A F,0,29221,,1,0
Sprite,Foreground,Centre,"sb/d.png",0,0 S,7,12530,13330,0.4417161,0 M,7,12530,13330,167,244,233,281 P,0,12530,13330,A F,0,29221,,1,0
Sprite,Foreground,Centre,"sb/d.png",0,0 S,7,12824,13624,0.3639485,0 M,7,12824,13624,326,263,260,199 P,0,12824,13624,A F,0,29221,,1,0
Sprite,Foreground,Centre,"sb/d.png",0,0 S,7,12824,13624,0.3639485,0 M,7,12824,13624,326,263,347,213 P,0,12824,13624,A F,0,29221,,1,0
Sprite,Foreground,Centre,"sb/d.png",0,0 S,7,12824,13624,0.3639485,0 M,7,12824,13624,326,263,425,276 P,0,12824,13624,A F,0,29221,,1,0
Sprite,Foreground,Centre,"sb/d.png",0,0 S,7,12824,13624,0.3639485,0 M,7,12824,13624,326,263,238,215 P,0,12824,13624,A F,0,29221,,1,0
Sprite,Foreground,Centre,"sb/d.png",0,0 S,7,12824,13624,0.3639485,0 M,7,12824,13624,326,263,394,276 P,0,12824,13624,A F,0,29221,,1,0
Sprite,Foreground,Centre,"sb/d.png",0,0 S,7,12824,13624,0.3639485,0 M,7,12824,13624,326,263,355,266 P,0,12824,13624,A F,0,29221,,1,0
Sprite,Foreground,Centre,"sb/d.png",0,0 S,7,12824,13624,0.3639485,0 M,7,12824,13624,326,263,420,178 P,0,12824,13624,A F,0,29221,,1,0
Sprite,Foreground,Centre,"sb/d.png",0,0 S,7,12824,13624,0.3639485,0 M,7,12824,13624,326,263,328,194 P,0,12824,13624,A F,0,29221,,1,0
Sprite,Foreground,Centre,"sb/d.png",0,0 S,7,12824,13624,0.3639485,0 M,7,12824,13624,326,263,388,291 P,0,12824,13624,A F,0,29221,,1,0
Sprite,Foreground,Centre,"sb/d.png",0,0 S,7,12824,13624,0.3639485,0 M,7,12824,13624,326,263,341,273 P,0,12824,13624,A F,0,29221,,1,0
Sprite,Foreground,Centre,"sb/d.png",0,0 S,7,13560,14360,0.3844979,0 M,7,13560,14360,326,263,424,223 P,0,13560,14360,A F,0,29221,,1,0
Sprite,Foreground,Centre,"sb/d.png",0,0 S,7,13560,14360,0.3844979,0 M,7,13560,14360,326,263,238,256 P,0,13560,14360,A F,0,29221,,1,0
Sprite,Foreground,Centre,"sb/d.png",0,0 S,7,13560,14360,0.3844979,0 M,7,13560,14360,326,263,322,206 P,0,13560,14360,A F,0,29221,,1,0
Sprite,Foreground,Centre,"sb/d.png",0,0 S,7,13560,14360,0.3844979,0 M,7,13560,14360,326,263,240,209 P,0,13560,14360,A F,0,29221,,1,0
Sprite,Foreground,Centre,"sb/d.png",0,0 S,7,13560,14360,0.3844979,0 M,7,13560,14360,326,263,256,252 P,0,13560,14360,A F,0,29221,,1,0
Sprite,Foreground,Centre,"sb/d.png",0,0 S,7,13560,14360,0.3844979,0 M,7,13560,14360,326,263,316,166 P,0,13560,14360,A F,0,29221,,1,0
Sprite,Foreground,Centre,"sb/d.png",0,0 S,7,13560,14360,0.3844979,0 M,7,13560,14360,326,263,303,326 P,0,13560,14360,A F,0,29221,,1,0
Sprite,Foreground,Centre,"sb/d.png",0,0 S,7,13560,14360,0.3844979,0 M,7,13560,14360,326,263,266,345 P,0,13560,14360,A F,0,29221,,1,0
Sprite,Foreground,Centre,"sb/d.png",0,0 S,7,13560,14360,0.3844979,0 M,7,13560,14360,326,263,231,264 P,0,13560,14360,A F,0,29221,,1,0
Sprite,Foreground,Centre,"sb/d.png",0,0 S,7,13560,14360,0.3844979,0 M,7,13560,14360,326,263,418,361 P,0,13560,14360,A F,0,29221,,1,0
Sprite,Foreground,Centre,"sb/d.png",0,0 S,7,13707,14507,0.253374,0 M,7,13707,14507,278,185,308,140 P,0,13707,14507,A F,0,29221,,1,0
Sprite,Foreground,Centre,"sb/d.png",0,0 S,7,13707,14507,0.253374,0 M,7,13707,14507,278,185,371,202 P,0,13707,14507,A F,0,29221,,1,0
Sprite,Foreground,Centre,"sb/d.png",0,0 S,7,13707,14507,0.253374,0 M,7,13707,14507,278,185,332,149 P,0,13707,14507,A F,0,29221,,1,0
Sprite,Foreground,Centre,"sb/d.png",0,0 S,7,13707,14507,0.253374,0 M,7,13707,14507,278,185,262,279 P,0,13707,14507,A F,0,29221,,1,0
Sprite,Foreground,Centre,"sb/d.png",0,0 S,7,13707,14507,0.253374,0 M,7,13707,14507,278,185,355,279 P,0,13707,14507,A F,0,29221,,1,0
Sprite,Foreground,Centre,"sb/d.png",0,0 S,7,13707,14507,0.253374,0 M,7,13707,14507,278,185,229,111 P,0,13707,14507,A F,0,29221,,1,0
Sprite,Foreground,Centre,"sb/d.png",0,0 S,7,13707,14507,0.253374,0 M,7,13707,14507,278,185,357,120 P,0,13707,14507,A F,0,29221,,1,0
Sprite,Foreground,Centre,"sb/d.png",0,0 S,7,13707,14507,0.253374,0 M,7,13707,14507,278,185,354,193 P,0,13707,14507,A F,0,29221,,1,0
Sprite,Foreground,Centre,"sb/d.png",0,0 S,7,13707,14507,0.253374,0 M,7,13707,14507,278,185,335,187 P,0,13707,14507,A F,0,29221,,1,0
Sprite,Foreground,Centre,"sb/d.png",0,0 S,7,13707,14507,0.253374,0 M,7,13707,14507,278,185,248,283 P,0,13707,14507,A F,0,29221,,1,0
Sprite,Foreground,Centre,"sb/d.png",0,0 S,7,14001,14801,0.2566886,0 M,7,14001,14801,371,79,409,3 P,0,14001,14801,A F,0,29221,,1,0
Sprite,Foreground,Centre,"sb/d.png",0,0 S,7,14001,14801,0.2566886,0 M,7,14001,14801,371,79,309,78 P,0,14001,14801,A F,0,29221,,1,0
Sprite,Foreground,Centre,"sb/d.png",0,0 S,7,14001,14801,0.2566886,0 M,7,14001,14801,371,79,387,31 P,0,14001,14801,A F,0,29221,,1,0
Sprite,Foreground,Centre,"sb/d.png",0,0 S,7,14001,14801,0.2566886,0 M,7,14001,14801,371,79,333,27 P,0,14001,14801,A F,0,29221,,1,0
Sprite,Foreground,Centre,"sb/d.png",0,0 S,7,14001,14801,0.2566886,0 M,7,14001,14801,371,79,427,5 P,0,14001,14801,A F,0,29221,,1,0
Sprite,Foreground,Centre,"sb/d.png",0,0 S,7,14001,14801,0.2566886,0 M,7,14001,14801,371,79,393,90 P,0,14001,14801,A F,0,29221,,1,0
Sprite,Foreground,Centre,"sb/d.png",0,0 S,7,14001,14801,0.2566886,0 M,7,14001,14801,371,79,402,47 P,0,14001,14801,A F,0,29221,,1,0
Sprite,Foreground,Centre,"sb/d.png",0,0 S,7,14001,14801,0.2566886,0 M,7,14001,14801,371,79,275,-2 P,0,14001,14801,A F,0,29221,,1,0
Sprite,Foreground,Centre,"sb/d.png",0,0 S,7,14001,14801,0.2566886,0 M,7,14001,14801,371,79,446,121 P,0,14001,14801,A F,0,29221,,1,0
Sprite,Foreground,Centre,"sb/d.png",0,0 S,7,14001,14801,0.2566886,0 M,7,14001,14801,371,79,449,109 P,0,14001,14801,A F,0,29221,,1,0
Sprite,Foreground,Centre,"sb/d.png",0,0 S,7,14148,14948,0.3010615,0 M,7,14148,14948,371,79,323,73 P,0,14148,14948,A F,0,29221,,1,0
Sprite,Foreground,Centre,"sb/d.png",0,0 S,7,14148,14948,0.3010615,0 M,7,14148,14948,371,79,310,156 P,0,14148,14948,A F,0,29221,,1,0
Sprite,Foreground,Centre,"sb/d.png",0,0 S,7,14148,14948,0.3010615,0 M,7,14148,14948,371,79,369,106 P,0,14148,14948,A F,0,29221,,1,0
Sprite,Foreground,Centre,"sb/d.png",0,0 S,7,14148,14948,0.3010615,0 M,7,14148,14948,371,79,334,52 P,0,14148,14948,A F,0,29221,,1,0
Sprite,Foreground,Centre,"sb/d.png",0,0 S,7,14148,14948,0.3010615,0 M,7,14148,14948,371,79,319,178 P,0,14148,14948,A F,0,29221,,1,0
Sprite,Foreground,Centre,"sb/d.png",0,0 S,7,14148,14948,0.3010615,0 M,7,14148,14948,371,79,393,-21 P,0,14148,14948,A F,0,29221,,1,0
Sprite,Foreground,Centre,"sb/d.png",0,0 S,7,14148,14948,0.3010615,0 M,7,14148,14948,371,79,467,171 P,0,14148,14948,A F,0,29221,,1,0
Sprite,Foreground,Centre,"sb/d.png",0,0 S,7,14148,14948,0.3010615,0 M,7,14148,14948,371,79,302,133 P,0,14148,14948,A F,0,29221,,1,0
Sprite,Foreground,Centre,"sb/d.png",0,0 S,7,14148,14948,0.3010615,0 M,7,14148,14948,371,79,289,17 P,0,14148,14948,A F,0,29221,,1,0
Sprite,Foreground,Centre,"sb/d.png",0,0 S,7,14148,14948,0.3010615,0 M,7,14148,14948,371,79,283,1 P,0,14148,14948,A F,0,29221,,1,0
Sprite,Foreground,Centre,"sb/d.png",0,0 S,7,14295,15095,0.3965594,0 M,7,14295,15095,443,133,363,200 P,0,14295,15095,A F,0,29221,,1,0
Sprite,Foreground,Centre,"sb/d.png",0,0 S,7,14295,15095,0.3965594,0 M,7,14295,15095,443,133,471,147 P,0,14295,15095,A F,0,29221,,1,0
Sprite,Foreground,Centre,"sb/d.png",0,0 S,7,14295,15095,0.3965594,0 M,7,14295,15095,443,133,391,200 P,0,14295,15095,A F,0,29221,,1,0
Sprite,Foreground,Centre,"sb/d.png",0,0 S,7,14295,15095,0.3965594,0 M,7,14295,15095,443,133,514,122 P,0,14295,15095,A F,0,29221,,1,0
Sprite,Foreground,Centre,"sb/d.png",0,0 S,7,14295,15095,0.3965594,0 M,7,14295,15095,443,133,524,193 P,0,14295,15095,A F,0,29221,,1,0
Sprite,Foreground,Centre,"sb/d.png",0,0 S,7,14295,15095,0.3965594,0 M,7,14295,15095,443,133,435,101 P,0,14295,15095,A F,0,29221,,1,0
Sprite,Foreground,Centre,"sb/d.png",0,0 S,7,14295,15095,0.3965594,0 M,7,14295,15095,443,133,498,118 P,0,14295,15095,A F,0,29221,,1,0
Sprite,Foreground,Centre,"sb/d.png",0,0 S,7,14295,15095,0.3965594,0 M,7,14295,15095,443,133,472,232 P,0,14295,15095,A F,0,29221,,1,0
Sprite,Foreground,Centre,"sb/d.png",0,0 S,7,14295,15095,0.3965594,0 M,7,14295,15095,443,133,464,50 P,0,14295,15095,A F,0,29221,,1,0
Sprite,Foreground,Centre,"sb/d.png",0,0 S,7,14295,15095,0.3965594,0 M,7,14295,15095,443,133,467,231 P,0,14295,15095,A F,0,29221,,1,0
Sprite,Foreground,Centre,"sb/d.png",0,0 S,7,14589,15389,0.4246328,0 M,7,14589,15389,561,199,568,126 P,0,14589,15389,A F,0,29221,,1,0
Sprite,Foreground,Centre,"sb/d.png",0,0 S,7,14589,15389,0.4246328,0 M,7,14589,15389,561,199,461,210 P,0,14589,15389,A F,0,29221,,1,0
Sprite,Foreground,Centre,"sb/d.png",0,0 S,7,14589,15389,0.4246328,0 M,7,14589,15389,561,199,595,174 P,0,14589,15389,A F,0,29221,,1,0
Sprite,Foreground,Centre,"sb/d.png",0,0 S,7,14589,15389,0.4246328,0 M,7,14589,15389,561,199,634,164 P,0,14589,15389,A F,0,29221,,1,0
Sprite,Foreground,Centre,"sb/d.png",0,0 S,7,14589,15389,0.4246328,0 M,7,14589,15389,561,199,618,202 P,0,14589,15389,A F,0,29221,,1,0
Sprite,Foreground,Centre,"sb/d.png",0,0 S,7,14589,15389,0.4246328,0 M,7,14589,15389,561,199,626,207 P,0,14589,15389,A F,0,29221,,1,0
Sprite,Foreground,Centre,"sb/d.png",0,0 S,7,14589,15389,0.4246328,0 M,7,14589,15389,561,199,565,131 P,0,14589,15389,A F,0,29221,,1,0
Sprite,Foreground,Centre,"sb/d.png",0,0 S,7,14589,15389,0.4246328,0 M,7,14589,15389,561,199,587,209 P,0,14589,15389,A F,0,29221,,1,0
Sprite,Foreground,Centre,"sb/d.png",0,0 S,7,14589,15389,0.4246328,0 M,7,14589,15389,561,199,523,148 P,0,14589,15389,A F,0,29221,,1,0
Sprite,Foreground,Centre,"sb/d.png",0,0 S,7,14589,15389,0.4246328,0 M,7,14589,15389,561,199,621,191 P,0,14589,15389,A F,0,29221,,1,0
Sprite,Foreground,Centre,"sb/d.png",0,0 S,7,15177,15977,0.4343202,0 M,7,15177,15977,550,347,517,285 P,0,15177,15977,A F,0,29221,,1,0
Sprite,Foreground,Centre,"sb/d.png",0,0 S,7,15177,15977,0.4343202,0 M,7,15177,15977,550,347,480,379 P,0,15177,15977,A F,0,29221,,1,0
Sprite,Foreground,Centre,"sb/d.png",0,0 S,7,15177,15977,0.4343202,0 M,7,15177,15977,550,347,491,353 P,0,15177,15977,A F,0,29221,,1,0
Sprite,Foreground,Centre,"sb/d.png",0,0 S,7,15177,15977,0.4343202,0 M,7,15177,15977,550,347,551,401 P,0,15177,15977,A F,0,29221,,1,0
Sprite,Foreground,Centre,"sb/d.png",0,0 S,7,15177,15977,0.4343202,0 M,7,15177,15977,550,347,546,267 P,0,15177,15977,A F,0,29221,,1,0
Sprite,Foreground,Centre,"sb/d.png",0,0 S,7,15177,15977,0.4343202,0 M,7,15177,15977,550,347,537,270 P,0,15177,15977,A F,0,29221,,1,0
Sprite,Foreground,Centre,"sb/d.png",0,0 S,7,15177,15977,0.4343202,0 M,7,15177,15977,550,347,621,359 P,0,15177,15977,A F,0,29221,,1,0
Sprite,Foreground,Centre,"sb/d.png",0,0 S,7,15177,15977,0.4343202,0 M,7,15177,15977,550,347,590,375 P,0,15177,15977,A F,0,29221,,1,0
Sprite,Foreground,Centre,"sb/d.png",0,0 S,7,15177,15977,0.4343202,0 M,7,15177,15977,550,347,453,360 P,0,15177,15977,A F,0,29221,,1,0
Sprite,Foreground,Centre,"sb/d.png",0,0 S,7,15177,15977,0.4343202,0 M,7,15177,15977,550,347,541,445 P,0,15177,15977,A F,0,29221,,1,0
Sprite,Foreground,Centre,"sb/d.png",0,0 S,7,15471,16271,0.2744685,0 M,7,15471,16271,419,424,343,380 P,0,15471,16271,A F,0,29221,,1,0
Sprite,Foreground,Centre,"sb/d.png",0,0 S,7,15471,16271,0.2744685,0 M,7,15471,16271,419,424,445,483 P,0,15471,16271,A F,0,29221,,1,0
Sprite,Foreground,Centre,"sb/d.png",0,0 S,7,15471,16271,0.2744685,0 M,7,15471,16271,419,424,370,376 P,0,15471,16271,A F,0,29221,,1,0
Sprite,Foreground,Centre,"sb/d.png",0,0 S,7,15471,16271,0.2744685,0 M,7,15471,16271,419,424,321,413 P,0,15471,16271,A F,0,29221,,1,0
Sprite,Foreground,Centre,"sb/d.png",0,0 S,7,15471,16271,0.2744685,0 M,7,15471,16271,419,424,377,491 P,0,15471,16271,A F,0,29221,,1,0
Sprite,Foreground,Centre,"sb/d.png",0,0 S,7,15471,16271,0.2744685,0 M,7,15471,16271,419,424,483,430 P,0,15471,16271,A F,0,29221,,1,0
Sprite,Foreground,Centre,"sb/d.png",0,0 S,7,15471,16271,0.2744685,0 M,7,15471,16271,419,424,509,364 P,0,15471,16271,A F,0,29221,,1,0
Sprite,Foreground,Centre,"sb/d.png",0,0 S,7,15471,16271,0.2744685,0 M,7,15471,16271,419,424,508,494 P,0,15471,16271,A F,0,29221,,1,0
Sprite,Foreground,Centre,"sb/d.png",0,0 S,7,15471,16271,0.2744685,0 M,7,15471,16271,419,424,498,417 P,0,15471,16271,A F,0,29221,,1,0
Sprite,Foreground,Centre,"sb/d.png",0,0 S,7,15471,16271,0.2744685,0 M,7,15471,16271,419,424,487,395 P,0,15471,16271,A F,0,29221,,1,0
Sprite,Foreground,Centre,"sb/d.png",0,0 S,7,15912,16712,0.3603556,0 M,7,15912,16712,219,339,179,322 P,0,15912,16712,A F,0,29221,,1,0
Sprite,Foreground,Centre,"sb/d.png",0,0 S,7,15912,16712,0.3603556,0 M,7,15912,16712,219,339,197,323 P,0,15912,16712,A F,0,29221,,1,0
Sprite,Foreground,Centre,"sb/d.png",0,0 S,7,15912,16712,0.3603556,0 M,7,15912,16712,219,339,251,359 P,0,15912,16712,A F,0,29221,,1,0
Sprite,Foreground,Centre,"sb/d.png",0,0 S,7,15912,16712,0.3603556,0 M,7,15912,16712,219,339,305,421 P,0,15912,16712,A F,0,29221,,1,0
Sprite,Foreground,Centre,"sb/d.png",0,0 S,7,15912,16712,0.3603556,0 M,7,15912,16712,219,339,178,375 P,0,15912,16712,A F,0,29221,,1,0
Sprite,Foreground,Centre,"sb/d.png",0,0 S,7,15912,16712,0.3603556,0 M,7,15912,16712,219,339,187,332 P,0,15912,16712,A F,0,29221,,1,0
Sprite,Foreground,Centre,"sb/d.png",0,0 S,7,15912,16712,0.3603556,0 M,7,15912,16712,219,339,278,282 P,0,15912,16712,A F,0,29221,,1,0
Sprite,Foreground,Centre,"sb/d.png",0,0 S,7,15912,16712,0.3603556,0 M,7,15912,16712,219,339,300,342 P,0,15912,16712,A F,0,29221,,1,0
Sprite,Foreground,Centre,"sb/d.png",0,0 S,7,15912,16712,0.3603556,0 M,7,15912,16712,219,339,291,428 P,0,15912,16712,A F,0,29221,,1,0
Sprite,Foreground,Centre,"sb/d.png",0,0 S,7,15912,16712,0.3603556,0 M,7,15912,16712,219,339,173,338 P,0,15912,16712,A F,0,29221,,1,0
Sprite,Foreground,Centre,"sb/d.png",0,0 S,7,16060,16860,0.3154958,0 M,7,16060,16860,270,262,207,214 P,0,16060,16860,A F,0,29221,,1,0
Sprite,Foreground,Centre,"sb/d.png",0,0 S,7,16060,16860,0.3154958,0 M,7,16060,16860,270,262,293,279 P,0,16060,16860,A F,0,29221,,1,0
Sprite,Foreground,Centre,"sb/d.png",0,0 S,7,16060,16860,0.3154958,0 M,7,16060,16860,270,262,351,234 P,0,16060,16860,A F,0,29221,,1,0
Sprite,Foreground,Centre,"sb/d.png",0,0 S,7,16060,16860,0.3154958,0 M,7,16060,16860,270,262,321,319 P,0,16060,16860,A F,0,29221,,1,0
Sprite,Foreground,Centre,"sb/d.png",0,0 S,7,16060,16860,0.3154958,0 M,7,16060,16860,270,262,193,182 P,0,16060,16860,A F,0,29221,,1,0
Sprite,Foreground,Centre,"sb/d.png",0,0 S,7,16060,16860,0.3154958,0 M,7,16060,16860,270,262,292,289 P,0,16060,16860,A F,0,29221,,1,0
Sprite,Foreground,Centre,"sb/d.png",0,0 S,7,16060,16860,0.3154958,0 M,7,16060,16860,270,262,284,325 P,0,16060,16860,A F,0,29221,,1,0
Sprite,Foreground,Centre,"sb/d.png",0,0 S,7,16060,16860,0.3154958,0 M,7,16060,16860,270,262,342,209 P,0,16060,16860,A F,0,29221,,1,0
Sprite,Foreground,Centre,"sb/d.png",0,0 S,7,16060,16860,0.3154958,0 M,7,16060,16860,270,262,245,280 P,0,16060,16860,A F,0,29221,,1,0
Sprite,Foreground,Centre,"sb/d.png",0,0 S,7,16060,16860,0.3154958,0 M,7,16060,16860,270,262,302,178 P,0,16060,16860,A F,0,29221,,1,0
Sprite,Foreground,Centre,"sb/d.png",0,0 S,7,16354,17154,0.3566422,0 M,7,16354,17154,417,208,516,139 P,0,16354,17154,A F,0,29221,,1,0
Sprite,Foreground,Centre,"sb/d.png",0,0 S,7,16354,17154,0.3566422,0 M,7,16354,17154,417,208,413,120 P,0,16354,17154,A F,0,29221,,1,0
Sprite,Foreground,Centre,"sb/d.png",0,0 S,7,16354,17154,0.3566422,0 M,7,16354,17154,417,208,347,305 P,0,16354,17154,A F,0,29221,,1,0
Sprite,Foreground,Centre,"sb/d.png",0,0 S,7,16354,17154,0.3566422,0 M,7,16354,17154,417,208,324,174 P,0,16354,17154,A F,0,29221,,1,0
Sprite,Foreground,Centre,"sb/d.png",0,0 S,7,16354,17154,0.3566422,0 M,7,16354,17154,417,208,323,211 P,0,16354,17154,A F,0,29221,,1,0
Sprite,Foreground,Centre,"sb/d.png",0,0 S,7,16354,17154,0.3566422,0 M,7,16354,17154,417,208,431,279 P,0,16354,17154,A F,0,29221,,1,0
Sprite,Foreground,Centre,"sb/d.png",0,0 S,7,16354,17154,0.3566422,0 M,7,16354,17154,417,208,361,131 P,0,16354,17154,A F,0,29221,,1,0
Sprite,Foreground,Centre,"sb/d.png",0,0 S,7,16354,17154,0.3566422,0 M,7,16354,17154,417,208,348,263 P,0,16354,17154,A F,0,29221,,1,0
Sprite,Foreground,Centre,"sb/d.png",0,0 S,7,16354,17154,0.3566422,0 M,7,16354,17154,417,208,483,258 P,0,16354,17154,A F,0,29221,,1,0
Sprite,Foreground,Centre,"sb/d.png",0,0 S,7,16354,17154,0.3566422,0 M,7,16354,17154,417,208,365,143 P,0,16354,17154,A F,0,29221,,1,0
Sprite,Foreground,Centre,"sb/d.png",0,0 S,7,17089,17889,0.2747247,0 M,7,17089,17889,417,208,352,223 P,0,17089,17889,A F,0,29221,,1,0
Sprite,Foreground,Centre,"sb/d.png",0,0 S,7,17089,17889,0.2747247,0 M,7,17089,17889,417,208,462,273 P,0,17089,17889,A F,0,29221,,1,0
Sprite,Foreground,Centre,"sb/d.png",0,0 S,7,17089,17889,0.2747247,0 M,7,17089,17889,417,208,362,188 P,0,17089,17889,A F,0,29221,,1,0
Sprite,Foreground,Centre,"sb/d.png",0,0 S,7,17089,17889,0.2747247,0 M,7,17089,17889,417,208,325,164 P,0,17089,17889,A F,0,29221,,1,0
Sprite,Foreground,Centre,"sb/d.png",0,0 S,7,17089,17889,0.2747247,0 M,7,17089,17889,417,208,413,179 P,0,17089,17889,A F,0,29221,,1,0
Sprite,Foreground,Centre,"sb/d.png",0,0 S,7,17089,17889,0.2747247,0 M,7,17089,17889,417,208,438,191 P,0,17089,17889,A F,0,29221,,1,0
Sprite,Foreground,Centre,"sb/d.png",0,0 S,7,17089,17889,0.2747247,0 M,7,17089,17889,417,208,475,146 P,0,17089,17889,A F,0,29221,,1,0
Sprite,Foreground,Centre,"sb/d.png",0,0 S,7,17089,17889,0.2747247,0 M,7,17089,17889,417,208,337,134 P,0,17089,17889,A F,0,29221,,1,0
Sprite,Foreground,Centre,"sb/d.png",0,0 S,7,17089,17889,0.2747247,0 M,7,17089,17889,417,208,422,259 P,0,17089,17889,A F,0,29221,,1,0
Sprite,Foreground,Centre,"sb/d.png",0,0 S,7,17089,17889,0.2747247,0 M,7,17089,17889,417,208,391,252 P,0,17089,17889,A F,0,29221,,1,0
Sprite,Foreground,Centre,"sb/d.png",0,0 S,7,17236,18036,0.3413711,0 M,7,17236,18036,343,154,260,171 P,0,17236,18036,A F,0,29221,,1,0
Sprite,Foreground,Centre,"sb/d.png",0,0 S,7,17236,18036,0.3413711,0 M,7,17236,18036,343,154,251,209 P,0,17236,18036,A F,0,29221,,1,0
Sprite,Foreground,Centre,"sb/d.png",0,0 S,7,17236,18036,0.3413711,0 M,7,17236,18036,343,154,312,193 P,0,17236,18036,A F,0,29221,,1,0
Sprite,Foreground,Centre,"sb/d.png",0,0 S,7,17236,18036,0.3413711,0 M,7,17236,18036,343,154,384,146 P,0,17236,18036,A F,0,29221,,1,0
Sprite,Foreground,Centre,"sb/d.png",0,0 S,7,17236,18036,0.3413711,0 M,7,17236,18036,343,154,351,221 P,0,17236,18036,A F,0,29221,,1,0
Sprite,Foreground,Centre,"sb/d.png",0,0 S,7,17236,18036,0.3413711,0 M,7,17236,18036,343,154,327,235 P,0,17236,18036,A F,0,29221,,1,0
Sprite,Foreground,Centre,"sb/d.png",0,0 S,7,17236,18036,0.3413711,0 M,7,17236,18036,343,154,324,217 P,0,17236,18036,A F,0,29221,,1,0
Sprite,Foreground,Centre,"sb/d.png",0,0 S,7,17236,18036,0.3413711,0 M,7,17236,18036,343,154,359,204 P,0,17236,18036,A F,0,29221,,1,0
Sprite,Foreground,Centre,"sb/d.png",0,0 S,7,17236,18036,0.3413711,0 M,7,17236,18036,343,154,289,238 P,0,17236,18036,A F,0,29221,,1,0
Sprite,Foreground,Centre,"sb/d.png",0,0 S,7,17236,18036,0.3413711,0 M,7,17236,18036,343,154,359,252 P,0,17236,18036,A F,0,29221,,1,0
Sprite,Foreground,Centre,"sb/d.png",0,0 S,7,17530,18330,0.2604122,0 M,7,17530,18330,199,213,208,145 P,0,17530,18330,A F,0,29221,,1,0
Sprite,Foreground,Centre,"sb/d.png",0,0 S,7,17530,18330,0.2604122,0 M,7,17530,18330,199,213,292,201 P,0,17530,18330,A F,0,29221,,1,0
Sprite,Foreground,Centre,"sb/d.png",0,0 S,7,17530,18330,0.2604122,0 M,7,17530,18330,199,213,185,297 P,0,17530,18330,A F,0,29221,,1,0
Sprite,Foreground,Centre,"sb/d.png",0,0 S,7,17530,18330,0.2604122,0 M,7,17530,18330,199,213,110,241 P,0,17530,18330,A F,0,29221,,1,0
Sprite,Foreground,Centre,"sb/d.png",0,0 S,7,17530,18330,0.2604122,0 M,7,17530,18330,199,213,160,312 P,0,17530,18330,A F,0,29221,,1,0
Sprite,Foreground,Centre,"sb/d.png",0,0 S,7,17530,18330,0.2604122,0 M,7,17530,18330,199,213,272,203 P,0,17530,18330,A F,0,29221,,1,0
Sprite,Foreground,Centre,"sb/d.png",0,0 S,7,17530,18330,0.2604122,0 M,7,17530,18330,199,213,232,131 P,0,17530,18330,A F,0,29221,,1,0
Sprite,Foreground,Centre,"sb/d.png",0,0 S,7,17530,18330,0.2604122,0 M,7,17530,18330,199,213,297,250 P,0,17530,18330,A F,0,29221,,1,0
Sprite,Foreground,Centre,"sb/d.png",0,0 S,7,17530,18330,0.2604122,0 M,7,17530,18330,199,213,109,289 P,0,17530,18330,A F,0,29221,,1,0
Sprite,Foreground,Centre,"sb/d.png",0,0 S,7,17530,18330,0.2604122,0 M,7,17530,18330,199,213,239,180 P,0,17530,18330,A F,0,29221,,1,0
Sprite,Foreground,Centre,"sb/d.png",0,0 S,7,18265,19065,0.4131823,0 M,7,18265,19065,199,213,286,216 P,0,18265,19065,A F,0,29221,,1,0
Sprite,Foreground,Centre,"sb/d.png",0,0 S,7,18265,19065,0.4131823,0 M,7,18265,19065,199,213,135,215 P,0,18265,19065,A F,0,29221,,1,0
Sprite,Foreground,Centre,"sb/d.png",0,0 S,7,18265,19065,0.4131823,0 M,7,18265,19065,199,213,175,188 P,0,18265,19065,A F,0,29221,,1,0
Sprite,Foreground,Centre,"sb/d.png",0,0 S,7,18265,19065,0.4131823,0 M,7,18265,19065,199,213,203,189 P,0,18265,19065,A F,0,29221,,1,0
Sprite,Foreground,Centre,"sb/d.png",0,0 S,7,18265,19065,0.4131823,0 M,7,18265,19065,199,213,157,279 P,0,18265,19065,A F,0,29221,,1,0
Sprite,Foreground,Centre,"sb/d.png",0,0 S,7,18265,19065,0.4131823,0 M,7,18265,19065,199,213,257,258 P,0,18265,19065,A F,0,29221,,1,0
Sprite,Foreground,Centre,"sb/d.png",0,0 S,7,18265,19065,0.4131823,0 M,7,18265,19065,199,213,179,220 P,0,18265,19065,A F,0,29221,,1,0
Sprite,Foreground,Centre,"sb/d.png",0,0 S,7,18265,19065,0.4131823,0 M,7,18265,19065,199,213,183,127 P,0,18265,19065,A F,0,29221,,1,0
Sprite,Foreground,Centre,"sb/d.png",0,0 S,7,18265,19065,0.4131823,0 M,7,18265,19065,199,213,165,296 P,0,18265,19065,A F,0,29221,,1,0
Sprite,Foreground,Centre,"sb/d.png",0,0 S,7,18265,19065,0.4131823,0 M,7,18265,19065,199,213,254,243 P,0,18265,19065,A F,0,29221,,1,0
Sprite,Foreground,Centre,"sb/d.png",0,0 S,7,18412,19212,0.4146999,0 M,7,18412,19212,262,278,209,345 P,0,18412,19212,A F,0,29221,,1,0
Sprite,Foreground,Centre,"sb/d.png",0,0 S,7,18412,19212,0.4146999,0 M,7,18412,19212,262,278,273,268 P,0,18412,19212,A F,0,29221,,1,0
Sprite,Foreground,Centre,"sb/d.png",0,0 S,7,18412,19212,0.4146999,0 M,7,18412,19212,262,278,310,322 P,0,18412,19212,A F,0,29221,,1,0
Sprite,Foreground,Centre,"sb/d.png",0,0 S,7,18412,19212,0.4146999,0 M,7,18412,19212,262,278,279,190 P,0,18412,19212,A F,0,29221,,1,0
Sprite,Foreground,Centre,"sb/d.png",0,0 S,7,18412,19212,0.4146999,0 M,7,18412,19212,262,278,198,186 P,0,18412,19212,A F,0,29221,,1,0
Sprite,Foreground,Centre,"sb/d.png",0,0 S,7,18412,19212,0.4146999,0 M,7,18412,19212,262,278,338,308 P,0,18412,19212,A F,0,29221,,1,0
Sprite,Foreground,Centre,"sb/d.png",0,0 S,7,18412,19212,0.4146999,0 M,7,18412,19212,262,278,209,299 P,0,18412,19212,A F,0,29221,,1,0
Sprite,Foreground,Centre,"sb/d.png",0,0 S,7,18412,19212,0.4146999,0 M,7,18412,19212,262,278,290,334 P,0,18412,19212,A F,0,29221,,1,0
Sprite,Foreground,Centre,"sb/d.png",0,0 S,7,18412,19212,0.4146999,0 M,7,18412,19212,262,278,348,187 P,0,18412,19212,A F,0,29221,,1,0
Sprite,Foreground,Centre,"sb/d.png",0,0 S,7,18412,19212,0.4146999,0 M,7,18412,19212,262,278,271,284 P,0,18412,19212,A F,0,29221,,1,0
Sprite,Foreground,Centre,"sb/d.png",0,0 S,7,18707,19507,0.3014354,0 M,7,18707,19507,403,325,306,258 P,0,18707,19507,A F,0,29221,,1,0
Sprite,Foreground,Centre,"sb/d.png",0,0 S,7,18707,19507,0.3014354,0 M,7,18707,19507,403,325,317,370 P,0,18707,19507,A F,0,29221,,1,0
Sprite,Foreground,Centre,"sb/d.png",0,0 S,7,18707,19507,0.3014354,0 M,7,18707,19507,403,325,355,336 P,0,18707,19507,A F,0,29221,,1,0
Sprite,Foreground,Centre,"sb/d.png",0,0 S,7,18707,19507,0.3014354,0 M,7,18707,19507,403,325,416,347 P,0,18707,19507,A F,0,29221,,1,0
Sprite,Foreground,Centre,"sb/d.png",0,0 S,7,18707,19507,0.3014354,0 M,7,18707,19507,403,325,446,418 P,0,18707,19507,A F,0,29221,,1,0
Sprite,Foreground,Centre,"sb/d.png",0,0 S,7,18707,19507,0.3014354,0 M,7,18707,19507,403,325,487,362 P,0,18707,19507,A F,0,29221,,1,0
Sprite,Foreground,Centre,"sb/d.png",0,0 S,7,18707,19507,0.3014354,0 M,7,18707,19507,403,325,501,365 P,0,18707,19507,A F,0,29221,,1,0
Sprite,Foreground,Centre,"sb/d.png",0,0 S,7,18707,19507,0.3014354,0 M,7,18707,19507,403,325,439,350 P,0,18707,19507,A F,0,29221,,1,0
Sprite,Foreground,Centre,"sb/d.png",0,0 S,7,18707,19507,0.3014354,0 M,7,18707,19507,403,325,314,353 P,0,18707,19507,A F,0,29221,,1,0
Sprite,Foreground,Centre,"sb/d.png",0,0 S,7,18707,19507,0.3014354,0 M,7,18707,19507,403,325,434,411 P,0,18707,19507,A F,0,29221,,1,0
Sprite,Foreground,Centre,"sb/d.png",0,0 S,7,18854,19654,0.3141639,0 M,7,18854,19654,403,325,324,383 P,0,18854,19654,A F,0,29221,,1,0
Sprite,Foreground,Centre,"sb/d.png",0,0 S,7,18854,19654,0.3141639,0 M,7,18854,19654,403,325,484,239 P,0,18854,19654,A F,0,29221,,1,0
Sprite,Foreground,Centre,"sb/d.png",0,0 S,7,18854,19654,0.3141639,0 M,7,18854,19654,403,325,336,410 P,0,18854,19654,A F,0,29221,,1,0
Sprite,Foreground,Centre,"sb/d.png",0,0 S,7,18854,19654,0.3141639,0 M,7,18854,19654,403,325,459,283 P,0,18854,19654,A F,0,29221,,1,0
Sprite,Foreground,Centre,"sb/d.png",0,0 S,7,18854,19654,0.3141639,0 M,7,18854,19654,403,325,383,399 P,0,18854,19654,A F,0,29221,,1,0
Sprite,Foreground,Centre,"sb/d.png",0,0 S,7,18854,19654,0.3141639,0 M,7,18854,19654,403,325,349,248 P,0,18854,19654,A F,0,29221,,1,0
Sprite,Foreground,Centre,"sb/d.png",0,0 S,7,18854,19654,0.3141639,0 M,7,18854,19654,403,325,416,268 P,0,18854,19654,A F,0,29221,,1,0
Sprite,Foreground,Centre,"sb/d.png",0,0 S,7,18854,19654,0.3141639,0 M,7,18854,19654,403,325,437,321 P,0,18854,19654,A F,0,29221,,1,0
Sprite,Foreground,Centre,"sb/d.png",0,0 S,7,18854,19654,0.3141639,0 M,7,18854,19654,403,325,448,321 P,0,18854,19654,A F,0,29221,,1,0
Sprite,Foreground,Centre,"sb/d.png",0,0 S,7,18854,19654,0.3141639,0 M,7,18854,19654,403,325,335,229 P,0,18854,19654,A F,0,29221,,1,0
Sprite,Foreground,Centre,"sb/d.png",0,0 S,7,19001,19801,0.3395926,0 M,7,19001,19801,469,263,462,177 P,0,19001,19801,A F,0,29221,,1,0
Sprite,Foreground,Centre,"sb/d.png",0,0 S,7,19001,19801,0.3395926,0 M,7,19001,19801,469,263,560,356 P,0,19001,19801,A F,0,29221,,1,0
Sprite,Foreground,Centre,"sb/d.png",0,0 S,7,19001,19801,0.3395926,0 M,7,19001,19801,469,263,417,344 P,0,19001,19801,A F,0,29221,,1,0
Sprite,Foreground,Centre,"sb/d.png",0,0 S,7,19001,19801,0.3395926,0 M,7,19001,19801,469,263,561,194 P,0,19001,19801,A F,0,29221,,1,0
Sprite,Foreground,Centre,"sb/d.png",0,0 S,7,19001,19801,0.3395926,0 M,7,19001,19801,469,263,543,243 P,0,19001,19801,A F,0,29221,,1,0
Sprite,Foreground,Centre,"sb/d.png",0,0 S,7,19001,19801,0.3395926,0 M,7,19001,19801,469,263,546,283 P,0,19001,19801,A F,0,29221,,1,0
Sprite,Foreground,Centre,"sb/d.png",0,0 S,7,19001,19801,0.3395926,0 M,7,19001,19801,469,263,556,344 P,0,19001,19801,A F,0,29221,,1,0
Sprite,Foreground,Centre,"sb/d.png",0,0 S,7,19001,19801,0.3395926,0 M,7,19001,19801,469,263,444,196 P,0,19001,19801,A F,0,29221,,1,0
Sprite,Foreground,Centre,"sb/d.png",0,0 S,7,19001,19801,0.3395926,0 M,7,19001,19801,469,263,499,181 P,0,19001,19801,A F,0,29221,,1,0
Sprite,Foreground,Centre,"sb/d.png",0,0 S,7,19001,19801,0.3395926,0 M,7,19001,19801,469,263,495,319 P,0,19001,19801,A F,0,29221,,1,0
Sprite,Foreground,Centre,"sb/d.png",0,0 S,7,19295,20095,0.314422,0 M,7,19295,20095,485,106,447,25 P,0,19295,20095,A F,0,29221,,1,0
Sprite,Foreground,Centre,"sb/d.png",0,0 S,7,19295,20095,0.314422,0 M,7,19295,20095,485,106,523,119 P,0,19295,20095,A F,0,29221,,1,0
Sprite,Foreground,Centre,"sb/d.png",0,0 S,7,19295,20095,0.314422,0 M,7,19295,20095,485,106,470,102 P,0,19295,20095,A F,0,29221,,1,0
Sprite,Foreground,Centre,"sb/d.png",0,0 S,7,19295,20095,0.314422,0 M,7,19295,20095,485,106,386,34 P,0,19295,20095,A F,0,29221,,1,0
Sprite,Foreground,Centre,"sb/d.png",0,0 S,7,19295,20095,0.314422,0 M,7,19295,20095,485,106,451,38 P,0,19295,20095,A F,0,29221,,1,0
Sprite,Foreground,Centre,"sb/d.png",0,0 S,7,19295,20095,0.314422,0 M,7,19295,20095,485,106,483,188 P,0,19295,20095,A F,0,29221,,1,0
Sprite,Foreground,Centre,"sb/d.png",0,0 S,7,19295,20095,0.314422,0 M,7,19295,20095,485,106,559,134 P,0,19295,20095,A F,0,29221,,1,0
Sprite,Foreground,Centre,"sb/d.png",0,0 S,7,19295,20095,0.314422,0 M,7,19295,20095,485,106,528,195 P,0,19295,20095,A F,0,29221,,1,0
Sprite,Foreground,Centre,"sb/d.png",0,0 S,7,19295,20095,0.314422,0 M,7,19295,20095,485,106,406,190 P,0,19295,20095,A F,0,29221,,1,0
Sprite,Foreground,Centre,"sb/d.png",0,0 S,7,19295,20095,0.314422,0 M,7,19295,20095,485,106,389,170 P,0,19295,20095,A F,0,29221,,1,0
Sprite,Foreground,Centre,"sb/d.png",0,0 S,7,19736,20536,0.2774628,0 M,7,19736,20536,272,75,277,68 P,0,19736,20536,A F,0,29221,,1,0
Sprite,Foreground,Centre,"sb/d.png",0,0 S,7,19736,20536,0.2774628,0 M,7,19736,20536,272,75,240,78 P,0,19736,20536,A F,0,29221,,1,0
Sprite,Foreground,Centre,"sb/d.png",0,0 S,7,19736,20536,0.2774628,0 M,7,19736,20536,272,75,297,37 P,0,19736,20536,A F,0,29221,,1,0
Sprite,Foreground,Centre,"sb/d.png",0,0 S,7,19736,20536,0.2774628,0 M,7,19736,20536,272,75,231,37 P,0,19736,20536,A F,0,29221,,1,0
Sprite,Foreground,Centre,"sb/d.png",0,0 S,7,19736,20536,0.2774628,0 M,7,19736,20536,272,75,186,52 P,0,19736,20536,A F,0,29221,,1,0
Sprite,Foreground,Centre,"sb/d.png",0,0 S,7,19736,20536,0.2774628,0 M,7,19736,20536,272,75,278,22 P,0,19736,20536,A F,0,29221,,1,0
Sprite,Foreground,Centre,"sb/d.png",0,0 S,7,19736,20536,0.2774628,0 M,7,19736,20536,272,75,197,5 P,0,19736,20536,A F,0,29221,,1,0
Sprite,Foreground,Centre,"sb/d.png",0,0 S,7,19736,20536,0.2774628,0 M,7,19736,20536,272,75,367,28 P,0,19736,20536,A F,0,29221,,1,0
Sprite,Foreground,Centre,"sb/d.png",0,0 S,7,19736,20536,0.2774628,0 M,7,19736,20536,272,75,252,138 P,0,19736,20536,A F,0,29221,,1,0
Sprite,Foreground,Centre,"sb/d.png",0,0 S,7,19736,20536,0.2774628,0 M,7,19736,20536,272,75,256,165 P,0,19736,20536,A F,0,29221,,1,0
Sprite,Foreground,Centre,"sb/d.png",0,0 S,7,19883,20683,0.2523468,0 M,7,19883,20683,190,114,197,62 P,0,19883,20683,A F,0,29221,,1,0
Sprite,Foreground,Centre,"sb/d.png",0,0 S,7,19883,20683,0.2523468,0 M,7,19883,20683,190,114,169,152 P,0,19883,20683,A F,0,29221,,1,0
Sprite,Foreground,Centre,"sb/d.png",0,0 S,7,19883,20683,0.2523468,0 M,7,19883,20683,190,114,102,67 P,0,19883,20683,A F,0,29221,,1,0
Sprite,Foreground,Centre,"sb/d.png",0,0 S,7,19883,20683,0.2523468,0 M,7,19883,20683,190,114,221,58 P,0,19883,20683,A F,0,29221,,1,0
Sprite,Foreground,Centre,"sb/d.png",0,0 S,7,19883,20683,0.2523468,0 M,7,19883,20683,190,114,199,47 P,0,19883,20683,A F,0,29221,,1,0
Sprite,Foreground,Centre,"sb/d.png",0,0 S,7,19883,20683,0.2523468,0 M,7,19883,20683,190,114,212,206 P,0,19883,20683,A F,0,29221,,1,0
Sprite,Foreground,Centre,"sb/d.png",0,0 S,7,19883,20683,0.2523468,0 M,7,19883,20683,190,114,126,171 P,0,19883,20683,A F,0,29221,,1,0
Sprite,Foreground,Centre,"sb/d.png",0,0 S,7,19883,20683,0.2523468,0 M,7,19883,20683,190,114,215,84 P,0,19883,20683,A F,0,29221,,1,0
Sprite,Foreground,Centre,"sb/d.png",0,0 S,7,19883,20683,0.2523468,0 M,7,19883,20683,190,114,100,173 P,0,19883,20683,A F,0,29221,,1,0
Sprite,Foreground,Centre,"sb/d.png",0,0 S,7,19883,20683,0.2523468,0 M,7,19883,20683,190,114,124,156 P,0,19883,20683,A F,0,29221,,1,0
Sprite,Foreground,Centre,"sb/d.png",0,0 S,7,20177,20977,0.4157625,0 M,7,20177,20977,99,233,51,287 P,0,20177,20977,A F,0,29221,,1,0
Sprite,Foreground,Centre,"sb/d.png",0,0 S,7,20177,20977,0.4157625,0 M,7,20177,20977,99,233,191,267 P,0,20177,20977,A F,0,29221,,1,0
Sprite,Foreground,Centre,"sb/d.png",0,0 S,7,20177,20977,0.4157625,0 M,7,20177,20977,99,233,148,231 P,0,20177,20977,A F,0,29221,,1,0
Sprite,Foreground,Centre,"sb/d.png",0,0 S,7,20177,20977,0.4157625,0 M,7,20177,20977,99,233,146,269 P,0,20177,20977,A F,0,29221,,1,0
Sprite,Foreground,Centre,"sb/d.png",0,0 S,7,20177,20977,0.4157625,0 M,7,20177,20977,99,233,139,154 P,0,20177,20977,A F,0,29221,,1,0
Sprite,Foreground,Centre,"sb/d.png",0,0 S,7,20177,20977,0.4157625,0 M,7,20177,20977,99,233,118,306 P,0,20177,20977,A F,0,29221,,1,0
Sprite,Foreground,Centre,"sb/d.png",0,0 S,7,20177,20977,0.4157625,0 M,7,20177,20977,99,233,24,330 P,0,20177,20977,A F,0,29221,,1,0
Sprite,Foreground,Centre,"sb/d.png",0,0 S,7,20177,20977,0.4157625,0 M,7,20177,20977,99,233,43,321 P,0,20177,20977,A F,0,29221,,1,0
Sprite,Foreground,Centre,"sb/d.png",0,0 S,7,20177,20977,0.4157625,0 M,7,20177,20977,99,233,164,246 P,0,20177,20977,A F,0,29221,,1,0
Sprite,Foreground,Centre,"sb/d.png",0,0 S,7,20177,20977,0.4157625,0 M,7,20177,20977,99,233,7,260 P,0,20177,20977,A F,0,29221,,1,0
Sprite,Foreground,Centre,"sb/d.png",0,0 S,7,20618,21418,0.2686976,0 M,7,20618,21418,206,423,211,366 P,0,20618,21418,A F,0,29221,,1,0
Sprite,Foreground,Centre,"sb/d.png",0,0 S,7,20618,21418,0.2686976,0 M,7,20618,21418,206,423,289,378 P,0,20618,21418,A F,0,29221,,1,0
Sprite,Foreground,Centre,"sb/d.png",0,0 S,7,20618,21418,0.2686976,0 M,7,20618,21418,206,423,294,395 P,0,20618,21418,A F,0,29221,,1,0
Sprite,Foreground,Centre,"sb/d.png",0,0 S,7,20618,21418,0.2686976,0 M,7,20618,21418,206,423,176,505 P,0,20618,21418,A F,0,29221,,1,0
Sprite,Foreground,Centre,"sb/d.png",0,0 S,7,20618,21418,0.2686976,0 M,7,20618,21418,206,423,176,327 P,0,20618,21418,A F,0,29221,,1,0
Sprite,Foreground,Centre,"sb/d.png",0,0 S,7,20618,21418,0.2686976,0 M,7,20618,21418,206,423,156,371 P,0,20618,21418,A F,0,29221,,1,0
Sprite,Foreground,Centre,"sb/d.png",0,0 S,7,20618,21418,0.2686976,0 M,7,20618,21418,206,423,142,378 P,0,20618,21418,A F,0,29221,,1,0
Sprite,Foreground,Centre,"sb/d.png",0,0 S,7,20618,21418,0.2686976,0 M,7,20618,21418,206,423,199,409 P,0,20618,21418,A F,0,29221,,1,0
Sprite,Foreground,Centre,"sb/d.png",0,0 S,7,20618,21418,0.2686976,0 M,7,20618,21418,206,423,109,386 P,0,20618,21418,A F,0,29221,,1,0
Sprite,Foreground,Centre,"sb/d.png",0,0 S,7,20618,21418,0.2686976,0 M,7,20618,21418,206,423,261,507 P,0,20618,21418,A F,0,29221,,1,0
Sprite,Foreground,Centre,"sb/d.png",0,0 S,7,20765,21565,0.3579287,0 M,7,20765,21565,265,354,333,266 P,0,20765,21565,A F,0,29221,,1,0
Sprite,Foreground,Centre,"sb/d.png",0,0 S,7,20765,21565,0.3579287,0 M,7,20765,21565,265,354,168,272 P,0,20765,21565,A F,0,29221,,1,0
Sprite,Foreground,Centre,"sb/d.png",0,0 S,7,20765,21565,0.3579287,0 M,7,20765,21565,265,354,176,413 P,0,20765,21565,A F,0,29221,,1,0
Sprite,Foreground,Centre,"sb/d.png",0,0 S,7,20765,21565,0.3579287,0 M,7,20765,21565,265,354,245,335 P,0,20765,21565,A F,0,29221,,1,0
Sprite,Foreground,Centre,"sb/d.png",0,0 S,7,20765,21565,0.3579287,0 M,7,20765,21565,265,354,210,299 P,0,20765,21565,A F,0,29221,,1,0
Sprite,Foreground,Centre,"sb/d.png",0,0 S,7,20765,21565,0.3579287,0 M,7,20765,21565,265,354,190,269 P,0,20765,21565,A F,0,29221,,1,0
Sprite,Foreground,Centre,"sb/d.png",0,0 S,7,20765,21565,0.3579287,0 M,7,20765,21565,265,354,312,400 P,0,20765,21565,A F,0,29221,,1,0
Sprite,Foreground,Centre,"sb/d.png",0,0 S,7,20765,21565,0.3579287,0 M,7,20765,21565,265,354,275,263 P,0,20765,21565,A F,0,29221,,1,0
Sprite,Foreground,Centre,"sb/d.png",0,0 S,7,20765,21565,0.3579287,0 M,7,20765,21565,265,354,244,415 P,0,20765,21565,A F,0,29221,,1,0
Sprite,Foreground,Centre,"sb/d.png",0,0 S,7,20765,21565,0.3579287,0 M,7,20765,21565,265,354,190,330 P,0,20765,21565,A F,0,29221,,1,0
Sprite,Foreground,Centre,"sb/d.png",0,0 S,7,21060,21860,0.4039415,0 M,7,21060,21860,407,309,377,226 P,0,21060,21860,A F,0,29221,,1,0
Sprite,Foreground,Centre,"sb/d.png",0,0 S,7,21060,21860,0.4039415,0 M,7,21060,21860,407,309,376,334 P,0,21060,21860,A F,0,29221,,1,0
Sprite,Foreground,Centre,"sb/d.png",0,0 S,7,21060,21860,0.4039415,0 M,7,21060,21860,407,309,495,350 P,0,21060,21860,A F,0,29221,,1,0
Sprite,Foreground,Centre,"sb/d.png",0,0 S,7,21060,21860,0.4039415,0 M,7,21060,21860,407,309,458,311 P,0,21060,21860,A F,0,29221,,1,0
Sprite,Foreground,Centre,"sb/d.png",0,0 S,7,21060,21860,0.4039415,0 M,7,21060,21860,407,309,468,258 P,0,21060,21860,A F,0,29221,,1,0
Sprite,Foreground,Centre,"sb/d.png",0,0 S,7,21060,21860,0.4039415,0 M,7,21060,21860,407,309,360,351 P,0,21060,21860,A F,0,29221,,1,0
Sprite,Foreground,Centre,"sb/d.png",0,0 S,7,21060,21860,0.4039415,0 M,7,21060,21860,407,309,417,345 P,0,21060,21860,A F,0,29221,,1,0
Sprite,Foreground,Centre,"sb/d.png",0,0 S,7,21060,21860,0.4039415,0 M,7,21060,21860,407,309,338,389 P,0,21060,21860,A F,0,29221,,1,0
Sprite,Foreground,Centre,"sb/d.png",0,0 S,7,21060,21860,0.4039415,0 M,7,21060,21860,407,309,343,385 P,0,21060,21860,A F,0,29221,,1,0
Sprite,Foreground,Centre,"sb/d.png",0,0 S,7,21060,21860,0.4039415,0 M,7,21060,21860,407,309,419,398 P,0,21060,21860,A F,0,29221,,1,0
Sprite,Foreground,Centre,"sb/d.png",0,0 S,7,21795,22595,0.350412,0 M,7,21795,22595,407,309,331,367 P,0,21795,22595,A F,0,29221,,1,0
Sprite,Foreground,Centre,"sb/d.png",0,0 S,7,21795,22595,0.350412,0 M,7,21795,22595,407,309,331,242 P,0,21795,22595,A F,0,29221,,1,0
Sprite,Foreground,Centre,"sb/d.png",0,0 S,7,21795,22595,0.350412,0 M,7,21795,22595,407,309,396,318 P,0,21795,22595,A F,0,29221,,1,0
Sprite,Foreground,Centre,"sb/d.png",0,0 S,7,21795,22595,0.350412,0 M,7,21795,22595,407,309,489,286 P,0,21795,22595,A F,0,29221,,1,0
Sprite,Foreground,Centre,"sb/d.png",0,0 S,7,21795,22595,0.350412,0 M,7,21795,22595,407,309,430,311 P,0,21795,22595,A F,0,29221,,1,0
Sprite,Foreground,Centre,"sb/d.png",0,0 S,7,21795,22595,0.350412,0 M,7,21795,22595,407,309,436,316 P,0,21795,22595,A F,0,29221,,1,0
Sprite,Foreground,Centre,"sb/d.png",0,0 S,7,21795,22595,0.350412,0 M,7,21795,22595,407,309,460,306 P,0,21795,22595,A F,0,29221,,1,0
Sprite,Foreground,Centre,"sb/d.png",0,0 S,7,21795,22595,0.350412,0 M,7,21795,22595,407,309,502,342 P,0,21795,22595,A F,0,29221,,1,0
Sprite,Foreground,Centre,"sb/d.png",0,0 S,7,21795,22595,0.350412,0 M,7,21795,22595,407,309,399,232 P,0,21795,22595,A F,0,29221,,1,0
Sprite,Foreground,Centre,"sb/d.png",0,0 S,7,21795,22595,0.350412,0 M,7,21795,22595,407,309,324,338 P,0,21795,22595,A F,0,29221,,1,0
Sprite,Foreground,Centre,"sb/d.png",0,0 S,7,21942,22742,0.4297897,0 M,7,21942,22742,328,262,311,357 P,0,21942,22742,A F,0,29221,,1,0
Sprite,Foreground,Centre,"sb/d.png",0,0 S,7,21942,22742,0.4297897,0 M,7,21942,22742,328,262,400,234 P,0,21942,22742,A F,0,29221,,1,0
Sprite,Foreground,Centre,"sb/d.png",0,0 S,7,21942,22742,0.4297897,0 M,7,21942,22742,328,262,264,171 P,0,21942,22742,A F,0,29221,,1,0
Sprite,Foreground,Centre,"sb/d.png",0,0 S,7,21942,22742,0.4297897,0 M,7,21942,22742,328,262,307,190 P,0,21942,22742,A F,0,29221,,1,0
Sprite,Foreground,Centre,"sb/d.png",0,0 S,7,21942,22742,0.4297897,0 M,7,21942,22742,328,262,271,346 P,0,21942,22742,A F,0,29221,,1,0
Sprite,Foreground,Centre,"sb/d.png",0,0 S,7,21942,22742,0.4297897,0 M,7,21942,22742,328,262,340,249 P,0,21942,22742,A F,0,29221,,1,0
Sprite,Foreground,Centre,"sb/d.png",0,0 S,7,21942,22742,0.4297897,0 M,7,21942,22742,328,262,281,207 P,0,21942,22742,A F,0,29221,,1,0
Sprite,Foreground,Centre,"sb/d.png",0,0 S,7,21942,22742,0.4297897,0 M,7,21942,22742,328,262,286,207 P,0,21942,22742,A F,0,29221,,1,0
Sprite,Foreground,Centre,"sb/d.png",0,0 S,7,21942,22742,0.4297897,0 M,7,21942,22742,328,262,320,261 P,0,21942,22742,A F,0,29221,,1,0
Sprite,Foreground,Centre,"sb/d.png",0,0 S,7,21942,22742,0.4297897,0 M,7,21942,22742,328,262,260,330 P,0,21942,22742,A F,0,29221,,1,0
Sprite,Foreground,Centre,"sb/d.png",0,0 S,7,22236,23036,0.2745848,0 M,7,22236,23036,167,277,105,324 P,0,22236,23036,A F,0,29221,,1,0
Sprite,Foreground,Centre,"sb/d.png",0,0 S,7,22236,23036,0.2745848,0 M,7,22236,23036,167,277,190,211 P,0,22236,23036,A F,0,29221,,1,0
Sprite,Foreground,Centre,"sb/d.png",0,0 S,7,22236,23036,0.2745848,0 M,7,22236,23036,167,277,223,216 P,0,22236,23036,A F,0,29221,,1,0
Sprite,Foreground,Centre,"sb/d.png",0,0 S,7,22236,23036,0.2745848,0 M,7,22236,23036,167,277,103,223 P,0,22236,23036,A F,0,29221,,1,0
Sprite,Foreground,Centre,"sb/d.png",0,0 S,7,22236,23036,0.2745848,0 M,7,22236,23036,167,277,210,330 P,0,22236,23036,A F,0,29221,,1,0
Sprite,Foreground,Centre,"sb/d.png",0,0 S,7,22236,23036,0.2745848,0 M,7,22236,23036,167,277,161,237 P,0,22236,23036,A F,0,29221,,1,0
Sprite,Foreground,Centre,"sb/d.png",0,0 S,7,22236,23036,0.2745848,0 M,7,22236,23036,167,277,187,318 P,0,22236,23036,A F,0,29221,,1,0
Sprite,Foreground,Centre,"sb/d.png",0,0 S,7,22236,23036,0.2745848,0 M,7,22236,23036,167,277,229,228 P,0,22236,23036,A F,0,29221,,1,0
Sprite,Foreground,Centre,"sb/d.png",0,0 S,7,22236,23036,0.2745848,0 M,7,22236,23036,167,277,227,230 P,0,22236,23036,A F,0,29221,,1,0
Sprite,Foreground,Centre,"sb/d.png",0,0 S,7,22236,23036,0.2745848,0 M,7,22236,23036,167,277,166,280 P,0,22236,23036,A F,0,29221,,1,0
Sprite,Foreground,Centre,"sb/d.png",0,0 S,7,22971,23771,0.2991575,0 M,7,22971,23771,167,277,147,294 P,0,22971,23771,A F,0,29221,,1,0
Sprite,Foreground,Centre,"sb/d.png",0,0 S,7,22971,23771,0.2991575,0 M,7,22971,23771,167,277,84,197 P,0,22971,23771,A F,0,29221,,1,0
Sprite,Foreground,Centre,"sb/d.png",0,0 S,7,22971,23771,0.2991575,0 M,7,22971,23771,167,277,167,228 P,0,22971,23771,A F,0,29221,,1,0
Sprite,Foreground,Centre,"sb/d.png",0,0 S,7,22971,23771,0.2991575,0 M,7,22971,23771,167,277,203,265 P,0,22971,23771,A F,0,29221,,1,0
Sprite,Foreground,Centre,"sb/d.png",0,0 S,7,22971,23771,0.2991575,0 M,7,22971,23771,167,277,67,301 P,0,22971,23771,A F,0,29221,,1,0
Sprite,Foreground,Centre,"sb/d.png",0,0 S,7,22971,23771,0.2991575,0 M,7,22971,23771,167,277,252,338 P,0,22971,23771,A F,0,29221,,1,0
Sprite,Foreground,Centre,"sb/d.png",0,0 S,7,22971,23771,0.2991575,0 M,7,22971,23771,167,277,222,221 P,0,22971,23771,A F,0,29221,,1,0
Sprite,Foreground,Centre,"sb/d.png",0,0 S,7,22971,23771,0.2991575,0 M,7,22971,23771,167,277,115,225 P,0,22971,23771,A F,0,29221,,1,0
Sprite,Foreground,Centre,"sb/d.png",0,0 S,7,22971,23771,0.2991575,0 M,7,22971,23771,167,277,104,256 P,0,22971,23771,A F,0,29221,,1,0
Sprite,Foreground,Centre,"sb/d.png",0,0 S,7,22971,23771,0.2991575,0 M,7,22971,23771,167,277,237,219 P,0,22971,23771,A F,0,29221,,1,0
Sprite,Foreground,Centre,"sb/d.png",0,0 S,7,23118,23918,0.4314323,0 M,7,23118,23918,218,202,217,133 P,0,23118,23918,A F,0,29221,,1,0
Sprite,Foreground,Centre,"sb/d.png",0,0 S,7,23118,23918,0.4314323,0 M,7,23118,23918,218,202,135,128 P,0,23118,23918,A F,0,29221,,1,0
Sprite,Foreground,Centre,"sb/d.png",0,0 S,7,23118,23918,0.4314323,0 M,7,23118,23918,218,202,250,206 P,0,23118,23918,A F,0,29221,,1,0
Sprite,Foreground,Centre,"sb/d.png",0,0 S,7,23118,23918,0.4314323,0 M,7,23118,23918,218,202,214,295 P,0,23118,23918,A F,0,29221,,1,0
Sprite,Foreground,Centre,"sb/d.png",0,0 S,7,23118,23918,0.4314323,0 M,7,23118,23918,218,202,250,147 P,0,23118,23918,A F,0,29221,,1,0
Sprite,Foreground,Centre,"sb/d.png",0,0 S,7,23118,23918,0.4314323,0 M,7,23118,23918,218,202,251,166 P,0,23118,23918,A F,0,29221,,1,0
Sprite,Foreground,Centre,"sb/d.png",0,0 S,7,23118,23918,0.4314323,0 M,7,23118,23918,218,202,293,260 P,0,23118,23918,A F,0,29221,,1,0
Sprite,Foreground,Centre,"sb/d.png",0,0 S,7,23118,23918,0.4314323,0 M,7,23118,23918,218,202,148,208 P,0,23118,23918,A F,0,29221,,1,0
Sprite,Foreground,Centre,"sb/d.png",0,0 S,7,23118,23918,0.4314323,0 M,7,23118,23918,218,202,131,158 P,0,23118,23918,A F,0,29221,,1,0
Sprite,Foreground,Centre,"sb/d.png",0,0 S,7,23118,23918,0.4314323,0 M,7,23118,23918,218,202,305,202 P,0,23118,23918,A F,0,29221,,1,0
Sprite,Foreground,Centre,"sb/d.png",0,0 S,7,23412,24212,0.408531,0 M,7,23412,24212,279,73,322,1 P,0,23412,24212,A F,0,29221,,1,0
Sprite,Foreground,Centre,"sb/d.png",0,0 S,7,23412,24212,0.408531,0 M,7,23412,24212,279,73,288,72 P,0,23412,24212,A F,0,29221,,1,0
Sprite,Foreground,Centre,"sb/d.png",0,0 S,7,23412,24212,0.408531,0 M,7,23412,24212,279,73,344,69 P,0,23412,24212,A F,0,29221,,1,0
Sprite,Foreground,Centre,"sb/d.png",0,0 S,7,23412,24212,0.408531,0 M,7,23412,24212,279,73,293,-24 P,0,23412,24212,A F,0,29221,,1,0
Sprite,Foreground,Centre,"sb/d.png",0,0 S,7,23412,24212,0.408531,0 M,7,23412,24212,279,73,301,146 P,0,23412,24212,A F,0,29221,,1,0
Sprite,Foreground,Centre,"sb/d.png",0,0 S,7,23412,24212,0.408531,0 M,7,23412,24212,279,73,307,33 P,0,23412,24212,A F,0,29221,,1,0
Sprite,Foreground,Centre,"sb/d.png",0,0 S,7,23412,24212,0.408531,0 M,7,23412,24212,279,73,246,153 P,0,23412,24212,A F,0,29221,,1,0
Sprite,Foreground,Centre,"sb/d.png",0,0 S,7,23412,24212,0.408531,0 M,7,23412,24212,279,73,264,-27 P,0,23412,24212,A F,0,29221,,1,0
Sprite,Foreground,Centre,"sb/d.png",0,0 S,7,23412,24212,0.408531,0 M,7,23412,24212,279,73,372,140 P,0,23412,24212,A F,0,29221,,1,0
Sprite,Foreground,Centre,"sb/d.png",0,0 S,7,23412,24212,0.408531,0 M,7,23412,24212,279,73,326,12 P,0,23412,24212,A F,0,29221,,1,0
Sprite,Foreground,Centre,"sb/d.png",0,0 S,7,23560,24360,0.3452249,0 M,7,23560,24360,279,73,247,51 P,0,23560,24360,A F,0,29221,,1,0
Sprite,Foreground,Centre,"sb/d.png",0,0 S,7,23560,24360,0.3452249,0 M,7,23560,24360,279,73,230,69 P,0,23560,24360,A F,0,29221,,1,0
Sprite,Foreground,Centre,"sb/d.png",0,0 S,7,23560,24360,0.3452249,0 M,7,23560,24360,279,73,358,59 P,0,23560,24360,A F,0,29221,,1,0
Sprite,Foreground,Centre,"sb/d.png",0,0 S,7,23560,24360,0.3452249,0 M,7,23560,24360,279,73,196,115 P,0,23560,24360,A F,0,29221,,1,0
Sprite,Foreground,Centre,"sb/d.png",0,0 S,7,23560,24360,0.3452249,0 M,7,23560,24360,279,73,202,-4 P,0,23560,24360,A F,0,29221,,1,0
Sprite,Foreground,Centre,"sb/d.png",0,0 S,7,23560,24360,0.3452249,0 M,7,23560,24360,279,73,362,115 P,0,23560,24360,A F,0,29221,,1,0
Sprite,Foreground,Centre,"sb/d.png",0,0 S,7,23560,24360,0.3452249,0 M,7,23560,24360,279,73,201,129 P,0,23560,24360,A F,0,29221,,1,0
Sprite,Foreground,Centre,"sb/d.png",0,0 S,7,23560,24360,0.3452249,0 M,7,23560,24360,279,73,182,80 P,0,23560,24360,A F,0,29221,,1,0
Sprite,Foreground,Centre,"sb/d.png",0,0 S,7,23560,24360,0.3452249,0 M,7,23560,24360,279,73,306,140 P,0,23560,24360,A F,0,29221,,1,0
Sprite,Foreground,Centre,"sb/d.png",0,0 S,7,23560,24360,0.3452249,0 M,7,23560,24360,279,73,186,154 P,0,23560,24360,A F,0,29221,,1,0
Sprite,Foreground,Centre,"sb/d.png",0,0 S,7,23707,24507,0.4399963,0 M,7,23707,24507,342,146,251,118 P,0,23707,24507,A F,0,29221,,1,0
Sprite,Foreground,Centre,"sb/d.png",0,0 S,7,23707,24507,0.4399963,0 M,7,23707,24507,342,146,246,49 P,0,23707,24507,A F,0,29221,,1,0
Sprite,Foreground,Centre,"sb/d.png",0,0 S,7,23707,24507,0.4399963,0 M,7,23707,24507,342,146,349,223 P,0,23707,24507,A F,0,29221,,1,0
Sprite,Foreground,Centre,"sb/d.png",0,0 S,7,23707,24507,0.4399963,0 M,7,23707,24507,342,146,387,152 P,0,23707,24507,A F,0,29221,,1,0
Sprite,Foreground,Centre,"sb/d.png",0,0 S,7,23707,24507,0.4399963,0 M,7,23707,24507,342,146,262,134 P,0,23707,24507,A F,0,29221,,1,0
Sprite,Foreground,Centre,"sb/d.png",0,0 S,7,23707,24507,0.4399963,0 M,7,23707,24507,342,146,281,106 P,0,23707,24507,A F,0,29221,,1,0
Sprite,Foreground,Centre,"sb/d.png",0,0 S,7,23707,24507,0.4399963,0 M,7,23707,24507,342,146,305,121 P,0,23707,24507,A F,0,29221,,1,0
Sprite,Foreground,Centre,"sb/d.png",0,0 S,7,23707,24507,0.4399963,0 M,7,23707,24507,342,146,392,103 P,0,23707,24507,A F,0,29221,,1,0
Sprite,Foreground,Centre,"sb/d.png",0,0 S,7,23707,24507,0.4399963,0 M,7,23707,24507,342,146,244,231 P,0,23707,24507,A F,0,29221,,1,0
Sprite,Foreground,Centre,"sb/d.png",0,0 S,7,23707,24507,0.4399963,0 M,7,23707,24507,342,146,252,142 P,0,23707,24507,A F,0,29221,,1,0
Sprite,Foreground,Centre,"sb/d.png",0,0 S,7,24001,24801,0.3107208,0 M,7,24001,24801,482,94,480,144 P,0,24001,24801,A F,0,29221,,1,0
Sprite,Foreground,Centre,"sb/d.png",0,0 S,7,24001,24801,0.3107208,0 M,7,24001,24801,482,94,527,112 P,0,24001,24801,A F,0,29221,,1,0
Sprite,Foreground,Centre,"sb/d.png",0,0 S,7,24001,24801,0.3107208,0 M,7,24001,24801,482,94,426,18 P,0,24001,24801,A F,0,29221,,1,0
Sprite,Foreground,Centre,"sb/d.png",0,0 S,7,24001,24801,0.3107208,0 M,7,24001,24801,482,94,464,86 P,0,24001,24801,A F,0,29221,,1,0
Sprite,Foreground,Centre,"sb/d.png",0,0 S,7,24001,24801,0.3107208,0 M,7,24001,24801,482,94,448,-6 P,0,24001,24801,A F,0,29221,,1,0
Sprite,Foreground,Centre,"sb/d.png",0,0 S,7,24001,24801,0.3107208,0 M,7,24001,24801,482,94,522,52 P,0,24001,24801,A F,0,29221,,1,0
Sprite,Foreground,Centre,"sb/d.png",0,0 S,7,24001,24801,0.3107208,0 M,7,24001,24801,482,94,487,52 P,0,24001,24801,A F,0,29221,,1,0
Sprite,Foreground,Centre,"sb/d.png",0,0 S,7,24001,24801,0.3107208,0 M,7,24001,24801,482,94,388,41 P,0,24001,24801,A F,0,29221,,1,0
Sprite,Foreground,Centre,"sb/d.png",0,0 S,7,24001,24801,0.3107208,0 M,7,24001,24801,482,94,474,66 P,0,24001,24801,A F,0,29221,,1,0
Sprite,Foreground,Centre,"sb/d.png",0,0 S,7,24001,24801,0.3107208,0 M,7,24001,24801,482,94,490,66 P,0,24001,24801,A F,0,29221,,1,0
Sprite,Foreground,Centre,"sb/d.png",0,0 S,7,24589,25389,0.2864169,0 M,7,24589,25389,404,382,307,416 P,0,24589,25389,A F,0,29221,,1,0
Sprite,Foreground,Centre,"sb/d.png",0,0 S,7,24589,25389,0.2864169,0 M,7,24589,25389,404,382,447,364 P,0,24589,25389,A F,0,29221,,1,0
Sprite,Foreground,Centre,"sb/d.png",0,0 S,7,24589,25389,0.2864169,0 M,7,24589,25389,404,382,463,362 P,0,24589,25389,A F,0,29221,,1,0
Sprite,Foreground,Centre,"sb/d.png",0,0 S,7,24589,25389,0.2864169,0 M,7,24589,25389,404,382,356,331 P,0,24589,25389,A F,0,29221,,1,0
Sprite,Foreground,Centre,"sb/d.png",0,0 S,7,24589,25389,0.2864169,0 M,7,24589,25389,404,382,428,463 P,0,24589,25389,A F,0,29221,,1,0
Sprite,Foreground,Centre,"sb/d.png",0,0 S,7,24589,25389,0.2864169,0 M,7,24589,25389,404,382,500,367 P,0,24589,25389,A F,0,29221,,1,0
Sprite,Foreground,Centre,"sb/d.png",0,0 S,7,24589,25389,0.2864169,0 M,7,24589,25389,404,382,433,393 P,0,24589,25389,A F,0,29221,,1,0
Sprite,Foreground,Centre,"sb/d.png",0,0 S,7,24589,25389,0.2864169,0 M,7,24589,25389,404,382,425,340 P,0,24589,25389,A F,0,29221,,1,0
Sprite,Foreground,Centre,"sb/d.png",0,0 S,7,24589,25389,0.2864169,0 M,7,24589,25389,404,382,389,344 P,0,24589,25389,A F,0,29221,,1,0
Sprite,Foreground,Centre,"sb/d.png",0,0 S,7,24589,25389,0.2864169,0 M,7,24589,25389,404,382,457,344 P,0,24589,25389,A F,0,29221,,1,0
Sprite,Foreground,Centre,"sb/d.png",0,0 S,7,24883,25683,0.2636937,0 M,7,24883,25683,522,315,575,303 P,0,24883,25683,A F,0,29221,,1,0
Sprite,Foreground,Centre,"sb/d.png",0,0 S,7,24883,25683,0.2636937,0 M,7,24883,25683,522,315,521,217 P,0,24883,25683,A F,0,29221,,1,0
Sprite,Foreground,Centre,"sb/d.png",0,0 S,7,24883,25683,0.2636937,0 M,7,24883,25683,522,315,580,231 P,0,24883,25683,A F,0,29221,,1,0
Sprite,Foreground,Centre,"sb/d.png",0,0 S,7,24883,25683,0.2636937,0 M,7,24883,25683,522,315,565,225 P,0,24883,25683,A F,0,29221,,1,0
Sprite,Foreground,Centre,"sb/d.png",0,0 S,7,24883,25683,0.2636937,0 M,7,24883,25683,522,315,532,328 P,0,24883,25683,A F,0,29221,,1,0
Sprite,Foreground,Centre,"sb/d.png",0,0 S,7,24883,25683,0.2636937,0 M,7,24883,25683,522,315,523,239 P,0,24883,25683,A F,0,29221,,1,0
Sprite,Foreground,Centre,"sb/d.png",0,0 S,7,24883,25683,0.2636937,0 M,7,24883,25683,522,315,446,309 P,0,24883,25683,A F,0,29221,,1,0
Sprite,Foreground,Centre,"sb/d.png",0,0 S,7,24883,25683,0.2636937,0 M,7,24883,25683,522,315,438,217 P,0,24883,25683,A F,0,29221,,1,0
Sprite,Foreground,Centre,"sb/d.png",0,0 S,7,24883,25683,0.2636937,0 M,7,24883,25683,522,315,457,300 P,0,24883,25683,A F,0,29221,,1,0
Sprite,Foreground,Centre,"sb/d.png",0,0 S,7,24883,25683,0.2636937,0 M,7,24883,25683,522,315,565,244 P,0,24883,25683,A F,0,29221,,1,0
Sprite,Foreground,Centre,"sb/d.png",0,0 S,7,25324,26124,0.2926837,0 M,7,25324,26124,340,215,381,133 P,0,25324,26124,A F,0,29221,,1,0
Sprite,Foreground,Centre,"sb/d.png",0,0 S,7,25324,26124,0.2926837,0 M,7,25324,26124,340,215,383,287 P,0,25324,26124,A F,0,29221,,1,0
Sprite,Foreground,Centre,"sb/d.png",0,0 S,7,25324,26124,0.2926837,0 M,7,25324,26124,340,215,415,262 P,0,25324,26124,A F,0,29221,,1,0
Sprite,Foreground,Centre,"sb/d.png",0,0 S,7,25324,26124,0.2926837,0 M,7,25324,26124,340,215,324,303 P,0,25324,26124,A F,0,29221,,1,0
Sprite,Foreground,Centre,"sb/d.png",0,0 S,7,25324,26124,0.2926837,0 M,7,25324,26124,340,215,246,124 P,0,25324,26124,A F,0,29221,,1,0
Sprite,Foreground,Centre,"sb/d.png",0,0 S,7,25324,26124,0.2926837,0 M,7,25324,26124,340,215,395,124 P,0,25324,26124,A F,0,29221,,1,0
Sprite,Foreground,Centre,"sb/d.png",0,0 S,7,25324,26124,0.2926837,0 M,7,25324,26124,340,215,262,165 P,0,25324,26124,A F,0,29221,,1,0
Sprite,Foreground,Centre,"sb/d.png",0,0 S,7,25324,26124,0.2926837,0 M,7,25324,26124,340,215,285,158 P,0,25324,26124,A F,0,29221,,1,0
Sprite,Foreground,Centre,"sb/d.png",0,0 S,7,25324,26124,0.2926837,0 M,7,25324,26124,340,215,320,116 P,0,25324,26124,A F,0,29221,,1,0
Sprite,Foreground,Centre,"sb/d.png",0,0 S,7,25324,26124,0.2926837,0 M,7,25324,26124,340,215,304,223 P,0,25324,26124,A F,0,29221,,1,0
Sprite,Foreground,Centre,"sb/d.png",0,0 S,7,25471,26271,0.2890063,0 M,7,25471,26271,384,135,298,103 P,0,25471,26271,A F,0,29221,,1,0
Sprite,Foreground,Centre,"sb/d.png",0,0 S,7,25471,26271,0.2890063,0 M,7,25471,26271,384,135,378,95 P,0,25471,26271,A F,0,29221,,1,0
Sprite,Foreground,Centre,"sb/d.png",0,0 S,7,25471,26271,0.2890063,0 M,7,25471,26271,384,135,388,51 P,0,25471,26271,A F,0,29221,,1,0
Sprite,Foreground,Centre,"sb/d.png",0,0 S,7,25471,26271,0.2890063,0 M,7,25471,26271,384,135,389,90 P,0,25471,26271,A F,0,29221,,1,0
Sprite,Foreground,Centre,"sb/d.png",0,0 S,7,25471,26271,0.2890063,0 M,7,25471,26271,384,135,333,212 P,0,25471,26271,A F,0,29221,,1,0
Sprite,Foreground,Centre,"sb/d.png",0,0 S,7,25471,26271,0.2890063,0 M,7,25471,26271,384,135,293,67 P,0,25471,26271,A F,0,29221,,1,0
Sprite,Foreground,Centre,"sb/d.png",0,0 S,7,25471,26271,0.2890063,0 M,7,25471,26271,384,135,455,47 P,0,25471,26271,A F,0,29221,,1,0
Sprite,Foreground,Centre,"sb/d.png",0,0 S,7,25471,26271,0.2890063,0 M,7,25471,26271,384,135,354,191 P,0,25471,26271,A F,0,29221,,1,0
Sprite,Foreground,Centre,"sb/d.png",0,0 S,7,25471,26271,0.2890063,0 M,7,25471,26271,384,135,313,217 P,0,25471,26271,A F,0,29221,,1,0
Sprite,Foreground,Centre,"sb/d.png",0,0 S,7,25471,26271,0.2890063,0 M,7,25471,26271,384,135,353,93 P,0,25471,26271,A F,0,29221,,1,0
Sprite,Foreground,Centre,"sb/d.png",0,0 S,7,25765,26565,0.2723029,0 M,7,25765,26565,280,64,283,68 P,0,25765,26565,A F,0,29221,,1,0
Sprite,Foreground,Centre,"sb/d.png",0,0 S,7,25765,26565,0.2723029,0 M,7,25765,26565,280,64,326,-22 P,0,25765,26565,A F,0,29221,,1,0
Sprite,Foreground,Centre,"sb/d.png",0,0 S,7,25765,26565,0.2723029,0 M,7,25765,26565,280,64,181,8 P,0,25765,26565,A F,0,29221,,1,0
Sprite,Foreground,Centre,"sb/d.png",0,0 S,7,25765,26565,0.2723029,0 M,7,25765,26565,280,64,350,123 P,0,25765,26565,A F,0,29221,,1,0
Sprite,Foreground,Centre,"sb/d.png",0,0 S,7,25765,26565,0.2723029,0 M,7,25765,26565,280,64,335,47 P,0,25765,26565,A F,0,29221,,1,0
Sprite,Foreground,Centre,"sb/d.png",0,0 S,7,25765,26565,0.2723029,0 M,7,25765,26565,280,64,259,84 P,0,25765,26565,A F,0,29221,,1,0
Sprite,Foreground,Centre,"sb/d.png",0,0 S,7,25765,26565,0.2723029,0 M,7,25765,26565,280,64,183,90 P,0,25765,26565,A F,0,29221,,1,0
Sprite,Foreground,Centre,"sb/d.png",0,0 S,7,25765,26565,0.2723029,0 M,7,25765,26565,280,64,329,12 P,0,25765,26565,A F,0,29221,,1,0
Sprite,Foreground,Centre,"sb/d.png",0,0 S,7,25765,26565,0.2723029,0 M,7,25765,26565,280,64,292,34 P,0,25765,26565,A F,0,29221,,1,0
Sprite,Foreground,Centre,"sb/d.png",0,0 S,7,25765,26565,0.2723029,0 M,7,25765,26565,280,64,310,143 P,0,25765,26565,A F,0,29221,,1,0
Sprite,Foreground,Centre,"sb/d.png",0,0 S,7,26501,27301,0.3824163,0 M,7,26501,27301,280,64,337,-5 P,0,26501,27301,A F,0,29221,,1,0
Sprite,Foreground,Centre,"sb/d.png",0,0 S,7,26501,27301,0.3824163,0 M,7,26501,27301,280,64,326,141 P,0,26501,27301,A F,0,29221,,1,0
Sprite,Foreground,Centre,"sb/d.png",0,0 S,7,26501,27301,0.3824163,0 M,7,26501,27301,280,64,231,1 P,0,26501,27301,A F,0,29221,,1,0
Sprite,Foreground,Centre,"sb/d.png",0,0 S,7,26501,27301,0.3824163,0 M,7,26501,27301,280,64,355,50 P,0,26501,27301,A F,0,29221,,1,0
Sprite,Foreground,Centre,"sb/d.png",0,0 S,7,26501,27301,0.3824163,0 M,7,26501,27301,280,64,231,-17 P,0,26501,27301,A F,0,29221,,1,0
Sprite,Foreground,Centre,"sb/d.png",0,0 S,7,26501,27301,0.3824163,0 M,7,26501,27301,280,64,374,14 P,0,26501,27301,A F,0,29221,,1,0
Sprite,Foreground,Centre,"sb/d.png",0,0 S,7,26501,27301,0.3824163,0 M,7,26501,27301,280,64,196,75 P,0,26501,27301,A F,0,29221,,1,0
Sprite,Foreground,Centre,"sb/d.png",0,0 S,7,26501,27301,0.3824163,0 M,7,26501,27301,280,64,343,112 P,0,26501,27301,A F,0,29221,,1,0
Sprite,Foreground,Centre,"sb/d.png",0,0 S,7,26501,27301,0.3824163,0 M,7,26501,27301,280,64,225,67 P,0,26501,27301,A F,0,29221,,1,0
Sprite,Foreground,Centre,"sb/d.png",0,0 S,7,26501,27301,0.3824163,0 M,7,26501,27301,280,64,352,99 P,0,26501,27301,A F,0,29221,,1,0
Sprite,Foreground,Centre,"sb/d.png",0,0 S,7,26648,27448,0.3462926,0 M,7,26648,27448,252,150,246,143 P,0,26648,27448,A F,0,29221,,1,0
Sprite,Foreground,Centre,"sb/d.png",0,0 S,7,26648,27448,0.3462926,0 M,7,26648,27448,252,150,281,161 P,0,26648,27448,A F,0,29221,,1,0
Sprite,Foreground,Centre,"sb/d.png",0,0 S,7,26648,27448,0.3462926,0 M,7,26648,27448,252,150,319,135 P,0,26648,27448,A F,0,29221,,1,0
Sprite,Foreground,Centre,"sb/d.png",0,0 S,7,26648,27448,0.3462926,0 M,7,26648,27448,252,150,272,158 P,0,26648,27448,A F,0,29221,,1,0
Sprite,Foreground,Centre,"sb/d.png",0,0 S,7,26648,27448,0.3462926,0 M,7,26648,27448,252,150,268,161 P,0,26648,27448,A F,0,29221,,1,0
Sprite,Foreground,Centre,"sb/d.png",0,0 S,7,26648,27448,0.3462926,0 M,7,26648,27448,252,150,291,129 P,0,26648,27448,A F,0,29221,,1,0
Sprite,Foreground,Centre,"sb/d.png",0,0 S,7,26648,27448,0.3462926,0 M,7,26648,27448,252,150,241,196 P,0,26648,27448,A F,0,29221,,1,0
Sprite,Foreground,Centre,"sb/d.png",0,0 S,7,26648,27448,0.3462926,0 M,7,26648,27448,252,150,224,50 P,0,26648,27448,A F,0,29221,,1,0
Sprite,Foreground,Centre,"sb/d.png",0,0 S,7,26648,27448,0.3462926,0 M,7,26648,27448,252,150,189,199 P,0,26648,27448,A F,0,29221,,1,0
Sprite,Foreground,Centre,"sb/d.png",0,0 S,7,26648,27448,0.3462926,0 M,7,26648,27448,252,150,158,245 P,0,26648,27448,A F,0,29221,,1,0
Sprite,Foreground,Centre,"sb/d.png",0,0 S,7,26942,27742,0.3233354,0 M,7,26942,27742,333,271,337,235 P,0,26942,27742,A F,0,29221,,1,0
Sprite,Foreground,Centre,"sb/d.png",0,0 S,7,26942,27742,0.3233354,0 M,7,26942,27742,333,271,318,241 P,0,26942,27742,A F,0,29221,,1,0
Sprite,Foreground,Centre,"sb/d.png",0,0 S,7,26942,27742,0.3233354,0 M,7,26942,27742,333,271,419,186 P,0,26942,27742,A F,0,29221,,1,0
Sprite,Foreground,Centre,"sb/d.png",0,0 S,7,26942,27742,0.3233354,0 M,7,26942,27742,333,271,419,270 P,0,26942,27742,A F,0,29221,,1,0
Sprite,Foreground,Centre,"sb/d.png",0,0 S,7,26942,27742,0.3233354,0 M,7,26942,27742,333,271,299,338 P,0,26942,27742,A F,0,29221,,1,0
Sprite,Foreground,Centre,"sb/d.png",0,0 S,7,26942,27742,0.3233354,0 M,7,26942,27742,333,271,391,215 P,0,26942,27742,A F,0,29221,,1,0
Sprite,Foreground,Centre,"sb/d.png",0,0 S,7,26942,27742,0.3233354,0 M,7,26942,27742,333,271,269,233 P,0,26942,27742,A F,0,29221,,1,0
Sprite,Foreground,Centre,"sb/d.png",0,0 S,7,26942,27742,0.3233354,0 M,7,26942,27742,333,271,370,187 P,0,26942,27742,A F,0,29221,,1,0
Sprite,Foreground,Centre,"sb/d.png",0,0 S,7,26942,27742,0.3233354,0 M,7,26942,27742,333,271,298,255 P,0,26942,27742,A F,0,29221,,1,0
Sprite,Foreground,Centre,"sb/d.png",0,0 S,7,26942,27742,0.3233354,0 M,7,26942,27742,333,271,385,225 P,0,26942,27742,A F,0,29221,,1,0
Sprite,Foreground,Centre,"sb/d.png",0,0 S,7,27677,28477,0.4278983,0 M,7,27677,28477,333,271,367,279 P,0,27677,28477,A F,0,29221,,1,0
Sprite,Foreground,Centre,"sb/d.png",0,0 S,7,27677,28477,0.4278983,0 M,7,27677,28477,333,271,288,341 P,0,27677,28477,A F,0,29221,,1,0
Sprite,Foreground,Centre,"sb/d.png",0,0 S,7,27677,28477,0.4278983,0 M,7,27677,28477,333,271,359,336 P,0,27677,28477,A F,0,29221,,1,0
Sprite,Foreground,Centre,"sb/d.png",0,0 S,7,27677,28477,0.4278983,0 M,7,27677,28477,333,271,324,319 P,0,27677,28477,A F,0,29221,,1,0
Sprite,Foreground,Centre,"sb/d.png",0,0 S,7,27677,28477,0.4278983,0 M,7,27677,28477,333,271,241,324 P,0,27677,28477,A F,0,29221,,1,0
Sprite,Foreground,Centre,"sb/d.png",0,0 S,7,27677,28477,0.4278983,0 M,7,27677,28477,333,271,398,310 P,0,27677,28477,A F,0,29221,,1,0
Sprite,Foreground,Centre,"sb/d.png",0,0 S,7,27677,28477,0.4278983,0 M,7,27677,28477,333,271,255,360 P,0,27677,28477,A F,0,29221,,1,0
Sprite,Foreground,Centre,"sb/d.png",0,0 S,7,27677,28477,0.4278983,0 M,7,27677,28477,333,271,262,215 P,0,27677,28477,A F,0,29221,,1,0
Sprite,Foreground,Centre,"sb/d.png",0,0 S,7,27677,28477,0.4278983,0 M,7,27677,28477,333,271,274,351 P,0,27677,28477,A F,0,29221,,1,0
Sprite,Foreground,Centre,"sb/d.png",0,0 S,7,27677,28477,0.4278983,0 M,7,27677,28477,333,271,302,305 P,0,27677,28477,A F,0,29221,,1,0
Sprite,Foreground,Centre,"sb/d.png",0,0 S,7,27824,28624,0.2587548,0 M,7,27824,28624,403,213,353,256 P,0,27824,28624,A F,0,29221,,1,0
Sprite,Foreground,Centre,"sb/d.png",0,0 S,7,27824,28624,0.2587548,0 M,7,27824,28624,403,213,484,148 P,0,27824,28624,A F,0,29221,,1,0
Sprite,Foreground,Centre,"sb/d.png",0,0 S,7,27824,28624,0.2587548,0 M,7,27824,28624,403,213,356,196 P,0,27824,28624,A F,0,29221,,1,0
Sprite,Foreground,Centre,"sb/d.png",0,0 S,7,27824,28624,0.2587548,0 M,7,27824,28624,403,213,438,296 P,0,27824,28624,A F,0,29221,,1,0
Sprite,Foreground,Centre,"sb/d.png",0,0 S,7,27824,28624,0.2587548,0 M,7,27824,28624,403,213,475,178 P,0,27824,28624,A F,0,29221,,1,0
Sprite,Foreground,Centre,"sb/d.png",0,0 S,7,27824,28624,0.2587548,0 M,7,27824,28624,403,213,356,253 P,0,27824,28624,A F,0,29221,,1,0
Sprite,Foreground,Centre,"sb/d.png",0,0 S,7,27824,28624,0.2587548,0 M,7,27824,28624,403,213,398,283 P,0,27824,28624,A F,0,29221,,1,0
Sprite,Foreground,Centre,"sb/d.png",0,0 S,7,27824,28624,0.2587548,0 M,7,27824,28624,403,213,459,143 P,0,27824,28624,A F,0,29221,,1,0
Sprite,Foreground,Centre,"sb/d.png",0,0 S,7,27824,28624,0.2587548,0 M,7,27824,28624,403,213,403,173 P,0,27824,28624,A F,0,29221,,1,0
Sprite,Foreground,Centre,"sb/d.png",0,0 S,7,27824,28624,0.2587548,0 M,7,27824,28624,403,213,353,207 P,0,27824,28624,A F,0,29221,,1,0
Sprite,Foreground,Centre,"sb/d.png",0,0 S,7,28118,28918,0.4015281,0 M,7,28118,28918,463,83,421,-3 P,0,28118,28918,A F,0,29221,,1,0
Sprite,Foreground,Centre,"sb/d.png",0,0 S,7,28118,28918,0.4015281,0 M,7,28118,28918,463,83,555,87 P,0,28118,28918,A F,0,29221,,1,0
Sprite,Foreground,Centre,"sb/d.png",0,0 S,7,28118,28918,0.4015281,0 M,7,28118,28918,463,83,376,55 P,0,28118,28918,A F,0,29221,,1,0
Sprite,Foreground,Centre,"sb/d.png",0,0 S,7,28118,28918,0.4015281,0 M,7,28118,28918,463,83,470,154 P,0,28118,28918,A F,0,29221,,1,0
Sprite,Foreground,Centre,"sb/d.png",0,0 S,7,28118,28918,0.4015281,0 M,7,28118,28918,463,83,386,87 P,0,28118,28918,A F,0,29221,,1,0
Sprite,Foreground,Centre,"sb/d.png",0,0 S,7,28118,28918,0.4015281,0 M,7,28118,28918,463,83,446,103 P,0,28118,28918,A F,0,29221,,1,0
Sprite,Foreground,Centre,"sb/d.png",0,0 S,7,28118,28918,0.4015281,0 M,7,28118,28918,463,83,532,67 P,0,28118,28918,A F,0,29221,,1,0
Sprite,Foreground,Centre,"sb/d.png",0,0 S,7,28118,28918,0.4015281,0 M,7,28118,28918,463,83,527,56 P,0,28118,28918,A F,0,29221,,1,0
Sprite,Foreground,Centre,"sb/d.png",0,0 S,7,28118,28918,0.4015281,0 M,7,28118,28918,463,83,498,56 P,0,28118,28918,A F,0,29221,,1,0
Sprite,Foreground,Centre,"sb/d.png",0,0 S,7,28118,28918,0.4015281,0 M,7,28118,28918,463,83,444,138 P,0,28118,28918,A F,0,29221,,1,0
Sprite,Foreground,Centre,"sb/d.png",0,0 S,7,28265,29065,0.4142304,0 M,7,28265,29065,463,83,398,71 P,0,28265,29065,A F,0,29221,,1,0
Sprite,Foreground,Centre,"sb/d.png",0,0 S,7,28265,29065,0.4142304,0 M,7,28265,29065,463,83,475,182 P,0,28265,29065,A F,0,29221,,1,0
Sprite,Foreground,Centre,"sb/d.png",0,0 S,7,28265,29065,0.4142304,0 M,7,28265,29065,463,83,490,2 P,0,28265,29065,A F,0,29221,,1,0
Sprite,Foreground,Centre,"sb/d.png",0,0 S,7,28265,29065,0.4142304,0 M,7,28265,29065,463,83,436,-3 P,0,28265,29065,A F,0,29221,,1,0
Sprite,Foreground,Centre,"sb/d.png",0,0 S,7,28265,29065,0.4142304,0 M,7,28265,29065,463,83,503,103 P,0,28265,29065,A F,0,29221,,1,0
Sprite,Foreground,Centre,"sb/d.png",0,0 S,7,28265,29065,0.4142304,0 M,7,28265,29065,463,83,381,22 P,0,28265,29065,A F,0,29221,,1,0
Sprite,Foreground,Centre,"sb/d.png",0,0 S,7,28265,29065,0.4142304,0 M,7,28265,29065,463,83,420,174 P,0,28265,29065,A F,0,29221,,1,0
Sprite,Foreground,Centre,"sb/d.png",0,0 S,7,28265,29065,0.4142304,0 M,7,28265,29065,463,83,492,172 P,0,28265,29065,A F,0,29221,,1,0
Sprite,Foreground,Centre,"sb/d.png",0,0 S,7,28265,29065,0.4142304,0 M,7,28265,29065,463,83,493,23 P,0,28265,29065,A F,0,29221,,1,0
Sprite,Foreground,Centre,"sb/d.png",0,0 S,7,28265,29065,0.4142304,0 M,7,28265,29065,463,83,373,10 P,0,28265,29065,A F,0,29221,,1,0
Sprite,Foreground,Centre,"sb/d.png",0,0 S,7,28412,29212,0.2619846,0 M,7,28412,29212,549,110,597,171 P,0,28412,29212,A F,0,29221,,1,0
Sprite,Foreground,Centre,"sb/d.png",0,0 S,7,28412,29212,0.2619846,0 M,7,28412,29212,549,110,619,30 P,0,28412,29212,A F,0,29221,,1,0
Sprite,Foreground,Centre,"sb/d.png",0,0 S,7,28412,29212,0.2619846,0 M,7,28412,29212,549,110,575,95 P,0,28412,29212,A F,0,29221,,1,0
Sprite,Foreground,Centre,"sb/d.png",0,0 S,7,28412,29212,0.2619846,0 M,7,28412,29212,549,110,640,166 P,0,28412,29212,A F,0,29221,,1,0
Sprite,Foreground,Centre,"sb/d.png",0,0 S,7,28412,29212,0.2619846,0 M,7,28412,29212,549,110,614,197 P,0,28412,29212,A F,0,29221,,1,0
Sprite,Foreground,Centre,"sb/d.png",0,0 S,7,28412,29212,0.2619846,0 M,7,28412,29212,549,110,618,149 P,0,28412,29212,A F,0,29221,,1,0
Sprite,Foreground,Centre,"sb/d.png",0,0 S,7,28412,29212,0.2619846,0 M,7,28412,29212,549,110,636,32 P,0,28412,29212,A F,0,29221,,1,0
Sprite,Foreground,Centre,"sb/d.png",0,0 S,7,28412,29212,0.2619846,0 M,7,28412,29212,549,110,575,90 P,0,28412,29212,A F,0,29221,,1,0
Sprite,Foreground,Centre,"sb/d.png",0,0 S,7,28412,29212,0.2619846,0 M,7,28412,29212,549,110,554,95 P,0,28412,29212,A F,0,29221,,1,0
Sprite,Foreground,Centre,"sb/d.png",0,0 S,7,28412,29212,0.2619846,0 M,7,28412,29212,549,110,501,44 P,0,28412,29212,A F,0,29221,,1,0
Sprite,Foreground,Centre,"sb/d.png",0,0 S,7,28707,29507,0.4077407,0 M,7,28707,29507,477,248,460,331 P,0,28707,29507,A F,0,29221,,1,0
Sprite,Foreground,Centre,"sb/d.png",0,0 S,7,28707,29507,0.4077407,0 M,7,28707,29507,477,248,441,228 P,0,28707,29507,A F,0,29221,,1,0
Sprite,Foreground,Centre,"sb/d.png",0,0 S,7,28707,29507,0.4077407,0 M,7,28707,29507,477,248,488,240 P,0,28707,29507,A F,0,29221,,1,0
Sprite,Foreground,Centre,"sb/d.png",0,0 S,7,28707,29507,0.4077407,0 M,7,28707,29507,477,248,412,232 P,0,28707,29507,A F,0,29221,,1,0
Sprite,Foreground,Centre,"sb/d.png",0,0 S,7,28707,29507,0.4077407,0 M,7,28707,29507,477,248,381,180 P,0,28707,29507,A F,0,29221,,1,0
Sprite,Foreground,Centre,"sb/d.png",0,0 S,7,28707,29507,0.4077407,0 M,7,28707,29507,477,248,447,276 P,0,28707,29507,A F,0,29221,,1,0
Sprite,Foreground,Centre,"sb/d.png",0,0 S,7,28707,29507,0.4077407,0 M,7,28707,29507,477,248,529,235 P,0,28707,29507,A F,0,29221,,1,0
Sprite,Foreground,Centre,"sb/d.png",0,0 S,7,28707,29507,0.4077407,0 M,7,28707,29507,477,248,503,289 P,0,28707,29507,A F,0,29221,,1,0
Sprite,Foreground,Centre,"sb/d.png",0,0 S,7,28707,29507,0.4077407,0 M,7,28707,29507,477,248,555,149 P,0,28707,29507,A F,0,29221,,1,0
Sprite,Foreground,Centre,"sb/d.png",0,0 S,7,28707,29507,0.4077407,0 M,7,28707,29507,477,248,511,230 P,0,28707,29507,A F,0,29221,,1,0
Sprite,Foreground,Centre,"sb/d.png",0,0 S,7,29001,29801,0.3079728,0 M,7,29001,29801,553,375,628,408 P,0,29001,29801,A F,0,29221,,1,0
Sprite,Foreground,Centre,"sb/d.png",0,0 S,7,29001,29801,0.3079728,0 M,7,29001,29801,553,375,502,375 P,0,29001,29801,A F,0,29221,,1,0
Sprite,Foreground,Centre,"sb/d.png",0,0 S,7,29001,29801,0.3079728,0 M,7,29001,29801,553,375,522,443 P,0,29001,29801,A F,0,29221,,1,0
Sprite,Foreground,Centre,"sb/d.png",0,0 S,7,29001,29801,0.3079728,0 M,7,29001,29801,553,375,456,383 P,0,29001,29801,A F,0,29221,,1,0
Sprite,Foreground,Centre,"sb/d.png",0,0 S,7,29001,29801,0.3079728,0 M,7,29001,29801,553,375,478,429 P,0,29001,29801,A F,0,29221,,1,0
Sprite,Foreground,Centre,"sb/d.png",0,0 S,7,29001,29801,0.3079728,0 M,7,29001,29801,553,375,611,467 P,0,29001,29801,A F,0,29221,,1,0
Sprite,Foreground,Centre,"sb/d.png",0,0 S,7,29001,29801,0.3079728,0 M,7,29001,29801,553,375,507,340 P,0,29001,29801,A F,0,29221,,1,0
Sprite,Foreground,Centre,"sb/d.png",0,0 S,7,29001,29801,0.3079728,0 M,7,29001,29801,553,375,630,381 P,0,29001,29801,A F,0,29221,,1,0
Sprite,Foreground,Centre,"sb/d.png",0,0 S,7,29001,29801,0.3079728,0 M,7,29001,29801,553,375,593,289 P,0,29001,29801,A F,0,29221,,1,0
Sprite,Foreground,Centre,"sb/d.png",0,0 S,7,29001,29801,0.3079728,0 M,7,29001,29801,553,375,646,431 P,0,29001,29801,A F,0,29221,,1,0
Animation,Foreground,Centre,"sb/circleani/Ellipse.png",447,56,31,25,LoopOnce S,7,208118,208893,0,0.512 C,0,208118,,0,151,75
Animation,Foreground,Centre,"sb/circleani/Ellipse.png",159,189,31,25,LoopOnce S,7,209295,210070,0,0.512 C,0,209295,,0,151,75
Animation,Foreground,Centre,"sb/circleani/Ellipse.png",246,111,31,25,LoopOnce S,7,212824,213599,0,0.512 C,0,212824,,0,151,75
Animation,Foreground,Centre,"sb/circleani/Ellipse.png",392,390,31,25,LoopOnce S,7,214001,214776,0,0.512 C,0,214001,,0,151,75
Animation,Foreground,Centre,"sb/circleani/Ellipse.png",157,169,31,25,LoopOnce S,7,215177,215952,0,0.512 C,0,215177,,0,151,75
Animation,Foreground,Centre,"sb/circleani/Ellipse.png",285,381,31,25,LoopOnce S,7,210471,211246,0,0.512 C,0,210471,,0,151,75
Animation,Foreground,Centre,"sb/circleani/Ellipse.png",307,193,31,25,LoopOnce S,7,211648,212423,0,0.512 C,0,211648,,0,151,75
Animation,Foreground,Centre,"sb/circleani/Ellipse.png",383,182,31,25,LoopOnce S,7,216354,217129,0,0.512 C,0,216354,,0,151,75
Animation,Foreground,Centre,"sb/circleani/Ellipse.png",496,56,31,25,LoopOnce S,7,216942,217717,0,0.512 C,0,216942,,0,151,75
Animation,Foreground,Centre,"sb/circleani/Ellipse.png",435,69,31,25,LoopOnce S,7,212236,213011,0,0.512 C,0,212236,,0,151,75
Sprite,Foreground,Centre,"sb/ring.png",0,0 M,0,103412,,150,115 F,0,103412,,0 S,7,103412,104412,0,1.8 F,7,103412,104412,1,0 P,0,103412,,A M,0,104515,,320,2000
Sprite,Foreground,Centre,"sb/ring.png",0,0 M,0,103412,,91,207 F,0,103412,,0 S,7,103707,104707,0,1.8 F,7,103707,104707,1,0 P,0,103707,,A M,0,104515,,320,2000
Sprite,Foreground,Centre,"sb/ring.png",0,0 M,0,103412,,172,275 F,0,103412,,0 S,7,104001,105001,0,1.8 F,7,104001,105001,1,0 P,0,104001,,A M,0,104515,,320,2000
Sprite,Foreground,Centre,"sb/ring.png",0,0 M,0,103412,,115,369 F,0,103412,,0 S,7,104296,105296,0,1.8 F,7,104296,105296,1,0 P,0,104296,,A M,0,104515,,320,2000
Sprite,Foreground,Centre,"sb/d.png",0,0 S,7,198707,199507,0.3952487,0 M,7,198707,199507,332,303,395,356 P,0,198707,199507,A F,0,208118,,1,0
Sprite,Foreground,Centre,"sb/d.png",0,0 S,7,198707,199507,0.3952487,0 M,7,198707,199507,332,303,343,244 P,0,198707,199507,A F,0,208118,,1,0
Sprite,Foreground,Centre,"sb/d.png",0,0 S,7,198707,199507,0.3952487,0 M,7,198707,199507,332,303,343,384 P,0,198707,199507,A F,0,208118,,1,0
Sprite,Foreground,Centre,"sb/d.png",0,0 S,7,198707,199507,0.3952487,0 M,7,198707,199507,332,303,320,398 P,0,198707,199507,A F,0,208118,,1,0
Sprite,Foreground,Centre,"sb/d.png",0,0 S,7,198707,199507,0.3952487,0 M,7,198707,199507,332,303,286,261 P,0,198707,199507,A F,0,208118,,1,0
Sprite,Foreground,Centre,"sb/d.png",0,0 S,7,198707,199507,0.3952487,0 M,7,198707,199507,332,303,325,329 P,0,198707,199507,A F,0,208118,,1,0
Sprite,Foreground,Centre,"sb/d.png",0,0 S,7,198707,199507,0.3952487,0 M,7,198707,199507,332,303,325,399 P,0,198707,199507,A F,0,208118,,1,0
Sprite,Foreground,Centre,"sb/d.png",0,0 S,7,198707,199507,0.3952487,0 M,7,198707,199507,332,303,238,375 P,0,198707,199507,A F,0,208118,,1,0
Sprite,Foreground,Centre,"sb/d.png",0,0 S,7,198707,199507,0.3952487,0 M,7,198707,199507,332,303,431,338 P,0,198707,199507,A F,0,208118,,1,0
Sprite,Foreground,Centre,"sb/d.png",0,0 S,7,198707,199507,0.3952487,0 M,7,198707,199507,332,303,294,366 P,0,198707,199507,A F,0,208118,,1,0
Sprite,Foreground,Centre,"sb/d.png",0,0 S,7,199001,199801,0.4196104,0 M,7,199001,199801,190,351,288,257 P,0,199001,199801,A F,0,208118,,1,0
Sprite,Foreground,Centre,"sb/d.png",0,0 S,7,199001,199801,0.4196104,0 M,7,199001,199801,190,351,229,356 P,0,199001,199801,A F,0,208118,,1,0
Sprite,Foreground,Centre,"sb/d.png",0,0 S,7,199001,199801,0.4196104,0 M,7,199001,199801,190,351,276,388 P,0,199001,199801,A F,0,208118,,1,0
Sprite,Foreground,Centre,"sb/d.png",0,0 S,7,199001,199801,0.4196104,0 M,7,199001,199801,190,351,199,267 P,0,199001,199801,A F,0,208118,,1,0
Sprite,Foreground,Centre,"sb/d.png",0,0 S,7,199001,199801,0.4196104,0 M,7,199001,199801,190,351,127,341 P,0,199001,199801,A F,0,208118,,1,0
Sprite,Foreground,Centre,"sb/d.png",0,0 S,7,199001,199801,0.4196104,0 M,7,199001,199801,190,351,149,448 P,0,199001,199801,A F,0,208118,,1,0
Sprite,Foreground,Centre,"sb/d.png",0,0 S,7,199001,199801,0.4196104,0 M,7,199001,199801,190,351,218,403 P,0,199001,199801,A F,0,208118,,1,0
Sprite,Foreground,Centre,"sb/d.png",0,0 S,7,199001,199801,0.4196104,0 M,7,199001,199801,190,351,96,327 P,0,199001,199801,A F,0,208118,,1,0
Sprite,Foreground,Centre,"sb/d.png",0,0 S,7,199001,199801,0.4196104,0 M,7,199001,199801,190,351,158,442 P,0,199001,199801,A F,0,208118,,1,0
Sprite,Foreground,Centre,"sb/d.png",0,0 S,7,199001,199801,0.4196104,0 M,7,199001,199801,190,351,191,394 P,0,199001,199801,A F,0,208118,,1,0
Sprite,Foreground,Centre,"sb/d.png",0,0 S,7,199442,200242,0.2737916,0 M,7,199442,200242,260,164,214,245 P,0,199442,200242,A F,0,208118,,1,0
Sprite,Foreground,Centre,"sb/d.png",0,0 S,7,199442,200242,0.2737916,0 M,7,199442,200242,260,164,318,131 P,0,199442,200242,A F,0,208118,,1,0
Sprite,Foreground,Centre,"sb/d.png",0,0 S,7,199442,200242,0.2737916,0 M,7,199442,200242,260,164,251,93 P,0,199442,200242,A F,0,208118,,1,0
Sprite,Foreground,Centre,"sb/d.png",0,0 S,7,199442,200242,0.2737916,0 M,7,199442,200242,260,164,204,146 P,0,199442,200242,A F,0,208118,,1,0
Sprite,Foreground,Centre,"sb/d.png",0,0 S,7,199442,200242,0.2737916,0 M,7,199442,200242,260,164,303,187 P,0,199442,200242,A F,0,208118,,1,0
Sprite,Foreground,Centre,"sb/d.png",0,0 S,7,199442,200242,0.2737916,0 M,7,199442,200242,260,164,257,102 P,0,199442,200242,A F,0,208118,,1,0
Sprite,Foreground,Centre,"sb/d.png",0,0 S,7,199442,200242,0.2737916,0 M,7,199442,200242,260,164,335,229 P,0,199442,200242,A F,0,208118,,1,0
Sprite,Foreground,Centre,"sb/d.png",0,0 S,7,199442,200242,0.2737916,0 M,7,199442,200242,260,164,307,235 P,0,199442,200242,A F,0,208118,,1,0
Sprite,Foreground,Centre,"sb/d.png",0,0 S,7,199442,200242,0.2737916,0 M,7,199442,200242,260,164,295,188 P,0,199442,200242,A F,0,208118,,1,0
Sprite,Foreground,Centre,"sb/d.png",0,0 S,7,199442,200242,0.2737916,0 M,7,199442,200242,260,164,203,243 P,0,199442,200242,A F,0,208118,,1,0
Sprite,Foreground,Centre,"sb/d.png",0,0 S,7,199589,200389,0.429288,0 M,7,199589,200389,337,210,254,277 P,0,199589,200389,A F,0,208118,,1,0
Sprite,Foreground,Centre,"sb/d.png",0,0 S,7,199589,200389,0.429288,0 M,7,199589,200389,337,210,271,238 P,0,199589,200389,A F,0,208118,,1,0
Sprite,Foreground,Centre,"sb/d.png",0,0 S,7,199589,200389,0.429288,0 M,7,199589,200389,337,210,402,153 P,0,199589,200389,A F,0,208118,,1,0
Sprite,Foreground,Centre,"sb/d.png",0,0 S,7,199589,200389,0.429288,0 M,7,199589,200389,337,210,436,206 P,0,199589,200389,A F,0,208118,,1,0
Sprite,Foreground,Centre,"sb/d.png",0,0 S,7,199589,200389,0.429288,0 M,7,199589,200389,337,210,367,253 P,0,199589,200389,A F,0,208118,,1,0
Sprite,Foreground,Centre,"sb/d.png",0,0 S,7,199589,200389,0.429288,0 M,7,199589,200389,337,210,398,130 P,0,199589,200389,A F,0,208118,,1,0
Sprite,Foreground,Centre,"sb/d.png",0,0 S,7,199589,200389,0.429288,0 M,7,199589,200389,337,210,382,253 P,0,199589,200389,A F,0,208118,,1,0
Sprite,Foreground,Centre,"sb/d.png",0,0 S,7,199589,200389,0.429288,0 M,7,199589,200389,337,210,262,291 P,0,199589,200389,A F,0,208118,,1,0
Sprite,Foreground,Centre,"sb/d.png",0,0 S,7,199589,200389,0.429288,0 M,7,199589,200389,337,210,274,205 P,0,199589,200389,A F,0,208118,,1,0
Sprite,Foreground,Centre,"sb/d.png",0,0 S,7,199589,200389,0.429288,0 M,7,199589,200389,337,210,345,175 P,0,199589,200389,A F,0,208118,,1,0
Sprite,Foreground,Centre,"sb/d.png",0,0 S,7,199883,200683,0.3842073,0 M,7,199883,200683,497,196,490,262 P,0,199883,200683,A F,0,208118,,1,0
Sprite,Foreground,Centre,"sb/d.png",0,0 S,7,199883,200683,0.3842073,0 M,7,199883,200683,497,196,558,254 P,0,199883,200683,A F,0,208118,,1,0
Sprite,Foreground,Centre,"sb/d.png",0,0 S,7,199883,200683,0.3842073,0 M,7,199883,200683,497,196,549,283 P,0,199883,200683,A F,0,208118,,1,0
Sprite,Foreground,Centre,"sb/d.png",0,0 S,7,199883,200683,0.3842073,0 M,7,199883,200683,497,196,455,200 P,0,199883,200683,A F,0,208118,,1,0
Sprite,Foreground,Centre,"sb/d.png",0,0 S,7,199883,200683,0.3842073,0 M,7,199883,200683,497,196,529,162 P,0,199883,200683,A F,0,208118,,1,0
Sprite,Foreground,Centre,"sb/d.png",0,0 S,7,199883,200683,0.3842073,0 M,7,199883,200683,497,196,454,260 P,0,199883,200683,A F,0,208118,,1,0
Sprite,Foreground,Centre,"sb/d.png",0,0 S,7,199883,200683,0.3842073,0 M,7,199883,200683,497,196,441,133 P,0,199883,200683,A F,0,208118,,1,0
Sprite,Foreground,Centre,"sb/d.png",0,0 S,7,199883,200683,0.3842073,0 M,7,199883,200683,497,196,410,220 P,0,199883,200683,A F,0,208118,,1,0
Sprite,Foreground,Centre,"sb/d.png",0,0 S,7,199883,200683,0.3842073,0 M,7,199883,200683,497,196,535,222 P,0,199883,200683,A F,0,208118,,1,0
Sprite,Foreground,Centre,"sb/d.png",0,0 S,7,199883,200683,0.3842073,0 M,7,199883,200683,497,196,582,140 P,0,199883,200683,A F,0,208118,,1,0
Sprite,Foreground,Centre,"sb/d.png",0,0 S,7,200618,201418,0.4357415,0 M,7,200618,201418,497,196,410,276 P,0,200618,201418,A F,0,208118,,1,0
Sprite,Foreground,Centre,"sb/d.png",0,0 S,7,200618,201418,0.4357415,0 M,7,200618,201418,497,196,532,114 P,0,200618,201418,A F,0,208118,,1,0
Sprite,Foreground,Centre,"sb/d.png",0,0 S,7,200618,201418,0.4357415,0 M,7,200618,201418,497,196,426,117 P,0,200618,201418,A F,0,208118,,1,0
Sprite,Foreground,Centre,"sb/d.png",0,0 S,7,200618,201418,0.4357415,0 M,7,200618,201418,497,196,518,286 P,0,200618,201418,A F,0,208118,,1,0
Sprite,Foreground,Centre,"sb/d.png",0,0 S,7,200618,201418,0.4357415,0 M,7,200618,201418,497,196,495,125 P,0,200618,201418,A F,0,208118,,1,0
Sprite,Foreground,Centre,"sb/d.png",0,0 S,7,200618,201418,0.4357415,0 M,7,200618,201418,497,196,532,209 P,0,200618,201418,A F,0,208118,,1,0
Sprite,Foreground,Centre,"sb/d.png",0,0 S,7,200618,201418,0.4357415,0 M,7,200618,201418,497,196,442,219 P,0,200618,201418,A F,0,208118,,1,0
Sprite,Foreground,Centre,"sb/d.png",0,0 S,7,200618,201418,0.4357415,0 M,7,200618,201418,497,196,398,168 P,0,200618,201418,A F,0,208118,,1,0
Sprite,Foreground,Centre,"sb/d.png",0,0 S,7,200618,201418,0.4357415,0 M,7,200618,201418,497,196,567,108 P,0,200618,201418,A F,0,208118,,1,0
Sprite,Foreground,Centre,"sb/d.png",0,0 S,7,200618,201418,0.4357415,0 M,7,200618,201418,497,196,453,236 P,0,200618,201418,A F,0,208118,,1,0
Sprite,Foreground,Centre,"sb/d.png",0,0 S,7,200765,201565,0.4417161,0 M,7,200765,201565,459,278,556,255 P,0,200765,201565,A F,0,208118,,1,0
Sprite,Foreground,Centre,"sb/d.png",0,0 S,7,200765,201565,0.4417161,0 M,7,200765,201565,459,278,463,234 P,0,200765,201565,A F,0,208118,,1,0
Sprite,Foreground,Centre,"sb/d.png",0,0 S,7,200765,201565,0.4417161,0 M,7,200765,201565,459,278,460,284 P,0,200765,201565,A F,0,208118,,1,0
Sprite,Foreground,Centre,"sb/d.png",0,0 S,7,200765,201565,0.4417161,0 M,7,200765,201565,459,278,370,234 P,0,200765,201565,A F,0,208118,,1,0
Sprite,Foreground,Centre,"sb/d.png",0,0 S,7,200765,201565,0.4417161,0 M,7,200765,201565,459,278,458,347 P,0,200765,201565,A F,0,208118,,1,0
Sprite,Foreground,Centre,"sb/d.png",0,0 S,7,200765,201565,0.4417161,0 M,7,200765,201565,459,278,481,198 P,0,200765,201565,A F,0,208118,,1,0
Sprite,Foreground,Centre,"sb/d.png",0,0 S,7,200765,201565,0.4417161,0 M,7,200765,201565,459,278,507,258 P,0,200765,201565,A F,0,208118,,1,0
Sprite,Foreground,Centre,"sb/d.png",0,0 S,7,200765,201565,0.4417161,0 M,7,200765,201565,459,278,545,204 P,0,200765,201565,A F,0,208118,,1,0
Sprite,Foreground,Centre,"sb/d.png",0,0 S,7,200765,201565,0.4417161,0 M,7,200765,201565,459,278,498,301 P,0,200765,201565,A F,0,208118,,1,0
Sprite,Foreground,Centre,"sb/d.png",0,0 S,7,200765,201565,0.4417161,0 M,7,200765,201565,459,278,525,315 P,0,200765,201565,A F,0,208118,,1,0
Sprite,Foreground,Centre,"sb/d.png",0,0 S,7,201060,201860,0.3639485,0 M,7,201060,201860,298,299,232,235 P,0,201060,201860,A F,0,208118,,1,0
Sprite,Foreground,Centre,"sb/d.png",0,0 S,7,201060,201860,0.3639485,0 M,7,201060,201860,298,299,319,249 P,0,201060,201860,A F,0,208118,,1,0
Sprite,Foreground,Centre,"sb/d.png",0,0 S,7,201060,201860,0.3639485,0 M,7,201060,201860,298,299,397,312 P,0,201060,201860,A F,0,208118,,1,0
Sprite,Foreground,Centre,"sb/d.png",0,0 S,7,201060,201860,0.3639485,0 M,7,201060,201860,298,299,210,251 P,0,201060,201860,A F,0,208118,,1,0
Sprite,Foreground,Centre,"sb/d.png",0,0 S,7,201060,201860,0.3639485,0 M,7,201060,201860,298,299,366,312 P,0,201060,201860,A F,0,208118,,1,0
Sprite,Foreground,Centre,"sb/d.png",0,0 S,7,201060,201860,0.3639485,0 M,7,201060,201860,298,299,327,302 P,0,201060,201860,A F,0,208118,,1,0
Sprite,Foreground,Centre,"sb/d.png",0,0 S,7,201060,201860,0.3639485,0 M,7,201060,201860,298,299,392,214 P,0,201060,201860,A F,0,208118,,1,0
Sprite,Foreground,Centre,"sb/d.png",0,0 S,7,201060,201860,0.3639485,0 M,7,201060,201860,298,299,300,230 P,0,201060,201860,A F,0,208118,,1,0
Sprite,Foreground,Centre,"sb/d.png",0,0 S,7,201060,201860,0.3639485,0 M,7,201060,201860,298,299,360,327 P,0,201060,201860,A F,0,208118,,1,0
Sprite,Foreground,Centre,"sb/d.png",0,0 S,7,201060,201860,0.3639485,0 M,7,201060,201860,298,299,313,309 P,0,201060,201860,A F,0,208118,,1,0
Sprite,Foreground,Centre,"sb/d.png",0,0 S,7,201795,202595,0.3844979,0 M,7,201795,202595,298,299,396,259 P,0,201795,202595,A F,0,208118,,1,0
Sprite,Foreground,Centre,"sb/d.png",0,0 S,7,201795,202595,0.3844979,0 M,7,201795,202595,298,299,210,292 P,0,201795,202595,A F,0,208118,,1,0
Sprite,Foreground,Centre,"sb/d.png",0,0 S,7,201795,202595,0.3844979,0 M,7,201795,202595,298,299,294,242 P,0,201795,202595,A F,0,208118,,1,0
Sprite,Foreground,Centre,"sb/d.png",0,0 S,7,201795,202595,0.3844979,0 M,7,201795,202595,298,299,212,245 P,0,201795,202595,A F,0,208118,,1,0
Sprite,Foreground,Centre,"sb/d.png",0,0 S,7,201795,202595,0.3844979,0 M,7,201795,202595,298,299,228,288 P,0,201795,202595,A F,0,208118,,1,0
Sprite,Foreground,Centre,"sb/d.png",0,0 S,7,201795,202595,0.3844979,0 M,7,201795,202595,298,299,288,202 P,0,201795,202595,A F,0,208118,,1,0
Sprite,Foreground,Centre,"sb/d.png",0,0 S,7,201795,202595,0.3844979,0 M,7,201795,202595,298,299,275,362 P,0,201795,202595,A F,0,208118,,1,0
Sprite,Foreground,Centre,"sb/d.png",0,0 S,7,201795,202595,0.3844979,0 M,7,201795,202595,298,299,238,381 P,0,201795,202595,A F,0,208118,,1,0
Sprite,Foreground,Centre,"sb/d.png",0,0 S,7,201795,202595,0.3844979,0 M,7,201795,202595,298,299,203,300 P,0,201795,202595,A F,0,208118,,1,0
Sprite,Foreground,Centre,"sb/d.png",0,0 S,7,201795,202595,0.3844979,0 M,7,201795,202595,298,299,390,397 P,0,201795,202595,A F,0,208118,,1,0
Sprite,Foreground,Centre,"sb/d.png",0,0 S,7,201942,202742,0.253374,0 M,7,201942,202742,340,218,370,173 P,0,201942,202742,A F,0,208118,,1,0
Sprite,Foreground,Centre,"sb/d.png",0,0 S,7,201942,202742,0.253374,0 M,7,201942,202742,340,218,433,235 P,0,201942,202742,A F,0,208118,,1,0
Sprite,Foreground,Centre,"sb/d.png",0,0 S,7,201942,202742,0.253374,0 M,7,201942,202742,340,218,394,182 P,0,201942,202742,A F,0,208118,,1,0
Sprite,Foreground,Centre,"sb/d.png",0,0 S,7,201942,202742,0.253374,0 M,7,201942,202742,340,218,324,312 P,0,201942,202742,A F,0,208118,,1,0
Sprite,Foreground,Centre,"sb/d.png",0,0 S,7,201942,202742,0.253374,0 M,7,201942,202742,340,218,417,312 P,0,201942,202742,A F,0,208118,,1,0
Sprite,Foreground,Centre,"sb/d.png",0,0 S,7,201942,202742,0.253374,0 M,7,201942,202742,340,218,291,144 P,0,201942,202742,A F,0,208118,,1,0
Sprite,Foreground,Centre,"sb/d.png",0,0 S,7,201942,202742,0.253374,0 M,7,201942,202742,340,218,419,153 P,0,201942,202742,A F,0,208118,,1,0
Sprite,Foreground,Centre,"sb/d.png",0,0 S,7,201942,202742,0.253374,0 M,7,201942,202742,340,218,416,226 P,0,201942,202742,A F,0,208118,,1,0
Sprite,Foreground,Centre,"sb/d.png",0,0 S,7,201942,202742,0.253374,0 M,7,201942,202742,340,218,397,220 P,0,201942,202742,A F,0,208118,,1,0
Sprite,Foreground,Centre,"sb/d.png",0,0 S,7,201942,202742,0.253374,0 M,7,201942,202742,340,218,310,316 P,0,201942,202742,A F,0,208118,,1,0
Sprite,Foreground,Centre,"sb/d.png",0,0 S,7,202236,203036,0.2566886,0 M,7,202236,203036,255,98,293,22 P,0,202236,203036,A F,0,208118,,1,0
Sprite,Foreground,Centre,"sb/d.png",0,0 S,7,202236,203036,0.2566886,0 M,7,202236,203036,255,98,193,97 P,0,202236,203036,A F,0,208118,,1,0
Sprite,Foreground,Centre,"sb/d.png",0,0 S,7,202236,203036,0.2566886,0 M,7,202236,203036,255,98,271,50 P,0,202236,203036,A F,0,208118,,1,0
Sprite,Foreground,Centre,"sb/d.png",0,0 S,7,202236,203036,0.2566886,0 M,7,202236,203036,255,98,217,46 P,0,202236,203036,A F,0,208118,,1,0
Sprite,Foreground,Centre,"sb/d.png",0,0 S,7,202236,203036,0.2566886,0 M,7,202236,203036,255,98,311,24 P,0,202236,203036,A F,0,208118,,1,0
Sprite,Foreground,Centre,"sb/d.png",0,0 S,7,202236,203036,0.2566886,0 M,7,202236,203036,255,98,277,109 P,0,202236,203036,A F,0,208118,,1,0
Sprite,Foreground,Centre,"sb/d.png",0,0 S,7,202236,203036,0.2566886,0 M,7,202236,203036,255,98,286,66 P,0,202236,203036,A F,0,208118,,1,0
Sprite,Foreground,Centre,"sb/d.png",0,0 S,7,202236,203036,0.2566886,0 M,7,202236,203036,255,98,159,17 P,0,202236,203036,A F,0,208118,,1,0
Sprite,Foreground,Centre,"sb/d.png",0,0 S,7,202236,203036,0.2566886,0 M,7,202236,203036,255,98,330,140 P,0,202236,203036,A F,0,208118,,1,0
Sprite,Foreground,Centre,"sb/d.png",0,0 S,7,202236,203036,0.2566886,0 M,7,202236,203036,255,98,333,128 P,0,202236,203036,A F,0,208118,,1,0
Sprite,Foreground,Centre,"sb/d.png",0,0 S,7,202383,203183,0.3010615,0 M,7,202383,203183,255,98,207,92 P,0,202383,203183,A F,0,208118,,1,0
Sprite,Foreground,Centre,"sb/d.png",0,0 S,7,202383,203183,0.3010615,0 M,7,202383,203183,255,98,194,175 P,0,202383,203183,A F,0,208118,,1,0
Sprite,Foreground,Centre,"sb/d.png",0,0 S,7,202383,203183,0.3010615,0 M,7,202383,203183,255,98,253,125 P,0,202383,203183,A F,0,208118,,1,0
Sprite,Foreground,Centre,"sb/d.png",0,0 S,7,202383,203183,0.3010615,0 M,7,202383,203183,255,98,218,71 P,0,202383,203183,A F,0,208118,,1,0
Sprite,Foreground,Centre,"sb/d.png",0,0 S,7,202383,203183,0.3010615,0 M,7,202383,203183,255,98,203,197 P,0,202383,203183,A F,0,208118,,1,0
Sprite,Foreground,Centre,"sb/d.png",0,0 S,7,202383,203183,0.3010615,0 M,7,202383,203183,255,98,277,-2 P,0,202383,203183,A F,0,208118,,1,0
Sprite,Foreground,Centre,"sb/d.png",0,0 S,7,202383,203183,0.3010615,0 M,7,202383,203183,255,98,351,190 P,0,202383,203183,A F,0,208118,,1,0
Sprite,Foreground,Centre,"sb/d.png",0,0 S,7,202383,203183,0.3010615,0 M,7,202383,203183,255,98,186,152 P,0,202383,203183,A F,0,208118,,1,0
Sprite,Foreground,Centre,"sb/d.png",0,0 S,7,202383,203183,0.3010615,0 M,7,202383,203183,255,98,173,36 P,0,202383,203183,A F,0,208118,,1,0
Sprite,Foreground,Centre,"sb/d.png",0,0 S,7,202383,203183,0.3010615,0 M,7,202383,203183,255,98,167,20 P,0,202383,203183,A F,0,208118,,1,0
Sprite,Foreground,Centre,"sb/d.png",0,0 S,7,202530,203330,0.3965594,0 M,7,202530,203330,187,158,107,225 P,0,202530,203330,A F,0,208118,,1,0
Sprite,Foreground,Centre,"sb/d.png",0,0 S,7,202530,203330,0.3965594,0 M,7,202530,203330,187,158,215,172 P,0,202530,203330,A F,0,208118,,1,0
Sprite,Foreground,Centre,"sb/d.png",0,0 S,7,202530,203330,0.3965594,0 M,7,202530,203330,187,158,135,225 P,0,202530,203330,A F,0,208118,,1,0
Sprite,Foreground,Centre,"sb/d.png",0,0 S,7,202530,203330,0.3965594,0 M,7,202530,203330,187,158,258,147 P,0,202530,203330,A F,0,208118,,1,0
Sprite,Foreground,Centre,"sb/d.png",0,0 S,7,202530,203330,0.3965594,0 M,7,202530,203330,187,158,268,218 P,0,202530,203330,A F,0,208118,,1,0
Sprite,Foreground,Centre,"sb/d.png",0,0 S,7,202530,203330,0.3965594,0 M,7,202530,203330,187,158,179,126 P,0,202530,203330,A F,0,208118,,1,0
Sprite,Foreground,Centre,"sb/d.png",0,0 S,7,202530,203330,0.3965594,0 M,7,202530,203330,187,158,242,143 P,0,202530,203330,A F,0,208118,,1,0
Sprite,Foreground,Centre,"sb/d.png",0,0 S,7,202530,203330,0.3965594,0 M,7,202530,203330,187,158,216,257 P,0,202530,203330,A F,0,208118,,1,0
Sprite,Foreground,Centre,"sb/d.png",0,0 S,7,202530,203330,0.3965594,0 M,7,202530,203330,187,158,208,75 P,0,202530,203330,A F,0,208118,,1,0
Sprite,Foreground,Centre,"sb/d.png",0,0 S,7,202530,203330,0.3965594,0 M,7,202530,203330,187,158,211,256 P,0,202530,203330,A F,0,208118,,1,0
Sprite,Foreground,Centre,"sb/d.png",0,0 S,7,202824,203624,0.4246328,0 M,7,202824,203624,90,253,97,180 P,0,202824,203624,A F,0,208118,,1,0
Sprite,Foreground,Centre,"sb/d.png",0,0 S,7,202824,203624,0.4246328,0 M,7,202824,203624,90,253,-10,264 P,0,202824,203624,A F,0,208118,,1,0
Sprite,Foreground,Centre,"sb/d.png",0,0 S,7,202824,203624,0.4246328,0 M,7,202824,203624,90,253,124,228 P,0,202824,203624,A F,0,208118,,1,0
Sprite,Foreground,Centre,"sb/d.png",0,0 S,7,202824,203624,0.4246328,0 M,7,202824,203624,90,253,163,218 P,0,202824,203624,A F,0,208118,,1,0
Sprite,Foreground,Centre,"sb/d.png",0,0 S,7,202824,203624,0.4246328,0 M,7,202824,203624,90,253,147,256 P,0,202824,203624,A F,0,208118,,1,0
Sprite,Foreground,Centre,"sb/d.png",0,0 S,7,202824,203624,0.4246328,0 M,7,202824,203624,90,253,155,261 P,0,202824,203624,A F,0,208118,,1,0
Sprite,Foreground,Centre,"sb/d.png",0,0 S,7,202824,203624,0.4246328,0 M,7,202824,203624,90,253,94,185 P,0,202824,203624,A F,0,208118,,1,0
Sprite,Foreground,Centre,"sb/d.png",0,0 S,7,202824,203624,0.4246328,0 M,7,202824,203624,90,253,116,263 P,0,202824,203624,A F,0,208118,,1,0
Sprite,Foreground,Centre,"sb/d.png",0,0 S,7,202824,203624,0.4246328,0 M,7,202824,203624,90,253,52,202 P,0,202824,203624,A F,0,208118,,1,0
Sprite,Foreground,Centre,"sb/d.png",0,0 S,7,202824,203624,0.4246328,0 M,7,202824,203624,90,253,150,245 P,0,202824,203624,A F,0,208118,,1,0
Sprite,Foreground,Centre,"sb/d.png",0,0 S,7,203265,204065,0.4343202,0 M,7,203265,204065,298,299,265,237 P,0,203265,204065,A F,0,208118,,1,0
Sprite,Foreground,Centre,"sb/d.png",0,0 S,7,203265,204065,0.4343202,0 M,7,203265,204065,298,299,228,331 P,0,203265,204065,A F,0,208118,,1,0
Sprite,Foreground,Centre,"sb/d.png",0,0 S,7,203265,204065,0.4343202,0 M,7,203265,204065,298,299,239,305 P,0,203265,204065,A F,0,208118,,1,0
Sprite,Foreground,Centre,"sb/d.png",0,0 S,7,203265,204065,0.4343202,0 M,7,203265,204065,298,299,299,353 P,0,203265,204065,A F,0,208118,,1,0
Sprite,Foreground,Centre,"sb/d.png",0,0 S,7,203265,204065,0.4343202,0 M,7,203265,204065,298,299,294,219 P,0,203265,204065,A F,0,208118,,1,0
Sprite,Foreground,Centre,"sb/d.png",0,0 S,7,203265,204065,0.4343202,0 M,7,203265,204065,298,299,285,222 P,0,203265,204065,A F,0,208118,,1,0
Sprite,Foreground,Centre,"sb/d.png",0,0 S,7,203265,204065,0.4343202,0 M,7,203265,204065,298,299,369,311 P,0,203265,204065,A F,0,208118,,1,0
Sprite,Foreground,Centre,"sb/d.png",0,0 S,7,203265,204065,0.4343202,0 M,7,203265,204065,298,299,338,327 P,0,203265,204065,A F,0,208118,,1,0
Sprite,Foreground,Centre,"sb/d.png",0,0 S,7,203265,204065,0.4343202,0 M,7,203265,204065,298,299,201,312 P,0,203265,204065,A F,0,208118,,1,0
Sprite,Foreground,Centre,"sb/d.png",0,0 S,7,203265,204065,0.4343202,0 M,7,203265,204065,298,299,289,397 P,0,203265,204065,A F,0,208118,,1,0
Sprite,Foreground,Centre,"sb/d.png",0,0 S,7,203412,204212,0.2744685,0 M,7,203412,204212,373,247,297,203 P,0,203412,204212,A F,0,208118,,1,0
Sprite,Foreground,Centre,"sb/d.png",0,0 S,7,203412,204212,0.2744685,0 M,7,203412,204212,373,247,399,306 P,0,203412,204212,A F,0,208118,,1,0
Sprite,Foreground,Centre,"sb/d.png",0,0 S,7,203412,204212,0.2744685,0 M,7,203412,204212,373,247,324,199 P,0,203412,204212,A F,0,208118,,1,0
Sprite,Foreground,Centre,"sb/d.png",0,0 S,7,203412,204212,0.2744685,0 M,7,203412,204212,373,247,275,236 P,0,203412,204212,A F,0,208118,,1,0
Sprite,Foreground,Centre,"sb/d.png",0,0 S,7,203412,204212,0.2744685,0 M,7,203412,204212,373,247,331,314 P,0,203412,204212,A F,0,208118,,1,0
Sprite,Foreground,Centre,"sb/d.png",0,0 S,7,203412,204212,0.2744685,0 M,7,203412,204212,373,247,437,253 P,0,203412,204212,A F,0,208118,,1,0
Sprite,Foreground,Centre,"sb/d.png",0,0 S,7,203412,204212,0.2744685,0 M,7,203412,204212,373,247,463,187 P,0,203412,204212,A F,0,208118,,1,0
Sprite,Foreground,Centre,"sb/d.png",0,0 S,7,203412,204212,0.2744685,0 M,7,203412,204212,373,247,462,317 P,0,203412,204212,A F,0,208118,,1,0
Sprite,Foreground,Centre,"sb/d.png",0,0 S,7,203412,204212,0.2744685,0 M,7,203412,204212,373,247,452,240 P,0,203412,204212,A F,0,208118,,1,0
Sprite,Foreground,Centre,"sb/d.png",0,0 S,7,203412,204212,0.2744685,0 M,7,203412,204212,373,247,441,218 P,0,203412,204212,A F,0,208118,,1,0
Sprite,Foreground,Centre,"sb/d.png",0,0 S,7,203707,204507,0.3603556,0 M,7,203707,204507,289,124,249,107 P,0,203707,204507,A F,0,208118,,1,0
Sprite,Foreground,Centre,"sb/d.png",0,0 S,7,203707,204507,0.3603556,0 M,7,203707,204507,289,124,267,108 P,0,203707,204507,A F,0,208118,,1,0
Sprite,Foreground,Centre,"sb/d.png",0,0 S,7,203707,204507,0.3603556,0 M,7,203707,204507,289,124,321,144 P,0,203707,204507,A F,0,208118,,1,0
Sprite,Foreground,Centre,"sb/d.png",0,0 S,7,203707,204507,0.3603556,0 M,7,203707,204507,289,124,375,206 P,0,203707,204507,A F,0,208118,,1,0
Sprite,Foreground,Centre,"sb/d.png",0,0 S,7,203707,204507,0.3603556,0 M,7,203707,204507,289,124,248,160 P,0,203707,204507,A F,0,208118,,1,0
Sprite,Foreground,Centre,"sb/d.png",0,0 S,7,203707,204507,0.3603556,0 M,7,203707,204507,289,124,257,117 P,0,203707,204507,A F,0,208118,,1,0
Sprite,Foreground,Centre,"sb/d.png",0,0 S,7,203707,204507,0.3603556,0 M,7,203707,204507,289,124,348,67 P,0,203707,204507,A F,0,208118,,1,0
Sprite,Foreground,Centre,"sb/d.png",0,0 S,7,203707,204507,0.3603556,0 M,7,203707,204507,289,124,370,127 P,0,203707,204507,A F,0,208118,,1,0
Sprite,Foreground,Centre,"sb/d.png",0,0 S,7,203707,204507,0.3603556,0 M,7,203707,204507,289,124,361,213 P,0,203707,204507,A F,0,208118,,1,0
Sprite,Foreground,Centre,"sb/d.png",0,0 S,7,203707,204507,0.3603556,0 M,7,203707,204507,289,124,243,123 P,0,203707,204507,A F,0,208118,,1,0
Sprite,Foreground,Centre,"sb/d.png",0,0 S,7,204148,204948,0.3154958,0 M,7,204148,204948,501,90,438,42 P,0,204148,204948,A F,0,208118,,1,0
Sprite,Foreground,Centre,"sb/d.png",0,0 S,7,204148,204948,0.3154958,0 M,7,204148,204948,501,90,524,107 P,0,204148,204948,A F,0,208118,,1,0
Sprite,Foreground,Centre,"sb/d.png",0,0 S,7,204148,204948,0.3154958,0 M,7,204148,204948,501,90,582,62 P,0,204148,204948,A F,0,208118,,1,0
Sprite,Foreground,Centre,"sb/d.png",0,0 S,7,204148,204948,0.3154958,0 M,7,204148,204948,501,90,552,147 P,0,204148,204948,A F,0,208118,,1,0
Sprite,Foreground,Centre,"sb/d.png",0,0 S,7,204148,204948,0.3154958,0 M,7,204148,204948,501,90,424,10 P,0,204148,204948,A F,0,208118,,1,0
Sprite,Foreground,Centre,"sb/d.png",0,0 S,7,204148,204948,0.3154958,0 M,7,204148,204948,501,90,523,117 P,0,204148,204948,A F,0,208118,,1,0
Sprite,Foreground,Centre,"sb/d.png",0,0 S,7,204148,204948,0.3154958,0 M,7,204148,204948,501,90,515,153 P,0,204148,204948,A F,0,208118,,1,0
Sprite,Foreground,Centre,"sb/d.png",0,0 S,7,204148,204948,0.3154958,0 M,7,204148,204948,501,90,573,37 P,0,204148,204948,A F,0,208118,,1,0
Sprite,Foreground,Centre,"sb/d.png",0,0 S,7,204148,204948,0.3154958,0 M,7,204148,204948,501,90,476,108 P,0,204148,204948,A F,0,208118,,1,0
Sprite,Foreground,Centre,"sb/d.png",0,0 S,7,204148,204948,0.3154958,0 M,7,204148,204948,501,90,533,6 P,0,204148,204948,A F,0,208118,,1,0
Sprite,Foreground,Centre,"sb/d.png",0,0 S,7,204295,205095,0.3566422,0 M,7,204295,205095,550,166,649,97 P,0,204295,205095,A F,0,208118,,1,0
Sprite,Foreground,Centre,"sb/d.png",0,0 S,7,204295,205095,0.3566422,0 M,7,204295,205095,550,166,546,78 P,0,204295,205095,A F,0,208118,,1,0
Sprite,Foreground,Centre,"sb/d.png",0,0 S,7,204295,205095,0.3566422,0 M,7,204295,205095,550,166,480,263 P,0,204295,205095,A F,0,208118,,1,0
Sprite,Foreground,Centre,"sb/d.png",0,0 S,7,204295,205095,0.3566422,0 M,7,204295,205095,550,166,457,132 P,0,204295,205095,A F,0,208118,,1,0
Sprite,Foreground,Centre,"sb/d.png",0,0 S,7,204295,205095,0.3566422,0 M,7,204295,205095,550,166,456,169 P,0,204295,205095,A F,0,208118,,1,0
Sprite,Foreground,Centre,"sb/d.png",0,0 S,7,204295,205095,0.3566422,0 M,7,204295,205095,550,166,564,237 P,0,204295,205095,A F,0,208118,,1,0
Sprite,Foreground,Centre,"sb/d.png",0,0 S,7,204295,205095,0.3566422,0 M,7,204295,205095,550,166,494,89 P,0,204295,205095,A F,0,208118,,1,0
Sprite,Foreground,Centre,"sb/d.png",0,0 S,7,204295,205095,0.3566422,0 M,7,204295,205095,550,166,481,221 P,0,204295,205095,A F,0,208118,,1,0
Sprite,Foreground,Centre,"sb/d.png",0,0 S,7,204295,205095,0.3566422,0 M,7,204295,205095,550,166,616,216 P,0,204295,205095,A F,0,208118,,1,0
Sprite,Foreground,Centre,"sb/d.png",0,0 S,7,204295,205095,0.3566422,0 M,7,204295,205095,550,166,498,101 P,0,204295,205095,A F,0,208118,,1,0
Sprite,Foreground,Centre,"sb/d.png",0,0 S,7,204589,205389,0.2747247,0 M,7,204589,205389,466,288,401,303 P,0,204589,205389,A F,0,208118,,1,0
Sprite,Foreground,Centre,"sb/d.png",0,0 S,7,204589,205389,0.2747247,0 M,7,204589,205389,466,288,511,353 P,0,204589,205389,A F,0,208118,,1,0
Sprite,Foreground,Centre,"sb/d.png",0,0 S,7,204589,205389,0.2747247,0 M,7,204589,205389,466,288,411,268 P,0,204589,205389,A F,0,208118,,1,0
Sprite,Foreground,Centre,"sb/d.png",0,0 S,7,204589,205389,0.2747247,0 M,7,204589,205389,466,288,374,244 P,0,204589,205389,A F,0,208118,,1,0
Sprite,Foreground,Centre,"sb/d.png",0,0 S,7,204589,205389,0.2747247,0 M,7,204589,205389,466,288,462,259 P,0,204589,205389,A F,0,208118,,1,0
Sprite,Foreground,Centre,"sb/d.png",0,0 S,7,204589,205389,0.2747247,0 M,7,204589,205389,466,288,487,271 P,0,204589,205389,A F,0,208118,,1,0
Sprite,Foreground,Centre,"sb/d.png",0,0 S,7,204589,205389,0.2747247,0 M,7,204589,205389,466,288,524,226 P,0,204589,205389,A F,0,208118,,1,0
Sprite,Foreground,Centre,"sb/d.png",0,0 S,7,204589,205389,0.2747247,0 M,7,204589,205389,466,288,386,214 P,0,204589,205389,A F,0,208118,,1,0
Sprite,Foreground,Centre,"sb/d.png",0,0 S,7,204589,205389,0.2747247,0 M,7,204589,205389,466,288,471,339 P,0,204589,205389,A F,0,208118,,1,0
Sprite,Foreground,Centre,"sb/d.png",0,0 S,7,204589,205389,0.2747247,0 M,7,204589,205389,466,288,440,332 P,0,204589,205389,A F,0,208118,,1,0
Sprite,Foreground,Centre,"sb/d.png",0,0 S,7,205324,206124,0.3413711,0 M,7,205324,206124,466,288,383,305 P,0,205324,206124,A F,0,208118,,1,0
Sprite,Foreground,Centre,"sb/d.png",0,0 S,7,205324,206124,0.3413711,0 M,7,205324,206124,466,288,374,343 P,0,205324,206124,A F,0,208118,,1,0
Sprite,Foreground,Centre,"sb/d.png",0,0 S,7,205324,206124,0.3413711,0 M,7,205324,206124,466,288,435,327 P,0,205324,206124,A F,0,208118,,1,0
Sprite,Foreground,Centre,"sb/d.png",0,0 S,7,205324,206124,0.3413711,0 M,7,205324,206124,466,288,507,280 P,0,205324,206124,A F,0,208118,,1,0
Sprite,Foreground,Centre,"sb/d.png",0,0 S,7,205324,206124,0.3413711,0 M,7,205324,206124,466,288,474,355 P,0,205324,206124,A F,0,208118,,1,0
Sprite,Foreground,Centre,"sb/d.png",0,0 S,7,205324,206124,0.3413711,0 M,7,205324,206124,466,288,450,369 P,0,205324,206124,A F,0,208118,,1,0
Sprite,Foreground,Centre,"sb/d.png",0,0 S,7,205324,206124,0.3413711,0 M,7,205324,206124,466,288,447,351 P,0,205324,206124,A F,0,208118,,1,0
Sprite,Foreground,Centre,"sb/d.png",0,0 S,7,205324,206124,0.3413711,0 M,7,205324,206124,466,288,482,338 P,0,205324,206124,A F,0,208118,,1,0
Sprite,Foreground,Centre,"sb/d.png",0,0 S,7,205324,206124,0.3413711,0 M,7,205324,206124,466,288,412,372 P,0,205324,206124,A F,0,208118,,1,0
Sprite,Foreground,Centre,"sb/d.png",0,0 S,7,205324,206124,0.3413711,0 M,7,205324,206124,466,288,482,386 P,0,205324,206124,A F,0,208118,,1,0
Sprite,Foreground,Centre,"sb/d.png",0,0 S,7,205471,206271,0.2604122,0 M,7,205471,206271,400,225,409,157 P,0,205471,206271,A F,0,208118,,1,0
Sprite,Foreground,Centre,"sb/d.png",0,0 S,7,205471,206271,0.2604122,0 M,7,205471,206271,400,225,493,213 P,0,205471,206271,A F,0,208118,,1,0
Sprite,Foreground,Centre,"sb/d.png",0,0 S,7,205471,206271,0.2604122,0 M,7,205471,206271,400,225,386,309 P,0,205471,206271,A F,0,208118,,1,0
Sprite,Foreground,Centre,"sb/d.png",0,0 S,7,205471,206271,0.2604122,0 M,7,205471,206271,400,225,311,253 P,0,205471,206271,A F,0,208118,,1,0
Sprite,Foreground,Centre,"sb/d.png",0,0 S,7,205471,206271,0.2604122,0 M,7,205471,206271,400,225,361,324 P,0,205471,206271,A F,0,208118,,1,0
Sprite,Foreground,Centre,"sb/d.png",0,0 S,7,205471,206271,0.2604122,0 M,7,205471,206271,400,225,473,215 P,0,205471,206271,A F,0,208118,,1,0
Sprite,Foreground,Centre,"sb/d.png",0,0 S,7,205471,206271,0.2604122,0 M,7,205471,206271,400,225,433,143 P,0,205471,206271,A F,0,208118,,1,0
Sprite,Foreground,Centre,"sb/d.png",0,0 S,7,205471,206271,0.2604122,0 M,7,205471,206271,400,225,498,262 P,0,205471,206271,A F,0,208118,,1,0
Sprite,Foreground,Centre,"sb/d.png",0,0 S,7,205471,206271,0.2604122,0 M,7,205471,206271,400,225,310,301 P,0,205471,206271,A F,0,208118,,1,0
Sprite,Foreground,Centre,"sb/d.png",0,0 S,7,205471,206271,0.2604122,0 M,7,205471,206271,400,225,440,192 P,0,205471,206271,A F,0,208118,,1,0
Sprite,Foreground,Centre,"sb/d.png",0,0 S,7,205765,206565,0.4131823,0 M,7,205765,206565,250,170,337,173 P,0,205765,206565,A F,0,208118,,1,0
Sprite,Foreground,Centre,"sb/d.png",0,0 S,7,205765,206565,0.4131823,0 M,7,205765,206565,250,170,186,172 P,0,205765,206565,A F,0,208118,,1,0
Sprite,Foreground,Centre,"sb/d.png",0,0 S,7,205765,206565,0.4131823,0 M,7,205765,206565,250,170,226,145 P,0,205765,206565,A F,0,208118,,1,0
Sprite,Foreground,Centre,"sb/d.png",0,0 S,7,205765,206565,0.4131823,0 M,7,205765,206565,250,170,254,146 P,0,205765,206565,A F,0,208118,,1,0
Sprite,Foreground,Centre,"sb/d.png",0,0 S,7,205765,206565,0.4131823,0 M,7,205765,206565,250,170,208,236 P,0,205765,206565,A F,0,208118,,1,0
Sprite,Foreground,Centre,"sb/d.png",0,0 S,7,205765,206565,0.4131823,0 M,7,205765,206565,250,170,308,215 P,0,205765,206565,A F,0,208118,,1,0
Sprite,Foreground,Centre,"sb/d.png",0,0 S,7,205765,206565,0.4131823,0 M,7,205765,206565,250,170,230,177 P,0,205765,206565,A F,0,208118,,1,0
Sprite,Foreground,Centre,"sb/d.png",0,0 S,7,205765,206565,0.4131823,0 M,7,205765,206565,250,170,234,84 P,0,205765,206565,A F,0,208118,,1,0
Sprite,Foreground,Centre,"sb/d.png",0,0 S,7,205765,206565,0.4131823,0 M,7,205765,206565,250,170,216,253 P,0,205765,206565,A F,0,208118,,1,0
Sprite,Foreground,Centre,"sb/d.png",0,0 S,7,205765,206565,0.4131823,0 M,7,205765,206565,250,170,305,200 P,0,205765,206565,A F,0,208118,,1,0
Sprite,Foreground,Centre,"sb/d.png",0,0 S,7,206501,207301,0.4146999,0 M,7,206501,207301,250,170,197,237 P,0,206501,207301,A F,0,208118,,1,0
Sprite,Foreground,Centre,"sb/d.png",0,0 S,7,206501,207301,0.4146999,0 M,7,206501,207301,250,170,261,160 P,0,206501,207301,A F,0,208118,,1,0
Sprite,Foreground,Centre,"sb/d.png",0,0 S,7,206501,207301,0.4146999,0 M,7,206501,207301,250,170,298,214 P,0,206501,207301,A F,0,208118,,1,0
Sprite,Foreground,Centre,"sb/d.png",0,0 S,7,206501,207301,0.4146999,0 M,7,206501,207301,250,170,267,82 P,0,206501,207301,A F,0,208118,,1,0
Sprite,Foreground,Centre,"sb/d.png",0,0 S,7,206501,207301,0.4146999,0 M,7,206501,207301,250,170,186,78 P,0,206501,207301,A F,0,208118,,1,0
Sprite,Foreground,Centre,"sb/d.png",0,0 S,7,206501,207301,0.4146999,0 M,7,206501,207301,250,170,326,200 P,0,206501,207301,A F,0,208118,,1,0
Sprite,Foreground,Centre,"sb/d.png",0,0 S,7,206501,207301,0.4146999,0 M,7,206501,207301,250,170,197,191 P,0,206501,207301,A F,0,208118,,1,0
Sprite,Foreground,Centre,"sb/d.png",0,0 S,7,206501,207301,0.4146999,0 M,7,206501,207301,250,170,278,226 P,0,206501,207301,A F,0,208118,,1,0
Sprite,Foreground,Centre,"sb/d.png",0,0 S,7,206501,207301,0.4146999,0 M,7,206501,207301,250,170,336,79 P,0,206501,207301,A F,0,208118,,1,0
Sprite,Foreground,Centre,"sb/d.png",0,0 S,7,206501,207301,0.4146999,0 M,7,206501,207301,250,170,259,176 P,0,206501,207301,A F,0,208118,,1,0
Sprite,Foreground,Centre,"sb/d.png",0,0 S,7,206648,207448,0.3014354,0 M,7,206648,207448,185,234,88,167 P,0,206648,207448,A F,0,208118,,1,0
Sprite,Foreground,Centre,"sb/d.png",0,0 S,7,206648,207448,0.3014354,0 M,7,206648,207448,185,234,99,279 P,0,206648,207448,A F,0,208118,,1,0
Sprite,Foreground,Centre,"sb/d.png",0,0 S,7,206648,207448,0.3014354,0 M,7,206648,207448,185,234,137,245 P,0,206648,207448,A F,0,208118,,1,0
Sprite,Foreground,Centre,"sb/d.png",0,0 S,7,206648,207448,0.3014354,0 M,7,206648,207448,185,234,198,256 P,0,206648,207448,A F,0,208118,,1,0
Sprite,Foreground,Centre,"sb/d.png",0,0 S,7,206648,207448,0.3014354,0 M,7,206648,207448,185,234,228,327 P,0,206648,207448,A F,0,208118,,1,0
Sprite,Foreground,Centre,"sb/d.png",0,0 S,7,206648,207448,0.3014354,0 M,7,206648,207448,185,234,269,271 P,0,206648,207448,A F,0,208118,,1,0
Sprite,Foreground,Centre,"sb/d.png",0,0 S,7,206648,207448,0.3014354,0 M,7,206648,207448,185,234,283,274 P,0,206648,207448,A F,0,208118,,1,0
Sprite,Foreground,Centre,"sb/d.png",0,0 S,7,206648,207448,0.3014354,0 M,7,206648,207448,185,234,221,259 P,0,206648,207448,A F,0,208118,,1,0
Sprite,Foreground,Centre,"sb/d.png",0,0 S,7,206648,207448,0.3014354,0 M,7,206648,207448,185,234,96,262 P,0,206648,207448,A F,0,208118,,1,0
Sprite,Foreground,Centre,"sb/d.png",0,0 S,7,206648,207448,0.3014354,0 M,7,206648,207448,185,234,216,320 P,0,206648,207448,A F,0,208118,,1,0
Sprite,Foreground,Centre,"sb/d.png",0,0 S,7,206942,207742,0.3141639,0 M,7,206942,207742,233,370,154,428 P,0,206942,207742,A F,0,208118,,1,0
Sprite,Foreground,Centre,"sb/d.png",0,0 S,7,206942,207742,0.3141639,0 M,7,206942,207742,233,370,314,284 P,0,206942,207742,A F,0,208118,,1,0
Sprite,Foreground,Centre,"sb/d.png",0,0 S,7,206942,207742,0.3141639,0 M,7,206942,207742,233,370,166,455 P,0,206942,207742,A F,0,208118,,1,0
Sprite,Foreground,Centre,"sb/d.png",0,0 S,7,206942,207742,0.3141639,0 M,7,206942,207742,233,370,289,328 P,0,206942,207742,A F,0,208118,,1,0
Sprite,Foreground,Centre,"sb/d.png",0,0 S,7,206942,207742,0.3141639,0 M,7,206942,207742,233,370,213,444 P,0,206942,207742,A F,0,208118,,1,0
Sprite,Foreground,Centre,"sb/d.png",0,0 S,7,206942,207742,0.3141639,0 M,7,206942,207742,233,370,179,293 P,0,206942,207742,A F,0,208118,,1,0
Sprite,Foreground,Centre,"sb/d.png",0,0 S,7,206942,207742,0.3141639,0 M,7,206942,207742,233,370,246,313 P,0,206942,207742,A F,0,208118,,1,0
Sprite,Foreground,Centre,"sb/d.png",0,0 S,7,206942,207742,0.3141639,0 M,7,206942,207742,233,370,267,366 P,0,206942,207742,A F,0,208118,,1,0
Sprite,Foreground,Centre,"sb/d.png",0,0 S,7,206942,207742,0.3141639,0 M,7,206942,207742,233,370,278,366 P,0,206942,207742,A F,0,208118,,1,0
Sprite,Foreground,Centre,"sb/d.png",0,0 S,7,206942,207742,0.3141639,0 M,7,206942,207742,233,370,165,274 P,0,206942,207742,A F,0,208118,,1,0
Sprite,Foreground,Centre,"sb/d.png",0,0 S,7,207089,207889,0.3395926,0 M,7,207089,207889,233,370,226,284 P,0,207089,207889,A F,0,208118,,1,0
Sprite,Foreground,Centre,"sb/d.png",0,0 S,7,207089,207889,0.3395926,0 M,7,207089,207889,233,370,324,463 P,0,207089,207889,A F,0,208118,,1,0
Sprite,Foreground,Centre,"sb/d.png",0,0 S,7,207089,207889,0.3395926,0 M,7,207089,207889,233,370,181,451 P,0,207089,207889,A F,0,208118,,1,0
Sprite,Foreground,Centre,"sb/d.png",0,0 S,7,207089,207889,0.3395926,0 M,7,207089,207889,233,370,325,301 P,0,207089,207889,A F,0,208118,,1,0
Sprite,Foreground,Centre,"sb/d.png",0,0 S,7,207089,207889,0.3395926,0 M,7,207089,207889,233,370,307,350 P,0,207089,207889,A F,0,208118,,1,0
Sprite,Foreground,Centre,"sb/d.png",0,0 S,7,207089,207889,0.3395926,0 M,7,207089,207889,233,370,310,390 P,0,207089,207889,A F,0,208118,,1,0
Sprite,Foreground,Centre,"sb/d.png",0,0 S,7,207089,207889,0.3395926,0 M,7,207089,207889,233,370,320,451 P,0,207089,207889,A F,0,208118,,1,0
Sprite,Foreground,Centre,"sb/d.png",0,0 S,7,207089,207889,0.3395926,0 M,7,207089,207889,233,370,208,303 P,0,207089,207889,A F,0,208118,,1,0
Sprite,Foreground,Centre,"sb/d.png",0,0 S,7,207089,207889,0.3395926,0 M,7,207089,207889,233,370,263,288 P,0,207089,207889,A F,0,208118,,1,0
Sprite,Foreground,Centre,"sb/d.png",0,0 S,7,207089,207889,0.3395926,0 M,7,207089,207889,233,370,259,426 P,0,207089,207889,A F,0,208118,,1,0
Sprite,Foreground,Centre,"sb/d.png",0,0 S,7,207236,208036,0.314422,0 M,7,207236,208036,307,318,269,237 P,0,207236,208036,A F,0,208118,,1,0
Sprite,Foreground,Centre,"sb/d.png",0,0 S,7,207236,208036,0.314422,0 M,7,207236,208036,307,318,345,331 P,0,207236,208036,A F,0,208118,,1,0
Sprite,Foreground,Centre,"sb/d.png",0,0 S,7,207236,208036,0.314422,0 M,7,207236,208036,307,318,292,314 P,0,207236,208036,A F,0,208118,,1,0
Sprite,Foreground,Centre,"sb/d.png",0,0 S,7,207236,208036,0.314422,0 M,7,207236,208036,307,318,208,246 P,0,207236,208036,A F,0,208118,,1,0
Sprite,Foreground,Centre,"sb/d.png",0,0 S,7,207236,208036,0.314422,0 M,7,207236,208036,307,318,273,250 P,0,207236,208036,A F,0,208118,,1,0
Sprite,Foreground,Centre,"sb/d.png",0,0 S,7,207236,208036,0.314422,0 M,7,207236,208036,307,318,305,400 P,0,207236,208036,A F,0,208118,,1,0
Sprite,Foreground,Centre,"sb/d.png",0,0 S,7,207236,208036,0.314422,0 M,7,207236,208036,307,318,381,346 P,0,207236,208036,A F,0,208118,,1,0
Sprite,Foreground,Centre,"sb/d.png",0,0 S,7,207236,208036,0.314422,0 M,7,207236,208036,307,318,350,407 P,0,207236,208036,A F,0,208118,,1,0
Sprite,Foreground,Centre,"sb/d.png",0,0 S,7,207236,208036,0.314422,0 M,7,207236,208036,307,318,228,402 P,0,207236,208036,A F,0,208118,,1,0
Sprite,Foreground,Centre,"sb/d.png",0,0 S,7,207236,208036,0.314422,0 M,7,207236,208036,307,318,211,382 P,0,207236,208036,A F,0,208118,,1,0
Sprite,Foreground,Centre,"sb/d.png",0,0 S,7,207530,208330,0.2774628,0 M,7,207530,208330,457,347,462,340 P,0,207530,208330,A F,0,208118,,1,0
Sprite,Foreground,Centre,"sb/d.png",0,0 S,7,207530,208330,0.2774628,0 M,7,207530,208330,457,347,425,350 P,0,207530,208330,A F,0,208118,,1,0
Sprite,Foreground,Centre,"sb/d.png",0,0 S,7,207530,208330,0.2774628,0 M,7,207530,208330,457,347,482,309 P,0,207530,208330,A F,0,208118,,1,0
Sprite,Foreground,Centre,"sb/d.png",0,0 S,7,207530,208330,0.2774628,0 M,7,207530,208330,457,347,416,309 P,0,207530,208330,A F,0,208118,,1,0
Sprite,Foreground,Centre,"sb/d.png",0,0 S,7,207530,208330,0.2774628,0 M,7,207530,208330,457,347,371,324 P,0,207530,208330,A F,0,208118,,1,0
Sprite,Foreground,Centre,"sb/d.png",0,0 S,7,207530,208330,0.2774628,0 M,7,207530,208330,457,347,463,294 P,0,207530,208330,A F,0,208118,,1,0
Sprite,Foreground,Centre,"sb/d.png",0,0 S,7,207530,208330,0.2774628,0 M,7,207530,208330,457,347,382,277 P,0,207530,208330,A F,0,208118,,1,0
Sprite,Foreground,Centre,"sb/d.png",0,0 S,7,207530,208330,0.2774628,0 M,7,207530,208330,457,347,552,300 P,0,207530,208330,A F,0,208118,,1,0
Sprite,Foreground,Centre,"sb/d.png",0,0 S,7,207530,208330,0.2774628,0 M,7,207530,208330,457,347,437,410 P,0,207530,208330,A F,0,208118,,1,0
Sprite,Foreground,Centre,"sb/d.png",0,0 S,7,207530,208330,0.2774628,0 M,7,207530,208330,457,347,441,437 P,0,207530,208330,A F,0,208118,,1,0
Sprite,Foreground,Centre,"sb/d.png",0,0 S,7,207677,208477,0.2523468,0 M,7,207677,208477,515,276,522,224 P,0,207677,208477,A F,0,208118,,1,0
Sprite,Foreground,Centre,"sb/d.png",0,0 S,7,207677,208477,0.2523468,0 M,7,207677,208477,515,276,494,314 P,0,207677,208477,A F,0,208118,,1,0
Sprite,Foreground,Centre,"sb/d.png",0,0 S,7,207677,208477,0.2523468,0 M,7,207677,208477,515,276,427,229 P,0,207677,208477,A F,0,208118,,1,0
Sprite,Foreground,Centre,"sb/d.png",0,0 S,7,207677,208477,0.2523468,0 M,7,207677,208477,515,276,546,220 P,0,207677,208477,A F,0,208118,,1,0
Sprite,Foreground,Centre,"sb/d.png",0,0 S,7,207677,208477,0.2523468,0 M,7,207677,208477,515,276,524,209 P,0,207677,208477,A F,0,208118,,1,0
Sprite,Foreground,Centre,"sb/d.png",0,0 S,7,207677,208477,0.2523468,0 M,7,207677,208477,515,276,537,368 P,0,207677,208477,A F,0,208118,,1,0
Sprite,Foreground,Centre,"sb/d.png",0,0 S,7,207677,208477,0.2523468,0 M,7,207677,208477,515,276,451,333 P,0,207677,208477,A F,0,208118,,1,0
Sprite,Foreground,Centre,"sb/d.png",0,0 S,7,207677,208477,0.2523468,0 M,7,207677,208477,515,276,540,246 P,0,207677,208477,A F,0,208118,,1,0
Sprite,Foreground,Centre,"sb/d.png",0,0 S,7,207677,208477,0.2523468,0 M,7,207677,208477,515,276,425,335 P,0,207677,208477,A F,0,208118,,1,0
Sprite,Foreground,Centre,"sb/d.png",0,0 S,7,207677,208477,0.2523468,0 M,7,207677,208477,515,276,449,318 P,0,207677,208477,A F,0,208118,,1,0
Sprite,Foreground,Centre,"sb/d.png",0,0 S,7,207824,208624,0.4157625,0 M,7,207824,208624,465,199,417,253 P,0,207824,208624,A F,0,208118,,1,0
Sprite,Foreground,Centre,"sb/d.png",0,0 S,7,207824,208624,0.4157625,0 M,7,207824,208624,465,199,557,233 P,0,207824,208624,A F,0,208118,,1,0
Sprite,Foreground,Centre,"sb/d.png",0,0 S,7,207824,208624,0.4157625,0 M,7,207824,208624,465,199,514,197 P,0,207824,208624,A F,0,208118,,1,0
Sprite,Foreground,Centre,"sb/d.png",0,0 S,7,207824,208624,0.4157625,0 M,7,207824,208624,465,199,512,235 P,0,207824,208624,A F,0,208118,,1,0
Sprite,Foreground,Centre,"sb/d.png",0,0 S,7,207824,208624,0.4157625,0 M,7,207824,208624,465,199,505,120 P,0,207824,208624,A F,0,208118,,1,0
Sprite,Foreground,Centre,"sb/d.png",0,0 S,7,207824,208624,0.4157625,0 M,7,207824,208624,465,199,484,272 P,0,207824,208624,A F,0,208118,,1,0
Sprite,Foreground,Centre,"sb/d.png",0,0 S,7,207824,208624,0.4157625,0 M,7,207824,208624,465,199,390,296 P,0,207824,208624,A F,0,208118,,1,0
Sprite,Foreground,Centre,"sb/d.png",0,0 S,7,207824,208624,0.4157625,0 M,7,207824,208624,465,199,409,287 P,0,207824,208624,A F,0,208118,,1,0
Sprite,Foreground,Centre,"sb/d.png",0,0 S,7,207824,208624,0.4157625,0 M,7,207824,208624,465,199,530,212 P,0,207824,208624,A F,0,208118,,1,0
Sprite,Foreground,Centre,"sb/d.png",0,0 S,7,207824,208624,0.4157625,0 M,7,207824,208624,465,199,373,226 P,0,207824,208624,A F,0,208118,,1,0
Sprite,Foreground,Centre,"sb/d.png",0,0 S,7,207971,208771,0.2686976,0 M,7,207971,208771,523,128,528,71 P,0,207971,208771,A F,0,208118,,1,0
Sprite,Foreground,Centre,"sb/d.png",0,0 S,7,207971,208771,0.2686976,0 M,7,207971,208771,523,128,606,83 P,0,207971,208771,A F,0,208118,,1,0
Sprite,Foreground,Centre,"sb/d.png",0,0 S,7,207971,208771,0.2686976,0 M,7,207971,208771,523,128,611,100 P,0,207971,208771,A F,0,208118,,1,0
Sprite,Foreground,Centre,"sb/d.png",0,0 S,7,207971,208771,0.2686976,0 M,7,207971,208771,523,128,493,210 P,0,207971,208771,A F,0,208118,,1,0
Sprite,Foreground,Centre,"sb/d.png",0,0 S,7,207971,208771,0.2686976,0 M,7,207971,208771,523,128,493,32 P,0,207971,208771,A F,0,208118,,1,0
Sprite,Foreground,Centre,"sb/d.png",0,0 S,7,207971,208771,0.2686976,0 M,7,207971,208771,523,128,473,76 P,0,207971,208771,A F,0,208118,,1,0
Sprite,Foreground,Centre,"sb/d.png",0,0 S,7,207971,208771,0.2686976,0 M,7,207971,208771,523,128,459,83 P,0,207971,208771,A F,0,208118,,1,0
Sprite,Foreground,Centre,"sb/d.png",0,0 S,7,207971,208771,0.2686976,0 M,7,207971,208771,523,128,516,114 P,0,207971,208771,A F,0,208118,,1,0
Sprite,Foreground,Centre,"sb/d.png",0,0 S,7,207971,208771,0.2686976,0 M,7,207971,208771,523,128,426,91 P,0,207971,208771,A F,0,208118,,1,0
Sprite,Foreground,Centre,"sb/d.png",0,0 S,7,207971,208771,0.2686976,0 M,7,207971,208771,523,128,578,212 P,0,207971,208771,A F,0,208118,,1,0
Sprite,Foreground,Centre,"sb/d.png",0,0 S,7,123412,124212,0.3952487,0 M,7,123412,124212,500,253,563,306 P,0,123412,124212,A F,0,142236,,1,0
Sprite,Foreground,Centre,"sb/d.png",0,0 S,7,123412,124212,0.3952487,0 M,7,123412,124212,500,253,511,194 P,0,123412,124212,A F,0,142236,,1,0
Sprite,Foreground,Centre,"sb/d.png",0,0 S,7,123412,124212,0.3952487,0 M,7,123412,124212,500,253,511,334 P,0,123412,124212,A F,0,142236,,1,0
Sprite,Foreground,Centre,"sb/d.png",0,0 S,7,123412,124212,0.3952487,0 M,7,123412,124212,500,253,488,348 P,0,123412,124212,A F,0,142236,,1,0
Sprite,Foreground,Centre,"sb/d.png",0,0 S,7,123412,124212,0.3952487,0 M,7,123412,124212,500,253,454,211 P,0,123412,124212,A F,0,142236,,1,0
Sprite,Foreground,Centre,"sb/d.png",0,0 S,7,123412,124212,0.3952487,0 M,7,123412,124212,500,253,493,279 P,0,123412,124212,A F,0,142236,,1,0
Sprite,Foreground,Centre,"sb/d.png",0,0 S,7,123412,124212,0.3952487,0 M,7,123412,124212,500,253,493,349 P,0,123412,124212,A F,0,142236,,1,0
Sprite,Foreground,Centre,"sb/d.png",0,0 S,7,123412,124212,0.3952487,0 M,7,123412,124212,500,253,406,325 P,0,123412,124212,A F,0,142236,,1,0
Sprite,Foreground,Centre,"sb/d.png",0,0 S,7,123412,124212,0.3952487,0 M,7,123412,124212,500,253,599,288 P,0,123412,124212,A F,0,142236,,1,0
Sprite,Foreground,Centre,"sb/d.png",0,0 S,7,123412,124212,0.3952487,0 M,7,123412,124212,500,253,462,316 P,0,123412,124212,A F,0,142236,,1,0
Sprite,Foreground,Centre,"sb/d.png",0,0 S,7,124148,124948,0.4196104,0 M,7,124148,124948,500,253,598,159 P,0,124148,124948,A F,0,142236,,1,0
Sprite,Foreground,Centre,"sb/d.png",0,0 S,7,124148,124948,0.4196104,0 M,7,124148,124948,500,253,539,258 P,0,124148,124948,A F,0,142236,,1,0
Sprite,Foreground,Centre,"sb/d.png",0,0 S,7,124148,124948,0.4196104,0 M,7,124148,124948,500,253,586,290 P,0,124148,124948,A F,0,142236,,1,0
Sprite,Foreground,Centre,"sb/d.png",0,0 S,7,124148,124948,0.4196104,0 M,7,124148,124948,500,253,509,169 P,0,124148,124948,A F,0,142236,,1,0
Sprite,Foreground,Centre,"sb/d.png",0,0 S,7,124148,124948,0.4196104,0 M,7,124148,124948,500,253,437,243 P,0,124148,124948,A F,0,142236,,1,0
Sprite,Foreground,Centre,"sb/d.png",0,0 S,7,124148,124948,0.4196104,0 M,7,124148,124948,500,253,459,350 P,0,124148,124948,A F,0,142236,,1,0
Sprite,Foreground,Centre,"sb/d.png",0,0 S,7,124148,124948,0.4196104,0 M,7,124148,124948,500,253,528,305 P,0,124148,124948,A F,0,142236,,1,0
Sprite,Foreground,Centre,"sb/d.png",0,0 S,7,124148,124948,0.4196104,0 M,7,124148,124948,500,253,406,229 P,0,124148,124948,A F,0,142236,,1,0
Sprite,Foreground,Centre,"sb/d.png",0,0 S,7,124148,124948,0.4196104,0 M,7,124148,124948,500,253,468,344 P,0,124148,124948,A F,0,142236,,1,0
Sprite,Foreground,Centre,"sb/d.png",0,0 S,7,124148,124948,0.4196104,0 M,7,124148,124948,500,253,501,296 P,0,124148,124948,A F,0,142236,,1,0
Sprite,Foreground,Centre,"sb/d.png",0,0 S,7,124295,125095,0.2737916,0 M,7,124295,125095,423,204,377,285 P,0,124295,125095,A F,0,142236,,1,0
Sprite,Foreground,Centre,"sb/d.png",0,0 S,7,124295,125095,0.2737916,0 M,7,124295,125095,423,204,481,171 P,0,124295,125095,A F,0,142236,,1,0
Sprite,Foreground,Centre,"sb/d.png",0,0 S,7,124295,125095,0.2737916,0 M,7,124295,125095,423,204,414,133 P,0,124295,125095,A F,0,142236,,1,0
Sprite,Foreground,Centre,"sb/d.png",0,0 S,7,124295,125095,0.2737916,0 M,7,124295,125095,423,204,367,186 P,0,124295,125095,A F,0,142236,,1,0
Sprite,Foreground,Centre,"sb/d.png",0,0 S,7,124295,125095,0.2737916,0 M,7,124295,125095,423,204,466,227 P,0,124295,125095,A F,0,142236,,1,0
Sprite,Foreground,Centre,"sb/d.png",0,0 S,7,124295,125095,0.2737916,0 M,7,124295,125095,423,204,420,142 P,0,124295,125095,A F,0,142236,,1,0
Sprite,Foreground,Centre,"sb/d.png",0,0 S,7,124295,125095,0.2737916,0 M,7,124295,125095,423,204,498,269 P,0,124295,125095,A F,0,142236,,1,0
Sprite,Foreground,Centre,"sb/d.png",0,0 S,7,124295,125095,0.2737916,0 M,7,124295,125095,423,204,470,275 P,0,124295,125095,A F,0,142236,,1,0
Sprite,Foreground,Centre,"sb/d.png",0,0 S,7,124295,125095,0.2737916,0 M,7,124295,125095,423,204,458,228 P,0,124295,125095,A F,0,142236,,1,0
Sprite,Foreground,Centre,"sb/d.png",0,0 S,7,124295,125095,0.2737916,0 M,7,124295,125095,423,204,366,283 P,0,124295,125095,A F,0,142236,,1,0
Sprite,Foreground,Centre,"sb/d.png",0,0 S,7,124589,125389,0.429288,0 M,7,124589,125389,272,237,189,304 P,0,124589,125389,A F,0,142236,,1,0
Sprite,Foreground,Centre,"sb/d.png",0,0 S,7,124589,125389,0.429288,0 M,7,124589,125389,272,237,206,265 P,0,124589,125389,A F,0,142236,,1,0
Sprite,Foreground,Centre,"sb/d.png",0,0 S,7,124589,125389,0.429288,0 M,7,124589,125389,272,237,337,180 P,0,124589,125389,A F,0,142236,,1,0
Sprite,Foreground,Centre,"sb/d.png",0,0 S,7,124589,125389,0.429288,0 M,7,124589,125389,272,237,371,233 P,0,124589,125389,A F,0,142236,,1,0
Sprite,Foreground,Centre,"sb/d.png",0,0 S,7,124589,125389,0.429288,0 M,7,124589,125389,272,237,302,280 P,0,124589,125389,A F,0,142236,,1,0
Sprite,Foreground,Centre,"sb/d.png",0,0 S,7,124589,125389,0.429288,0 M,7,124589,125389,272,237,333,157 P,0,124589,125389,A F,0,142236,,1,0
Sprite,Foreground,Centre,"sb/d.png",0,0 S,7,124589,125389,0.429288,0 M,7,124589,125389,272,237,317,280 P,0,124589,125389,A F,0,142236,,1,0
Sprite,Foreground,Centre,"sb/d.png",0,0 S,7,124589,125389,0.429288,0 M,7,124589,125389,272,237,197,318 P,0,124589,125389,A F,0,142236,,1,0
Sprite,Foreground,Centre,"sb/d.png",0,0 S,7,124589,125389,0.429288,0 M,7,124589,125389,272,237,209,232 P,0,124589,125389,A F,0,142236,,1,0
Sprite,Foreground,Centre,"sb/d.png",0,0 S,7,124589,125389,0.429288,0 M,7,124589,125389,272,237,280,202 P,0,124589,125389,A F,0,142236,,1,0
Sprite,Foreground,Centre,"sb/d.png",0,0 S,7,124736,125536,0.3842073,0 M,7,124736,125536,212,168,205,234 P,0,124736,125536,A F,0,142236,,1,0
Sprite,Foreground,Centre,"sb/d.png",0,0 S,7,124736,125536,0.3842073,0 M,7,124736,125536,212,168,273,226 P,0,124736,125536,A F,0,142236,,1,0
Sprite,Foreground,Centre,"sb/d.png",0,0 S,7,124736,125536,0.3842073,0 M,7,124736,125536,212,168,264,255 P,0,124736,125536,A F,0,142236,,1,0
Sprite,Foreground,Centre,"sb/d.png",0,0 S,7,124736,125536,0.3842073,0 M,7,124736,125536,212,168,170,172 P,0,124736,125536,A F,0,142236,,1,0
Sprite,Foreground,Centre,"sb/d.png",0,0 S,7,124736,125536,0.3842073,0 M,7,124736,125536,212,168,244,134 P,0,124736,125536,A F,0,142236,,1,0
Sprite,Foreground,Centre,"sb/d.png",0,0 S,7,124736,125536,0.3842073,0 M,7,124736,125536,212,168,169,232 P,0,124736,125536,A F,0,142236,,1,0
Sprite,Foreground,Centre,"sb/d.png",0,0 S,7,124736,125536,0.3842073,0 M,7,124736,125536,212,168,156,105 P,0,124736,125536,A F,0,142236,,1,0
Sprite,Foreground,Centre,"sb/d.png",0,0 S,7,124736,125536,0.3842073,0 M,7,124736,125536,212,168,125,192 P,0,124736,125536,A F,0,142236,,1,0
Sprite,Foreground,Centre,"sb/d.png",0,0 S,7,124736,125536,0.3842073,0 M,7,124736,125536,212,168,250,194 P,0,124736,125536,A F,0,142236,,1,0
Sprite,Foreground,Centre,"sb/d.png",0,0 S,7,124736,125536,0.3842073,0 M,7,124736,125536,212,168,297,112 P,0,124736,125536,A F,0,142236,,1,0
Sprite,Foreground,Centre,"sb/d.png",0,0 S,7,124883,125683,0.4357415,0 M,7,124883,125683,129,205,42,285 P,0,124883,125683,A F,0,142236,,1,0
Sprite,Foreground,Centre,"sb/d.png",0,0 S,7,124883,125683,0.4357415,0 M,7,124883,125683,129,205,164,123 P,0,124883,125683,A F,0,142236,,1,0
Sprite,Foreground,Centre,"sb/d.png",0,0 S,7,124883,125683,0.4357415,0 M,7,124883,125683,129,205,58,126 P,0,124883,125683,A F,0,142236,,1,0
Sprite,Foreground,Centre,"sb/d.png",0,0 S,7,124883,125683,0.4357415,0 M,7,124883,125683,129,205,150,295 P,0,124883,125683,A F,0,142236,,1,0
Sprite,Foreground,Centre,"sb/d.png",0,0 S,7,124883,125683,0.4357415,0 M,7,124883,125683,129,205,127,134 P,0,124883,125683,A F,0,142236,,1,0
Sprite,Foreground,Centre,"sb/d.png",0,0 S,7,124883,125683,0.4357415,0 M,7,124883,125683,129,205,164,218 P,0,124883,125683,A F,0,142236,,1,0
Sprite,Foreground,Centre,"sb/d.png",0,0 S,7,124883,125683,0.4357415,0 M,7,124883,125683,129,205,74,228 P,0,124883,125683,A F,0,142236,,1,0
Sprite,Foreground,Centre,"sb/d.png",0,0 S,7,124883,125683,0.4357415,0 M,7,124883,125683,129,205,30,177 P,0,124883,125683,A F,0,142236,,1,0
Sprite,Foreground,Centre,"sb/d.png",0,0 S,7,124883,125683,0.4357415,0 M,7,124883,125683,129,205,199,117 P,0,124883,125683,A F,0,142236,,1,0
Sprite,Foreground,Centre,"sb/d.png",0,0 S,7,124883,125683,0.4357415,0 M,7,124883,125683,129,205,85,245 P,0,124883,125683,A F,0,142236,,1,0
Sprite,Foreground,Centre,"sb/d.png",0,0 S,7,125177,125977,0.4417161,0 M,7,125177,125977,110,364,207,341 P,0,125177,125977,A F,0,142236,,1,0
Sprite,Foreground,Centre,"sb/d.png",0,0 S,7,125177,125977,0.4417161,0 M,7,125177,125977,110,364,114,320 P,0,125177,125977,A F,0,142236,,1,0
Sprite,Foreground,Centre,"sb/d.png",0,0 S,7,125177,125977,0.4417161,0 M,7,125177,125977,110,364,111,370 P,0,125177,125977,A F,0,142236,,1,0
Sprite,Foreground,Centre,"sb/d.png",0,0 S,7,125177,125977,0.4417161,0 M,7,125177,125977,110,364,21,320 P,0,125177,125977,A F,0,142236,,1,0
Sprite,Foreground,Centre,"sb/d.png",0,0 S,7,125177,125977,0.4417161,0 M,7,125177,125977,110,364,109,433 P,0,125177,125977,A F,0,142236,,1,0
Sprite,Foreground,Centre,"sb/d.png",0,0 S,7,125177,125977,0.4417161,0 M,7,125177,125977,110,364,132,284 P,0,125177,125977,A F,0,142236,,1,0
Sprite,Foreground,Centre,"sb/d.png",0,0 S,7,125177,125977,0.4417161,0 M,7,125177,125977,110,364,158,344 P,0,125177,125977,A F,0,142236,,1,0
Sprite,Foreground,Centre,"sb/d.png",0,0 S,7,125177,125977,0.4417161,0 M,7,125177,125977,110,364,196,290 P,0,125177,125977,A F,0,142236,,1,0
Sprite,Foreground,Centre,"sb/d.png",0,0 S,7,125177,125977,0.4417161,0 M,7,125177,125977,110,364,149,387 P,0,125177,125977,A F,0,142236,,1,0
Sprite,Foreground,Centre,"sb/d.png",0,0 S,7,125177,125977,0.4417161,0 M,7,125177,125977,110,364,176,401 P,0,125177,125977,A F,0,142236,,1,0
Sprite,Foreground,Centre,"sb/d.png",0,0 S,7,125765,126565,0.3639485,0 M,7,125765,126565,406,424,340,360 P,0,125765,126565,A F,0,142236,,1,0
Sprite,Foreground,Centre,"sb/d.png",0,0 S,7,125765,126565,0.3639485,0 M,7,125765,126565,406,424,427,374 P,0,125765,126565,A F,0,142236,,1,0
Sprite,Foreground,Centre,"sb/d.png",0,0 S,7,125765,126565,0.3639485,0 M,7,125765,126565,406,424,505,437 P,0,125765,126565,A F,0,142236,,1,0
Sprite,Foreground,Centre,"sb/d.png",0,0 S,7,125765,126565,0.3639485,0 M,7,125765,126565,406,424,318,376 P,0,125765,126565,A F,0,142236,,1,0
Sprite,Foreground,Centre,"sb/d.png",0,0 S,7,125765,126565,0.3639485,0 M,7,125765,126565,406,424,474,437 P,0,125765,126565,A F,0,142236,,1,0
Sprite,Foreground,Centre,"sb/d.png",0,0 S,7,125765,126565,0.3639485,0 M,7,125765,126565,406,424,435,427 P,0,125765,126565,A F,0,142236,,1,0
Sprite,Foreground,Centre,"sb/d.png",0,0 S,7,125765,126565,0.3639485,0 M,7,125765,126565,406,424,500,339 P,0,125765,126565,A F,0,142236,,1,0
Sprite,Foreground,Centre,"sb/d.png",0,0 S,7,125765,126565,0.3639485,0 M,7,125765,126565,406,424,408,355 P,0,125765,126565,A F,0,142236,,1,0
Sprite,Foreground,Centre,"sb/d.png",0,0 S,7,125765,126565,0.3639485,0 M,7,125765,126565,406,424,468,452 P,0,125765,126565,A F,0,142236,,1,0
Sprite,Foreground,Centre,"sb/d.png",0,0 S,7,125765,126565,0.3639485,0 M,7,125765,126565,406,424,421,434 P,0,125765,126565,A F,0,142236,,1,0
Sprite,Foreground,Centre,"sb/d.png",0,0 S,7,126207,127007,0.3844979,0 M,7,126207,127007,322,226,420,186 P,0,126207,127007,A F,0,142236,,1,0
Sprite,Foreground,Centre,"sb/d.png",0,0 S,7,126207,127007,0.3844979,0 M,7,126207,127007,322,226,234,219 P,0,126207,127007,A F,0,142236,,1,0
Sprite,Foreground,Centre,"sb/d.png",0,0 S,7,126207,127007,0.3844979,0 M,7,126207,127007,322,226,318,169 P,0,126207,127007,A F,0,142236,,1,0
Sprite,Foreground,Centre,"sb/d.png",0,0 S,7,126207,127007,0.3844979,0 M,7,126207,127007,322,226,236,172 P,0,126207,127007,A F,0,142236,,1,0
Sprite,Foreground,Centre,"sb/d.png",0,0 S,7,126207,127007,0.3844979,0 M,7,126207,127007,322,226,252,215 P,0,126207,127007,A F,0,142236,,1,0
Sprite,Foreground,Centre,"sb/d.png",0,0 S,7,126207,127007,0.3844979,0 M,7,126207,127007,322,226,312,129 P,0,126207,127007,A F,0,142236,,1,0
Sprite,Foreground,Centre,"sb/d.png",0,0 S,7,126207,127007,0.3844979,0 M,7,126207,127007,322,226,299,289 P,0,126207,127007,A F,0,142236,,1,0
Sprite,Foreground,Centre,"sb/d.png",0,0 S,7,126207,127007,0.3844979,0 M,7,126207,127007,322,226,262,308 P,0,126207,127007,A F,0,142236,,1,0
Sprite,Foreground,Centre,"sb/d.png",0,0 S,7,126207,127007,0.3844979,0 M,7,126207,127007,322,226,227,227 P,0,126207,127007,A F,0,142236,,1,0
Sprite,Foreground,Centre,"sb/d.png",0,0 S,7,126207,127007,0.3844979,0 M,7,126207,127007,322,226,414,324 P,0,126207,127007,A F,0,142236,,1,0
Sprite,Foreground,Centre,"sb/d.png",0,0 S,7,126354,127154,0.253374,0 M,7,126354,127154,322,226,352,181 P,0,126354,127154,A F,0,142236,,1,0
Sprite,Foreground,Centre,"sb/d.png",0,0 S,7,126354,127154,0.253374,0 M,7,126354,127154,322,226,415,243 P,0,126354,127154,A F,0,142236,,1,0
Sprite,Foreground,Centre,"sb/d.png",0,0 S,7,126354,127154,0.253374,0 M,7,126354,127154,322,226,376,190 P,0,126354,127154,A F,0,142236,,1,0
Sprite,Foreground,Centre,"sb/d.png",0,0 S,7,126354,127154,0.253374,0 M,7,126354,127154,322,226,306,320 P,0,126354,127154,A F,0,142236,,1,0
Sprite,Foreground,Centre,"sb/d.png",0,0 S,7,126354,127154,0.253374,0 M,7,126354,127154,322,226,399,320 P,0,126354,127154,A F,0,142236,,1,0
Sprite,Foreground,Centre,"sb/d.png",0,0 S,7,126354,127154,0.253374,0 M,7,126354,127154,322,226,273,152 P,0,126354,127154,A F,0,142236,,1,0
Sprite,Foreground,Centre,"sb/d.png",0,0 S,7,126354,127154,0.253374,0 M,7,126354,127154,322,226,401,161 P,0,126354,127154,A F,0,142236,,1,0
Sprite,Foreground,Centre,"sb/d.png",0,0 S,7,126354,127154,0.253374,0 M,7,126354,127154,322,226,398,234 P,0,126354,127154,A F,0,142236,,1,0
Sprite,Foreground,Centre,"sb/d.png",0,0 S,7,126354,127154,0.253374,0 M,7,126354,127154,322,226,379,228 P,0,126354,127154,A F,0,142236,,1,0
Sprite,Foreground,Centre,"sb/d.png",0,0 S,7,126354,127154,0.253374,0 M,7,126354,127154,322,226,292,324 P,0,126354,127154,A F,0,142236,,1,0
Sprite,Foreground,Centre,"sb/d.png",0,0 S,7,126648,127448,0.2566886,0 M,7,126648,127448,406,98,444,22 P,0,126648,127448,A F,0,142236,,1,0
Sprite,Foreground,Centre,"sb/d.png",0,0 S,7,126648,127448,0.2566886,0 M,7,126648,127448,406,98,344,97 P,0,126648,127448,A F,0,142236,,1,0
Sprite,Foreground,Centre,"sb/d.png",0,0 S,7,126648,127448,0.2566886,0 M,7,126648,127448,406,98,422,50 P,0,126648,127448,A F,0,142236,,1,0
Sprite,Foreground,Centre,"sb/d.png",0,0 S,7,126648,127448,0.2566886,0 M,7,126648,127448,406,98,368,46 P,0,126648,127448,A F,0,142236,,1,0
Sprite,Foreground,Centre,"sb/d.png",0,0 S,7,126648,127448,0.2566886,0 M,7,126648,127448,406,98,462,24 P,0,126648,127448,A F,0,142236,,1,0
Sprite,Foreground,Centre,"sb/d.png",0,0 S,7,126648,127448,0.2566886,0 M,7,126648,127448,406,98,428,109 P,0,126648,127448,A F,0,142236,,1,0
Sprite,Foreground,Centre,"sb/d.png",0,0 S,7,126648,127448,0.2566886,0 M,7,126648,127448,406,98,437,66 P,0,126648,127448,A F,0,142236,,1,0
Sprite,Foreground,Centre,"sb/d.png",0,0 S,7,126648,127448,0.2566886,0 M,7,126648,127448,406,98,310,17 P,0,126648,127448,A F,0,142236,,1,0
Sprite,Foreground,Centre,"sb/d.png",0,0 S,7,126648,127448,0.2566886,0 M,7,126648,127448,406,98,481,140 P,0,126648,127448,A F,0,142236,,1,0
Sprite,Foreground,Centre,"sb/d.png",0,0 S,7,126648,127448,0.2566886,0 M,7,126648,127448,406,98,484,128 P,0,126648,127448,A F,0,142236,,1,0
Sprite,Foreground,Centre,"sb/d.png",0,0 S,7,126942,127742,0.3010615,0 M,7,126942,127742,551,161,503,155 P,0,126942,127742,A F,0,142236,,1,0
Sprite,Foreground,Centre,"sb/d.png",0,0 S,7,126942,127742,0.3010615,0 M,7,126942,127742,551,161,490,238 P,0,126942,127742,A F,0,142236,,1,0
Sprite,Foreground,Centre,"sb/d.png",0,0 S,7,126942,127742,0.3010615,0 M,7,126942,127742,551,161,549,188 P,0,126942,127742,A F,0,142236,,1,0
Sprite,Foreground,Centre,"sb/d.png",0,0 S,7,126942,127742,0.3010615,0 M,7,126942,127742,551,161,514,134 P,0,126942,127742,A F,0,142236,,1,0
Sprite,Foreground,Centre,"sb/d.png",0,0 S,7,126942,127742,0.3010615,0 M,7,126942,127742,551,161,499,260 P,0,126942,127742,A F,0,142236,,1,0
Sprite,Foreground,Centre,"sb/d.png",0,0 S,7,126942,127742,0.3010615,0 M,7,126942,127742,551,161,573,61 P,0,126942,127742,A F,0,142236,,1,0
Sprite,Foreground,Centre,"sb/d.png",0,0 S,7,126942,127742,0.3010615,0 M,7,126942,127742,551,161,647,253 P,0,126942,127742,A F,0,142236,,1,0
Sprite,Foreground,Centre,"sb/d.png",0,0 S,7,126942,127742,0.3010615,0 M,7,126942,127742,551,161,482,215 P,0,126942,127742,A F,0,142236,,1,0
Sprite,Foreground,Centre,"sb/d.png",0,0 S,7,126942,127742,0.3010615,0 M,7,126942,127742,551,161,469,99 P,0,126942,127742,A F,0,142236,,1,0
Sprite,Foreground,Centre,"sb/d.png",0,0 S,7,126942,127742,0.3010615,0 M,7,126942,127742,551,161,463,83 P,0,126942,127742,A F,0,142236,,1,0
Sprite,Foreground,Centre,"sb/d.png",0,0 S,7,127089,127889,0.3965594,0 M,7,127089,127889,499,236,419,303 P,0,127089,127889,A F,0,142236,,1,0
Sprite,Foreground,Centre,"sb/d.png",0,0 S,7,127089,127889,0.3965594,0 M,7,127089,127889,499,236,527,250 P,0,127089,127889,A F,0,142236,,1,0
Sprite,Foreground,Centre,"sb/d.png",0,0 S,7,127089,127889,0.3965594,0 M,7,127089,127889,499,236,447,303 P,0,127089,127889,A F,0,142236,,1,0
Sprite,Foreground,Centre,"sb/d.png",0,0 S,7,127089,127889,0.3965594,0 M,7,127089,127889,499,236,570,225 P,0,127089,127889,A F,0,142236,,1,0
Sprite,Foreground,Centre,"sb/d.png",0,0 S,7,127089,127889,0.3965594,0 M,7,127089,127889,499,236,580,296 P,0,127089,127889,A F,0,142236,,1,0
Sprite,Foreground,Centre,"sb/d.png",0,0 S,7,127089,127889,0.3965594,0 M,7,127089,127889,499,236,491,204 P,0,127089,127889,A F,0,142236,,1,0
Sprite,Foreground,Centre,"sb/d.png",0,0 S,7,127089,127889,0.3965594,0 M,7,127089,127889,499,236,554,221 P,0,127089,127889,A F,0,142236,,1,0
Sprite,Foreground,Centre,"sb/d.png",0,0 S,7,127089,127889,0.3965594,0 M,7,127089,127889,499,236,528,335 P,0,127089,127889,A F,0,142236,,1,0
Sprite,Foreground,Centre,"sb/d.png",0,0 S,7,127089,127889,0.3965594,0 M,7,127089,127889,499,236,520,153 P,0,127089,127889,A F,0,142236,,1,0
Sprite,Foreground,Centre,"sb/d.png",0,0 S,7,127089,127889,0.3965594,0 M,7,127089,127889,499,236,523,334 P,0,127089,127889,A F,0,142236,,1,0
Sprite,Foreground,Centre,"sb/d.png",0,0 S,7,127236,128036,0.4246328,0 M,7,127236,128036,568,294,575,221 P,0,127236,128036,A F,0,142236,,1,0
Sprite,Foreground,Centre,"sb/d.png",0,0 S,7,127236,128036,0.4246328,0 M,7,127236,128036,568,294,468,305 P,0,127236,128036,A F,0,142236,,1,0
Sprite,Foreground,Centre,"sb/d.png",0,0 S,7,127236,128036,0.4246328,0 M,7,127236,128036,568,294,602,269 P,0,127236,128036,A F,0,142236,,1,0
Sprite,Foreground,Centre,"sb/d.png",0,0 S,7,127236,128036,0.4246328,0 M,7,127236,128036,568,294,641,259 P,0,127236,128036,A F,0,142236,,1,0
Sprite,Foreground,Centre,"sb/d.png",0,0 S,7,127236,128036,0.4246328,0 M,7,127236,128036,568,294,625,297 P,0,127236,128036,A F,0,142236,,1,0
Sprite,Foreground,Centre,"sb/d.png",0,0 S,7,127236,128036,0.4246328,0 M,7,127236,128036,568,294,633,302 P,0,127236,128036,A F,0,142236,,1,0
Sprite,Foreground,Centre,"sb/d.png",0,0 S,7,127236,128036,0.4246328,0 M,7,127236,128036,568,294,572,226 P,0,127236,128036,A F,0,142236,,1,0
Sprite,Foreground,Centre,"sb/d.png",0,0 S,7,127236,128036,0.4246328,0 M,7,127236,128036,568,294,594,304 P,0,127236,128036,A F,0,142236,,1,0
Sprite,Foreground,Centre,"sb/d.png",0,0 S,7,127236,128036,0.4246328,0 M,7,127236,128036,568,294,530,243 P,0,127236,128036,A F,0,142236,,1,0
Sprite,Foreground,Centre,"sb/d.png",0,0 S,7,127236,128036,0.4246328,0 M,7,127236,128036,568,294,628,286 P,0,127236,128036,A F,0,142236,,1,0
Sprite,Foreground,Centre,"sb/d.png",0,0 S,7,127530,128330,0.4343202,0 M,7,127530,128330,505,420,472,358 P,0,127530,128330,A F,0,142236,,1,0
Sprite,Foreground,Centre,"sb/d.png",0,0 S,7,127530,128330,0.4343202,0 M,7,127530,128330,505,420,435,452 P,0,127530,128330,A F,0,142236,,1,0
Sprite,Foreground,Centre,"sb/d.png",0,0 S,7,127530,128330,0.4343202,0 M,7,127530,128330,505,420,446,426 P,0,127530,128330,A F,0,142236,,1,0
Sprite,Foreground,Centre,"sb/d.png",0,0 S,7,127530,128330,0.4343202,0 M,7,127530,128330,505,420,506,474 P,0,127530,128330,A F,0,142236,,1,0
Sprite,Foreground,Centre,"sb/d.png",0,0 S,7,127530,128330,0.4343202,0 M,7,127530,128330,505,420,501,340 P,0,127530,128330,A F,0,142236,,1,0
Sprite,Foreground,Centre,"sb/d.png",0,0 S,7,127530,128330,0.4343202,0 M,7,127530,128330,505,420,492,343 P,0,127530,128330,A F,0,142236,,1,0
Sprite,Foreground,Centre,"sb/d.png",0,0 S,7,127530,128330,0.4343202,0 M,7,127530,128330,505,420,576,432 P,0,127530,128330,A F,0,142236,,1,0
Sprite,Foreground,Centre,"sb/d.png",0,0 S,7,127530,128330,0.4343202,0 M,7,127530,128330,505,420,545,448 P,0,127530,128330,A F,0,142236,,1,0
Sprite,Foreground,Centre,"sb/d.png",0,0 S,7,127530,128330,0.4343202,0 M,7,127530,128330,505,420,408,433 P,0,127530,128330,A F,0,142236,,1,0
Sprite,Foreground,Centre,"sb/d.png",0,0 S,7,127530,128330,0.4343202,0 M,7,127530,128330,505,420,496,518 P,0,127530,128330,A F,0,142236,,1,0
Sprite,Foreground,Centre,"sb/d.png",0,0 S,7,127971,128771,0.2744685,0 M,7,127971,128771,421,301,345,257 P,0,127971,128771,A F,0,142236,,1,0
Sprite,Foreground,Centre,"sb/d.png",0,0 S,7,127971,128771,0.2744685,0 M,7,127971,128771,421,301,447,360 P,0,127971,128771,A F,0,142236,,1,0
Sprite,Foreground,Centre,"sb/d.png",0,0 S,7,127971,128771,0.2744685,0 M,7,127971,128771,421,301,372,253 P,0,127971,128771,A F,0,142236,,1,0
Sprite,Foreground,Centre,"sb/d.png",0,0 S,7,127971,128771,0.2744685,0 M,7,127971,128771,421,301,323,290 P,0,127971,128771,A F,0,142236,,1,0
Sprite,Foreground,Centre,"sb/d.png",0,0 S,7,127971,128771,0.2744685,0 M,7,127971,128771,421,301,379,368 P,0,127971,128771,A F,0,142236,,1,0
Sprite,Foreground,Centre,"sb/d.png",0,0 S,7,127971,128771,0.2744685,0 M,7,127971,128771,421,301,485,307 P,0,127971,128771,A F,0,142236,,1,0
Sprite,Foreground,Centre,"sb/d.png",0,0 S,7,127971,128771,0.2744685,0 M,7,127971,128771,421,301,511,241 P,0,127971,128771,A F,0,142236,,1,0
Sprite,Foreground,Centre,"sb/d.png",0,0 S,7,127971,128771,0.2744685,0 M,7,127971,128771,421,301,510,371 P,0,127971,128771,A F,0,142236,,1,0
Sprite,Foreground,Centre,"sb/d.png",0,0 S,7,127971,128771,0.2744685,0 M,7,127971,128771,421,301,500,294 P,0,127971,128771,A F,0,142236,,1,0
Sprite,Foreground,Centre,"sb/d.png",0,0 S,7,127971,128771,0.2744685,0 M,7,127971,128771,421,301,489,272 P,0,127971,128771,A F,0,142236,,1,0
Sprite,Foreground,Centre,"sb/d.png",0,0 S,7,128118,128918,0.3603556,0 M,7,128118,128918,364,229,324,212 P,0,128118,128918,A F,0,142236,,1,0
Sprite,Foreground,Centre,"sb/d.png",0,0 S,7,128118,128918,0.3603556,0 M,7,128118,128918,364,229,342,213 P,0,128118,128918,A F,0,142236,,1,0
Sprite,Foreground,Centre,"sb/d.png",0,0 S,7,128118,128918,0.3603556,0 M,7,128118,128918,364,229,396,249 P,0,128118,128918,A F,0,142236,,1,0
Sprite,Foreground,Centre,"sb/d.png",0,0 S,7,128118,128918,0.3603556,0 M,7,128118,128918,364,229,450,311 P,0,128118,128918,A F,0,142236,,1,0
Sprite,Foreground,Centre,"sb/d.png",0,0 S,7,128118,128918,0.3603556,0 M,7,128118,128918,364,229,323,265 P,0,128118,128918,A F,0,142236,,1,0
Sprite,Foreground,Centre,"sb/d.png",0,0 S,7,128118,128918,0.3603556,0 M,7,128118,128918,364,229,332,222 P,0,128118,128918,A F,0,142236,,1,0
Sprite,Foreground,Centre,"sb/d.png",0,0 S,7,128118,128918,0.3603556,0 M,7,128118,128918,364,229,423,172 P,0,128118,128918,A F,0,142236,,1,0
Sprite,Foreground,Centre,"sb/d.png",0,0 S,7,128118,128918,0.3603556,0 M,7,128118,128918,364,229,445,232 P,0,128118,128918,A F,0,142236,,1,0
Sprite,Foreground,Centre,"sb/d.png",0,0 S,7,128118,128918,0.3603556,0 M,7,128118,128918,364,229,436,318 P,0,128118,128918,A F,0,142236,,1,0
Sprite,Foreground,Centre,"sb/d.png",0,0 S,7,128118,128918,0.3603556,0 M,7,128118,128918,364,229,318,228 P,0,128118,128918,A F,0,142236,,1,0
Sprite,Foreground,Centre,"sb/d.png",0,0 S,7,128854,129654,0.3154958,0 M,7,128854,129654,364,229,301,181 P,0,128854,129654,A F,0,142236,,1,0
Sprite,Foreground,Centre,"sb/d.png",0,0 S,7,128854,129654,0.3154958,0 M,7,128854,129654,364,229,387,246 P,0,128854,129654,A F,0,142236,,1,0
Sprite,Foreground,Centre,"sb/d.png",0,0 S,7,128854,129654,0.3154958,0 M,7,128854,129654,364,229,445,201 P,0,128854,129654,A F,0,142236,,1,0
Sprite,Foreground,Centre,"sb/d.png",0,0 S,7,128854,129654,0.3154958,0 M,7,128854,129654,364,229,415,286 P,0,128854,129654,A F,0,142236,,1,0
Sprite,Foreground,Centre,"sb/d.png",0,0 S,7,128854,129654,0.3154958,0 M,7,128854,129654,364,229,287,149 P,0,128854,129654,A F,0,142236,,1,0
Sprite,Foreground,Centre,"sb/d.png",0,0 S,7,128854,129654,0.3154958,0 M,7,128854,129654,364,229,386,256 P,0,128854,129654,A F,0,142236,,1,0
Sprite,Foreground,Centre,"sb/d.png",0,0 S,7,128854,129654,0.3154958,0 M,7,128854,129654,364,229,378,292 P,0,128854,129654,A F,0,142236,,1,0
Sprite,Foreground,Centre,"sb/d.png",0,0 S,7,128854,129654,0.3154958,0 M,7,128854,129654,364,229,436,176 P,0,128854,129654,A F,0,142236,,1,0
Sprite,Foreground,Centre,"sb/d.png",0,0 S,7,128854,129654,0.3154958,0 M,7,128854,129654,364,229,339,247 P,0,128854,129654,A F,0,142236,,1,0
Sprite,Foreground,Centre,"sb/d.png",0,0 S,7,128854,129654,0.3154958,0 M,7,128854,129654,364,229,396,145 P,0,128854,129654,A F,0,142236,,1,0
Sprite,Foreground,Centre,"sb/d.png",0,0 S,7,129001,129801,0.3566422,0 M,7,129001,129801,330,313,429,244 P,0,129001,129801,A F,0,142236,,1,0
Sprite,Foreground,Centre,"sb/d.png",0,0 S,7,129001,129801,0.3566422,0 M,7,129001,129801,330,313,326,225 P,0,129001,129801,A F,0,142236,,1,0
Sprite,Foreground,Centre,"sb/d.png",0,0 S,7,129001,129801,0.3566422,0 M,7,129001,129801,330,313,260,410 P,0,129001,129801,A F,0,142236,,1,0
Sprite,Foreground,Centre,"sb/d.png",0,0 S,7,129001,129801,0.3566422,0 M,7,129001,129801,330,313,237,279 P,0,129001,129801,A F,0,142236,,1,0
Sprite,Foreground,Centre,"sb/d.png",0,0 S,7,129001,129801,0.3566422,0 M,7,129001,129801,330,313,236,316 P,0,129001,129801,A F,0,142236,,1,0
Sprite,Foreground,Centre,"sb/d.png",0,0 S,7,129001,129801,0.3566422,0 M,7,129001,129801,330,313,344,384 P,0,129001,129801,A F,0,142236,,1,0
Sprite,Foreground,Centre,"sb/d.png",0,0 S,7,129001,129801,0.3566422,0 M,7,129001,129801,330,313,274,236 P,0,129001,129801,A F,0,142236,,1,0
Sprite,Foreground,Centre,"sb/d.png",0,0 S,7,129001,129801,0.3566422,0 M,7,129001,129801,330,313,261,368 P,0,129001,129801,A F,0,142236,,1,0
Sprite,Foreground,Centre,"sb/d.png",0,0 S,7,129001,129801,0.3566422,0 M,7,129001,129801,330,313,396,363 P,0,129001,129801,A F,0,142236,,1,0
Sprite,Foreground,Centre,"sb/d.png",0,0 S,7,129001,129801,0.3566422,0 M,7,129001,129801,330,313,278,248 P,0,129001,129801,A F,0,142236,,1,0
Sprite,Foreground,Centre,"sb/d.png",0,0 S,7,129295,130095,0.2747247,0 M,7,129295,130095,212,238,147,253 P,0,129295,130095,A F,0,142236,,1,0
Sprite,Foreground,Centre,"sb/d.png",0,0 S,7,129295,130095,0.2747247,0 M,7,129295,130095,212,238,257,303 P,0,129295,130095,A F,0,142236,,1,0
Sprite,Foreground,Centre,"sb/d.png",0,0 S,7,129295,130095,0.2747247,0 M,7,129295,130095,212,238,157,218 P,0,129295,130095,A F,0,142236,,1,0
Sprite,Foreground,Centre,"sb/d.png",0,0 S,7,129295,130095,0.2747247,0 M,7,129295,130095,212,238,120,194 P,0,129295,130095,A F,0,142236,,1,0
Sprite,Foreground,Centre,"sb/d.png",0,0 S,7,129295,130095,0.2747247,0 M,7,129295,130095,212,238,208,209 P,0,129295,130095,A F,0,142236,,1,0
Sprite,Foreground,Centre,"sb/d.png",0,0 S,7,129295,130095,0.2747247,0 M,7,129295,130095,212,238,233,221 P,0,129295,130095,A F,0,142236,,1,0
Sprite,Foreground,Centre,"sb/d.png",0,0 S,7,129295,130095,0.2747247,0 M,7,129295,130095,212,238,270,176 P,0,129295,130095,A F,0,142236,,1,0
Sprite,Foreground,Centre,"sb/d.png",0,0 S,7,129295,130095,0.2747247,0 M,7,129295,130095,212,238,132,164 P,0,129295,130095,A F,0,142236,,1,0
Sprite,Foreground,Centre,"sb/d.png",0,0 S,7,129295,130095,0.2747247,0 M,7,129295,130095,212,238,217,289 P,0,129295,130095,A F,0,142236,,1,0
Sprite,Foreground,Centre,"sb/d.png",0,0 S,7,129295,130095,0.2747247,0 M,7,129295,130095,212,238,186,282 P,0,129295,130095,A F,0,142236,,1,0
Sprite,Foreground,Centre,"sb/d.png",0,0 S,7,129442,130242,0.3413711,0 M,7,129442,130242,264,163,181,180 P,0,129442,130242,A F,0,142236,,1,0
Sprite,Foreground,Centre,"sb/d.png",0,0 S,7,129442,130242,0.3413711,0 M,7,129442,130242,264,163,172,218 P,0,129442,130242,A F,0,142236,,1,0
Sprite,Foreground,Centre,"sb/d.png",0,0 S,7,129442,130242,0.3413711,0 M,7,129442,130242,264,163,233,202 P,0,129442,130242,A F,0,142236,,1,0
Sprite,Foreground,Centre,"sb/d.png",0,0 S,7,129442,130242,0.3413711,0 M,7,129442,130242,264,163,305,155 P,0,129442,130242,A F,0,142236,,1,0
Sprite,Foreground,Centre,"sb/d.png",0,0 S,7,129442,130242,0.3413711,0 M,7,129442,130242,264,163,272,230 P,0,129442,130242,A F,0,142236,,1,0
Sprite,Foreground,Centre,"sb/d.png",0,0 S,7,129442,130242,0.3413711,0 M,7,129442,130242,264,163,248,244 P,0,129442,130242,A F,0,142236,,1,0
Sprite,Foreground,Centre,"sb/d.png",0,0 S,7,129442,130242,0.3413711,0 M,7,129442,130242,264,163,245,226 P,0,129442,130242,A F,0,142236,,1,0
Sprite,Foreground,Centre,"sb/d.png",0,0 S,7,129442,130242,0.3413711,0 M,7,129442,130242,264,163,280,213 P,0,129442,130242,A F,0,142236,,1,0
Sprite,Foreground,Centre,"sb/d.png",0,0 S,7,129442,130242,0.3413711,0 M,7,129442,130242,264,163,210,247 P,0,129442,130242,A F,0,142236,,1,0
Sprite,Foreground,Centre,"sb/d.png",0,0 S,7,129442,130242,0.3413711,0 M,7,129442,130242,264,163,280,261 P,0,129442,130242,A F,0,142236,,1,0
Sprite,Foreground,Centre,"sb/d.png",0,0 S,7,129589,130389,0.2604122,0 M,7,129589,130389,211,88,220,20 P,0,129589,130389,A F,0,142236,,1,0
Sprite,Foreground,Centre,"sb/d.png",0,0 S,7,129589,130389,0.2604122,0 M,7,129589,130389,211,88,304,76 P,0,129589,130389,A F,0,142236,,1,0
Sprite,Foreground,Centre,"sb/d.png",0,0 S,7,129589,130389,0.2604122,0 M,7,129589,130389,211,88,197,172 P,0,129589,130389,A F,0,142236,,1,0
Sprite,Foreground,Centre,"sb/d.png",0,0 S,7,129589,130389,0.2604122,0 M,7,129589,130389,211,88,122,116 P,0,129589,130389,A F,0,142236,,1,0
Sprite,Foreground,Centre,"sb/d.png",0,0 S,7,129589,130389,0.2604122,0 M,7,129589,130389,211,88,172,187 P,0,129589,130389,A F,0,142236,,1,0
Sprite,Foreground,Centre,"sb/d.png",0,0 S,7,129589,130389,0.2604122,0 M,7,129589,130389,211,88,284,78 P,0,129589,130389,A F,0,142236,,1,0
Sprite,Foreground,Centre,"sb/d.png",0,0 S,7,129589,130389,0.2604122,0 M,7,129589,130389,211,88,244,6 P,0,129589,130389,A F,0,142236,,1,0
Sprite,Foreground,Centre,"sb/d.png",0,0 S,7,129589,130389,0.2604122,0 M,7,129589,130389,211,88,309,125 P,0,129589,130389,A F,0,142236,,1,0
Sprite,Foreground,Centre,"sb/d.png",0,0 S,7,129589,130389,0.2604122,0 M,7,129589,130389,211,88,121,164 P,0,129589,130389,A F,0,142236,,1,0
Sprite,Foreground,Centre,"sb/d.png",0,0 S,7,129589,130389,0.2604122,0 M,7,129589,130389,211,88,251,55 P,0,129589,130389,A F,0,142236,,1,0
Sprite,Foreground,Centre,"sb/d.png",0,0 S,7,129883,130683,0.4131823,0 M,7,129883,130683,71,135,158,138 P,0,129883,130683,A F,0,142236,,1,0
Sprite,Foreground,Centre,"sb/d.png",0,0 S,7,129883,130683,0.4131823,0 M,7,129883,130683,71,135,7,137 P,0,129883,130683,A F,0,142236,,1,0
Sprite,Foreground,Centre,"sb/d.png",0,0 S,7,129883,130683,0.4131823,0 M,7,129883,130683,71,135,47,110 P,0,129883,130683,A F,0,142236,,1,0
Sprite,Foreground,Centre,"sb/d.png",0,0 S,7,129883,130683,0.4131823,0 M,7,129883,130683,71,135,75,111 P,0,129883,130683,A F,0,142236,,1,0
Sprite,Foreground,Centre,"sb/d.png",0,0 S,7,129883,130683,0.4131823,0 M,7,129883,130683,71,135,29,201 P,0,129883,130683,A F,0,142236,,1,0
Sprite,Foreground,Centre,"sb/d.png",0,0 S,7,129883,130683,0.4131823,0 M,7,129883,130683,71,135,129,180 P,0,129883,130683,A F,0,142236,,1,0
Sprite,Foreground,Centre,"sb/d.png",0,0 S,7,129883,130683,0.4131823,0 M,7,129883,130683,71,135,51,142 P,0,129883,130683,A F,0,142236,,1,0
Sprite,Foreground,Centre,"sb/d.png",0,0 S,7,129883,130683,0.4131823,0 M,7,129883,130683,71,135,55,49 P,0,129883,130683,A F,0,142236,,1,0
Sprite,Foreground,Centre,"sb/d.png",0,0 S,7,129883,130683,0.4131823,0 M,7,129883,130683,71,135,37,218 P,0,129883,130683,A F,0,142236,,1,0
Sprite,Foreground,Centre,"sb/d.png",0,0 S,7,129883,130683,0.4131823,0 M,7,129883,130683,71,135,126,165 P,0,129883,130683,A F,0,142236,,1,0
Sprite,Foreground,Centre,"sb/d.png",0,0 S,7,130471,131271,0.4146999,0 M,7,130471,131271,232,390,179,457 P,0,130471,131271,A F,0,142236,,1,0
Sprite,Foreground,Centre,"sb/d.png",0,0 S,7,130471,131271,0.4146999,0 M,7,130471,131271,232,390,243,380 P,0,130471,131271,A F,0,142236,,1,0
Sprite,Foreground,Centre,"sb/d.png",0,0 S,7,130471,131271,0.4146999,0 M,7,130471,131271,232,390,280,434 P,0,130471,131271,A F,0,142236,,1,0
Sprite,Foreground,Centre,"sb/d.png",0,0 S,7,130471,131271,0.4146999,0 M,7,130471,131271,232,390,249,302 P,0,130471,131271,A F,0,142236,,1,0
Sprite,Foreground,Centre,"sb/d.png",0,0 S,7,130471,131271,0.4146999,0 M,7,130471,131271,232,390,168,298 P,0,130471,131271,A F,0,142236,,1,0
Sprite,Foreground,Centre,"sb/d.png",0,0 S,7,130471,131271,0.4146999,0 M,7,130471,131271,232,390,308,420 P,0,130471,131271,A F,0,142236,,1,0
Sprite,Foreground,Centre,"sb/d.png",0,0 S,7,130471,131271,0.4146999,0 M,7,130471,131271,232,390,179,411 P,0,130471,131271,A F,0,142236,,1,0
Sprite,Foreground,Centre,"sb/d.png",0,0 S,7,130471,131271,0.4146999,0 M,7,130471,131271,232,390,260,446 P,0,130471,131271,A F,0,142236,,1,0
Sprite,Foreground,Centre,"sb/d.png",0,0 S,7,130471,131271,0.4146999,0 M,7,130471,131271,232,390,318,299 P,0,130471,131271,A F,0,142236,,1,0
Sprite,Foreground,Centre,"sb/d.png",0,0 S,7,130471,131271,0.4146999,0 M,7,130471,131271,232,390,241,396 P,0,130471,131271,A F,0,142236,,1,0
Sprite,Foreground,Centre,"sb/d.png",0,0 S,7,130912,131712,0.3014354,0 M,7,130912,131712,417,302,320,235 P,0,130912,131712,A F,0,142236,,1,0
Sprite,Foreground,Centre,"sb/d.png",0,0 S,7,130912,131712,0.3014354,0 M,7,130912,131712,417,302,331,347 P,0,130912,131712,A F,0,142236,,1,0
Sprite,Foreground,Centre,"sb/d.png",0,0 S,7,130912,131712,0.3014354,0 M,7,130912,131712,417,302,369,313 P,0,130912,131712,A F,0,142236,,1,0
Sprite,Foreground,Centre,"sb/d.png",0,0 S,7,130912,131712,0.3014354,0 M,7,130912,131712,417,302,430,324 P,0,130912,131712,A F,0,142236,,1,0
Sprite,Foreground,Centre,"sb/d.png",0,0 S,7,130912,131712,0.3014354,0 M,7,130912,131712,417,302,460,395 P,0,130912,131712,A F,0,142236,,1,0
Sprite,Foreground,Centre,"sb/d.png",0,0 S,7,130912,131712,0.3014354,0 M,7,130912,131712,417,302,501,339 P,0,130912,131712,A F,0,142236,,1,0
Sprite,Foreground,Centre,"sb/d.png",0,0 S,7,130912,131712,0.3014354,0 M,7,130912,131712,417,302,515,342 P,0,130912,131712,A F,0,142236,,1,0
Sprite,Foreground,Centre,"sb/d.png",0,0 S,7,130912,131712,0.3014354,0 M,7,130912,131712,417,302,453,327 P,0,130912,131712,A F,0,142236,,1,0
Sprite,Foreground,Centre,"sb/d.png",0,0 S,7,130912,131712,0.3014354,0 M,7,130912,131712,417,302,328,330 P,0,130912,131712,A F,0,142236,,1,0
Sprite,Foreground,Centre,"sb/d.png",0,0 S,7,130912,131712,0.3014354,0 M,7,130912,131712,417,302,448,388 P,0,130912,131712,A F,0,142236,,1,0
Sprite,Foreground,Centre,"sb/d.png",0,0 S,7,131060,131860,0.3141639,0 M,7,131060,131860,417,302,338,360 P,0,131060,131860,A F,0,142236,,1,0
Sprite,Foreground,Centre,"sb/d.png",0,0 S,7,131060,131860,0.3141639,0 M,7,131060,131860,417,302,498,216 P,0,131060,131860,A F,0,142236,,1,0
Sprite,Foreground,Centre,"sb/d.png",0,0 S,7,131060,131860,0.3141639,0 M,7,131060,131860,417,302,350,387 P,0,131060,131860,A F,0,142236,,1,0
Sprite,Foreground,Centre,"sb/d.png",0,0 S,7,131060,131860,0.3141639,0 M,7,131060,131860,417,302,473,260 P,0,131060,131860,A F,0,142236,,1,0
Sprite,Foreground,Centre,"sb/d.png",0,0 S,7,131060,131860,0.3141639,0 M,7,131060,131860,417,302,397,376 P,0,131060,131860,A F,0,142236,,1,0
Sprite,Foreground,Centre,"sb/d.png",0,0 S,7,131060,131860,0.3141639,0 M,7,131060,131860,417,302,363,225 P,0,131060,131860,A F,0,142236,,1,0
Sprite,Foreground,Centre,"sb/d.png",0,0 S,7,131060,131860,0.3141639,0 M,7,131060,131860,417,302,430,245 P,0,131060,131860,A F,0,142236,,1,0
Sprite,Foreground,Centre,"sb/d.png",0,0 S,7,131060,131860,0.3141639,0 M,7,131060,131860,417,302,451,298 P,0,131060,131860,A F,0,142236,,1,0
Sprite,Foreground,Centre,"sb/d.png",0,0 S,7,131060,131860,0.3141639,0 M,7,131060,131860,417,302,462,298 P,0,131060,131860,A F,0,142236,,1,0
Sprite,Foreground,Centre,"sb/d.png",0,0 S,7,131060,131860,0.3141639,0 M,7,131060,131860,417,302,349,206 P,0,131060,131860,A F,0,142236,,1,0
Sprite,Foreground,Centre,"sb/d.png",0,0 S,7,131501,132301,0.3395926,0 M,7,131501,132301,309,123,302,37 P,0,131501,132301,A F,0,142236,,1,0
Sprite,Foreground,Centre,"sb/d.png",0,0 S,7,131501,132301,0.3395926,0 M,7,131501,132301,309,123,400,216 P,0,131501,132301,A F,0,142236,,1,0
Sprite,Foreground,Centre,"sb/d.png",0,0 S,7,131501,132301,0.3395926,0 M,7,131501,132301,309,123,257,204 P,0,131501,132301,A F,0,142236,,1,0
Sprite,Foreground,Centre,"sb/d.png",0,0 S,7,131501,132301,0.3395926,0 M,7,131501,132301,309,123,401,54 P,0,131501,132301,A F,0,142236,,1,0
Sprite,Foreground,Centre,"sb/d.png",0,0 S,7,131501,132301,0.3395926,0 M,7,131501,132301,309,123,383,103 P,0,131501,132301,A F,0,142236,,1,0
Sprite,Foreground,Centre,"sb/d.png",0,0 S,7,131501,132301,0.3395926,0 M,7,131501,132301,309,123,386,143 P,0,131501,132301,A F,0,142236,,1,0
Sprite,Foreground,Centre,"sb/d.png",0,0 S,7,131501,132301,0.3395926,0 M,7,131501,132301,309,123,396,204 P,0,131501,132301,A F,0,142236,,1,0
Sprite,Foreground,Centre,"sb/d.png",0,0 S,7,131501,132301,0.3395926,0 M,7,131501,132301,309,123,284,56 P,0,131501,132301,A F,0,142236,,1,0
Sprite,Foreground,Centre,"sb/d.png",0,0 S,7,131501,132301,0.3395926,0 M,7,131501,132301,309,123,339,41 P,0,131501,132301,A F,0,142236,,1,0
Sprite,Foreground,Centre,"sb/d.png",0,0 S,7,131501,132301,0.3395926,0 M,7,131501,132301,309,123,335,179 P,0,131501,132301,A F,0,142236,,1,0
Sprite,Foreground,Centre,"sb/d.png",0,0 S,7,131648,132448,0.314422,0 M,7,131648,132448,309,123,271,42 P,0,131648,132448,A F,0,142236,,1,0
Sprite,Foreground,Centre,"sb/d.png",0,0 S,7,131648,132448,0.314422,0 M,7,131648,132448,309,123,347,136 P,0,131648,132448,A F,0,142236,,1,0
Sprite,Foreground,Centre,"sb/d.png",0,0 S,7,131648,132448,0.314422,0 M,7,131648,132448,309,123,294,119 P,0,131648,132448,A F,0,142236,,1,0
Sprite,Foreground,Centre,"sb/d.png",0,0 S,7,131648,132448,0.314422,0 M,7,131648,132448,309,123,210,51 P,0,131648,132448,A F,0,142236,,1,0
Sprite,Foreground,Centre,"sb/d.png",0,0 S,7,131648,132448,0.314422,0 M,7,131648,132448,309,123,275,55 P,0,131648,132448,A F,0,142236,,1,0
Sprite,Foreground,Centre,"sb/d.png",0,0 S,7,131648,132448,0.314422,0 M,7,131648,132448,309,123,307,205 P,0,131648,132448,A F,0,142236,,1,0
Sprite,Foreground,Centre,"sb/d.png",0,0 S,7,131648,132448,0.314422,0 M,7,131648,132448,309,123,383,151 P,0,131648,132448,A F,0,142236,,1,0
Sprite,Foreground,Centre,"sb/d.png",0,0 S,7,131648,132448,0.314422,0 M,7,131648,132448,309,123,352,212 P,0,131648,132448,A F,0,142236,,1,0
Sprite,Foreground,Centre,"sb/d.png",0,0 S,7,131648,132448,0.314422,0 M,7,131648,132448,309,123,230,207 P,0,131648,132448,A F,0,142236,,1,0
Sprite,Foreground,Centre,"sb/d.png",0,0 S,7,131648,132448,0.314422,0 M,7,131648,132448,309,123,213,187 P,0,131648,132448,A F,0,142236,,1,0
Sprite,Foreground,Centre,"sb/d.png",0,0 S,7,132089,132889,0.2774628,0 M,7,132089,132889,231,171,236,164 P,0,132089,132889,A F,0,142236,,1,0
Sprite,Foreground,Centre,"sb/d.png",0,0 S,7,132089,132889,0.2774628,0 M,7,132089,132889,231,171,199,174 P,0,132089,132889,A F,0,142236,,1,0
Sprite,Foreground,Centre,"sb/d.png",0,0 S,7,132089,132889,0.2774628,0 M,7,132089,132889,231,171,256,133 P,0,132089,132889,A F,0,142236,,1,0
Sprite,Foreground,Centre,"sb/d.png",0,0 S,7,132089,132889,0.2774628,0 M,7,132089,132889,231,171,190,133 P,0,132089,132889,A F,0,142236,,1,0
Sprite,Foreground,Centre,"sb/d.png",0,0 S,7,132089,132889,0.2774628,0 M,7,132089,132889,231,171,145,148 P,0,132089,132889,A F,0,142236,,1,0
Sprite,Foreground,Centre,"sb/d.png",0,0 S,7,132089,132889,0.2774628,0 M,7,132089,132889,231,171,237,118 P,0,132089,132889,A F,0,142236,,1,0
Sprite,Foreground,Centre,"sb/d.png",0,0 S,7,132089,132889,0.2774628,0 M,7,132089,132889,231,171,156,101 P,0,132089,132889,A F,0,142236,,1,0
Sprite,Foreground,Centre,"sb/d.png",0,0 S,7,132089,132889,0.2774628,0 M,7,132089,132889,231,171,326,124 P,0,132089,132889,A F,0,142236,,1,0
Sprite,Foreground,Centre,"sb/d.png",0,0 S,7,132089,132889,0.2774628,0 M,7,132089,132889,231,171,211,234 P,0,132089,132889,A F,0,142236,,1,0
Sprite,Foreground,Centre,"sb/d.png",0,0 S,7,132089,132889,0.2774628,0 M,7,132089,132889,231,171,215,261 P,0,132089,132889,A F,0,142236,,1,0
Sprite,Foreground,Centre,"sb/d.png",0,0 S,7,132236,133036,0.2523468,0 M,7,132236,133036,147,134,154,82 P,0,132236,133036,A F,0,142236,,1,0
Sprite,Foreground,Centre,"sb/d.png",0,0 S,7,132236,133036,0.2523468,0 M,7,132236,133036,147,134,126,172 P,0,132236,133036,A F,0,142236,,1,0
Sprite,Foreground,Centre,"sb/d.png",0,0 S,7,132236,133036,0.2523468,0 M,7,132236,133036,147,134,59,87 P,0,132236,133036,A F,0,142236,,1,0
Sprite,Foreground,Centre,"sb/d.png",0,0 S,7,132236,133036,0.2523468,0 M,7,132236,133036,147,134,178,78 P,0,132236,133036,A F,0,142236,,1,0
Sprite,Foreground,Centre,"sb/d.png",0,0 S,7,132236,133036,0.2523468,0 M,7,132236,133036,147,134,156,67 P,0,132236,133036,A F,0,142236,,1,0
Sprite,Foreground,Centre,"sb/d.png",0,0 S,7,132236,133036,0.2523468,0 M,7,132236,133036,147,134,169,226 P,0,132236,133036,A F,0,142236,,1,0
Sprite,Foreground,Centre,"sb/d.png",0,0 S,7,132236,133036,0.2523468,0 M,7,132236,133036,147,134,83,191 P,0,132236,133036,A F,0,142236,,1,0
Sprite,Foreground,Centre,"sb/d.png",0,0 S,7,132236,133036,0.2523468,0 M,7,132236,133036,147,134,172,104 P,0,132236,133036,A F,0,142236,,1,0
Sprite,Foreground,Centre,"sb/d.png",0,0 S,7,132236,133036,0.2523468,0 M,7,132236,133036,147,134,57,193 P,0,132236,133036,A F,0,142236,,1,0
Sprite,Foreground,Centre,"sb/d.png",0,0 S,7,132236,133036,0.2523468,0 M,7,132236,133036,147,134,81,176 P,0,132236,133036,A F,0,142236,,1,0
Sprite,Foreground,Centre,"sb/d.png",0,0 S,7,132530,133330,0.4157625,0 M,7,132530,133330,90,234,42,288 P,0,132530,133330,A F,0,142236,,1,0
Sprite,Foreground,Centre,"sb/d.png",0,0 S,7,132530,133330,0.4157625,0 M,7,132530,133330,90,234,182,268 P,0,132530,133330,A F,0,142236,,1,0
Sprite,Foreground,Centre,"sb/d.png",0,0 S,7,132530,133330,0.4157625,0 M,7,132530,133330,90,234,139,232 P,0,132530,133330,A F,0,142236,,1,0
Sprite,Foreground,Centre,"sb/d.png",0,0 S,7,132530,133330,0.4157625,0 M,7,132530,133330,90,234,137,270 P,0,132530,133330,A F,0,142236,,1,0
Sprite,Foreground,Centre,"sb/d.png",0,0 S,7,132530,133330,0.4157625,0 M,7,132530,133330,90,234,130,155 P,0,132530,133330,A F,0,142236,,1,0
Sprite,Foreground,Centre,"sb/d.png",0,0 S,7,132530,133330,0.4157625,0 M,7,132530,133330,90,234,109,307 P,0,132530,133330,A F,0,142236,,1,0
Sprite,Foreground,Centre,"sb/d.png",0,0 S,7,132530,133330,0.4157625,0 M,7,132530,133330,90,234,15,331 P,0,132530,133330,A F,0,142236,,1,0
Sprite,Foreground,Centre,"sb/d.png",0,0 S,7,132530,133330,0.4157625,0 M,7,132530,133330,90,234,34,322 P,0,132530,133330,A F,0,142236,,1,0
Sprite,Foreground,Centre,"sb/d.png",0,0 S,7,132530,133330,0.4157625,0 M,7,132530,133330,90,234,155,247 P,0,132530,133330,A F,0,142236,,1,0
Sprite,Foreground,Centre,"sb/d.png",0,0 S,7,132530,133330,0.4157625,0 M,7,132530,133330,90,234,-2,261 P,0,132530,133330,A F,0,142236,,1,0
Sprite,Foreground,Centre,"sb/d.png",0,0 S,7,132824,133624,0.2686976,0 M,7,132824,133624,214,289,219,232 P,0,132824,133624,A F,0,142236,,1,0
Sprite,Foreground,Centre,"sb/d.png",0,0 S,7,132824,133624,0.2686976,0 M,7,132824,133624,214,289,297,244 P,0,132824,133624,A F,0,142236,,1,0
Sprite,Foreground,Centre,"sb/d.png",0,0 S,7,132824,133624,0.2686976,0 M,7,132824,133624,214,289,302,261 P,0,132824,133624,A F,0,142236,,1,0
Sprite,Foreground,Centre,"sb/d.png",0,0 S,7,132824,133624,0.2686976,0 M,7,132824,133624,214,289,184,371 P,0,132824,133624,A F,0,142236,,1,0
Sprite,Foreground,Centre,"sb/d.png",0,0 S,7,132824,133624,0.2686976,0 M,7,132824,133624,214,289,184,193 P,0,132824,133624,A F,0,142236,,1,0
Sprite,Foreground,Centre,"sb/d.png",0,0 S,7,132824,133624,0.2686976,0 M,7,132824,133624,214,289,164,237 P,0,132824,133624,A F,0,142236,,1,0
Sprite,Foreground,Centre,"sb/d.png",0,0 S,7,132824,133624,0.2686976,0 M,7,132824,133624,214,289,150,244 P,0,132824,133624,A F,0,142236,,1,0
Sprite,Foreground,Centre,"sb/d.png",0,0 S,7,132824,133624,0.2686976,0 M,7,132824,133624,214,289,207,275 P,0,132824,133624,A F,0,142236,,1,0
Sprite,Foreground,Centre,"sb/d.png",0,0 S,7,132824,133624,0.2686976,0 M,7,132824,133624,214,289,117,252 P,0,132824,133624,A F,0,142236,,1,0
Sprite,Foreground,Centre,"sb/d.png",0,0 S,7,132824,133624,0.2686976,0 M,7,132824,133624,214,289,269,373 P,0,132824,133624,A F,0,142236,,1,0
Sprite,Foreground,Centre,"sb/d.png",0,0 S,7,133560,134360,0.3579287,0 M,7,133560,134360,214,289,282,201 P,0,133560,134360,A F,0,142236,,1,0
Sprite,Foreground,Centre,"sb/d.png",0,0 S,7,133560,134360,0.3579287,0 M,7,133560,134360,214,289,117,207 P,0,133560,134360,A F,0,142236,,1,0
Sprite,Foreground,Centre,"sb/d.png",0,0 S,7,133560,134360,0.3579287,0 M,7,133560,134360,214,289,125,348 P,0,133560,134360,A F,0,142236,,1,0
Sprite,Foreground,Centre,"sb/d.png",0,0 S,7,133560,134360,0.3579287,0 M,7,133560,134360,214,289,194,270 P,0,133560,134360,A F,0,142236,,1,0
Sprite,Foreground,Centre,"sb/d.png",0,0 S,7,133560,134360,0.3579287,0 M,7,133560,134360,214,289,159,234 P,0,133560,134360,A F,0,142236,,1,0
Sprite,Foreground,Centre,"sb/d.png",0,0 S,7,133560,134360,0.3579287,0 M,7,133560,134360,214,289,139,204 P,0,133560,134360,A F,0,142236,,1,0
Sprite,Foreground,Centre,"sb/d.png",0,0 S,7,133560,134360,0.3579287,0 M,7,133560,134360,214,289,261,335 P,0,133560,134360,A F,0,142236,,1,0
Sprite,Foreground,Centre,"sb/d.png",0,0 S,7,133560,134360,0.3579287,0 M,7,133560,134360,214,289,224,198 P,0,133560,134360,A F,0,142236,,1,0
Sprite,Foreground,Centre,"sb/d.png",0,0 S,7,133560,134360,0.3579287,0 M,7,133560,134360,214,289,193,350 P,0,133560,134360,A F,0,142236,,1,0
Sprite,Foreground,Centre,"sb/d.png",0,0 S,7,133560,134360,0.3579287,0 M,7,133560,134360,214,289,139,265 P,0,133560,134360,A F,0,142236,,1,0
Sprite,Foreground,Centre,"sb/d.png",0,0 S,7,133707,134507,0.4039415,0 M,7,133707,134507,291,337,261,254 P,0,133707,134507,A F,0,142236,,1,0
Sprite,Foreground,Centre,"sb/d.png",0,0 S,7,133707,134507,0.4039415,0 M,7,133707,134507,291,337,260,362 P,0,133707,134507,A F,0,142236,,1,0
Sprite,Foreground,Centre,"sb/d.png",0,0 S,7,133707,134507,0.4039415,0 M,7,133707,134507,291,337,379,378 P,0,133707,134507,A F,0,142236,,1,0
Sprite,Foreground,Centre,"sb/d.png",0,0 S,7,133707,134507,0.4039415,0 M,7,133707,134507,291,337,342,339 P,0,133707,134507,A F,0,142236,,1,0
Sprite,Foreground,Centre,"sb/d.png",0,0 S,7,133707,134507,0.4039415,0 M,7,133707,134507,291,337,352,286 P,0,133707,134507,A F,0,142236,,1,0
Sprite,Foreground,Centre,"sb/d.png",0,0 S,7,133707,134507,0.4039415,0 M,7,133707,134507,291,337,244,379 P,0,133707,134507,A F,0,142236,,1,0
Sprite,Foreground,Centre,"sb/d.png",0,0 S,7,133707,134507,0.4039415,0 M,7,133707,134507,291,337,301,373 P,0,133707,134507,A F,0,142236,,1,0
Sprite,Foreground,Centre,"sb/d.png",0,0 S,7,133707,134507,0.4039415,0 M,7,133707,134507,291,337,222,417 P,0,133707,134507,A F,0,142236,,1,0
Sprite,Foreground,Centre,"sb/d.png",0,0 S,7,133707,134507,0.4039415,0 M,7,133707,134507,291,337,227,413 P,0,133707,134507,A F,0,142236,,1,0
Sprite,Foreground,Centre,"sb/d.png",0,0 S,7,133707,134507,0.4039415,0 M,7,133707,134507,291,337,303,426 P,0,133707,134507,A F,0,142236,,1,0
Sprite,Foreground,Centre,"sb/d.png",0,0 S,7,134001,134801,0.350412,0 M,7,134001,134801,422,259,346,317 P,0,134001,134801,A F,0,142236,,1,0
Sprite,Foreground,Centre,"sb/d.png",0,0 S,7,134001,134801,0.350412,0 M,7,134001,134801,422,259,346,192 P,0,134001,134801,A F,0,142236,,1,0
Sprite,Foreground,Centre,"sb/d.png",0,0 S,7,134001,134801,0.350412,0 M,7,134001,134801,422,259,411,268 P,0,134001,134801,A F,0,142236,,1,0
Sprite,Foreground,Centre,"sb/d.png",0,0 S,7,134001,134801,0.350412,0 M,7,134001,134801,422,259,504,236 P,0,134001,134801,A F,0,142236,,1,0
Sprite,Foreground,Centre,"sb/d.png",0,0 S,7,134001,134801,0.350412,0 M,7,134001,134801,422,259,445,261 P,0,134001,134801,A F,0,142236,,1,0
Sprite,Foreground,Centre,"sb/d.png",0,0 S,7,134001,134801,0.350412,0 M,7,134001,134801,422,259,451,266 P,0,134001,134801,A F,0,142236,,1,0
Sprite,Foreground,Centre,"sb/d.png",0,0 S,7,134001,134801,0.350412,0 M,7,134001,134801,422,259,475,256 P,0,134001,134801,A F,0,142236,,1,0
Sprite,Foreground,Centre,"sb/d.png",0,0 S,7,134001,134801,0.350412,0 M,7,134001,134801,422,259,517,292 P,0,134001,134801,A F,0,142236,,1,0
Sprite,Foreground,Centre,"sb/d.png",0,0 S,7,134001,134801,0.350412,0 M,7,134001,134801,422,259,414,182 P,0,134001,134801,A F,0,142236,,1,0
Sprite,Foreground,Centre,"sb/d.png",0,0 S,7,134001,134801,0.350412,0 M,7,134001,134801,422,259,339,288 P,0,134001,134801,A F,0,142236,,1,0
Sprite,Foreground,Centre,"sb/d.png",0,0 S,7,134148,134948,0.4297897,0 M,7,134148,134948,495,312,478,407 P,0,134148,134948,A F,0,142236,,1,0
Sprite,Foreground,Centre,"sb/d.png",0,0 S,7,134148,134948,0.4297897,0 M,7,134148,134948,495,312,567,284 P,0,134148,134948,A F,0,142236,,1,0
Sprite,Foreground,Centre,"sb/d.png",0,0 S,7,134148,134948,0.4297897,0 M,7,134148,134948,495,312,431,221 P,0,134148,134948,A F,0,142236,,1,0
Sprite,Foreground,Centre,"sb/d.png",0,0 S,7,134148,134948,0.4297897,0 M,7,134148,134948,495,312,474,240 P,0,134148,134948,A F,0,142236,,1,0
Sprite,Foreground,Centre,"sb/d.png",0,0 S,7,134148,134948,0.4297897,0 M,7,134148,134948,495,312,438,396 P,0,134148,134948,A F,0,142236,,1,0
Sprite,Foreground,Centre,"sb/d.png",0,0 S,7,134148,134948,0.4297897,0 M,7,134148,134948,495,312,507,299 P,0,134148,134948,A F,0,142236,,1,0
Sprite,Foreground,Centre,"sb/d.png",0,0 S,7,134148,134948,0.4297897,0 M,7,134148,134948,495,312,448,257 P,0,134148,134948,A F,0,142236,,1,0
Sprite,Foreground,Centre,"sb/d.png",0,0 S,7,134148,134948,0.4297897,0 M,7,134148,134948,495,312,453,257 P,0,134148,134948,A F,0,142236,,1,0
Sprite,Foreground,Centre,"sb/d.png",0,0 S,7,134148,134948,0.4297897,0 M,7,134148,134948,495,312,487,311 P,0,134148,134948,A F,0,142236,,1,0
Sprite,Foreground,Centre,"sb/d.png",0,0 S,7,134148,134948,0.4297897,0 M,7,134148,134948,495,312,427,380 P,0,134148,134948,A F,0,142236,,1,0
Sprite,Foreground,Centre,"sb/d.png",0,0 S,7,134295,135095,0.2745848,0 M,7,134295,135095,553,242,491,289 P,0,134295,135095,A F,0,142236,,1,0
Sprite,Foreground,Centre,"sb/d.png",0,0 S,7,134295,135095,0.2745848,0 M,7,134295,135095,553,242,576,176 P,0,134295,135095,A F,0,142236,,1,0
Sprite,Foreground,Centre,"sb/d.png",0,0 S,7,134295,135095,0.2745848,0 M,7,134295,135095,553,242,609,181 P,0,134295,135095,A F,0,142236,,1,0
Sprite,Foreground,Centre,"sb/d.png",0,0 S,7,134295,135095,0.2745848,0 M,7,134295,135095,553,242,489,188 P,0,134295,135095,A F,0,142236,,1,0
Sprite,Foreground,Centre,"sb/d.png",0,0 S,7,134295,135095,0.2745848,0 M,7,134295,135095,553,242,596,295 P,0,134295,135095,A F,0,142236,,1,0
Sprite,Foreground,Centre,"sb/d.png",0,0 S,7,134295,135095,0.2745848,0 M,7,134295,135095,553,242,547,202 P,0,134295,135095,A F,0,142236,,1,0
Sprite,Foreground,Centre,"sb/d.png",0,0 S,7,134295,135095,0.2745848,0 M,7,134295,135095,553,242,573,283 P,0,134295,135095,A F,0,142236,,1,0
Sprite,Foreground,Centre,"sb/d.png",0,0 S,7,134295,135095,0.2745848,0 M,7,134295,135095,553,242,615,193 P,0,134295,135095,A F,0,142236,,1,0
Sprite,Foreground,Centre,"sb/d.png",0,0 S,7,134295,135095,0.2745848,0 M,7,134295,135095,553,242,613,195 P,0,134295,135095,A F,0,142236,,1,0
Sprite,Foreground,Centre,"sb/d.png",0,0 S,7,134295,135095,0.2745848,0 M,7,134295,135095,553,242,552,245 P,0,134295,135095,A F,0,142236,,1,0
Sprite,Foreground,Centre,"sb/d.png",0,0 S,7,134589,135389,0.2991575,0 M,7,134589,135389,511,89,491,106 P,0,134589,135389,A F,0,142236,,1,0
Sprite,Foreground,Centre,"sb/d.png",0,0 S,7,134589,135389,0.2991575,0 M,7,134589,135389,511,89,428,9 P,0,134589,135389,A F,0,142236,,1,0
Sprite,Foreground,Centre,"sb/d.png",0,0 S,7,134589,135389,0.2991575,0 M,7,134589,135389,511,89,511,40 P,0,134589,135389,A F,0,142236,,1,0
Sprite,Foreground,Centre,"sb/d.png",0,0 S,7,134589,135389,0.2991575,0 M,7,134589,135389,511,89,547,77 P,0,134589,135389,A F,0,142236,,1,0
Sprite,Foreground,Centre,"sb/d.png",0,0 S,7,134589,135389,0.2991575,0 M,7,134589,135389,511,89,411,113 P,0,134589,135389,A F,0,142236,,1,0
Sprite,Foreground,Centre,"sb/d.png",0,0 S,7,134589,135389,0.2991575,0 M,7,134589,135389,511,89,596,150 P,0,134589,135389,A F,0,142236,,1,0
Sprite,Foreground,Centre,"sb/d.png",0,0 S,7,134589,135389,0.2991575,0 M,7,134589,135389,511,89,566,33 P,0,134589,135389,A F,0,142236,,1,0
Sprite,Foreground,Centre,"sb/d.png",0,0 S,7,134589,135389,0.2991575,0 M,7,134589,135389,511,89,459,37 P,0,134589,135389,A F,0,142236,,1,0
Sprite,Foreground,Centre,"sb/d.png",0,0 S,7,134589,135389,0.2991575,0 M,7,134589,135389,511,89,448,68 P,0,134589,135389,A F,0,142236,,1,0
Sprite,Foreground,Centre,"sb/d.png",0,0 S,7,134589,135389,0.2991575,0 M,7,134589,135389,511,89,581,31 P,0,134589,135389,A F,0,142236,,1,0
Sprite,Foreground,Centre,"sb/d.png",0,0 S,7,135177,135977,0.4314323,0 M,7,135177,135977,198,68,197,-1 P,0,135177,135977,A F,0,142236,,1,0
Sprite,Foreground,Centre,"sb/d.png",0,0 S,7,135177,135977,0.4314323,0 M,7,135177,135977,198,68,115,-6 P,0,135177,135977,A F,0,142236,,1,0
Sprite,Foreground,Centre,"sb/d.png",0,0 S,7,135177,135977,0.4314323,0 M,7,135177,135977,198,68,230,72 P,0,135177,135977,A F,0,142236,,1,0
Sprite,Foreground,Centre,"sb/d.png",0,0 S,7,135177,135977,0.4314323,0 M,7,135177,135977,198,68,194,161 P,0,135177,135977,A F,0,142236,,1,0
Sprite,Foreground,Centre,"sb/d.png",0,0 S,7,135177,135977,0.4314323,0 M,7,135177,135977,198,68,230,13 P,0,135177,135977,A F,0,142236,,1,0
Sprite,Foreground,Centre,"sb/d.png",0,0 S,7,135177,135977,0.4314323,0 M,7,135177,135977,198,68,231,32 P,0,135177,135977,A F,0,142236,,1,0
Sprite,Foreground,Centre,"sb/d.png",0,0 S,7,135177,135977,0.4314323,0 M,7,135177,135977,198,68,273,126 P,0,135177,135977,A F,0,142236,,1,0
Sprite,Foreground,Centre,"sb/d.png",0,0 S,7,135177,135977,0.4314323,0 M,7,135177,135977,198,68,128,74 P,0,135177,135977,A F,0,142236,,1,0
Sprite,Foreground,Centre,"sb/d.png",0,0 S,7,135177,135977,0.4314323,0 M,7,135177,135977,198,68,111,24 P,0,135177,135977,A F,0,142236,,1,0
Sprite,Foreground,Centre,"sb/d.png",0,0 S,7,135177,135977,0.4314323,0 M,7,135177,135977,198,68,285,68 P,0,135177,135977,A F,0,142236,,1,0
Sprite,Foreground,Centre,"sb/d.png",0,0 S,7,135618,136418,0.408531,0 M,7,135618,136418,192,263,235,191 P,0,135618,136418,A F,0,142236,,1,0
Sprite,Foreground,Centre,"sb/d.png",0,0 S,7,135618,136418,0.408531,0 M,7,135618,136418,192,263,201,262 P,0,135618,136418,A F,0,142236,,1,0
Sprite,Foreground,Centre,"sb/d.png",0,0 S,7,135618,136418,0.408531,0 M,7,135618,136418,192,263,257,259 P,0,135618,136418,A F,0,142236,,1,0
Sprite,Foreground,Centre,"sb/d.png",0,0 S,7,135618,136418,0.408531,0 M,7,135618,136418,192,263,206,166 P,0,135618,136418,A F,0,142236,,1,0
Sprite,Foreground,Centre,"sb/d.png",0,0 S,7,135618,136418,0.408531,0 M,7,135618,136418,192,263,214,336 P,0,135618,136418,A F,0,142236,,1,0
Sprite,Foreground,Centre,"sb/d.png",0,0 S,7,135618,136418,0.408531,0 M,7,135618,136418,192,263,220,223 P,0,135618,136418,A F,0,142236,,1,0
Sprite,Foreground,Centre,"sb/d.png",0,0 S,7,135618,136418,0.408531,0 M,7,135618,136418,192,263,159,343 P,0,135618,136418,A F,0,142236,,1,0
Sprite,Foreground,Centre,"sb/d.png",0,0 S,7,135618,136418,0.408531,0 M,7,135618,136418,192,263,177,163 P,0,135618,136418,A F,0,142236,,1,0
Sprite,Foreground,Centre,"sb/d.png",0,0 S,7,135618,136418,0.408531,0 M,7,135618,136418,192,263,285,330 P,0,135618,136418,A F,0,142236,,1,0
Sprite,Foreground,Centre,"sb/d.png",0,0 S,7,135618,136418,0.408531,0 M,7,135618,136418,192,263,239,202 P,0,135618,136418,A F,0,142236,,1,0
Sprite,Foreground,Centre,"sb/d.png",0,0 S,7,135765,136565,0.3452249,0 M,7,135765,136565,192,263,160,241 P,0,135765,136565,A F,0,142236,,1,0
Sprite,Foreground,Centre,"sb/d.png",0,0 S,7,135765,136565,0.3452249,0 M,7,135765,136565,192,263,143,259 P,0,135765,136565,A F,0,142236,,1,0
Sprite,Foreground,Centre,"sb/d.png",0,0 S,7,135765,136565,0.3452249,0 M,7,135765,136565,192,263,271,249 P,0,135765,136565,A F,0,142236,,1,0
Sprite,Foreground,Centre,"sb/d.png",0,0 S,7,135765,136565,0.3452249,0 M,7,135765,136565,192,263,109,305 P,0,135765,136565,A F,0,142236,,1,0
Sprite,Foreground,Centre,"sb/d.png",0,0 S,7,135765,136565,0.3452249,0 M,7,135765,136565,192,263,115,186 P,0,135765,136565,A F,0,142236,,1,0
Sprite,Foreground,Centre,"sb/d.png",0,0 S,7,135765,136565,0.3452249,0 M,7,135765,136565,192,263,275,305 P,0,135765,136565,A F,0,142236,,1,0
Sprite,Foreground,Centre,"sb/d.png",0,0 S,7,135765,136565,0.3452249,0 M,7,135765,136565,192,263,114,319 P,0,135765,136565,A F,0,142236,,1,0
Sprite,Foreground,Centre,"sb/d.png",0,0 S,7,135765,136565,0.3452249,0 M,7,135765,136565,192,263,95,270 P,0,135765,136565,A F,0,142236,,1,0
Sprite,Foreground,Centre,"sb/d.png",0,0 S,7,135765,136565,0.3452249,0 M,7,135765,136565,192,263,219,330 P,0,135765,136565,A F,0,142236,,1,0
Sprite,Foreground,Centre,"sb/d.png",0,0 S,7,135765,136565,0.3452249,0 M,7,135765,136565,192,263,99,344 P,0,135765,136565,A F,0,142236,,1,0
Sprite,Foreground,Centre,"sb/d.png",0,0 S,7,136060,136860,0.4399963,0 M,7,136060,136860,67,347,-24,319 P,0,136060,136860,A F,0,142236,,1,0
Sprite,Foreground,Centre,"sb/d.png",0,0 S,7,136060,136860,0.4399963,0 M,7,136060,136860,67,347,-29,250 P,0,136060,136860,A F,0,142236,,1,0
Sprite,Foreground,Centre,"sb/d.png",0,0 S,7,136060,136860,0.4399963,0 M,7,136060,136860,67,347,74,424 P,0,136060,136860,A F,0,142236,,1,0
Sprite,Foreground,Centre,"sb/d.png",0,0 S,7,136060,136860,0.4399963,0 M,7,136060,136860,67,347,112,353 P,0,136060,136860,A F,0,142236,,1,0
Sprite,Foreground,Centre,"sb/d.png",0,0 S,7,136060,136860,0.4399963,0 M,7,136060,136860,67,347,-13,335 P,0,136060,136860,A F,0,142236,,1,0
Sprite,Foreground,Centre,"sb/d.png",0,0 S,7,136060,136860,0.4399963,0 M,7,136060,136860,67,347,6,307 P,0,136060,136860,A F,0,142236,,1,0
Sprite,Foreground,Centre,"sb/d.png",0,0 S,7,136060,136860,0.4399963,0 M,7,136060,136860,67,347,30,322 P,0,136060,136860,A F,0,142236,,1,0
Sprite,Foreground,Centre,"sb/d.png",0,0 S,7,136060,136860,0.4399963,0 M,7,136060,136860,67,347,117,304 P,0,136060,136860,A F,0,142236,,1,0
Sprite,Foreground,Centre,"sb/d.png",0,0 S,7,136060,136860,0.4399963,0 M,7,136060,136860,67,347,-31,432 P,0,136060,136860,A F,0,142236,,1,0
Sprite,Foreground,Centre,"sb/d.png",0,0 S,7,136060,136860,0.4399963,0 M,7,136060,136860,67,347,-23,343 P,0,136060,136860,A F,0,142236,,1,0
Sprite,Foreground,Centre,"sb/d.png",0,0 S,7,136354,137154,0.3107208,0 M,7,136354,137154,166,437,164,487 P,0,136354,137154,A F,0,142236,,1,0
Sprite,Foreground,Centre,"sb/d.png",0,0 S,7,136354,137154,0.3107208,0 M,7,136354,137154,166,437,211,455 P,0,136354,137154,A F,0,142236,,1,0
Sprite,Foreground,Centre,"sb/d.png",0,0 S,7,136354,137154,0.3107208,0 M,7,136354,137154,166,437,110,361 P,0,136354,137154,A F,0,142236,,1,0
Sprite,Foreground,Centre,"sb/d.png",0,0 S,7,136354,137154,0.3107208,0 M,7,136354,137154,166,437,148,429 P,0,136354,137154,A F,0,142236,,1,0
Sprite,Foreground,Centre,"sb/d.png",0,0 S,7,136354,137154,0.3107208,0 M,7,136354,137154,166,437,132,337 P,0,136354,137154,A F,0,142236,,1,0
Sprite,Foreground,Centre,"sb/d.png",0,0 S,7,136354,137154,0.3107208,0 M,7,136354,137154,166,437,206,395 P,0,136354,137154,A F,0,142236,,1,0
Sprite,Foreground,Centre,"sb/d.png",0,0 S,7,136354,137154,0.3107208,0 M,7,136354,137154,166,437,171,395 P,0,136354,137154,A F,0,142236,,1,0
Sprite,Foreground,Centre,"sb/d.png",0,0 S,7,136354,137154,0.3107208,0 M,7,136354,137154,166,437,72,384 P,0,136354,137154,A F,0,142236,,1,0
Sprite,Foreground,Centre,"sb/d.png",0,0 S,7,136354,137154,0.3107208,0 M,7,136354,137154,166,437,158,409 P,0,136354,137154,A F,0,142236,,1,0
Sprite,Foreground,Centre,"sb/d.png",0,0 S,7,136354,137154,0.3107208,0 M,7,136354,137154,166,437,174,409 P,0,136354,137154,A F,0,142236,,1,0
Sprite,Foreground,Centre,"sb/d.png",0,0 S,7,136501,137301,0.2864169,0 M,7,136501,137301,225,368,128,402 P,0,136501,137301,A F,0,142236,,1,0
Sprite,Foreground,Centre,"sb/d.png",0,0 S,7,136501,137301,0.2864169,0 M,7,136501,137301,225,368,268,350 P,0,136501,137301,A F,0,142236,,1,0
Sprite,Foreground,Centre,"sb/d.png",0,0 S,7,136501,137301,0.2864169,0 M,7,136501,137301,225,368,284,348 P,0,136501,137301,A F,0,142236,,1,0
Sprite,Foreground,Centre,"sb/d.png",0,0 S,7,136501,137301,0.2864169,0 M,7,136501,137301,225,368,177,317 P,0,136501,137301,A F,0,142236,,1,0
Sprite,Foreground,Centre,"sb/d.png",0,0 S,7,136501,137301,0.2864169,0 M,7,136501,137301,225,368,249,449 P,0,136501,137301,A F,0,142236,,1,0
Sprite,Foreground,Centre,"sb/d.png",0,0 S,7,136501,137301,0.2864169,0 M,7,136501,137301,225,368,321,353 P,0,136501,137301,A F,0,142236,,1,0
Sprite,Foreground,Centre,"sb/d.png",0,0 S,7,136501,137301,0.2864169,0 M,7,136501,137301,225,368,254,379 P,0,136501,137301,A F,0,142236,,1,0
Sprite,Foreground,Centre,"sb/d.png",0,0 S,7,136501,137301,0.2864169,0 M,7,136501,137301,225,368,246,326 P,0,136501,137301,A F,0,142236,,1,0
Sprite,Foreground,Centre,"sb/d.png",0,0 S,7,136501,137301,0.2864169,0 M,7,136501,137301,225,368,210,330 P,0,136501,137301,A F,0,142236,,1,0
Sprite,Foreground,Centre,"sb/d.png",0,0 S,7,136501,137301,0.2864169,0 M,7,136501,137301,225,368,278,330 P,0,136501,137301,A F,0,142236,,1,0
Sprite,Foreground,Centre,"sb/d.png",0,0 S,7,136648,137448,0.2636937,0 M,7,136648,137448,299,419,352,407 P,0,136648,137448,A F,0,142236,,1,0
Sprite,Foreground,Centre,"sb/d.png",0,0 S,7,136648,137448,0.2636937,0 M,7,136648,137448,299,419,298,321 P,0,136648,137448,A F,0,142236,,1,0
Sprite,Foreground,Centre,"sb/d.png",0,0 S,7,136648,137448,0.2636937,0 M,7,136648,137448,299,419,357,335 P,0,136648,137448,A F,0,142236,,1,0
Sprite,Foreground,Centre,"sb/d.png",0,0 S,7,136648,137448,0.2636937,0 M,7,136648,137448,299,419,342,329 P,0,136648,137448,A F,0,142236,,1,0
Sprite,Foreground,Centre,"sb/d.png",0,0 S,7,136648,137448,0.2636937,0 M,7,136648,137448,299,419,309,432 P,0,136648,137448,A F,0,142236,,1,0
Sprite,Foreground,Centre,"sb/d.png",0,0 S,7,136648,137448,0.2636937,0 M,7,136648,137448,299,419,300,343 P,0,136648,137448,A F,0,142236,,1,0
Sprite,Foreground,Centre,"sb/d.png",0,0 S,7,136648,137448,0.2636937,0 M,7,136648,137448,299,419,223,413 P,0,136648,137448,A F,0,142236,,1,0
Sprite,Foreground,Centre,"sb/d.png",0,0 S,7,136648,137448,0.2636937,0 M,7,136648,137448,299,419,215,321 P,0,136648,137448,A F,0,142236,,1,0
Sprite,Foreground,Centre,"sb/d.png",0,0 S,7,136648,137448,0.2636937,0 M,7,136648,137448,299,419,234,404 P,0,136648,137448,A F,0,142236,,1,0
Sprite,Foreground,Centre,"sb/d.png",0,0 S,7,136648,137448,0.2636937,0 M,7,136648,137448,299,419,342,348 P,0,136648,137448,A F,0,142236,,1,0
Sprite,Foreground,Centre,"sb/d.png",0,0 S,7,136942,137742,0.2926837,0 M,7,136942,137742,445,359,486,277 P,0,136942,137742,A F,0,142236,,1,0
Sprite,Foreground,Centre,"sb/d.png",0,0 S,7,136942,137742,0.2926837,0 M,7,136942,137742,445,359,488,431 P,0,136942,137742,A F,0,142236,,1,0
Sprite,Foreground,Centre,"sb/d.png",0,0 S,7,136942,137742,0.2926837,0 M,7,136942,137742,445,359,520,406 P,0,136942,137742,A F,0,142236,,1,0
Sprite,Foreground,Centre,"sb/d.png",0,0 S,7,136942,137742,0.2926837,0 M,7,136942,137742,445,359,429,447 P,0,136942,137742,A F,0,142236,,1,0
Sprite,Foreground,Centre,"sb/d.png",0,0 S,7,136942,137742,0.2926837,0 M,7,136942,137742,445,359,351,268 P,0,136942,137742,A F,0,142236,,1,0
Sprite,Foreground,Centre,"sb/d.png",0,0 S,7,136942,137742,0.2926837,0 M,7,136942,137742,445,359,500,268 P,0,136942,137742,A F,0,142236,,1,0
Sprite,Foreground,Centre,"sb/d.png",0,0 S,7,136942,137742,0.2926837,0 M,7,136942,137742,445,359,367,309 P,0,136942,137742,A F,0,142236,,1,0
Sprite,Foreground,Centre,"sb/d.png",0,0 S,7,136942,137742,0.2926837,0 M,7,136942,137742,445,359,390,302 P,0,136942,137742,A F,0,142236,,1,0
Sprite,Foreground,Centre,"sb/d.png",0,0 S,7,136942,137742,0.2926837,0 M,7,136942,137742,445,359,425,260 P,0,136942,137742,A F,0,142236,,1,0
Sprite,Foreground,Centre,"sb/d.png",0,0 S,7,136942,137742,0.2926837,0 M,7,136942,137742,445,359,409,367 P,0,136942,137742,A F,0,142236,,1,0
Sprite,Foreground,Centre,"sb/d.png",0,0 S,7,137383,138183,0.2890063,0 M,7,137383,138183,350,179,264,147 P,0,137383,138183,A F,0,142236,,1,0
Sprite,Foreground,Centre,"sb/d.png",0,0 S,7,137383,138183,0.2890063,0 M,7,137383,138183,350,179,344,139 P,0,137383,138183,A F,0,142236,,1,0
Sprite,Foreground,Centre,"sb/d.png",0,0 S,7,137383,138183,0.2890063,0 M,7,137383,138183,350,179,354,95 P,0,137383,138183,A F,0,142236,,1,0
Sprite,Foreground,Centre,"sb/d.png",0,0 S,7,137383,138183,0.2890063,0 M,7,137383,138183,350,179,355,134 P,0,137383,138183,A F,0,142236,,1,0
Sprite,Foreground,Centre,"sb/d.png",0,0 S,7,137383,138183,0.2890063,0 M,7,137383,138183,350,179,299,256 P,0,137383,138183,A F,0,142236,,1,0
Sprite,Foreground,Centre,"sb/d.png",0,0 S,7,137383,138183,0.2890063,0 M,7,137383,138183,350,179,259,111 P,0,137383,138183,A F,0,142236,,1,0
Sprite,Foreground,Centre,"sb/d.png",0,0 S,7,137383,138183,0.2890063,0 M,7,137383,138183,350,179,421,91 P,0,137383,138183,A F,0,142236,,1,0
Sprite,Foreground,Centre,"sb/d.png",0,0 S,7,137383,138183,0.2890063,0 M,7,137383,138183,350,179,320,235 P,0,137383,138183,A F,0,142236,,1,0
Sprite,Foreground,Centre,"sb/d.png",0,0 S,7,137383,138183,0.2890063,0 M,7,137383,138183,350,179,279,261 P,0,137383,138183,A F,0,142236,,1,0
Sprite,Foreground,Centre,"sb/d.png",0,0 S,7,137383,138183,0.2890063,0 M,7,137383,138183,350,179,319,137 P,0,137383,138183,A F,0,142236,,1,0
Sprite,Foreground,Centre,"sb/d.png",0,0 S,7,137530,138330,0.2723029,0 M,7,137530,138330,388,96,391,100 P,0,137530,138330,A F,0,142236,,1,0
Sprite,Foreground,Centre,"sb/d.png",0,0 S,7,137530,138330,0.2723029,0 M,7,137530,138330,388,96,434,10 P,0,137530,138330,A F,0,142236,,1,0
Sprite,Foreground,Centre,"sb/d.png",0,0 S,7,137530,138330,0.2723029,0 M,7,137530,138330,388,96,289,40 P,0,137530,138330,A F,0,142236,,1,0
Sprite,Foreground,Centre,"sb/d.png",0,0 S,7,137530,138330,0.2723029,0 M,7,137530,138330,388,96,458,155 P,0,137530,138330,A F,0,142236,,1,0
Sprite,Foreground,Centre,"sb/d.png",0,0 S,7,137530,138330,0.2723029,0 M,7,137530,138330,388,96,443,79 P,0,137530,138330,A F,0,142236,,1,0
Sprite,Foreground,Centre,"sb/d.png",0,0 S,7,137530,138330,0.2723029,0 M,7,137530,138330,388,96,367,116 P,0,137530,138330,A F,0,142236,,1,0
Sprite,Foreground,Centre,"sb/d.png",0,0 S,7,137530,138330,0.2723029,0 M,7,137530,138330,388,96,291,122 P,0,137530,138330,A F,0,142236,,1,0
Sprite,Foreground,Centre,"sb/d.png",0,0 S,7,137530,138330,0.2723029,0 M,7,137530,138330,388,96,437,44 P,0,137530,138330,A F,0,142236,,1,0
Sprite,Foreground,Centre,"sb/d.png",0,0 S,7,137530,138330,0.2723029,0 M,7,137530,138330,388,96,400,66 P,0,137530,138330,A F,0,142236,,1,0
Sprite,Foreground,Centre,"sb/d.png",0,0 S,7,137530,138330,0.2723029,0 M,7,137530,138330,388,96,418,175 P,0,137530,138330,A F,0,142236,,1,0
Sprite,Foreground,Centre,"sb/d.png",0,0 S,7,138265,139065,0.3824163,0 M,7,138265,139065,388,96,445,27 P,0,138265,139065,A F,0,142236,,1,0
Sprite,Foreground,Centre,"sb/d.png",0,0 S,7,138265,139065,0.3824163,0 M,7,138265,139065,388,96,434,173 P,0,138265,139065,A F,0,142236,,1,0
Sprite,Foreground,Centre,"sb/d.png",0,0 S,7,138265,139065,0.3824163,0 M,7,138265,139065,388,96,339,33 P,0,138265,139065,A F,0,142236,,1,0
Sprite,Foreground,Centre,"sb/d.png",0,0 S,7,138265,139065,0.3824163,0 M,7,138265,139065,388,96,463,82 P,0,138265,139065,A F,0,142236,,1,0
Sprite,Foreground,Centre,"sb/d.png",0,0 S,7,138265,139065,0.3824163,0 M,7,138265,139065,388,96,339,15 P,0,138265,139065,A F,0,142236,,1,0
Sprite,Foreground,Centre,"sb/d.png",0,0 S,7,138265,139065,0.3824163,0 M,7,138265,139065,388,96,482,46 P,0,138265,139065,A F,0,142236,,1,0
Sprite,Foreground,Centre,"sb/d.png",0,0 S,7,138265,139065,0.3824163,0 M,7,138265,139065,388,96,304,107 P,0,138265,139065,A F,0,142236,,1,0
Sprite,Foreground,Centre,"sb/d.png",0,0 S,7,138265,139065,0.3824163,0 M,7,138265,139065,388,96,451,144 P,0,138265,139065,A F,0,142236,,1,0
Sprite,Foreground,Centre,"sb/d.png",0,0 S,7,138265,139065,0.3824163,0 M,7,138265,139065,388,96,333,99 P,0,138265,139065,A F,0,142236,,1,0
Sprite,Foreground,Centre,"sb/d.png",0,0 S,7,138265,139065,0.3824163,0 M,7,138265,139065,388,96,460,131 P,0,138265,139065,A F,0,142236,,1,0
Sprite,Foreground,Centre,"sb/d.png",0,0 S,7,138412,139212,0.3462926,0 M,7,138412,139212,350,179,344,172 P,0,138412,139212,A F,0,142236,,1,0
Sprite,Foreground,Centre,"sb/d.png",0,0 S,7,138412,139212,0.3462926,0 M,7,138412,139212,350,179,379,190 P,0,138412,139212,A F,0,142236,,1,0
Sprite,Foreground,Centre,"sb/d.png",0,0 S,7,138412,139212,0.3462926,0 M,7,138412,139212,350,179,417,164 P,0,138412,139212,A F,0,142236,,1,0
Sprite,Foreground,Centre,"sb/d.png",0,0 S,7,138412,139212,0.3462926,0 M,7,138412,139212,350,179,370,187 P,0,138412,139212,A F,0,142236,,1,0
Sprite,Foreground,Centre,"sb/d.png",0,0 S,7,138412,139212,0.3462926,0 M,7,138412,139212,350,179,366,190 P,0,138412,139212,A F,0,142236,,1,0
Sprite,Foreground,Centre,"sb/d.png",0,0 S,7,138412,139212,0.3462926,0 M,7,138412,139212,350,179,389,158 P,0,138412,139212,A F,0,142236,,1,0
Sprite,Foreground,Centre,"sb/d.png",0,0 S,7,138412,139212,0.3462926,0 M,7,138412,139212,350,179,339,225 P,0,138412,139212,A F,0,142236,,1,0
Sprite,Foreground,Centre,"sb/d.png",0,0 S,7,138412,139212,0.3462926,0 M,7,138412,139212,350,179,322,79 P,0,138412,139212,A F,0,142236,,1,0
Sprite,Foreground,Centre,"sb/d.png",0,0 S,7,138412,139212,0.3462926,0 M,7,138412,139212,350,179,287,228 P,0,138412,139212,A F,0,142236,,1,0
Sprite,Foreground,Centre,"sb/d.png",0,0 S,7,138412,139212,0.3462926,0 M,7,138412,139212,350,179,256,274 P,0,138412,139212,A F,0,142236,,1,0
Sprite,Foreground,Centre,"sb/d.png",0,0 S,7,138707,139507,0.3233354,0 M,7,138707,139507,215,253,219,217 P,0,138707,139507,A F,0,142236,,1,0
Sprite,Foreground,Centre,"sb/d.png",0,0 S,7,138707,139507,0.3233354,0 M,7,138707,139507,215,253,200,223 P,0,138707,139507,A F,0,142236,,1,0
Sprite,Foreground,Centre,"sb/d.png",0,0 S,7,138707,139507,0.3233354,0 M,7,138707,139507,215,253,301,168 P,0,138707,139507,A F,0,142236,,1,0
Sprite,Foreground,Centre,"sb/d.png",0,0 S,7,138707,139507,0.3233354,0 M,7,138707,139507,215,253,301,252 P,0,138707,139507,A F,0,142236,,1,0
Sprite,Foreground,Centre,"sb/d.png",0,0 S,7,138707,139507,0.3233354,0 M,7,138707,139507,215,253,181,320 P,0,138707,139507,A F,0,142236,,1,0
Sprite,Foreground,Centre,"sb/d.png",0,0 S,7,138707,139507,0.3233354,0 M,7,138707,139507,215,253,273,197 P,0,138707,139507,A F,0,142236,,1,0
Sprite,Foreground,Centre,"sb/d.png",0,0 S,7,138707,139507,0.3233354,0 M,7,138707,139507,215,253,151,215 P,0,138707,139507,A F,0,142236,,1,0
Sprite,Foreground,Centre,"sb/d.png",0,0 S,7,138707,139507,0.3233354,0 M,7,138707,139507,215,253,252,169 P,0,138707,139507,A F,0,142236,,1,0
Sprite,Foreground,Centre,"sb/d.png",0,0 S,7,138707,139507,0.3233354,0 M,7,138707,139507,215,253,180,237 P,0,138707,139507,A F,0,142236,,1,0
Sprite,Foreground,Centre,"sb/d.png",0,0 S,7,138707,139507,0.3233354,0 M,7,138707,139507,215,253,267,207 P,0,138707,139507,A F,0,142236,,1,0
Sprite,Foreground,Centre,"sb/d.png",0,0 S,7,138854,139654,0.4278983,0 M,7,138854,139654,136,206,170,214 P,0,138854,139654,A F,0,142236,,1,0
Sprite,Foreground,Centre,"sb/d.png",0,0 S,7,138854,139654,0.4278983,0 M,7,138854,139654,136,206,91,276 P,0,138854,139654,A F,0,142236,,1,0
Sprite,Foreground,Centre,"sb/d.png",0,0 S,7,138854,139654,0.4278983,0 M,7,138854,139654,136,206,162,271 P,0,138854,139654,A F,0,142236,,1,0
Sprite,Foreground,Centre,"sb/d.png",0,0 S,7,138854,139654,0.4278983,0 M,7,138854,139654,136,206,127,254 P,0,138854,139654,A F,0,142236,,1,0
Sprite,Foreground,Centre,"sb/d.png",0,0 S,7,138854,139654,0.4278983,0 M,7,138854,139654,136,206,44,259 P,0,138854,139654,A F,0,142236,,1,0
Sprite,Foreground,Centre,"sb/d.png",0,0 S,7,138854,139654,0.4278983,0 M,7,138854,139654,136,206,201,245 P,0,138854,139654,A F,0,142236,,1,0
Sprite,Foreground,Centre,"sb/d.png",0,0 S,7,138854,139654,0.4278983,0 M,7,138854,139654,136,206,58,295 P,0,138854,139654,A F,0,142236,,1,0
Sprite,Foreground,Centre,"sb/d.png",0,0 S,7,138854,139654,0.4278983,0 M,7,138854,139654,136,206,65,150 P,0,138854,139654,A F,0,142236,,1,0
Sprite,Foreground,Centre,"sb/d.png",0,0 S,7,138854,139654,0.4278983,0 M,7,138854,139654,136,206,77,286 P,0,138854,139654,A F,0,142236,,1,0
Sprite,Foreground,Centre,"sb/d.png",0,0 S,7,138854,139654,0.4278983,0 M,7,138854,139654,136,206,105,240 P,0,138854,139654,A F,0,142236,,1,0
Sprite,Foreground,Centre,"sb/d.png",0,0 S,7,139001,139801,0.2587548,0 M,7,139001,139801,80,278,30,321 P,0,139001,139801,A F,0,142236,,1,0
Sprite,Foreground,Centre,"sb/d.png",0,0 S,7,139001,139801,0.2587548,0 M,7,139001,139801,80,278,161,213 P,0,139001,139801,A F,0,142236,,1,0
Sprite,Foreground,Centre,"sb/d.png",0,0 S,7,139001,139801,0.2587548,0 M,7,139001,139801,80,278,33,261 P,0,139001,139801,A F,0,142236,,1,0
Sprite,Foreground,Centre,"sb/d.png",0,0 S,7,139001,139801,0.2587548,0 M,7,139001,139801,80,278,115,361 P,0,139001,139801,A F,0,142236,,1,0
Sprite,Foreground,Centre,"sb/d.png",0,0 S,7,139001,139801,0.2587548,0 M,7,139001,139801,80,278,152,243 P,0,139001,139801,A F,0,142236,,1,0
Sprite,Foreground,Centre,"sb/d.png",0,0 S,7,139001,139801,0.2587548,0 M,7,139001,139801,80,278,33,318 P,0,139001,139801,A F,0,142236,,1,0
Sprite,Foreground,Centre,"sb/d.png",0,0 S,7,139001,139801,0.2587548,0 M,7,139001,139801,80,278,75,348 P,0,139001,139801,A F,0,142236,,1,0
Sprite,Foreground,Centre,"sb/d.png",0,0 S,7,139001,139801,0.2587548,0 M,7,139001,139801,80,278,136,208 P,0,139001,139801,A F,0,142236,,1,0
Sprite,Foreground,Centre,"sb/d.png",0,0 S,7,139001,139801,0.2587548,0 M,7,139001,139801,80,278,80,238 P,0,139001,139801,A F,0,142236,,1,0
Sprite,Foreground,Centre,"sb/d.png",0,0 S,7,139001,139801,0.2587548,0 M,7,139001,139801,80,278,30,272 P,0,139001,139801,A F,0,142236,,1,0
Sprite,Foreground,Centre,"sb/d.png",0,0 S,7,139295,140095,0.4015281,0 M,7,139295,140095,155,405,113,319 P,0,139295,140095,A F,0,142236,,1,0
Sprite,Foreground,Centre,"sb/d.png",0,0 S,7,139295,140095,0.4015281,0 M,7,139295,140095,155,405,247,409 P,0,139295,140095,A F,0,142236,,1,0
Sprite,Foreground,Centre,"sb/d.png",0,0 S,7,139295,140095,0.4015281,0 M,7,139295,140095,155,405,68,377 P,0,139295,140095,A F,0,142236,,1,0
Sprite,Foreground,Centre,"sb/d.png",0,0 S,7,139295,140095,0.4015281,0 M,7,139295,140095,155,405,162,476 P,0,139295,140095,A F,0,142236,,1,0
Sprite,Foreground,Centre,"sb/d.png",0,0 S,7,139295,140095,0.4015281,0 M,7,139295,140095,155,405,78,409 P,0,139295,140095,A F,0,142236,,1,0
Sprite,Foreground,Centre,"sb/d.png",0,0 S,7,139295,140095,0.4015281,0 M,7,139295,140095,155,405,138,425 P,0,139295,140095,A F,0,142236,,1,0
Sprite,Foreground,Centre,"sb/d.png",0,0 S,7,139295,140095,0.4015281,0 M,7,139295,140095,155,405,224,389 P,0,139295,140095,A F,0,142236,,1,0
Sprite,Foreground,Centre,"sb/d.png",0,0 S,7,139295,140095,0.4015281,0 M,7,139295,140095,155,405,219,378 P,0,139295,140095,A F,0,142236,,1,0
Sprite,Foreground,Centre,"sb/d.png",0,0 S,7,139295,140095,0.4015281,0 M,7,139295,140095,155,405,190,378 P,0,139295,140095,A F,0,142236,,1,0
Sprite,Foreground,Centre,"sb/d.png",0,0 S,7,139295,140095,0.4015281,0 M,7,139295,140095,155,405,136,460 P,0,139295,140095,A F,0,142236,,1,0
Sprite,Foreground,Centre,"sb/d.png",0,0 S,7,139883,140683,0.4142304,0 M,7,139883,140683,448,431,383,419 P,0,139883,140683,A F,0,142236,,1,0
Sprite,Foreground,Centre,"sb/d.png",0,0 S,7,139883,140683,0.4142304,0 M,7,139883,140683,448,431,460,530 P,0,139883,140683,A F,0,142236,,1,0
Sprite,Foreground,Centre,"sb/d.png",0,0 S,7,139883,140683,0.4142304,0 M,7,139883,140683,448,431,475,350 P,0,139883,140683,A F,0,142236,,1,0
Sprite,Foreground,Centre,"sb/d.png",0,0 S,7,139883,140683,0.4142304,0 M,7,139883,140683,448,431,421,345 P,0,139883,140683,A F,0,142236,,1,0
Sprite,Foreground,Centre,"sb/d.png",0,0 S,7,139883,140683,0.4142304,0 M,7,139883,140683,448,431,488,451 P,0,139883,140683,A F,0,142236,,1,0
Sprite,Foreground,Centre,"sb/d.png",0,0 S,7,139883,140683,0.4142304,0 M,7,139883,140683,448,431,366,370 P,0,139883,140683,A F,0,142236,,1,0
Sprite,Foreground,Centre,"sb/d.png",0,0 S,7,139883,140683,0.4142304,0 M,7,139883,140683,448,431,405,522 P,0,139883,140683,A F,0,142236,,1,0
Sprite,Foreground,Centre,"sb/d.png",0,0 S,7,139883,140683,0.4142304,0 M,7,139883,140683,448,431,477,520 P,0,139883,140683,A F,0,142236,,1,0
Sprite,Foreground,Centre,"sb/d.png",0,0 S,7,139883,140683,0.4142304,0 M,7,139883,140683,448,431,478,371 P,0,139883,140683,A F,0,142236,,1,0
Sprite,Foreground,Centre,"sb/d.png",0,0 S,7,139883,140683,0.4142304,0 M,7,139883,140683,448,431,358,358 P,0,139883,140683,A F,0,142236,,1,0
Sprite,Foreground,Centre,"sb/d.png",0,0 S,7,140324,141124,0.2619846,0 M,7,140324,141124,411,206,459,267 P,0,140324,141124,A F,0,142236,,1,0
Sprite,Foreground,Centre,"sb/d.png",0,0 S,7,140324,141124,0.2619846,0 M,7,140324,141124,411,206,481,126 P,0,140324,141124,A F,0,142236,,1,0
Sprite,Foreground,Centre,"sb/d.png",0,0 S,7,140324,141124,0.2619846,0 M,7,140324,141124,411,206,437,191 P,0,140324,141124,A F,0,142236,,1,0
Sprite,Foreground,Centre,"sb/d.png",0,0 S,7,140324,141124,0.2619846,0 M,7,140324,141124,411,206,502,262 P,0,140324,141124,A F,0,142236,,1,0
Sprite,Foreground,Centre,"sb/d.png",0,0 S,7,140324,141124,0.2619846,0 M,7,140324,141124,411,206,476,293 P,0,140324,141124,A F,0,142236,,1,0
Sprite,Foreground,Centre,"sb/d.png",0,0 S,7,140324,141124,0.2619846,0 M,7,140324,141124,411,206,480,245 P,0,140324,141124,A F,0,142236,,1,0
Sprite,Foreground,Centre,"sb/d.png",0,0 S,7,140324,141124,0.2619846,0 M,7,140324,141124,411,206,498,128 P,0,140324,141124,A F,0,142236,,1,0
Sprite,Foreground,Centre,"sb/d.png",0,0 S,7,140324,141124,0.2619846,0 M,7,140324,141124,411,206,437,186 P,0,140324,141124,A F,0,142236,,1,0
Sprite,Foreground,Centre,"sb/d.png",0,0 S,7,140324,141124,0.2619846,0 M,7,140324,141124,411,206,416,191 P,0,140324,141124,A F,0,142236,,1,0
Sprite,Foreground,Centre,"sb/d.png",0,0 S,7,140324,141124,0.2619846,0 M,7,140324,141124,411,206,363,140 P,0,140324,141124,A F,0,142236,,1,0
Sprite,Foreground,Centre,"sb/d.png",0,0 S,7,140471,141271,0.4077407,0 M,7,140471,141271,411,206,394,289 P,0,140471,141271,A F,0,142236,,1,0
Sprite,Foreground,Centre,"sb/d.png",0,0 S,7,140471,141271,0.4077407,0 M,7,140471,141271,411,206,375,186 P,0,140471,141271,A F,0,142236,,1,0
Sprite,Foreground,Centre,"sb/d.png",0,0 S,7,140471,141271,0.4077407,0 M,7,140471,141271,411,206,422,198 P,0,140471,141271,A F,0,142236,,1,0
Sprite,Foreground,Centre,"sb/d.png",0,0 S,7,140471,141271,0.4077407,0 M,7,140471,141271,411,206,346,190 P,0,140471,141271,A F,0,142236,,1,0
Sprite,Foreground,Centre,"sb/d.png",0,0 S,7,140471,141271,0.4077407,0 M,7,140471,141271,411,206,315,138 P,0,140471,141271,A F,0,142236,,1,0
Sprite,Foreground,Centre,"sb/d.png",0,0 S,7,140471,141271,0.4077407,0 M,7,140471,141271,411,206,381,234 P,0,140471,141271,A F,0,142236,,1,0
Sprite,Foreground,Centre,"sb/d.png",0,0 S,7,140471,141271,0.4077407,0 M,7,140471,141271,411,206,463,193 P,0,140471,141271,A F,0,142236,,1,0
Sprite,Foreground,Centre,"sb/d.png",0,0 S,7,140471,141271,0.4077407,0 M,7,140471,141271,411,206,437,247 P,0,140471,141271,A F,0,142236,,1,0
Sprite,Foreground,Centre,"sb/d.png",0,0 S,7,140471,141271,0.4077407,0 M,7,140471,141271,411,206,489,107 P,0,140471,141271,A F,0,142236,,1,0
Sprite,Foreground,Centre,"sb/d.png",0,0 S,7,140471,141271,0.4077407,0 M,7,140471,141271,411,206,445,188 P,0,140471,141271,A F,0,142236,,1,0
Sprite,Foreground,Centre,"sb/d.png",0,0 S,7,140912,141712,0.3079728,0 M,7,140912,141712,268,303,343,336 P,0,140912,141712,A F,0,142236,,1,0
Sprite,Foreground,Centre,"sb/d.png",0,0 S,7,140912,141712,0.3079728,0 M,7,140912,141712,268,303,217,303 P,0,140912,141712,A F,0,142236,,1,0
Sprite,Foreground,Centre,"sb/d.png",0,0 S,7,140912,141712,0.3079728,0 M,7,140912,141712,268,303,237,371 P,0,140912,141712,A F,0,142236,,1,0
Sprite,Foreground,Centre,"sb/d.png",0,0 S,7,140912,141712,0.3079728,0 M,7,140912,141712,268,303,171,311 P,0,140912,141712,A F,0,142236,,1,0
Sprite,Foreground,Centre,"sb/d.png",0,0 S,7,140912,141712,0.3079728,0 M,7,140912,141712,268,303,193,357 P,0,140912,141712,A F,0,142236,,1,0
Sprite,Foreground,Centre,"sb/d.png",0,0 S,7,140912,141712,0.3079728,0 M,7,140912,141712,268,303,326,395 P,0,140912,141712,A F,0,142236,,1,0
Sprite,Foreground,Centre,"sb/d.png",0,0 S,7,140912,141712,0.3079728,0 M,7,140912,141712,268,303,222,268 P,0,140912,141712,A F,0,142236,,1,0
Sprite,Foreground,Centre,"sb/d.png",0,0 S,7,140912,141712,0.3079728,0 M,7,140912,141712,268,303,345,309 P,0,140912,141712,A F,0,142236,,1,0
Sprite,Foreground,Centre,"sb/d.png",0,0 S,7,140912,141712,0.3079728,0 M,7,140912,141712,268,303,308,217 P,0,140912,141712,A F,0,142236,,1,0
Sprite,Foreground,Centre,"sb/d.png",0,0 S,7,140912,141712,0.3079728,0 M,7,140912,141712,268,303,361,359 P,0,140912,141712,A F,0,142236,,1,0
Sprite,Foreground,Centre,"sb/d.png",0,0 S,7,141060,141860,0.3213597,0 M,7,141060,141860,268,303,328,357 P,0,141060,141860,A F,0,142236,,1,0
Sprite,Foreground,Centre,"sb/d.png",0,0 S,7,141060,141860,0.3213597,0 M,7,141060,141860,268,303,266,213 P,0,141060,141860,A F,0,142236,,1,0
Sprite,Foreground,Centre,"sb/d.png",0,0 S,7,141060,141860,0.3213597,0 M,7,141060,141860,268,303,203,338 P,0,141060,141860,A F,0,142236,,1,0
Sprite,Foreground,Centre,"sb/d.png",0,0 S,7,141060,141860,0.3213597,0 M,7,141060,141860,268,303,367,341 P,0,141060,141860,A F,0,142236,,1,0
Sprite,Foreground,Centre,"sb/d.png",0,0 S,7,141060,141860,0.3213597,0 M,7,141060,141860,268,303,294,287 P,0,141060,141860,A F,0,142236,,1,0
Sprite,Foreground,Centre,"sb/d.png",0,0 S,7,141060,141860,0.3213597,0 M,7,141060,141860,268,303,286,355 P,0,141060,141860,A F,0,142236,,1,0
Sprite,Foreground,Centre,"sb/d.png",0,0 S,7,141060,141860,0.3213597,0 M,7,141060,141860,268,303,267,310 P,0,141060,141860,A F,0,142236,,1,0
Sprite,Foreground,Centre,"sb/d.png",0,0 S,7,141060,141860,0.3213597,0 M,7,141060,141860,268,303,218,217 P,0,141060,141860,A F,0,142236,,1,0
Sprite,Foreground,Centre,"sb/d.png",0,0 S,7,141060,141860,0.3213597,0 M,7,141060,141860,268,303,347,244 P,0,141060,141860,A F,0,142236,,1,0
Sprite,Foreground,Centre,"sb/d.png",0,0 S,7,141060,141860,0.3213597,0 M,7,141060,141860,268,303,291,234 P,0,141060,141860,A F,0,142236,,1,0
Sprite,Foreground,Centre,"sb/d.png",0,0 S,7,141501,142301,0.4260408,0 M,7,141501,142301,288,215,367,192 P,0,141501,142301,A F,0,142236,,1,0
Sprite,Foreground,Centre,"sb/d.png",0,0 S,7,141501,142301,0.4260408,0 M,7,141501,142301,288,215,300,250 P,0,141501,142301,A F,0,142236,,1,0
Sprite,Foreground,Centre,"sb/d.png",0,0 S,7,141501,142301,0.4260408,0 M,7,141501,142301,288,215,286,136 P,0,141501,142301,A F,0,142236,,1,0
Sprite,Foreground,Centre,"sb/d.png",0,0 S,7,141501,142301,0.4260408,0 M,7,141501,142301,288,215,336,150 P,0,141501,142301,A F,0,142236,,1,0
Sprite,Foreground,Centre,"sb/d.png",0,0 S,7,141501,142301,0.4260408,0 M,7,141501,142301,288,215,226,301 P,0,141501,142301,A F,0,142236,,1,0
Sprite,Foreground,Centre,"sb/d.png",0,0 S,7,141501,142301,0.4260408,0 M,7,141501,142301,288,215,328,241 P,0,141501,142301,A F,0,142236,,1,0
Sprite,Foreground,Centre,"sb/d.png",0,0 S,7,141501,142301,0.4260408,0 M,7,141501,142301,288,215,374,130 P,0,141501,142301,A F,0,142236,,1,0
Sprite,Foreground,Centre,"sb/d.png",0,0 S,7,141501,142301,0.4260408,0 M,7,141501,142301,288,215,366,265 P,0,141501,142301,A F,0,142236,,1,0
Sprite,Foreground,Centre,"sb/d.png",0,0 S,7,141501,142301,0.4260408,0 M,7,141501,142301,288,215,278,149 P,0,141501,142301,A F,0,142236,,1,0
Sprite,Foreground,Centre,"sb/d.png",0,0 S,7,141501,142301,0.4260408,0 M,7,141501,142301,288,215,221,118 P,0,141501,142301,A F,0,142236,,1,0
Sprite,Foreground,Centre,"sb/d.png",0,0 S,7,141648,142448,0.4202144,0 M,7,141648,142448,242,136,240,106 P,0,141648,142448,A F,0,142236,,1,0
Sprite,Foreground,Centre,"sb/d.png",0,0 S,7,141648,142448,0.4202144,0 M,7,141648,142448,242,136,181,76 P,0,141648,142448,A F,0,142236,,1,0
Sprite,Foreground,Centre,"sb/d.png",0,0 S,7,141648,142448,0.4202144,0 M,7,141648,142448,242,136,296,194 P,0,141648,142448,A F,0,142236,,1,0
Sprite,Foreground,Centre,"sb/d.png",0,0 S,7,141648,142448,0.4202144,0 M,7,141648,142448,242,136,268,127 P,0,141648,142448,A F,0,142236,,1,0
Sprite,Foreground,Centre,"sb/d.png",0,0 S,7,141648,142448,0.4202144,0 M,7,141648,142448,242,136,302,208 P,0,141648,142448,A F,0,142236,,1,0
Sprite,Foreground,Centre,"sb/d.png",0,0 S,7,141648,142448,0.4202144,0 M,7,141648,142448,242,136,211,160 P,0,141648,142448,A F,0,142236,,1,0
Sprite,Foreground,Centre,"sb/d.png",0,0 S,7,141648,142448,0.4202144,0 M,7,141648,142448,242,136,237,217 P,0,141648,142448,A F,0,142236,,1,0
Sprite,Foreground,Centre,"sb/d.png",0,0 S,7,141648,142448,0.4202144,0 M,7,141648,142448,242,136,219,222 P,0,141648,142448,A F,0,142236,,1,0
Sprite,Foreground,Centre,"sb/d.png",0,0 S,7,141648,142448,0.4202144,0 M,7,141648,142448,242,136,216,173 P,0,141648,142448,A F,0,142236,,1,0
Sprite,Foreground,Centre,"sb/d.png",0,0 S,7,141648,142448,0.4202144,0 M,7,141648,142448,242,136,256,86 P,0,141648,142448,A F,0,142236,,1,0
Sprite,Foreground,Centre,"sb/d.png",0,0 S,7,141942,142742,0.3533439,0 M,7,141942,142742,101,174,88,171 P,0,141942,142742,A F,0,142236,,1,0
Sprite,Foreground,Centre,"sb/d.png",0,0 S,7,141942,142742,0.3533439,0 M,7,141942,142742,101,174,179,100 P,0,141942,142742,A F,0,142236,,1,0
Sprite,Foreground,Centre,"sb/d.png",0,0 S,7,141942,142742,0.3533439,0 M,7,141942,142742,101,174,114,165 P,0,141942,142742,A F,0,142236,,1,0
Sprite,Foreground,Centre,"sb/d.png",0,0 S,7,141942,142742,0.3533439,0 M,7,141942,142742,101,174,73,138 P,0,141942,142742,A F,0,142236,,1,0
Sprite,Foreground,Centre,"sb/d.png",0,0 S,7,141942,142742,0.3533439,0 M,7,141942,142742,101,174,90,81 P,0,141942,142742,A F,0,142236,,1,0
Sprite,Foreground,Centre,"sb/d.png",0,0 S,7,141942,142742,0.3533439,0 M,7,141942,142742,101,174,91,101 P,0,141942,142742,A F,0,142236,,1,0
Sprite,Foreground,Centre,"sb/d.png",0,0 S,7,141942,142742,0.3533439,0 M,7,141942,142742,101,174,6,154 P,0,141942,142742,A F,0,142236,,1,0
Sprite,Foreground,Centre,"sb/d.png",0,0 S,7,141942,142742,0.3533439,0 M,7,141942,142742,101,174,7,146 P,0,141942,142742,A F,0,142236,,1,0
Sprite,Foreground,Centre,"sb/d.png",0,0 S,7,141942,142742,0.3533439,0 M,7,141942,142742,101,174,96,217 P,0,141942,142742,A F,0,142236,,1,0
Sprite,Foreground,Centre,"sb/d.png",0,0 S,7,141942,142742,0.3533439,0 M,7,141942,142742,101,174,64,96 P,0,141942,142742,A F,0,142236,,1,0
Sprite,Foreground,Centre,"sb/d.png",0,0 S,7,142089,142889,0.3938835,0 M,7,142089,142889,161,241,139,155 P,0,142089,142889,A F,0,142236,,1,0
Sprite,Foreground,Centre,"sb/d.png",0,0 S,7,142089,142889,0.3938835,0 M,7,142089,142889,161,241,132,142 P,0,142089,142889,A F,0,142236,,1,0
Sprite,Foreground,Centre,"sb/d.png",0,0 S,7,142089,142889,0.3938835,0 M,7,142089,142889,161,241,152,175 P,0,142089,142889,A F,0,142236,,1,0
Sprite,Foreground,Centre,"sb/d.png",0,0 S,7,142089,142889,0.3938835,0 M,7,142089,142889,161,241,162,304 P,0,142089,142889,A F,0,142236,,1,0
Sprite,Foreground,Centre,"sb/d.png",0,0 S,7,142089,142889,0.3938835,0 M,7,142089,142889,161,241,76,238 P,0,142089,142889,A F,0,142236,,1,0
Sprite,Foreground,Centre,"sb/d.png",0,0 S,7,142089,142889,0.3938835,0 M,7,142089,142889,161,241,179,294 P,0,142089,142889,A F,0,142236,,1,0
Sprite,Foreground,Centre,"sb/d.png",0,0 S,7,142089,142889,0.3938835,0 M,7,142089,142889,161,241,127,152 P,0,142089,142889,A F,0,142236,,1,0
Sprite,Foreground,Centre,"sb/d.png",0,0 S,7,142089,142889,0.3938835,0 M,7,142089,142889,161,241,233,202 P,0,142089,142889,A F,0,142236,,1,0
Sprite,Foreground,Centre,"sb/d.png",0,0 S,7,142089,142889,0.3938835,0 M,7,142089,142889,161,241,75,182 P,0,142089,142889,A F,0,142236,,1,0
Sprite,Foreground,Centre,"sb/d.png",0,0 S,7,142089,142889,0.3938835,0 M,7,142089,142889,161,241,127,195 P,0,142089,142889,A F,0,142236,,1,0
Animation,Foreground,Centre,"sb/circleani/Ellipse.png",419,238,31,25,LoopOnce S,7,5765,6540,0,0.512 C,0,5765,,0,151,75
Animation,Foreground,Centre,"sb/circleani/Ellipse.png",368,258,31,25,LoopOnce S,7,9295,10070,0,0.512 C,0,9295,,0,151,75
Animation,Foreground,Centre,"sb/circleani/Ellipse.png",311,341,31,25,LoopOnce S,7,8118,8893,0,0.512 C,0,8118,,0,151,75
Animation,Foreground,Centre,"sb/circleani/Ellipse.png",317,317,31,25,LoopOnce S,7,2236,3011,0,0.512 C,0,2236,,0,151,75
Animation,Foreground,Centre,"sb/circleani/Ellipse.png",203,165,31,25,LoopOnce S,7,6942,7717,0,0.512 C,0,6942,,0,151,75
Animation,Foreground,Centre,"sb/circleani/Ellipse.png",433,56,31,25,LoopOnce S,7,3412,4187,0,0.512 C,0,3412,,0,151,75
Animation,Foreground,Centre,"sb/circleani/Ellipse.png",485,153,31,25,LoopOnce S,7,9883,10658,0,0.512 C,0,9883,,0,151,75
Animation,Foreground,Centre,"sb/circleani/Ellipse.png",137,175,31,25,LoopOnce S,7,1060,1835,0,0.512 C,0,1060,,0,151,75
Animation,Foreground,Centre,"sb/circleani/Ellipse.png",492,380,31,25,LoopOnce S,7,4589,5364,0,0.512 C,0,4589,,0,151,75
Animation,Foreground,Centre,"sb/circleani/Ellipse.png",419,238,31,25,LoopOnce S,7,5177,5952,0,0.512 C,0,5177,,0,151,75
Sprite,Foreground,Centre,"sb/ring.png",0,0 M,0,46942,,349,224 F,0,46942,,0 S,7,46942,47942,0,1.8 F,7,46942,47942,1,0 P,0,46942,,A M,0,48045,,320,2000
Sprite,Foreground,Centre,"sb/ring.png",0,0 M,0,46942,,298,317 F,0,46942,,0 S,7,47236,48236,0,1.8 F,7,47236,48236,1,0 P,0,47236,,A M,0,48045,,320,2000
Sprite,Foreground,Centre,"sb/ring.png",0,0 M,0,46942,,431,268 F,0,46942,,0 S,7,47530,48530,0,1.8 F,7,47530,48530,1,0 P,0,47530,,A M,0,48045,,320,2000
Sprite,Foreground,Centre,"sb/ring.png",0,0 M,0,46942,,488,354 F,0,46942,,0 S,7,47824,48824,0,1.8 F,7,47824,48824,1,0 P,0,47824,,A M,0,48045,,320,2000
//Storyboard Sound Samples

[TimingPoints]
1060,294.117647058824,4,2,1,60,1,0
1060,-142.857142857143,4,2,1,60,0,0
1207,-142.857142857143,4,2,2,60,0,0
2236,-142.857142857143,4,2,1,60,0,0
2530,-142.857142857143,4,2,2,60,0,0
3412,-142.857142857143,4,2,1,60,0,0
3706,-142.857142857143,4,2,2,60,0,0
4589,-142.857142857143,4,2,1,60,0,0
4736,-142.857142857143,4,2,2,60,0,0
5177,-142.857142857143,4,2,1,60,0,0
5912,-142.857142857143,4,2,2,60,0,0
6942,-142.857142857143,4,2,1,60,0,0
7236,-142.857142857143,4,2,2,60,0,0
8118,-142.857142857143,4,2,1,60,0,0
8412,-142.857142857143,4,2,2,60,0,0
8707,-142.857142857143,4,2,3,60,0,0
8854,-142.857142857143,4,2,2,60,0,0
9295,-142.857142857143,4,2,1,60,0,0
9442,-142.857142857143,4,2,2,60,0,0
10471,-100,4,2,1,85,0,0
10618,-100,4,2,2,85,0,0
11648,-100,4,2,1,85,0,0
11942,-100,4,2,2,85,0,0
12824,-100,4,2,1,85,0,0
13118,-100,4,2,2,85,0,0
14001,-100,4,2,1,85,0,0
14148,-100,4,2,2,85,0,0
14295,-100,4,2,1,85,0,0
14442,-100,4,2,1,50,0,0
14589,-100,4,2,1,85,0,0
15324,-100,4,2,2,85,0,0
16354,-100,4,2,1,85,0,0
16648,-100,4,2,2,85,0,0
17530,-100,4,2,1,85,0,0
17824,-100,4,2,2,85,0,0
18707,-100,4,2,1,85,0,0
18854,-100,4,2,2,85,0,0
19148,-100,4,2,2,50,0,0
19295,-100,4,2,1,85,0,0
19589,-100,4,2,2,85,0,0
19883,-100,4,2,1,85,0,0
20030,-100,4,2,2,85,0,0
21060,-100,4,2,1,85,0,0
21354,-100,4,2,2,85,0,0
22236,-100,4,2,1,85,0,0
22530,-100,4,2,2,85,0,0
23412,-100,4,2,1,85,0,0
23560,-100,4,2,2,85,0,0
23707,-100,4,2,1,85,0,0
23854,-100,4,2,1,50,0,0
24001,-100,4,2,1,85,0,0
24736,-100,4,2,2,85,0,0
25765,-100,4,2,1,85,0,0
26059,-100,4,2,2,85,0,0
26942,-100,4,2,1,85,0,0
27236,-100,4,2,2,85,0,0
28118,-100,4,2,1,85,0,0
28265,-100,4,2,2,85,0,0
28559,-100,4,2,2,50,0,0
28707,-100,4,2,1,85,0,0
29295,-200,4,2,4,50,0,0
29589,-200,4,2,5,50,0,0
29883,-200,4,2,6,50,0,0
30471,-200,4,2,5,50,0,0
30765,-200,4,2,7,50,0,0
31059,-200,4,2,8,50,0,0
31648,-200,4,2,9,50,0,0
31942,-200,4,2,10,50,0,0
32236,-200,4,2,11,50,0,0
32824,-200,4,2,12,50,0,0
33118,-200,4,2,13,50,0,0
33412,-200,4,2,14,50,0,0
34001,-200,4,2,4,50,0,0
34295,-200,4,2,5,50,0,0
34589,-200,4,2,6,50,0,0
35177,-200,4,2,5,50,0,0
35471,-200,4,2,7,50,0,0
35765,-200,4,2,8,50,0,0
36354,-200,4,2,9,50,0,0
36648,-200,4,2,10,50,0,0
36942,-200,4,2,15,50,0,0
37236,-200,4,2,2,50,0,0
37530,-200,4,2,16,50,0,0
38707,-125,4,2,1,70,0,0
39001,-125,4,2,5,70,0,0
39148,-125,4,2,17,70,0,0
39295,-125,4,2,1,70,0,0
39442,-125,4,2,4,70,0,0
39589,-125,4,2,5,70,0,0
39736,-125,4,2,5,50,0,0
39883,-125,4,2,18,70,0,0
40177,-125,4,2,9,70,0,0
40324,-125,4,2,13,70,0,0
40471,-125,4,2,1,70,0,0
40765,-125,4,2,20,70,0,0
41354,-125,4,2,10,70,0,0
41501,-125,4,2,15,70,0,0
41648,-125,4,2,1,70,0,0
41795,-125,4,2,21,70,0,0
41942,-125,4,2,10,70,0,0
42089,-125,4,2,2,70,0,0
42236,-125,4,2,22,70,0,0
42530,-125,4,2,5,70,0,0
42677,-125,4,2,17,70,0,0
42824,-125,4,2,1,70,0,0
42971,-125,4,2,4,70,0,0
43118,-125,4,2,18,70,0,0
43265,-125,4,2,2,70,0,0
43412,-125,4,2,18,70,0,0
43706,-125,4,2,5,70,0,0
43854,-125,4,2,17,70,0,0
44001,-125,4,2,2,70,0,0
44221,-125,4,2,2,50,0,0
44295,-125,4,2,5,70,0,0
44442,-125,4,2,2,70,0,0
44589,-125,4,2,18,70,0,0
44883,-125,4,2,20,70,0,0
45030,-125,4,2,13,70,0,0
45177,-125,4,2,1,70,0,0
45324,-125,4,2,19,70,0,0
45471,-125,4,2,20,70,0,0
45692,-125,4,2,20,5,0,0
45765,-125,4,2,20,70,0,0
46059,-125,4,2,10,70,0,0
46353,-125,4,2,1,70,0,0
46648,-125,4,2,10,70,0,0
46942,-125,4,2,23,80,0,0
47089,-125,4,2,2,80,0,0
47236,-125,4,2,24,80,0,0
47383,-125,4,2,2,80,0,0
47530,-125,4,2,25,80,0,0
47677,-125,4,2,2,80,0,0
47824,-125,4,2,26,80,0,0
47971,-125,4,2,26,50,0,0
48118,-100,4,2,27,90,0,1
48412,-100,4,2,1,90,0,1
48560,-100,4,2,29,90,0,1
48854,-100,4,2,28,90,0,1
49001,-100,4,2,30,90,0,1
49148,-100,4,2,28,90,0,1
49295,-100,4,2,31,90,0,1
49589,-100,4,2,32,90,0,1
49736,-100,4,2,29,90,0,1
50030,-100,4,2,28,90,0,1
50177,-100,4,2,33,90,0,1
50324,-100,4,2,28,90,0,1
50471,-100,4,2,27,90,0,1
50618,-100,4,2,29,90,0,1
50765,-100,4,2,27,90,0,1
50912,-100,4,2,29,90,0,1
51060,-100,4,2,27,90,0,1
51207,-100,4,2,29,90,0,1
51354,-100,4,2,27,90,0,1
51501,-100,4,2,29,90,0,1
51648,-100,4,2,27,90,0,1
51942,-100,4,2,30,90,0,1
52089,-100,4,2,34,90,0,1
52383,-100,4,2,28,90,0,1
52530,-100,4,2,27,90,0,1
52677,-100,4,2,28,90,0,1
52824,-100,4,2,27,90,0,1
53118,-100,4,2,33,90,0,1
53265,-100,4,2,29,90,0,1
53559,-100,4,2,28,90,0,1
53707,-100,4,2,30,90,0,1
53854,-100,4,2,28,90,0,1
54001,-100,4,2,31,90,0,1
54295,-100,4,2,32,90,0,1
54442,-100,4,2,29,90,0,1
54736,-100,4,2,28,90,0,1
54883,-100,4,2,33,90,0,1
55030,-100,4,2,28,90,0,1
55177,-100,4,2,27,90,0,1
55324,-100,4,2,29,90,0,1
55471,-100,4,2,27,90,0,1
55618,-100,4,2,35,90,0,1
55765,-100,4,2,27,90,0,1
55912,-100,4,2,35,90,0,1
56060,-100,4,2,27,90,0,1
56207,-100,4,2,34,90,0,1
56354,-100,4,2,27,90,0,1
56648,-100,4,2,33,90,0,1
56942,-100,4,2,36,90,0,1
57236,-100,4,2,37,90,0,1
57530,-100,4,2,38,90,0,1
57824,-100,4,2,39,90,0,1
57971,-100,4,2,29,90,0,1
58265,-100,4,2,28,90,0,1
58412,-100,4,2,30,90,0,1
58559,-100,4,2,28,90,0,1
58707,-100,4,2,31,90,0,1
58854,-100,4,2,28,90,0,1
59001,-100,4,2,32,90,0,1
59148,-100,4,2,29,90,0,1
59442,-100,4,2,28,90,0,1
59589,-100,4,2,33,90,0,1
59736,-100,4,2,28,90,0,1
59883,-100,4,2,27,90,0,1
60030,-100,4,2,29,90,0,1
60177,-100,4,2,27,90,0,1
60324,-100,4,2,29,90,0,1
60471,-100,4,2,27,90,0,1
60618,-100,4,2,29,90,0,1
60765,-100,4,2,27,90,0,1
60912,-100,4,2,29,90,0,1
61060,-100,4,2,27,90,0,1
61354,-100,4,2,30,90,0,1
61501,-100,4,2,34,90,0,1
61795,-100,4,2,28,90,0,1
61942,-100,4,2,27,90,0,1
62089,-100,4,2,28,90,0,1
62236,-100,4,2,27,90,0,1
62530,-100,4,2,33,90,0,1
62677,-100,4,2,29,90,0,1
62971,-100,4,2,28,90,0,1
63118,-100,4,2,30,90,0,1
63265,-100,4,2,28,90,0,1
63412,-100,4,2,31,90,0,1
63707,-100,4,2,32,90,0,1
63854,-100,4,2,29,90,0,1
64148,-100,4,2,28,90,0,1
64295,-100,4,2,33,90,0,1
64442,-100,4,2,28,90,0,1
64589,-100,4,2,27,90,0,1
64736,-100,4,2,29,90,0,1
64883,-100,4,2,27,90,0,1
65030,-100,4,2,29,90,0,1
65177,-100,4,2,27,90,0,1
65324,-100,4,2,35,90,0,1
65471,-100,4,2,27,90,0,1
65618,-100,4,2,34,90,0,1
65765,-100,4,2,27,90,0,1
66059,-100,4,2,33,90,0,1
66207,-100,4,2,29,90,0,1
66501,-100,4,2,28,90,0,1
66648,-100,4,2,1,90,0,1
66795,-100,4,2,1,50,0,1
66942,-100,4,2,1,85,0,0
85471,-125,4,2,1,85,0,0
85765,-125,4,2,42,50,0,0
86059,-125,4,2,43,50,0,0
86353,-125,4,2,44,50,0,0
86648,-125,4,2,45,50,0,0
86795,-125,4,2,2,50,0,0
86942,-125,4,2,43,50,0,0
87236,-125,4,2,46,50,0,0
87530,-125,4,2,47,50,0,0
87824,-125,4,2,45,50,0,0
88118,-125,4,2,48,50,0,0
88412,-125,4,2,49,50,0,0
88707,-125,4,2,50,50,0,0
88854,-125,4,2,2,50,0,0
89001,-125,4,2,45,50,0,0
89148,-125,4,2,2,50,0,0
89295,-125,4,2,51,50,0,0
89589,-125,4,2,52,50,0,0
89883,-125,4,2,53,50,0,0
90177,-125,4,2,45,50,0,0
90324,-125,4,2,2,50,0,0
90471,-125,4,2,42,50,0,0
90765,-125,4,2,43,50,0,0
91060,-125,4,2,44,50,0,0
91354,-125,4,2,45,50,0,0
91501,-125,4,2,2,50,0,0
91648,-125,4,2,43,50,0,0
91942,-125,4,2,46,50,0,0
92236,-125,4,2,47,50,0,0
92530,-125,4,2,45,50,0,0
92824,-125,4,2,48,50,0,0
93118,-125,4,2,49,50,0,0
93412,-125,4,2,54,50,0,0
93706,-125,4,2,45,50,0,0
94001,-125,4,2,55,50,0,0
94295,-125,4,2,2,50,0,0
95177,-125,4,2,56,70,0,0
95471,-125,4,2,43,70,0,0
95618,-125,4,2,17,70,0,0
95765,-125,4,2,57,70,0,0
95912,-125,4,2,4,70,0,0
96060,-125,4,2,43,70,0,0
96207,-125,4,2,2,70,0,0
96354,-125,4,2,58,70,0,0
96648,-125,4,2,48,70,0,0
96795,-125,4,2,13,70,0,0
96942,-125,4,2,57,70,0,0
97236,-125,4,2,59,70,0,0
97824,-125,4,2,49,70,0,0
97971,-125,4,2,15,70,0,0
98118,-125,4,2,57,70,0,0
98265,-125,4,2,60,70,0,0
98412,-125,4,2,49,70,0,0
98559,-125,4,2,2,70,0,0
98706,-125,4,2,61,70,0,0
99001,-125,4,2,43,70,0,0
99148,-125,4,2,17,70,0,0
99295,-125,4,2,57,70,0,0
99442,-125,4,2,4,70,0,0
99589,-125,4,2,58,70,0,0
99736,-125,4,2,2,70,0,0
99883,-125,4,2,58,70,0,0
100177,-125,4,2,43,70,0,0
100324,-125,4,2,17,70,0,0
100471,-125,4,2,57,70,0,0
100618,-125,4,2,4,70,0,0
100765,-125,4,2,43,70,0,0
100912,-125,4,2,2,70,0,0
101060,-125,4,2,58,70,0,0
101354,-125,4,2,48,70,0,0
101501,-125,4,2,13,70,0,0
101648,-125,4,2,57,70,0,0
101942,-125,4,2,59,70,0,0
102162,-125,4,2,0,5,0,0
102236,-125,4,2,59,70,0,0
102530,-125,4,2,49,70,0,0
102824,-125,4,2,45,70,0,0
103118,-125,4,2,49,70,0,0
103412,-100,4,2,23,80,0,0
103559,-100,4,2,2,80,0,0
103707,-100,4,2,24,80,0,0
103854,-100,4,2,2,80,0,0
104001,-100,4,2,25,80,0,0
104148,-100,4,2,2,80,0,0
104296,-100,4,2,26,80,0,0
104443,-100,4,2,26,50,0,0
104589,-100,4,2,27,90,0,1
104883,-100,4,2,33,90,0,1
105030,-100,4,2,29,90,0,1
105324,-100,4,2,28,90,0,1
105471,-100,4,2,30,90,0,1
105618,-100,4,2,28,90,0,1
105765,-100,4,2,31,90,0,1
106060,-100,4,2,32,90,0,1
106207,-100,4,2,29,90,0,1
106501,-100,4,2,28,90,0,1
106648,-100,4,2,33,90,0,1
106795,-100,4,2,28,90,0,1
106942,-100,4,2,27,90,0,1
107089,-100,4,2,29,90,0,1
107236,-100,4,2,27,90,0,1
107383,-100,4,2,29,90,0,1
107530,-100,4,2,27,90,0,1
107677,-100,4,2,29,90,0,1
107824,-100,4,2,27,90,0,1
107971,-100,4,2,29,90,0,1
108118,-100,4,2,27,90,0,1
108412,-100,4,2,30,90,0,1
108560,-100,4,2,34,90,0,1
108854,-100,4,2,28,90,0,1
109001,-100,4,2,27,90,0,1
109148,-100,4,2,28,90,0,1
109295,-100,4,2,27,90,0,1
109589,-100,4,2,33,90,0,1
109736,-100,4,2,29,90,0,1
110030,-100,4,2,28,90,0,1
110177,-100,4,2,30,90,0,1
110324,-100,4,2,28,90,0,1
110471,-100,4,2,31,90,0,1
110765,-100,4,2,32,90,0,1
110912,-100,4,2,29,90,0,1
111206,-100,4,2,28,90,0,1
111354,-100,4,2,33,90,0,1
111501,-100,4,2,28,90,0,1
111648,-100,4,2,27,90,0,1
111795,-100,4,2,29,90,0,1
111942,-100,4,2,27,90,0,1
112089,-100,4,2,35,90,0,1
112236,-100,4,2,27,90,0,1
112383,-100,4,2,35,90,0,1
112530,-100,4,2,27,90,0,1
112677,-100,4,2,34,90,0,1
112824,-100,4,2,27,90,0,1
112971,-100,4,2,28,90,0,1
113265,-100,4,2,62,90,0,1
113412,-100,4,2,36,90,0,1
113706,-100,4,2,37,90,0,1
114001,-100,4,2,38,90,0,1
114295,-100,4,2,33,90,0,1
114442,-100,4,2,29,90,0,1
114736,-100,4,2,28,90,0,1
114883,-100,4,2,30,90,0,1
115030,-100,4,2,28,90,0,1
115177,-100,4,2,31,90,0,1
115471,-100,4,2,32,90,0,1
115618,-100,4,2,29,90,0,1
115912,-100,4,2,28,90,0,1
116060,-100,4,2,33,90,0,1
116207,-100,4,2,28,90,0,1
116354,-100,4,2,27,90,0,1
116501,-100,4,2,29,90,0,1
116648,-100,4,2,27,90,0,1
116795,-100,4,2,29,90,0,1
116942,-100,4,2,27,90,0,1
117089,-100,4,2,29,90,0,1
117236,-100,4,2,27,90,0,1
117383,-100,4,2,29,90,0,1
117530,-100,4,2,27,90,0,1
117824,-100,4,2,30,90,0,1
117971,-100,4,2,34,90,0,1
118265,-100,4,2,28,90,0,1
118412,-100,4,2,27,90,0,1
118559,-100,4,2,28,90,0,1
118707,-100,4,2,27,90,0,1
119001,-100,4,2,33,90,0,1
119148,-100,4,2,29,90,0,1
119442,-100,4,2,28,90,0,1
119589,-100,4,2,30,90,0,1
119736,-100,4,2,28,90,0,1
119883,-100,4,2,31,90,0,1
120177,-100,4,2,32,90,0,1
120324,-100,4,2,29,90,0,1
120618,-100,4,2,28,90,0,1
120765,-100,4,2,33,90,0,1
120912,-100,4,2,28,90,0,1
121060,-100,4,2,27,90,0,1
121207,-100,4,2,29,90,0,1
121354,-100,4,2,27,90,0,1
121501,-100,4,2,29,90,0,1
121648,-100,4,2,27,90,0,1
121795,-100,4,2,29,90,0,1
121942,-100,4,2,27,90,0,1
122089,-100,4,2,34,90,0,1
122236,-100,4,2,27,90,0,1
122530,-100,4,2,33,90,0,1
122677,-100,4,2,29,90,0,1
122971,-100,4,2,63,90,0,1
123118,-100,4,2,1,90,0,1
123412,-100,4,2,64,85,0,0
123706,-100,4,2,65,85,0,0
142089,-100,4,2,2,85,0,0
142236,-250.000000000001,4,2,89,55,0,0
143412,-250.000000000001,4,2,18,55,0,0
144295,-250.000000000001,4,2,2,55,0,0
144589,-250.000000000001,4,2,60,55,0,0
144883,-250.000000000001,4,2,2,55,0,0
145765,-250.000000000001,4,2,18,55,0,0
146059,-250.000000000001,4,2,2,55,0,0
146942,-250.000000000001,4,2,18,55,0,0
149001,-250.000000000001,4,2,2,55,0,0
149295,-250.000000000001,4,2,60,55,0,0
149589,-250.000000000001,4,2,2,55,0,0
150471,-250.000000000001,4,2,18,55,0,0
150765,-250.000000000001,4,2,2,55,0,0
151648,-250.000000000001,4,2,66,60,0,0
152089,-250.000000000001,4,2,18,60,0,0
152530,-250.000000000001,4,2,6,60,0,0
152824,-250.000000000001,4,2,20,60,0,0
153265,-250.000000000001,4,2,67,60,0,0
153706,-250.000000000001,4,2,14,60,0,0
154001,-250.000000000001,4,2,60,60,0,0
154295,-250.000000000001,4,2,2,60,0,0
154883,-250.000000000001,4,2,68,60,0,0
155177,-250.000000000001,4,2,69,60,0,0
156059,-250.000000000001,4,2,2,60,0,0
156354,-250.000000000001,4,2,66,60,0,0
156795,-250.000000000001,4,2,18,60,0,0
157236,-250.000000000001,4,2,6,60,0,0
157530,-250.000000000001,4,2,20,60,0,0
157971,-250.000000000001,4,2,67,60,0,0
158412,-250.000000000001,4,2,14,60,0,0
158707,-250.000000000001,4,2,20,70,0,0
159001,-250.000000000001,4,2,1,70,0,0
159589,-250.000000000001,4,2,68,70,0,0
159883,-250.000000000001,4,2,71,80,0,0
160177,-250.000000000001,4,2,72,80,0,0
160471,-250.000000000001,4,2,73,80,0,0
161060,-100,4,2,27,90,0,1
161354,-100,4,2,33,90,0,1
161501,-100,4,2,29,90,0,1
161795,-100,4,2,28,90,0,1
161942,-100,4,2,30,90,0,1
162089,-100,4,2,28,90,0,1
162236,-100,4,2,31,90,0,1
162530,-100,4,2,32,90,0,1
162677,-100,4,2,29,90,0,1
162971,-100,4,2,28,90,0,1
163118,-100,4,2,33,90,0,1
163265,-100,4,2,28,90,0,1
163412,-100,4,2,27,90,0,1
163560,-100,4,2,29,90,0,1
163707,-100,4,2,27,90,0,1
163854,-100,4,2,29,90,0,1
164001,-100,4,2,27,90,0,1
164149,-100,4,2,29,90,0,1
164296,-100,4,2,27,90,0,1
164443,-100,4,2,29,90,0,1
164589,-100,4,2,27,90,0,1
164883,-100,4,2,30,90,0,1
165030,-100,4,2,34,90,0,1
165324,-100,4,2,28,90,0,1
165471,-100,4,2,27,90,0,1
165618,-100,4,2,28,90,0,1
165765,-100,4,2,27,90,0,1
166059,-100,4,2,33,90,0,1
166207,-100,4,2,29,90,0,1
166501,-100,4,2,28,90,0,1
166648,-100,4,2,30,90,0,1
166795,-100,4,2,28,90,0,1
166942,-100,4,2,31,90,0,1
167236,-100,4,2,32,90,0,1
167383,-100,4,2,29,90,0,1
167677,-100,4,2,28,90,0,1
167824,-100,4,2,33,90,0,1
167971,-100,4,2,28,90,0,1
168118,-100,4,2,27,90,0,1
168265,-100,4,2,29,90,0,1
168412,-100,4,2,27,90,0,1
168559,-100,4,2,29,90,0,1
168707,-100,4,2,27,90,0,1
168854,-100,4,2,29,90,0,1
169001,-100,4,2,27,90,0,1
169148,-100,4,2,34,90,0,1
169295,-100,4,2,27,90,0,1
169589,-100,4,2,33,90,0,1
169883,-100,4,2,36,90,0,1
170177,-100,4,2,37,90,0,1
170471,-100,4,2,38,90,0,1
170765,-100,4,2,33,90,0,1
170912,-100,4,2,29,90,0,1
171206,-100,4,2,28,90,0,1
171354,-100,4,2,30,90,0,1
171501,-100,4,2,28,90,0,1
171648,-100,4,2,31,90,0,1
171795,-100,4,2,74,90,0,1
171942,-100,4,2,32,90,0,1
172089,-100,4,2,29,90,0,1
172383,-100,4,2,28,90,0,1
172530,-100,4,2,33,90,0,1
172677,-100,4,2,28,90,0,1
172824,-100,4,2,27,90,0,1
172971,-100,4,2,29,90,0,1
173118,-100,4,2,27,90,0,1
173265,-100,4,2,29,90,0,1
173412,-100,4,2,27,90,0,1
173559,-100,4,2,29,90,0,1
173707,-100,4,2,27,90,0,1
173854,-100,4,2,29,90,0,1
174001,-100,4,2,27,90,0,1
174295,-100,4,2,30,90,0,1
174442,-100,4,2,34,90,0,1
174736,-100,4,2,28,90,0,1
174883,-100,4,2,27,90,0,1
175030,-100,4,2,28,90,0,1
175177,-100,4,2,27,90,0,1
175471,-100,4,2,33,90,0,1
175618,-100,4,2,29,90,0,1
175912,-100,4,2,28,90,0,1
176060,-100,4,2,30,90,0,1
176207,-100,4,2,28,90,0,1
176354,-100,4,2,31,90,0,1
176648,-100,4,2,32,90,0,1
176795,-100,4,2,29,90,0,1
177089,-100,4,2,28,90,0,1
177236,-100,4,2,33,90,0,1
177383,-100,4,2,28,90,0,1
177530,-100,4,2,27,90,0,1
177677,-100,4,2,29,90,0,1
177824,-100,4,2,27,90,0,1
177971,-100,4,2,29,90,0,1
178118,-100,4,2,27,90,0,1
178265,-100,4,2,35,90,0,1
178412,-100,4,2,27,90,0,1
178559,-100,4,2,34,90,0,1
178707,-100,4,2,27,90,0,1
178854,-100,4,2,28,90,0,1
179001,-100,4,2,33,90,0,1
179148,-100,4,2,28,90,0,1
179295,-100,4,2,75,90,0,0
179589,-100,4,2,27,90,0,0
179883,-90.9090909090909,4,2,30,95,0,1
180177,-90.9090909090909,4,2,76,95,0,1
180324,-90.9090909090909,4,2,35,95,0,1
180618,-90.9090909090909,4,2,28,95,0,1
180765,-90.9090909090909,4,2,77,95,0,1
180912,-90.9090909090909,4,2,28,95,0,1
181060,-90.9090909090909,4,2,32,95,0,1
181354,-90.9090909090909,4,2,78,95,0,1
181501,-90.9090909090909,4,2,35,95,0,1
181795,-90.9090909090909,4,2,28,95,0,1
181942,-90.9090909090909,4,2,27,95,0,1
182089,-90.9090909090909,4,2,28,95,0,1
182236,-90.9090909090909,4,2,30,95,0,1
182383,-90.9090909090909,4,2,35,95,0,1
182530,-90.9090909090909,4,2,30,95,0,1
182677,-90.9090909090909,4,2,35,95,0,1
182824,-90.9090909090909,4,2,30,95,0,1
182971,-90.9090909090909,4,2,35,95,0,1
183118,-90.9090909090909,4,2,30,95,0,1
183265,-90.9090909090909,4,2,35,95,0,1
183412,-90.9090909090909,4,2,30,95,0,1
183706,-90.9090909090909,4,2,77,95,0,1
183854,-90.9090909090909,4,2,79,95,0,1
184148,-90.9090909090909,4,2,28,95,0,1
184295,-90.9090909090909,4,2,30,95,0,1
184442,-90.9090909090909,4,2,28,95,0,1
184589,-90.9090909090909,4,2,30,95,0,1
184883,-90.9090909090909,4,2,27,95,0,1
185030,-90.9090909090909,4,2,35,95,0,1
185324,-90.9090909090909,4,2,28,95,0,1
185471,-90.9090909090909,4,2,77,95,0,1
185618,-90.9090909090909,4,2,28,95,0,1
185765,-90.9090909090909,4,2,32,95,0,1
186060,-90.9090909090909,4,2,78,95,0,1
186207,-90.9090909090909,4,2,35,95,0,1
186501,-90.9090909090909,4,2,28,95,0,1
186648,-90.9090909090909,4,2,27,95,0,1
186795,-90.9090909090909,4,2,28,95,0,1
186942,-90.9090909090909,4,2,30,95,0,1
187089,-90.9090909090909,4,2,35,95,0,1
187236,-90.9090909090909,4,2,30,95,0,1
187383,-90.9090909090909,4,2,35,95,0,1
187530,-90.9090909090909,4,2,30,95,0,1
187677,-90.9090909090909,4,2,34,95,0,1
187824,-90.9090909090909,4,2,30,95,0,1
187971,-90.9090909090909,4,2,79,95,0,1
188118,-90.9090909090909,4,2,30,95,0,1
188412,-90.9090909090909,4,2,27,95,0,1
188706,-90.9090909090909,4,2,80,95,0,1
189000,-90.9090909090909,4,2,27,95,0,1
189295,-90.9090909090909,4,2,30,95,0,1
189589,-90.9090909090909,4,2,27,95,0,1
189736,-90.9090909090909,4,2,35,95,0,1
190030,-90.9090909090909,4,2,28,95,0,1
190177,-90.9090909090909,4,2,77,95,0,1
190324,-90.9090909090909,4,2,28,95,0,1
190471,-90.9090909090909,4,2,32,95,0,1
190618,-90.9090909090909,4,2,28,95,0,1
190765,-90.9090909090909,4,2,78,95,0,1
190912,-90.9090909090909,4,2,35,95,0,1
191206,-90.9090909090909,4,2,28,95,0,1
191354,-90.9090909090909,4,2,27,95,0,1
191501,-90.9090909090909,4,2,28,95,0,1
191648,-90.9090909090909,4,2,30,95,0,1
191795,-90.9090909090909,4,2,35,95,0,1
191942,-90.9090909090909,4,2,30,95,0,1
192089,-90.9090909090909,4,2,35,95,0,1
192236,-90.9090909090909,4,2,30,95,0,1
192383,-90.9090909090909,4,2,35,95,0,1
192530,-90.9090909090909,4,2,30,95,0,1
192677,-90.9090909090909,4,2,35,95,0,1
192824,-90.9090909090909,4,2,30,95,0,1
193118,-90.9090909090909,4,2,77,95,0,1
193265,-90.9090909090909,4,2,79,95,0,1
193559,-90.9090909090909,4,2,28,95,0,1
193707,-90.9090909090909,4,2,30,95,0,1
193854,-90.9090909090909,4,2,28,95,0,1
194001,-90.9090909090909,4,2,30,95,0,1
194295,-90.9090909090909,4,2,27,95,0,1
194442,-90.9090909090909,4,2,35,95,0,1
194736,-90.9090909090909,4,2,28,95,0,1
194883,-90.9090909090909,4,2,77,95,0,1
195030,-90.9090909090909,4,2,28,95,0,1
195177,-90.9090909090909,4,2,32,95,0,1
195471,-90.9090909090909,4,2,78,95,0,1
195618,-90.9090909090909,4,2,35,95,0,1
195912,-90.9090909090909,4,2,28,95,0,1
196060,-90.9090909090909,4,2,27,95,0,1
196207,-90.9090909090909,4,2,28,95,0,1
196354,-90.9090909090909,4,2,30,95,0,1
196501,-90.9090909090909,4,2,35,95,0,1
196648,-90.9090909090909,4,2,30,95,0,1
196795,-90.9090909090909,4,2,35,95,0,1
196942,-90.9090909090909,4,2,30,95,0,1
197089,-90.9090909090909,4,2,35,95,0,1
197236,-90.9090909090909,4,2,30,95,0,1
197383,-90.9090909090909,4,2,79,95,0,1
197530,-90.9090909090909,4,2,30,95,0,1
197824,-90.9090909090909,4,2,27,95,0,1
197971,-90.9090909090909,4,2,81,95,0,1
198265,-90.9090909090909,4,2,28,95,0,1
198412,-90.9090909090909,4,2,76,95,0,1
198559,-90.9090909090909,4,2,76,50,0,1
198707,-100,4,2,64,85,0,0
198854,-100,4,2,2,85,0,0
199883,-100,4,2,65,85,0,0
200177,-100,4,2,2,85,0,0
201060,-100,4,2,65,85,0,0
201354,-100,4,2,2,85,0,0
202236,-100,4,2,65,85,0,0
202383,-100,4,2,2,85,0,0
202530,-100,4,2,65,85,0,0
202824,-100,4,2,83,85,0,0
203118,-100,4,2,2,85,0,0
203265,-100,4,2,2,85,0,0
203412,-100,4,2,84,85,0,0
203559,-100,4,2,2,85,0,0
204589,-100,4,2,65,85,0,0
204883,-100,4,2,2,85,0,0
205177,-100,4,2,85,85,0,0
205324,-100,4,2,2,85,0,0
205765,-100,4,2,86,85,0,0
206059,-100,4,2,2,85,0,0
206353,-100,4,2,87,85,0,0
206501,-100,4,2,2,85,0,0
206942,-100,4,2,84,85,0,0
207089,-100,4,2,2,85,0,0
207530,-100,4,2,88,85,0,0
207824,-100,4,2,2,85,0,0
208118,-125,4,2,89,60,0,0
208265,-125,4,2,2,60,0,0
209295,-125,4,2,1,60,0,0
209589,-125,4,2,2,60,0,0
210471,-125,4,2,1,60,0,0
210765,-125,4,2,2,60,0,0
211648,-125,4,2,1,60,0,0
211795,-125,4,2,2,60,0,0
212236,-125,4,2,1,60,0,0
212971,-125,4,2,2,60,0,0
214001,-125,4,2,1,60,0,0
214295,-125,4,2,2,60,0,0
215177,-125,4,2,1,60,0,0
215471,-125,4,2,2,60,0,0
216354,-125,4,2,1,60,0,0
216501,-125,4,2,2,60,0,0
216942,-125,4,2,3,60,0,0

[Colours]
Combo1 : 0,151,75
Combo2 : 212,212,212

[HitObjects]
73,119,1060,6,0,L|66:54,2,48.9999985046387,2|2|2,2:0|2:0|2:0,0:0:0:0:
27,256,1648,2,0,P|53:254|82:239,1,48.9999985046387,2|2,2:0|2:0,0:0:0:0:
131,183,1942,2,0,P|157:185|186:200,1,48.9999985046387,2|2,2:0|2:0,0:0:0:0:
253,261,2236,6,0,L|266:157,1,97.9999970092774,2|2,2:0|2:0,0:0:0:0:
391,136,2824,2,0,P|364:139|335:149,1,48.9999985046387,2|2,2:0|2:0,0:0:0:0:
281,85,3118,2,0,P|284:58|294:29,1,48.9999985046387,2|2,2:0|2:0,0:0:0:0:
369,0,3412,6,0,P|387:45|432:57,1,97.9999970092774,2|2,2:0|2:0,0:0:0:0:
512,192,4001,2,0,P|488:189|451:183,2,48.9999985046387,2|2|2,2:0|2:0|2:0,0:0:0:0:
428,324,4589,2,0,P|452:321|489:315,2,48.9999985046387,2|2|2,2:0|2:0|2:0,0:0:0:0:
355,182,5177,1,2,2:0:0:0:
355,182,5765,6,0,L|362:127,2,48.9999985046387,2|2|2,2:0|2:0|2:0,0:0:0:0:
278,36,6354,2,0,B|279:63|287:91,1,48.9999985046387,2|2,2:0|2:0,0:0:0:0:
249,168,6648,2,0,B|227:174|200:175,1,48.9999985046387,2|2,2:0|2:0,0:0:0:0:
139,109,6942,6,0,P|113:151|115:200,1,97.9999970092774,2|2,2:0|2:0,0:0:0:0:
18,292,7530,2,0,P|41:284|69:280,1,48.9999985046387,2|2,2:0|2:0,0:0:0:0:
128,344,7824,2,0,P|153:344|181:332,1,48.9999985046387,2|2,2:0|2:0,0:0:0:0:
247,285,8118,6,0,P|253:339|259:399,1,97.9999970092774,2|2,2:0|2:0,0:0:0:0:
403,324,8707,2,0,L|351:315,2,48.9999985046387,2|2|2,2:0|2:0|2:0,0:0:0:0:
304,202,9295,2,0,L|356:193,2,48.9999985046387,2|2|2,2:0|2:0|2:0,0:0:0:0:
421,97,9883,1,2,2:0:0:0:
209,103,10471,6,0,P|204:141|217:172,1,70,6|2,3:2|2:0,0:0:0:0:
292,217,10765,2,0,P|310:278|268:337,1,140,2|2,1:2|3:2,0:0:0:0:
184,371,11207,1,2,2:0:0:0:
114,310,11354,2,0,L|19:322,1,70,2|2,1:2|3:2,0:0:0:0:
23,230,11648,6,0,B|-13:160|41:166|7:95,2,140,2|2|2,2:0|1:2|3:2,0:0:0:0:
23,230,12383,1,2,2:0:0:0:
103,188,12530,2,0,L|186:198,1,70,2|2,1:2|2:0,0:0:0:0:
262,207,12824,6,0,P|287:273|255:337,2,140,2|2|2,3:2|1:2|3:2,0:0:0:0:
262,207,13560,1,2,2:0:0:0:
214,129,13707,2,0,L|225:54,1,70,2|0,1:2|3:0,0:0:0:0:
307,23,14001,5,2,3:2:0:0:
307,23,14148,1,2,3:2:0:0:
379,77,14295,2,0,L|456:66,1,70,2|0,1:2|0:0,0:0:0:0:
497,143,14589,2,0,L|346:164,1,140,2|0,3:2|1:0,0:0:0:0:
486,291,15177,6,0,P|450:296|415:302,1,70,2|2,3:2|2:0,0:0:0:0:
355,368,15471,2,0,L|208:351,1,140,2|2,1:2|3:2,0:0:0:0:
155,283,15912,1,2,2:0:0:0:
206,206,16060,2,0,P|248:202|293:197,1,70,2|2,1:2|3:2,0:0:0:0:
353,152,16354,6,0,P|374:102|326:22,2,140,2|2|2,2:0|1:2|3:2,0:0:0:0:
353,152,17089,1,2,2:0:0:0:
279,98,17236,2,0,L|190:107,1,70,2|2,1:2|2:0,0:0:0:0:
135,157,17530,6,0,P|104:223|130:285,2,140,2|2|2,3:2|1:2|3:2,0:0:0:0:
135,157,18265,1,2,2:0:0:0:
198,222,18412,2,0,L|290:210,1,70,2|0,1:2|3:0,0:0:0:0:
339,269,18707,5,2,3:2:0:0:
339,269,18854,1,2,3:2:0:0:
405,207,19001,2,0,L|394:122,1,70,2|0,1:2|0:0,0:0:0:0:
421,50,19295,2,0,B|342:29|365:83|285:65,1,140,2|2,3:2|1:2,0:0:0:0:
208,19,19736,1,2,2:0:0:0:
126,58,19883,6,0,P|116:94|109:132,1,70,2|2,3:2|2:0,0:0:0:0:
35,177,20177,2,0,P|56:243|70:316,1,140,2|2,1:2|3:2,0:0:0:0:
142,367,20618,1,2,2:0:0:0:
201,298,20765,2,0,P|247:304|287:312,1,70,2|2,1:2|3:2,0:0:0:0:
343,253,21060,6,0,B|376:180|325:192|351:118,2,140,2|2|2,2:0|1:2|3:2,0:0:0:0:
343,253,21795,1,2,2:0:0:0:
264,206,21942,2,0,L|165:214,1,70,2|2,1:2|2:0,0:0:0:0:
103,221,22236,6,0,P|83:288|119:346,2,140,2|2|2,3:2|1:2|3:2,0:0:0:0:
103,221,22971,1,2,2:0:0:0:
154,146,23118,2,0,L|144:57,1,70,2|0,1:2|3:0,0:0:0:0:
215,17,23412,5,2,3:2:0:0:
215,17,23560,1,2,3:2:0:0:
278,90,23707,2,0,P|313:94|359:96,1,70,2|0,1:2|0:0,0:0:0:0:
418,38,24001,2,0,P|446:105|418:161,1,140,2|0,3:2|1:0,0:0:0:0:
340,326,24589,6,0,L|433:339,1,70,2|2,3:2|2:0,0:0:0:0:
458,259,24883,2,0,L|290:235,1,140,2|2,1:2|3:2,0:0:0:0:
276,159,25324,1,2,2:0:0:0:
320,79,25471,2,0,P|321:42|305:9,1,70,2|2,1:2|3:2,0:0:0:0:
216,8,25765,6,0,B|133:-2|149:40|80:31,2,140,2|2|2,2:0|1:2|3:2,0:0:0:0:
216,8,26501,1,2,2:0:0:0:
188,94,26648,2,0,L|197:185,1,70,2|2,1:2|2:0,0:0:0:0:
269,215,26942,6,0,B|261:276|261:276|268:295|268:295|260:364,2,140,2|2|2,3:2|1:2|3:2,0:0:0:0:
269,215,27677,1,2,2:0:0:0:
339,157,27824,2,0,L|329:72,1,70,2|0,1:2|3:0,0:0:0:0:
399,27,28118,5,2,3:2:0:0:
399,27,28265,1,2,3:2:0:0:
485,54,28412,2,0,L|474:134,1,70,2|0,1:2|0:0,0:0:0:0:
413,192,28707,2,0,L|421:273,1,70,2|0,3:2|3:0,0:0:0:0:
489,319,29001,1,0,1:0:0:0:
326,364,29295,6,0,L|336:286,2,70,2|2|2,2:0|2:0|2:0,0:0:0:0:
232,208,30471,2,0,L|222:130,2,70,2|2|2,2:0|2:0|2:0,0:0:0:0:
89,321,31648,6,0,P|125:339|154:337,2,70,2|2|2,2:0|2:0|2:0,0:0:0:0:
64,140,32824,2,0,P|29:139|0:156,2,70,2|2|2,2:0|2:0|2:0,0:0:0:0:
201,259,34001,6,0,L|212:185,2,70,2|2|2,2:0|2:0|2:0,0:0:0:0:
316,118,35177,2,0,L|329:197,2,70,2|2|2,2:0|2:0|2:0,0:0:0:0:
491,165,36354,6,0,P|457:171|418:179,1,70,2|2,2:0|2:0,0:0:0:0:
457,339,36942,2,0,P|450:304|442:270,1,70,2|2,2:0|2:0,0:0:0:0:
311,300,37530,5,6,2:0:0:0:
311,300,38707,6,0,P|305:242|299:182,1,112,2|2,3:2|2:0,0:0:0:0:
231,130,39148,1,2,2:0:0:0:
165,188,39295,2,0,P|126:194|91:200,1,56,0|2,3:0|2:0,0:0:0:0:
34,148,39589,2,0,P|29:109|24:74,1,56,2|0,2:0|0:0,0:0:0:0:
93,26,39883,6,0,P|134:12|196:38,1,112,2|2,3:2|2:0,0:0:0:0:
231,130,40324,1,2,2:0:0:0:
231,130,40471,2,0,P|287:138|334:109,1,112,0|2,3:0|2:0,0:0:0:0:
487,19,41060,6,0,B|478:67|478:67|483:84|483:84|473:143,1,112,2|2,3:2|2:0,0:0:0:0:
511,210,41501,1,2,2:0:0:0:
441,266,41648,2,0,L|380:260,1,56,0|2,3:0|2:0,0:0:0:0:
320,198,41942,2,0,L|264:203,1,56,2|2,2:0|2:0,0:0:0:0:
218,280,42236,6,0,P|163:280|129:227,1,112,2|2,3:2|2:0,0:0:0:0:
179,162,42677,1,2,2:0:0:0:
179,162,42824,2,0,L|173:97,1,56,0|2,3:0|2:0,0:0:0:0:
116,37,43118,2,0,L|60:42,1,56,2|2,3:2|2:0,0:0:0:0:
8,115,43412,6,0,L|19:243,1,112,2|2,3:2|2:0,0:0:0:0:
75,295,43854,1,2,2:0:0:0:
150,246,44001,2,0,P|194:244|230:265,1,84,2|0,3:2|0:0,0:0:0:0:
249,293,44295,2,0,L|241:359,1,56,2|2,2:0|2:0,0:0:0:0:
324,383,44589,6,0,L|337:258,1,112,2|2,3:2|2:0,0:0:0:0:
394,203,45030,1,2,2:0:0:0:
335,135,45177,2,0,P|306:143|274:140,1,56,0|2,3:0|2:0,0:0:0:0:
231,66,45471,1,2,2:0:0:0:
88,138,45765,6,0,L|102:260,2,112,2|2|2,3:2|2:0|3:2,0:0:0:0:
88,138,46648,1,2,2:0:0:0:
285,168,46942,6,0,P|254:167|222:174,1,56,2|2,3:2|2:0,0:0:0:0:
234,261,47236,2,0,P|261:262|289:257,1,56,2|2,3:2|2:0,0:0:0:0:
367,212,47530,6,0,P|403:207|427:210,1,56,2|2,3:2|2:0,0:0:0:0:
424,298,47824,2,0,P|388:303|364:300,1,56,2|0,3:2|0:0,0:0:0:0:
267,348,48118,6,0,B|187:384|208:331|131:362,1,140,6|0,3:2|1:0,0:0:0:0:
43,337,48560,2,0,P|12:297|26:212,1,140,2|2,2:0|2:0,0:0:0:0:
85,144,49001,2,0,L|178:134,1,70,2|2,1:2|2:0,0:0:0:0:
214,68,49295,5,2,3:2:0:0:
223,253,49589,1,2,1:2:0:0:
223,253,49736,2,0,P|261:277|334:233,1,140,2|2,2:0|2:0,0:0:0:0:
288,153,50177,2,0,P|294:120|300:78,1,70,2|2,1:2|2:0,0:0:0:0:
370,27,50471,5,2,3:2:0:0:
370,27,50618,1,2,2:0:0:0:
460,38,50765,2,0,L|470:116,1,70,2|2,1:2|2:0,0:0:0:0:
508,190,51060,5,2,3:2:0:0:
508,190,51207,1,2,2:0:0:0:
418,201,51354,2,0,L|408:279,1,70,2|2,1:2|2:0,0:0:0:0:
394,360,51648,6,0,P|321:374|272:331,1,140,2|2,3:2|1:2,0:0:0:0:
248,247,52089,2,0,P|175:233|126:276,1,140,2|2,2:0|2:0,0:0:0:0:
41,244,52530,2,0,L|31:155,1,70,2|2,1:2|2:0,0:0:0:0:
24,83,52824,6,0,P|67:44|145:58,1,140,2|2,3:2|1:2,0:0:0:0:
194,131,53265,2,0,P|259:142|313:90,1,140,2|2,2:0|2:0,0:0:0:0:
375,31,53707,2,0,P|415:29|448:47,1,70,2|2,1:2|2:0,0:0:0:0:
498,111,54001,5,2,3:2:0:0:
428,279,54295,1,2,1:2:0:0:
428,279,54442,2,0,B|418:219|418:219|424:202|424:202|415:141,1,140,2|2,2:0|2:0,0:0:0:0:
334,99,54883,2,0,P|292:105|243:113,1,70,2|2,1:2|2:0,0:0:0:0:
213,184,55177,5,2,3:2:0:0:
213,184,55324,1,2,2:0:0:0:
278,246,55471,2,0,B|289:281|289:281|281:316,1,70,2|2,1:2|2:0,0:0:0:0:
206,364,55765,5,2,3:2:0:0:
206,364,55912,1,2,2:0:0:0:
139,300,56060,2,0,B|101:292|101:292|62:300,1,70,2|2,1:2|2:0,0:0:0:0:
13,227,56354,6,0,P|22:157|32:80,3,140,2|2|2|2,3:2|1:2|3:2|1:2,0:0:0:0:
201,25,57530,6,0,B|174:115|220:76|194:166,1,140,6|2,3:2|1:2,0:0:0:0:
135,230,57971,2,0,P|139:270|226:293,1,140,2|2,2:0|2:0,0:0:0:0:
287,230,58412,2,0,P|325:233|360:243,1,70,2|2,1:2|2:0,0:0:0:0:
406,317,58707,6,0,P|453:312|484:295,1,70,2|2,3:2|2:0,0:0:0:0:
508,218,59001,1,2,1:2:0:0:
436,161,59148,2,0,P|424:89|429:20,1,140,2|2,2:0|2:0,0:0:0:0:
338,7,59589,2,0,P|332:43|332:87,1,70,2|2,1:2|2:0,0:0:0:0:
280,151,59883,6,0,P|245:150|210:144,1,70,2|2,3:2|2:0,0:0:0:0:
205,53,60177,1,2,1:2:0:0:
205,53,60324,1,2,2:0:0:0:
114,44,60471,6,0,P|108:81|103:135,1,70,2|2,3:2|2:0,0:0:0:0:
13,112,60765,1,2,1:2:0:0:
13,112,60912,1,2,2:0:0:0:
0,202,61060,6,0,P|36:258|111:261,1,140,2|2,3:2|1:2,0:0:0:0:
162,193,61501,2,0,P|228:190|278:241,1,140,2|2,2:0|2:0,0:0:0:0:
349,296,61942,2,0,P|388:294|423:284,1,70,2|2,1:2|2:0,0:0:0:0:
498,245,62236,6,0,P|483:202|471:106,1,140,2|2,3:2|1:2,0:0:0:0:
414,37,62677,2,0,P|353:12|294:50,1,140,2|2,2:0|2:0,0:0:0:0:
348,121,63118,2,0,P|355:159|350:201,1,70,2|2,1:2|2:0,0:0:0:0:
277,239,63412,5,2,3:2:0:0:
210,69,63707,1,2,1:2:0:0:
210,69,63854,2,0,P|144:45|86:81,1,140,2|2,2:0|2:0,0:0:0:0:
49,160,64295,2,0,L|57:250,1,70,2|2,1:2|2:0,0:0:0:0:
64,320,64589,6,0,L|155:306,1,70,2|2,3:2|2:0,0:0:0:0:
182,233,64883,1,2,1:2:0:0:
182,233,65030,1,2,2:0:0:0:
255,286,65177,6,0,L|269:366,2,70,2|2|2,3:2|2:0|1:2,0:0:0:0:
306,211,65618,1,2,2:0:0:0:
371,274,65765,6,0,P|429:300|491:263,1,140,2|2,3:2|1:2,0:0:0:0:
423,201,66207,2,0,L|408:57,1,140,2|2,2:0|2:0,0:0:0:0:
329,15,66648,2,0,P|281:18|246:26,1,70,0|0,1:0|0:0,0:0:0:0:
202,93,66942,5,6,3:2:0:0:
180,86,85471,5,0,1:0:0:0:
180,86,85765,6,0,L|164:217,2,112,6|2|2,3:2|2:0|1:2,0:0:0:0:
293,135,86648,2,0,L|286:208,1,56,2|2,3:2|2:0,0:0:0:0:
359,244,86942,2,0,P|379:299|354:346,2,112,2|2|2,2:0|3:2|1:2,0:0:0:0:
359,244,87824,1,2,2:0:0:0:
253,288,88118,6,0,L|123:274,1,112,2|2,3:2|2:0,0:0:0:0:
47,348,88707,1,2,1:2:0:0:
8,270,88854,1,2,2:0:0:0:
8,270,89001,2,0,P|11:233|21:200,1,56,2|2,3:2|2:0,0:0:0:0:
80,148,89295,2,0,P|74:83|62:33,2,112,2|2|2,2:0|3:2|1:2,0:0:0:0:
190,69,90177,6,0,P|223:63|261:56,1,56,2|2,2:0|2:0,0:0:0:0:
308,2,90471,2,0,P|296:59|304:114,1,112,2|2,3:2|2:0,0:0:0:0:
436,212,91060,1,2,1:2:0:0:
436,212,91354,2,0,P|431:246|424:283,1,56,2|2,3:2|2:0,0:0:0:0:
363,327,91648,2,0,P|407:357|464:349,2,112,2|2|2,2:0|3:2|1:2,0:0:0:0:
325,198,92530,1,2,2:0:0:0:
239,291,92824,6,0,P|187:312|137:294,1,112,2|2,3:2|2:0,0:0:0:0:
136,137,93412,2,0,P|180:171|189:223,1,112,2|2,1:2|3:2,0:0:0:0:
54,305,94001,2,0,P|61:249|102:215,1,112,6|2,3:2|1:2,0:0:0:0:
102,215,94442,1,2,2:0:0:0:
126,81,94883,2,0,L|137:147,1,56,0|2,1:0|1:2,0:0:0:0:
191,206,95177,6,0,P|241:216|290:179,1,112,2|2,3:2|2:0,0:0:0:0:
344,112,95618,1,2,2:0:0:0:
344,112,95765,2,0,P|376:112|406:125,1,56,2|2,1:2|2:0,0:0:0:0:
442,199,96060,2,0,L|432:269,2,56,2|2|2,2:0|2:0|3:2,0:0:0:0:
421,342,96648,6,0,L|355:332,1,56,2|2,2:0|2:0,0:0:0:0:
305,260,96942,2,0,P|252:250|200:283,1,112,2|2,1:2|2:0,0:0:0:0:
77,363,97530,6,0,L|63:240,1,112,2|2,3:2|2:0,0:0:0:0:
0,190,97971,1,2,2:0:0:0:
0,190,98118,2,0,P|4:159|16:120,1,56,2|2,1:2|2:0,0:0:0:0:
82,82,98412,2,0,P|79:49|67:11,2,56,2|2|2,2:0|2:0|3:2,0:0:0:0:
154,202,99001,6,0,P|184:201|214:187,1,56,2|2,2:0|2:0,0:0:0:0:
271,110,99295,2,0,L|281:165,1,56,2|2,1:2|2:0,0:0:0:0:
373,197,99589,2,0,L|362:141,1,56,2|2,3:2|2:0,0:0:0:0:
433,70,99883,6,0,L|458:206,1,112,2|2,3:2|2:0,0:0:0:0:
512,248,100324,1,2,2:0:0:0:
512,248,100471,2,0,L|504:322,1,56,2|2,1:2|2:0,0:0:0:0:
445,369,100765,2,0,P|419:370|393:358,1,56,2|2,2:0|2:0,0:0:0:0:
350,278,101060,6,0,P|303:268|249:300,1,112,2|2,3:2|2:0,0:0:0:0:
186,359,101501,1,2,2:0:0:0:
114,309,101648,2,0,L|101:187,1,112,2|2,1:2|2:0,0:0:0:0:
221,137,102236,6,0,L|237:15,2,112,2|2|2,3:2|2:0|1:2,0:0:0:0:
221,137,103118,1,2,2:0:0:0:
86,59,103412,6,0,L|16:70,1,70,2|2,1:2|2:0,0:0:0:0:
27,151,103707,2,0,L|96:139,1,70,2|2,3:2|1:2,0:0:0:0:
108,219,104001,6,0,L|38:230,1,70,2|2,3:2|2:0,0:0:0:0:
51,313,104296,2,0,L|120:301,1,70,2|0,3:2|0:0,0:0:0:0:
192,247,104589,6,0,P|253:225|312:265,1,140,6|2,3:2|1:2,0:0:0:0:
352,344,105030,2,0,P|356:272|377:194,1,140,2|2,2:0|2:0,0:0:0:0:
445,152,105471,2,0,P|439:116|415:61,1,70,2|2,1:2|2:0,0:0:0:0:
363,20,105765,5,2,3:2:0:0:
284,184,106060,1,2,1:2:0:0:
284,184,106207,2,0,P|241:225|165:206,1,140,2|2,2:0|2:0,0:0:0:0:
213,129,106648,2,0,L|206:44,1,70,2|2,1:2|2:0,0:0:0:0:
126,16,106942,5,2,3:2:0:0:
126,16,107089,1,2,2:0:0:0:
53,71,107236,2,0,L|62:159,1,70,2|2,1:2|2:0,0:0:0:0:
10,216,107530,5,2,3:2:0:0:
10,216,107677,1,2,2:0:0:0:
84,268,107824,2,0,L|163:259,1,70,2|2,1:2|2:0,0:0:0:0:
241,282,108118,6,0,P|268:220|231:159,1,140,2|2,3:2|1:2,0:0:0:0:
267,76,108560,2,0,B|330:70|330:70|349:60|349:60|414:56,1,140,2|2,2:0|2:0,0:0:0:0:
495,53,109001,2,0,P|495:94|503:127,1,70,2|2,1:2|2:0,0:0:0:0:
507,214,109295,6,0,P|472:250|390:235,1,140,2|2,3:2|1:2,0:0:0:0:
347,154,109736,2,0,P|282:133|230:175,1,140,2|2,2:0|2:0,0:0:0:0:
272,255,110177,2,0,L|282:327,1,70,2|2,1:2|2:0,0:0:0:0:
209,379,110471,5,2,3:2:0:0:
37,318,110765,1,2,1:2:0:0:
37,318,110912,2,0,B|15:232|65:268|46:174,1,140,2|2,2:0|2:0,0:0:0:0:
6,104,111354,2,0,L|-1:24,1,70,2|2,1:2|2:0,0:0:0:0:
85,3,111648,5,2,3:2:0:0:
85,3,111795,1,2,2:0:0:0:
127,83,111942,2,0,P|163:96|198:100,1,70,2|2,1:2|2:0,0:0:0:0:
262,39,112236,5,2,3:2:0:0:
262,39,112383,1,2,2:0:0:0:
340,84,112530,2,0,P|351:122|353:158,1,70,2|2,1:2|2:0,0:0:0:0:
281,208,112824,5,2,3:2:0:0:
281,208,112971,2,0,B|289:270|289:270|281:287|281:287|289:350,1,140,2|2,2:0|2:0,0:0:0:0:
197,353,113412,2,0,B|186:273|186:273|196:253|196:253|191:207,1,140,2|2,3:2|1:2,0:0:0:0:
13,177,114001,6,0,P|79:188|129:140,1,140,6|2,3:2|1:2,0:0:0:0:
173,62,114442,2,0,P|239:51|288:97,1,140,2|2,2:0|2:0,0:0:0:0:
254,182,114883,2,0,L|261:276,1,70,2|2,1:2|2:0,0:0:0:0:
319,319,115177,5,2,3:2:0:0:
487,251,115471,1,2,1:2:0:0:
487,251,115618,2,0,B|451:170|508:193|470:105,1,140,2|2,2:0|2:0,0:0:0:0:
415,45,116060,2,0,P|380:40|341:51,1,70,2|2,1:2|2:0,0:0:0:0:
311,132,116354,6,0,P|272:134|230:117,1,70,2|2,3:2|2:0,0:0:0:0:
185,54,116648,1,2,1:2:0:0:
185,54,116795,1,2,2:0:0:0:
95,70,116942,6,0,P|79:112|77:154,1,70,2|2,3:2|2:0,0:0:0:0:
112,220,117236,1,2,1:2:0:0:
112,220,117383,1,2,2:0:0:0:
79,304,117530,6,0,P|109:268|196:276,1,140,2|2,3:2|1:2,0:0:0:0:
250,347,117971,2,0,P|315:362|366:318,1,140,2|2,2:0|2:0,0:0:0:0:
311,245,118412,2,0,L|303:170,1,70,2|2,1:2|2:0,0:0:0:0:
292,84,118707,6,0,P|230:62|164:96,1,140,2|2,3:2|1:2,0:0:0:0:
134,178,119148,2,0,P|73:201|17:161,1,140,2|2,2:0|2:0,0:0:0:0:
58,79,119589,2,0,L|46:7,1,70,2|2,1:2|2:0,0:0:0:0:
134,34,119883,5,2,3:2:0:0:
240,181,120177,1,2,1:2:0:0:
240,181,120324,2,0,B|274:261|211:241|246:320,1,140,2|2,2:0|2:0,0:0:0:0:
315,371,120765,2,0,L|393:357,1,70,2|2,1:2|2:0,0:0:0:0:
473,340,121060,6,0,L|460:265,1,70,2|2,3:2|2:0,0:0:0:0:
376,236,121354,1,2,1:2:0:0:
376,236,121501,1,2,2:0:0:0:
446,178,121648,6,0,L|433:103,1,70,2|2,3:2|2:0,0:0:0:0:
346,84,121942,1,2,1:2:0:0:
346,84,122089,1,2,2:0:0:0:
278,144,122236,6,0,B|214:152|214:152|205:146|205:146|140:155,1,140,2|2,3:2|1:2,0:0:0:0:
120,243,122677,2,0,B|185:234|185:234|194:240|194:240|258:232,1,140,2|2,2:0|2:0,0:0:0:0:
340,195,123118,1,2,1:2:0:0:
385,273,123265,1,2,2:0:0:0:
436,197,123412,6,0,B|468:115|413:135|446:56,2,140,6|2|2,3:2|1:2|3:2,0:0:0:0:
436,197,124148,1,2,2:0:0:0:
359,148,124295,2,0,L|276:138,1,70,2|2,1:2|3:2,0:0:0:0:
208,181,124589,5,2,2:0:0:0:
148,112,124736,1,2,3:2:0:0:
65,149,124883,2,0,B|58:218,1,70,2|2,1:2|2:0,0:0:0:0:
46,308,125177,2,0,P|95:348|169:327,1,140,2|2,3:2|1:2,0:0:0:0:
342,368,125765,6,0,B|304:299|363:312|324:232,1,140,2|2,3:2|1:2,0:0:0:0:
258,170,126207,1,2,2:0:0:0:
258,170,126354,2,0,P|264:133|279:91,1,70,2|2,3:2|2:0,0:0:0:0:
342,42,126648,2,0,P|379:48|421:63,1,70,0|2,1:2|3:2,0:0:0:0:
487,105,126942,5,2,3:2:0:0:
435,180,127089,1,2,3:2:0:0:
504,238,127236,2,0,L|513:313,1,70,2|2,1:2|2:0,0:0:0:0:
441,364,127530,2,0,P|396:382|328:330,1,140,2|2,3:2|1:2,0:0:0:0:
357,245,127971,1,2,2:0:0:0:
300,173,128118,6,0,B|288:117|288:117|295:89|295:89|281:27,2,140,2|2|2,3:2|1:2|3:2,0:0:0:0:
300,173,128854,1,2,2:0:0:0:
266,257,129001,2,0,P|240:265|199:259,1,70,2|2,1:2|3:2,0:0:0:0:
148,182,129295,5,2,2:0:0:0:
200,107,129442,1,2,3:2:0:0:
147,32,129589,2,0,P|115:23|76:22,1,70,2|2,1:2|2:0,0:0:0:0:
7,79,129883,2,0,P|25:146|31:228,1,140,2|2,3:2|1:2,0:0:0:0:
168,334,130471,6,0,P|193:298|287:307,1,140,2|2,3:2|1:2,0:0:0:0:
353,246,130912,1,2,2:0:0:0:
353,246,131060,2,0,P|350:177|326:111,1,140,2|2,3:2|1:2,0:0:0:0:
245,67,131501,1,2,3:2:0:0:
245,67,131648,6,0,P|250:24|262:-10,2,70,2|2|0,3:2|3:2|1:0,0:0:0:0:
167,115,132089,1,2,2:0:0:0:
83,78,132236,2,0,L|-8:92,1,70,2|2,3:2|3:2,0:0:0:0:
26,178,132530,2,0,L|95:167,1,70,2|2,1:2|2:0,0:0:0:0:
150,233,132824,6,0,B|112:312|166:299|136:370,2,140,2|2|2,3:2|1:2|3:2,0:0:0:0:
150,233,133560,1,2,2:0:0:0:
227,281,133707,2,0,L|306:268,1,70,2|2,1:2|3:2,0:0:0:0:
358,203,134001,5,2,2:0:0:0:
431,256,134148,1,2,3:2:0:0:
489,186,134295,2,0,P|491:148|482:118,1,70,2|2,1:2|2:0,0:0:0:0:
447,33,134589,2,0,P|391:53|300:54,1,140,2|2,3:2|1:2,0:0:0:0:
134,12,135177,6,0,P|182:66|174:129,1,140,2|2,3:2|1:2,0:0:0:0:
128,207,135618,1,2,2:0:0:0:
128,207,135765,2,0,P|89:210|52:222,1,70,2|2,3:2|2:0,0:0:0:0:
3,291,136060,2,0,P|6:329|18:366,1,70,0|2,1:2|3:2,0:0:0:0:
102,381,136354,5,2,3:2:0:0:
161,312,136501,1,2,3:2:0:0:
235,363,136648,2,0,P|273:360|309:348,1,70,2|2,1:2|2:0,0:0:0:0:
381,303,136942,2,0,P|395:259|356:171,1,140,2|2,3:2|1:2,0:0:0:0:
286,123,137383,1,2,2:0:0:0:
324,40,137530,6,0,B|381:31|381:31|413:40|413:40|471:28,2,140,2|2|2,3:2|1:2|3:2,0:0:0:0:
324,40,138265,1,2,2:0:0:0:
286,123,138412,2,0,L|204:134,1,70,2|2,1:2|3:2,0:0:0:0:
151,197,138707,5,2,2:0:0:0:
72,150,138854,1,2,3:2:0:0:
16,222,139001,2,0,P|16:263|28:308,1,70,2|2,1:2|2:0,0:0:0:0:
91,349,139295,2,0,P|128:313|209:331,1,140,2|2,3:2|1:2,0:0:0:0:
384,375,139883,6,0,B|371:320|371:320|377:298|377:298|363:232,1,140,2|2,3:2|1:2,0:0:0:0:
347,150,140324,1,2,2:0:0:0:
347,150,140471,2,0,P|283:126|223:161,1,140,2|2,3:2|1:2,0:0:0:0:
204,247,140912,1,2,3:2:0:0:
204,247,141060,6,0,P|172:258|130:260,2,70,2|2|0,3:2|3:2|1:0,0:0:0:0:
224,159,141501,1,2,2:0:0:0:
178,80,141648,2,0,P|145:68|102:66,1,70,2|2,3:2|3:2,0:0:0:0:
37,118,141942,1,2,1:2:0:0:
97,185,142089,1,2,2:0:0:0:
43,259,142236,5,6,2:0:0:0:
113,314,143412,5,2,2:0:0:0:
184,263,144295,5,2,2:0:0:0:
184,263,144589,2,0,P|216:258|246:240,1,56,2|2,2:0|2:0,0:0:0:0:
200,121,145177,2,0,P|188:151|188:186,1,56,2|2,2:0|2:0,0:0:0:0:
314,203,145765,2,0,P|293:177|263:160,1,56,2|2,2:0|2:0,0:0:0:0:
274,164,146207,1,2,2:0:0:0:
427,0,146648,5,2,2:0:0:0:
427,0,146942,1,2,2:0:0:0:
479,68,148118,5,2,2:0:0:0:
431,140,149001,5,2,2:0:0:0:
431,140,149295,2,0,L|443:199,1,56,2|2,2:0|2:0,0:0:0:0:
309,151,149883,2,0,L|354:111,1,56,2|2,2:0|2:0,0:0:0:0:
381,252,150471,2,0,L|323:232,1,56,2|2,2:0|2:0,0:0:0:0:
328,233,150912,1,2,2:0:0:0:
173,295,151354,5,2,2:0:0:0:
173,295,151648,2,0,P|178:336|184:378,2,84,2|2|2,2:0|2:0|2:0,0:0:0:0:
71,283,152824,2,0,P|76:324|82:366,2,84,2|2|2,2:0|2:0|2:0,0:0:0:0:
58,183,154001,6,0,P|87:182|118:169,1,56,2|2,2:0|2:0,0:0:0:0:
177,97,154589,2,0,P|206:98|237:111,1,56,2|2,2:0|2:0,0:0:0:0:
297,175,155177,2,0,B|323:271|270:246|308:345,1,168,2|2,2:0|2:0,0:0:0:0:
396,290,156354,6,0,L|484:299,2,84,2|2|2,2:0|2:0|2:0,0:0:0:0:
429,195,157530,2,0,L|517:204,2,84,2|2|2,2:0|2:0|2:0,0:0:0:0:
374,113,158707,6,0,L|380:47,1,56,2|2,2:0|2:0,0:0:0:0:
281,133,159295,2,0,L|287:67,1,56,2|2,2:0|2:0,0:0:0:0:
193,92,159883,2,0,L|199:26,2,56,2|2|6,2:0|2:0|2:0,0:0:0:0:
101,128,161060,6,0,B|91:190|91:190|96:207|96:207|86:274,1,140,6|2,3:2|1:2,0:0:0:0:
19,326,161501,2,0,P|55:360|140:343,1,140,2|2,2:0|2:0,0:0:0:0:
180,264,161942,2,0,P|206:249|256:250,1,70,2|2,1:2|2:0,0:0:0:0:
304,316,162236,5,2,3:2:0:0:
475,255,162530,1,2,1:2:0:0:
475,255,162677,2,0,P|468:178|481:110,1,140,2|2,2:0|2:0,0:0:0:0:
511,31,163118,2,0,P|479:17|437:12,1,70,2|2,1:2|2:0,0:0:0:0:
380,76,163412,5,2,3:2:0:0:
380,76,163560,1,2,2:0:0:0:
355,163,163707,2,0,P|318:173|278:175,1,70,2|2,1:2|2:0,0:0:0:0:
237,98,164001,5,2,3:2:0:0:
237,98,164149,1,2,2:0:0:0:
212,11,164296,2,0,P|175:1|135:-1,1,70,2|2,1:2|2:0,0:0:0:0:
54,12,164589,6,0,P|19:61|33:142,1,140,2|2,3:2|1:2,0:0:0:0:
117,159,165030,2,0,P|140:200|113:292,1,140,2|2,2:0|2:0,0:0:0:0:
66,360,165471,2,0,L|146:374,1,70,2|2,1:2|2:0,0:0:0:0:
206,315,165765,6,0,B|269:304|269:304|285:312|285:312|353:301,1,140,2|2,3:2|1:2,0:0:0:0:
433,289,166207,2,0,P|456:227|418:167,1,140,2|2,2:0|2:0,0:0:0:0:
337,129,166648,2,0,L|256:139,1,70,2|2,1:2|2:0,0:0:0:0:
220,215,166942,5,2,3:2:0:0:
143,49,167236,1,2,1:2:0:0:
143,49,167383,2,0,P|136:120|113:187,1,140,2|2,2:0|2:0,0:0:0:0:
32,225,167824,2,0,P|34:269|39:303,1,70,2|2,1:2|2:0,0:0:0:0:
112,346,168118,5,2,3:2:0:0:
112,346,168265,1,2,2:0:0:0:
148,262,168412,2,0,P|176:248|214:244,1,70,2|2,1:2|2:0,0:0:0:0:
279,308,168707,5,2,3:2:0:0:
279,308,168854,1,2,2:0:0:0:
356,260,169001,2,0,P|357:233|332:167,1,70,2|2,1:2|2:0,0:0:0:0:
270,142,169295,6,0,P|275:77|296:2,3,140,2|2|2|2,3:2|1:2|3:2|1:2,0:0:0:0:
445,106,170471,6,0,P|456:174|453:265,1,140,6|2,3:2|1:2,0:0:0:0:
498,327,170912,2,0,P|444:367|378:347,1,140,2|2,2:0|2:0,0:0:0:0:
332,268,171354,2,0,P|297:256|255:254,1,70,2|2,1:2|2:0,0:0:0:0:
222,334,171648,6,0,P|187:346|145:348,1,70,2|2,3:2|2:0,0:0:0:0:
81,294,171942,1,2,1:2:0:0:
131,218,172089,2,0,P|133:174|99:84,1,140,2|2,2:0|2:0,0:0:0:0:
147,7,172530,2,0,L|238:-4,1,70,2|2,1:2|2:0,0:0:0:0:
301,31,172824,6,0,P|308:72|307:102,1,70,2|2,3:2|2:0,0:0:0:0:
239,161,173118,1,2,1:2:0:0:
239,161,173265,1,2,2:0:0:0:
290,235,173412,6,0,P|328:245|370:242,1,70,2|2,3:2|2:0,0:0:0:0:
422,178,173707,1,2,1:2:0:0:
422,178,173854,1,2,2:0:0:0:
497,228,174001,6,0,B|470:307|517:283|494:369,1,140,2|2,3:2|1:2,0:0:0:0:
412,326,174442,2,0,P|341:333|266:350,1,140,2|2,2:0|2:0,0:0:0:0:
201,293,174883,2,0,P|208:251|219:208,1,70,2|2,1:2|2:0,0:0:0:0:
283,164,175177,6,0,B|276:105|276:105|281:89|281:89|274:26,1,140,2|2,3:2|1:2,0:0:0:0:
185,2,175618,2,0,B|192:65|192:65|187:81|187:81|194:140,1,140,2|2,2:0|2:0,0:0:0:0:
129,204,176060,2,0,L|41:190,1,70,2|2,1:2|2:0,0:0:0:0:
2,122,176354,5,2,3:2:0:0:
36,300,176648,1,2,1:2:0:0:
36,300,176795,2,0,B|99:310|99:310|108:322|108:322|169:332,1,140,2|2,2:0|2:0,0:0:0:0:
233,268,177236,2,0,L|316:257,1,70,2|2,1:2|2:0,0:0:0:0:
374,313,177530,6,0,P|388:283|388:246,1,70,2|2,3:2|2:0,0:0:0:0:
330,176,177824,1,2,1:2:0:0:
330,176,177971,1,2,2:0:0:0:
382,101,178118,6,0,L|390:17,1,70,2|2,3:2|2:0,0:0:0:0:
298,18,178412,2,0,L|291:87,1,70,2|2,1:2|2:0,0:0:0:0:
214,138,178707,6,0,L|119:116,1,70,2|2,3:2|2:0,0:0:0:0:
121,210,179001,2,0,L|189:225,1,70,2|2,1:2|2:0,0:0:0:0:
247,294,179295,6,0,P|310:318|367:278,1,140,2|2,3:2|1:2,0:0:0:0:
511,143,179883,6,0,B|416:126|458:184|355:162,1,154.000004699707,6|2,3:2|1:2,0:0:0:0:
335,67,180324,2,0,P|290:23|206:44,1,154.000004699707,2|2,2:0|2:0,0:0:0:0:
146,120,180765,2,0,L|153:208,1,77.0000023498536,2|2,1:2|2:0,0:0:0:0:
235,253,181060,5,2,3:2:0:0:
49,177,181354,1,2,1:2:0:0:
49,177,181501,2,0,B|55:246|55:246|67:264|67:264|74:337,1,154.000004699707,2|2,2:0|2:0,0:0:0:0:
156,381,181942,2,0,P|195:370|234:376,1,77.0000023498536,2|2,1:2|2:0,0:0:0:0:
302,305,182236,5,2,3:2:0:0:
302,305,182383,1,2,2:0:0:0:
386,358,182530,5,2,1:2:0:0:
386,358,182677,1,2,2:0:0:0:
465,297,182824,6,0,P|480:262|476:223,1,77.0000023498536,2|2,3:2|2:0,0:0:0:0:
398,160,183118,2,0,P|400:122|418:86,1,77.0000023498536,2|2,1:2|2:0,0:0:0:0:
500,32,183412,6,0,L|336:52,1,154.000004699707,2|2,3:2|1:2,0:0:0:0:
277,123,183854,2,0,L|107:107,1,154.000004699707,2|2,2:0|2:0,0:0:0:0:
37,57,184295,2,0,P|20:97|26:133,1,77.0000023498536,2|2,1:2|2:0,0:0:0:0:
98,196,184589,6,0,P|137:247|106:323,1,154.000004699707,2|2,3:2|1:2,0:0:0:0:
24,382,185030,2,0,L|177:365,1,154.000004699707,2|2,2:0|2:0,0:0:0:0:
276,352,185471,2,0,L|264:265,1,77.0000023498536,2|2,1:2|2:0,0:0:0:0:
201,198,185765,5,2,3:2:0:0:
373,300,186060,1,2,1:2:0:0:
373,300,186207,2,0,B|363:230|363:230|352:219|352:219|343:152,1,154.000004699707,2|2,2:0|2:0,0:0:0:0:
423,92,186648,2,0,P|403:69|358:52,1,77.0000023498536,2|2,1:2|2:0,0:0:0:0:
268,91,186942,5,2,3:2:0:0:
268,91,187089,1,2,2:0:0:0:
199,18,187236,5,2,1:2:0:0:
199,18,187383,1,2,2:0:0:0:
105,53,187530,6,0,P|88:88|84:133,1,77.0000023498536,2|2,3:2|2:0,0:0:0:0:
162,187,187824,2,0,P|177:224|178:269,1,77.0000023498536,2|2,1:2|2:0,0:0:0:0:
137,351,188118,6,0,B|220:315|207:368|293:331,3,154.000004699707,2|2|2|2,3:2|1:2|3:2|1:2,0:0:0:0:
352,143,189295,6,0,P|364:227|375:307,1,154.000004699707,6|2,3:2|1:2,0:0:0:0:
472,284,189736,2,0,P|461:207|450:131,1,154.000004699707,2|2,2:0|2:0,0:0:0:0:
402,44,190177,2,0,P|370:29|324:29,1,77.0000023498536,2|2,1:2|2:0,0:0:0:0:
271,109,190471,6,0,P|240:126|193:124,1,77.0000023498536,2|2,3:2|2:0,0:0:0:0:
130,52,190765,1,2,1:2:0:0:
44,104,190912,2,0,B|29:172|29:172|31:192|31:192|17:264,1,154.000004699707,2|2,2:0|2:0,0:0:0:0:
83,331,191354,2,0,L|167:315,1,77.0000023498536,2|2,1:2|2:0,0:0:0:0:
243,369,191648,5,2,3:2:0:0:
243,369,191795,1,2,2:0:0:0:
316,300,191942,5,2,1:2:0:0:
316,300,192089,1,2,2:0:0:0:
383,373,192236,6,0,P|425:379|470:385,1,77.0000023498536,2|2,3:2|2:0,0:0:0:0:
502,293,192530,2,0,P|507:254|512:216,1,77.0000023498536,2|2,1:2|2:0,0:0:0:0:
470,125,192824,6,0,P|448:87|346:90,1,154.000004699707,2|2,3:2|1:2,0:0:0:0:
311,180,193265,2,0,P|289:218|187:215,1,154.000004699707,2|2,2:0|2:0,0:0:0:0:
132,134,193707,2,0,L|144:54,1,77.0000023498536,2|2,1:2|2:0,0:0:0:0:
61,0,194001,6,0,L|37:154,1,154.000004699707,2|2,3:2|1:2,0:0:0:0:
19,250,194442,2,0,P|53:296|144:288,1,154.000004699707,2|2,2:0|2:0,0:0:0:0:
195,204,194883,2,0,P|235:193|281:195,1,77.0000023498536,2|2,1:2|2:0,0:0:0:0:
340,264,195177,5,2,3:2:0:0:
491,133,195471,1,2,1:2:0:0:
491,133,195618,2,0,B|480:193|480:193|485:224|485:224|474:286,1,154.000004699707,2|2,2:0|2:0,0:0:0:0:
412,364,196060,2,0,P|377:368|336:353,1,77.0000023498536,2|2,1:2|2:0,0:0:0:0:
262,288,196354,5,2,3:2:0:0:
262,288,196501,1,2,2:0:0:0:
180,346,196648,5,2,1:2:0:0:
180,346,196795,1,2,2:0:0:0:
93,295,196942,6,0,P|99:253|107:220,1,77.0000023498536,2|2,3:2|2:0,0:0:0:0:
186,157,197236,2,0,P|180:115|172:82,1,77.0000023498536,2|2,1:2|2:0,0:0:0:0:
104,7,197530,6,0,P|155:46|241:24,1,154.000004699707,2|2,3:2|1:2,0:0:0:0:
329,64,197971,2,0,L|355:238,1,154.000004699707,2|2,2:0|2:0,0:0:0:0:
404,301,198412,2,0,P|369:318|332:313,1,77.0000023498536,2|0,1:2|0:0,0:0:0:0:
268,247,198707,6,0,P|232:244|185:238,1,70,6|2,3:2|2:0,0:0:0:0:
126,295,199001,2,0,P|102:251|131:170,1,140,2|2,1:2|3:2,0:0:0:0:
196,108,199442,1,2,2:0:0:0:
273,154,199589,2,0,L|342:147,1,70,2|2,1:2|3:2,0:0:0:0:
433,140,199883,6,0,P|452:103|416:18,2,140,2|2|2,2:0|1:2|3:2,0:0:0:0:
433,140,200618,1,2,2:0:0:0:
395,222,200765,2,0,L|312:231,1,70,2|2,1:2|2:0,0:0:0:0:
234,243,201060,6,0,P|206:311|242:370,2,140,2|2|2,3:2|1:2|3:2,0:0:0:0:
234,243,201795,1,2,2:0:0:0:
276,162,201942,2,0,L|267:88,1,70,2|0,1:2|3:0,0:0:0:0:
191,42,202236,5,2,3:2:0:0:
191,42,202383,1,2,3:2:0:0:
123,102,202530,2,0,L|40:112,1,70,2|0,1:2|2:0,0:0:0:0:
26,197,202824,2,0,L|179:179,1,140,2|0,3:2|1:2,0:0:0:0:
234,243,203265,1,2,2:0:0:0:
309,191,203412,6,0,P|306:156|298:113,1,70,2|2,3:2|2:0,0:0:0:0:
225,68,203707,2,0,P|278:29|354:47,1,140,2|2,1:2|3:2,0:0:0:0:
437,34,204148,1,2,2:0:0:0:
486,110,204295,2,0,P|481:149|474:193,1,70,2|2,1:2|3:2,0:0:0:0:
402,232,204589,6,0,B|385:312|432:287|411:376,2,140,2|2|2,2:0|1:2|3:2,0:0:0:0:
402,232,205324,1,2,2:0:0:0:
336,169,205471,2,0,P|303:160|261:155,1,70,2|2,1:2|2:0,0:0:0:0:
186,114,205765,6,0,P|164:58|210:-3,2,140,2|2|2,3:2|1:2|3:2,0:0:0:0:
186,114,206501,1,2,2:0:0:0:
121,178,206648,2,0,P|113:210|109:249,1,70,2|0,1:2|3:0,0:0:0:0:
169,314,206942,5,2,3:2:0:0:
169,314,207089,1,2,3:2:0:0:
243,262,207236,2,0,P|278:255|320:251,1,70,2|0,1:2|2:0,0:0:0:0:
393,291,207530,5,2,3:2:0:0:
451,220,207677,1,0,3:0:0:0:
401,143,207824,1,2,1:2:0:0:
459,72,207971,1,2,2:0:0:0:
383,0,208118,6,0,P|349:4|313:9,2,56,6|2|2,2:0|2:0|2:0,0:0:0:0:
311,142,208707,2,0,P|281:136|244:131,1,56,2|2,2:0|2:0,0:0:0:0:
203,60,209001,2,0,P|177:64|147:69,1,56,2|2,2:0|2:0,0:0:0:0:
95,133,209295,6,0,P|106:78|68:35,1,112,2|2,2:0|2:0,0:0:0:0:
0,191,209883,2,0,P|34:198|64:207,1,56,2|2,2:0|2:0,0:0:0:0:
107,277,210177,2,0,P|133:273|165:265,1,56,2|2,2:0|2:0,0:0:0:0:
221,325,210471,6,0,P|203:277|230:227,1,112,2|2,2:0|2:0,0:0:0:0:
358,276,211060,2,0,P|329:281|301:287,2,56,2|2|2,2:0|2:0|2:0,0:0:0:0:
243,137,211648,2,0,P|274:143|303:149,2,56,2|2|2,2:0|2:0|2:0,0:0:0:0:
371,13,212236,1,2,2:0:0:0:
182,55,212824,6,0,P|177:24|172:0,2,56,2|2|2,2:0|2:0|2:0,0:0:0:0:
327,148,213412,2,0,P|317:180|311:207,1,56,2|2,2:0|2:0,0:0:0:0:
233,250,213707,2,0,P|243:282|249:309,1,56,2|2,2:0|2:0,0:0:0:0:
328,334,214001,6,0,P|274:336|244:382,1,112,2|2,2:0|2:0,0:0:0:0:
89,339,214589,2,0,P|82:311|73:285,1,56,2|2,2:0|2:0,0:0:0:0:
4,229,214883,2,0,P|10:201|19:175,1,56,2|2,2:0|2:0,0:0:0:0:
93,113,215177,6,0,P|74:87|-6:86,1,112,2|2,2:0|2:0,0:0:0:0:
162,55,215765,2,0,P|169:16|175:-16,2,56,2|2|2,2:0|2:0|2:0,0:0:0:0:
319,126,216354,2,0,P|312:87|306:55,2,56,2|2|2,2:0|2:0|2:0,0:0:0:0:
432,0,216942,5,4,2:0:0:0:
