osu file format v14

[General]
AudioFilename: audio.mp3
AudioLeadIn: 0
PreviewTime: 46942
Countdown: 0
SampleSet: Soft
StackLeniency: 0.4
Mode: 0
LetterboxInBreaks: 0
EpilepsyWarning: 1
WidescreenStoryboard: 1

[Editor]
DistanceSpacing: 1
BeatDivisor: 4
GridSize: 32
TimelineZoom: 2.930006

[Metadata]
Title:Ai no Sukima
TitleUnicode:哀の隙間
Artist:umu.
ArtistUnicode:ゆーむ
Creator:Half
Version:Expert
Source:
Tags:MIMI feat. 初音ミク Hatsune Miku 佐藤主税 歌ってみた vocaloid japanese female vocalist dora- doraemonelf pop jpop Sorrow's Gap
BeatmapID:2856078
BeatmapSetID:1371996

[Difficulty]
HPDrainRate:5
CircleSize:4
OverallDifficulty:8.5
ApproachRate:9.2
SliderMultiplier:1.4
SliderTickRate:1

[Events]
//Background and Video events
0,0,"BG.jpg",0,0
//Break Periods
2,67142,84887
//Storyboard Layer 0 (Background)
//Storyboard Layer 1 (Fail)
//Storyboard Layer 2 (Pass)
//Storyboard Layer 3 (Foreground)
Sprite,Foreground,Centre,"sb\d.png",0,0 M,7,10471,11271,193,174,256,227 S,7,10471,11271,0.3952487,0 P,0,10471,11271,A F,0,29221,,1,0
Sprite,Foreground,Centre,"sb\d.png",0,0 M,7,10471,11271,193,174,204,115 S,7,10471,11271,0.3952487,0 P,0,10471,11271,A F,0,29221,,1,0
Sprite,Foreground,Centre,"sb\d.png",0,0 M,7,10471,11271,193,174,204,255 S,7,10471,11271,0.3952487,0 P,0,10471,11271,A F,0,29221,,1,0
Sprite,Foreground,Centre,"sb\d.png",0,0 M,7,10471,11271,193,174,181,269 S,7,10471,11271,0.3952487,0 P,0,10471,11271,A F,0,29221,,1,0
Sprite,Foreground,Centre,"sb\d.png",0,0 M,7,10471,11271,193,174,147,132 S,7,10471,11271,0.3952487,0 P,0,10471,11271,A F,0,29221,,1,0
Sprite,Foreground,Centre,"sb\d.png",0,0 M,7,10471,11271,193,174,186,200 S,7,10471,11271,0.3952487,0 P,0,10471,11271,A F,0,29221,,1,0
Sprite,Foreground,Centre,"sb\d.png",0,0 M,7,10471,11271,193,174,186,270 S,7,10471,11271,0.3952487,0 P,0,10471,11271,A F,0,29221,,1,0
Sprite,Foreground,Centre,"sb\d.png",0,0 M,7,10471,11271,193,174,99,246 S,7,10471,11271,0.3952487,0 P,0,10471,11271,A F,0,29221,,1,0
Sprite,Foreground,Centre,"sb\d.png",0,0 M,7,10471,11271,193,174,292,209 S,7,10471,11271,0.3952487,0 P,0,10471,11271,A F,0,29221,,1,0
Sprite,Foreground,Centre,"sb\d.png",0,0 M,7,10471,11271,193,174,155,237 S,7,10471,11271,0.3952487,0 P,0,10471,11271,A F,0,29221,,1,0
Sprite,Foreground,Centre,"sb\d.png",0,0 M,7,10765,11565,64,302,162,208 S,7,10765,11565,0.4196104,0 P,0,10765,11565,A F,0,29221,,1,0
Sprite,Foreground,Centre,"sb\d.png",0,0 M,7,10765,11565,64,302,103,307 S,7,10765,11565,0.4196104,0 P,0,10765,11565,A F,0,29221,,1,0
Sprite,Foreground,Centre,"sb\d.png",0,0 M,7,10765,11565,64,302,150,339 S,7,10765,11565,0.4196104,0 P,0,10765,11565,A F,0,29221,,1,0
Sprite,Foreground,Centre,"sb\d.png",0,0 M,7,10765,11565,64,302,73,218 S,7,10765,11565,0.4196104,0 P,0,10765,11565,A F,0,29221,,1,0
Sprite,Foreground,Centre,"sb\d.png",0,0 M,7,10765,11565,64,302,1,292 S,7,10765,11565,0.4196104,0 P,0,10765,11565,A F,0,29221,,1,0
Sprite,Foreground,Centre,"sb\d.png",0,0 M,7,10765,11565,64,302,23,399 S,7,10765,11565,0.4196104,0 P,0,10765,11565,A F,0,29221,,1,0
Sprite,Foreground,Centre,"sb\d.png",0,0 M,7,10765,11565,64,302,92,354 S,7,10765,11565,0.4196104,0 P,0,10765,11565,A F,0,29221,,1,0
Sprite,Foreground,Centre,"sb\d.png",0,0 M,7,10765,11565,64,302,-30,278 S,7,10765,11565,0.4196104,0 P,0,10765,11565,A F,0,29221,,1,0
Sprite,Foreground,Centre,"sb\d.png",0,0 M,7,10765,11565,64,302,32,393 S,7,10765,11565,0.4196104,0 P,0,10765,11565,A F,0,29221,,1,0
Sprite,Foreground,Centre,"sb\d.png",0,0 M,7,10765,11565,64,302,65,345 S,7,10765,11565,0.4196104,0 P,0,10765,11565,A F,0,29221,,1,0
Sprite,Foreground,Centre,"sb\d.png",0,0 M,7,11207,12007,239,386,193,467 S,7,11207,12007,0.2737916,0 P,0,11207,12007,A F,0,29221,,1,0
Sprite,Foreground,Centre,"sb\d.png",0,0 M,7,11207,12007,239,386,297,353 S,7,11207,12007,0.2737916,0 P,0,11207,12007,A F,0,29221,,1,0
Sprite,Foreground,Centre,"sb\d.png",0,0 M,7,11207,12007,239,386,230,315 S,7,11207,12007,0.2737916,0 P,0,11207,12007,A F,0,29221,,1,0
Sprite,Foreground,Centre,"sb\d.png",0,0 M,7,11207,12007,239,386,183,368 S,7,11207,12007,0.2737916,0 P,0,11207,12007,A F,0,29221,,1,0
Sprite,Foreground,Centre,"sb\d.png",0,0 M,7,11207,12007,239,386,282,409 S,7,11207,12007,0.2737916,0 P,0,11207,12007,A F,0,29221,,1,0
Sprite,Foreground,Centre,"sb\d.png",0,0 M,7,11207,12007,239,386,236,324 S,7,11207,12007,0.2737916,0 P,0,11207,12007,A F,0,29221,,1,0
Sprite,Foreground,Centre,"sb\d.png",0,0 M,7,11207,12007,239,386,314,451 S,7,11207,12007,0.2737916,0 P,0,11207,12007,A F,0,29221,,1,0
Sprite,Foreground,Centre,"sb\d.png",0,0 M,7,11207,12007,239,386,286,457 S,7,11207,12007,0.2737916,0 P,0,11207,12007,A F,0,29221,,1,0
Sprite,Foreground,Centre,"sb\d.png",0,0 M,7,11207,12007,239,386,274,410 S,7,11207,12007,0.2737916,0 P,0,11207,12007,A F,0,29221,,1,0
Sprite,Foreground,Centre,"sb\d.png",0,0 M,7,11207,12007,239,386,182,465 S,7,11207,12007,0.2737916,0 P,0,11207,12007,A F,0,29221,,1,0
Sprite,Foreground,Centre,"sb\d.png",0,0 M,7,11354,12154,332,297,249,364 S,7,11354,12154,0.429288,0 P,0,11354,12154,A F,0,29221,,1,0
Sprite,Foreground,Centre,"sb\d.png",0,0 M,7,11354,12154,332,297,266,325 S,7,11354,12154,0.429288,0 P,0,11354,12154,A F,0,29221,,1,0
Sprite,Foreground,Centre,"sb\d.png",0,0 M,7,11354,12154,332,297,397,240 S,7,11354,12154,0.429288,0 P,0,11354,12154,A F,0,29221,,1,0
Sprite,Foreground,Centre,"sb\d.png",0,0 M,7,11354,12154,332,297,431,293 S,7,11354,12154,0.429288,0 P,0,11354,12154,A F,0,29221,,1,0
Sprite,Foreground,Centre,"sb\d.png",0,0 M,7,11354,12154,332,297,362,340 S,7,11354,12154,0.429288,0 P,0,11354,12154,A F,0,29221,,1,0
Sprite,Foreground,Centre,"sb\d.png",0,0 M,7,11354,12154,332,297,393,217 S,7,11354,12154,0.429288,0 P,0,11354,12154,A F,0,29221,,1,0
Sprite,Foreground,Centre,"sb\d.png",0,0 M,7,11354,12154,332,297,377,340 S,7,11354,12154,0.429288,0 P,0,11354,12154,A F,0,29221,,1,0
Sprite,Foreground,Centre,"sb\d.png",0,0 M,7,11354,12154,332,297,257,378 S,7,11354,12154,0.429288,0 P,0,11354,12154,A F,0,29221,,1,0
Sprite,Foreground,Centre,"sb\d.png",0,0 M,7,11354,12154,332,297,269,292 S,7,11354,12154,0.429288,0 P,0,11354,12154,A F,0,29221,,1,0
Sprite,Foreground,Centre,"sb\d.png",0,0 M,7,11354,12154,332,297,340,262 S,7,11354,12154,0.429288,0 P,0,11354,12154,A F,0,29221,,1,0
Sprite,Foreground,Centre,"sb\d.png",0,0 M,7,11501,12301,400,405,393,471 S,7,11501,12301,0.3842073,0 P,0,11501,12301,A F,0,29221,,1,0
Sprite,Foreground,Centre,"sb\d.png",0,0 M,7,11501,12301,400,405,461,463 S,7,11501,12301,0.3842073,0 P,0,11501,12301,A F,0,29221,,1,0
Sprite,Foreground,Centre,"sb\d.png",0,0 M,7,11501,12301,400,405,452,492 S,7,11501,12301,0.3842073,0 P,0,11501,12301,A F,0,29221,,1,0
Sprite,Foreground,Centre,"sb\d.png",0,0 M,7,11501,12301,400,405,358,409 S,7,11501,12301,0.3842073,0 P,0,11501,12301,A F,0,29221,,1,0
Sprite,Foreground,Centre,"sb\d.png",0,0 M,7,11501,12301,400,405,432,371 S,7,11501,12301,0.3842073,0 P,0,11501,12301,A F,0,29221,,1,0
Sprite,Foreground,Centre,"sb\d.png",0,0 M,7,11501,12301,400,405,357,469 S,7,11501,12301,0.3842073,0 P,0,11501,12301,A F,0,29221,,1,0
Sprite,Foreground,Centre,"sb\d.png",0,0 M,7,11501,12301,400,405,344,342 S,7,11501,12301,0.3842073,0 P,0,11501,12301,A F,0,29221,,1,0
Sprite,Foreground,Centre,"sb\d.png",0,0 M,7,11501,12301,400,405,313,429 S,7,11501,12301,0.3842073,0 P,0,11501,12301,A F,0,29221,,1,0
Sprite,Foreground,Centre,"sb\d.png",0,0 M,7,11501,12301,400,405,438,431 S,7,11501,12301,0.3842073,0 P,0,11501,12301,A F,0,29221,,1,0
Sprite,Foreground,Centre,"sb\d.png",0,0 M,7,11501,12301,400,405,485,349 S,7,11501,12301,0.3842073,0 P,0,11501,12301,A F,0,29221,,1,0
Sprite,Foreground,Centre,"sb\d.png",0,0 M,7,11648,12448,481,303,394,383 S,7,11648,12448,0.4357415,0 P,0,11648,12448,A F,0,29221,,1,0
Sprite,Foreground,Centre,"sb\d.png",0,0 M,7,11648,12448,481,303,516,221 S,7,11648,12448,0.4357415,0 P,0,11648,12448,A F,0,29221,,1,0
Sprite,Foreground,Centre,"sb\d.png",0,0 M,7,11648,12448,481,303,410,224 S,7,11648,12448,0.4357415,0 P,0,11648,12448,A F,0,29221,,1,0
Sprite,Foreground,Centre,"sb\d.png",0,0 M,7,11648,12448,481,303,502,393 S,7,11648,12448,0.4357415,0 P,0,11648,12448,A F,0,29221,,1,0
Sprite,Foreground,Centre,"sb\d.png",0,0 M,7,11648,12448,481,303,479,232 S,7,11648,12448,0.4357415,0 P,0,11648,12448,A F,0,29221,,1,0
Sprite,Foreground,Centre,"sb\d.png",0,0 M,7,11648,12448,481,303,516,316 S,7,11648,12448,0.4357415,0 P,0,11648,12448,A F,0,29221,,1,0
Sprite,Foreground,Centre,"sb\d.png",0,0 M,7,11648,12448,481,303,426,326 S,7,11648,12448,0.4357415,0 P,0,11648,12448,A F,0,29221,,1,0
Sprite,Foreground,Centre,"sb\d.png",0,0 M,7,11648,12448,481,303,382,275 S,7,11648,12448,0.4357415,0 P,0,11648,12448,A F,0,29221,,1,0
Sprite,Foreground,Centre,"sb\d.png",0,0 M,7,11648,12448,481,303,551,215 S,7,11648,12448,0.4357415,0 P,0,11648,12448,A F,0,29221,,1,0
Sprite,Foreground,Centre,"sb\d.png",0,0 M,7,11648,12448,481,303,437,343 S,7,11648,12448,0.4357415,0 P,0,11648,12448,A F,0,29221,,1,0
Sprite,Foreground,Centre,"sb\d.png",0,0 M,7,11942,12742,371,63,468,40 S,7,11942,12742,0.4417161,0 P,0,11942,12742,A F,0,29221,,1,0
Sprite,Foreground,Centre,"sb\d.png",0,0 M,7,11942,12742,371,63,375,19 S,7,11942,12742,0.4417161,0 P,0,11942,12742,A F,0,29221,,1,0
Sprite,Foreground,Centre,"sb\d.png",0,0 M,7,11942,12742,371,63,372,69 S,7,11942,12742,0.4417161,0 P,0,11942,12742,A F,0,29221,,1,0
Sprite,Foreground,Centre,"sb\d.png",0,0 M,7,11942,12742,371,63,282,19 S,7,11942,12742,0.4417161,0 P,0,11942,12742,A F,0,29221,,1,0
Sprite,Foreground,Centre,"sb\d.png",0,0 M,7,11942,12742,371,63,370,132 S,7,11942,12742,0.4417161,0 P,0,11942,12742,A F,0,29221,,1,0
Sprite,Foreground,Centre,"sb\d.png",0,0 M,7,11942,12742,371,63,393,-17 S,7,11942,12742,0.4417161,0 P,0,11942,12742,A F,0,29221,,1,0
Sprite,Foreground,Centre,"sb\d.png",0,0 M,7,11942,12742,371,63,419,43 S,7,11942,12742,0.4417161,0 P,0,11942,12742,A F,0,29221,,1,0
Sprite,Foreground,Centre,"sb\d.png",0,0 M,7,11942,12742,371,63,457,-11 S,7,11942,12742,0.4417161,0 P,0,11942,12742,A F,0,29221,,1,0
Sprite,Foreground,Centre,"sb\d.png",0,0 M,7,11942,12742,371,63,410,86 S,7,11942,12742,0.4417161,0 P,0,11942,12742,A F,0,29221,,1,0
Sprite,Foreground,Centre,"sb\d.png",0,0 M,7,11942,12742,371,63,437,100 S,7,11942,12742,0.4417161,0 P,0,11942,12742,A F,0,29221,,1,0
Sprite,Foreground,Centre,"sb\d.png",0,0 M,7,12383,13183,277,132,211,68 S,7,12383,13183,0.3639485,0 P,0,12383,13183,A F,0,29221,,1,0
Sprite,Foreground,Centre,"sb\d.png",0,0 M,7,12383,13183,277,132,298,82 S,7,12383,13183,0.3639485,0 P,0,12383,13183,A F,0,29221,,1,0
Sprite,Foreground,Centre,"sb\d.png",0,0 M,7,12383,13183,277,132,376,145 S,7,12383,13183,0.3639485,0 P,0,12383,13183,A F,0,29221,,1,0
Sprite,Foreground,Centre,"sb\d.png",0,0 M,7,12383,13183,277,132,189,84 S,7,12383,13183,0.3639485,0 P,0,12383,13183,A F,0,29221,,1,0
Sprite,Foreground,Centre,"sb\d.png",0,0 M,7,12383,13183,277,132,345,145 S,7,12383,13183,0.3639485,0 P,0,12383,13183,A F,0,29221,,1,0
Sprite,Foreground,Centre,"sb\d.png",0,0 M,7,12383,13183,277,132,306,135 S,7,12383,13183,0.3639485,0 P,0,12383,13183,A F,0,29221,,1,0
Sprite,Foreground,Centre,"sb\d.png",0,0 M,7,12383,13183,277,132,371,47 S,7,12383,13183,0.3639485,0 P,0,12383,13183,A F,0,29221,,1,0
Sprite,Foreground,Centre,"sb\d.png",0,0 M,7,12383,13183,277,132,279,63 S,7,12383,13183,0.3639485,0 P,0,12383,13183,A F,0,29221,,1,0
Sprite,Foreground,Centre,"sb\d.png",0,0 M,7,12383,13183,277,132,339,160 S,7,12383,13183,0.3639485,0 P,0,12383,13183,A F,0,29221,,1,0
Sprite,Foreground,Centre,"sb\d.png",0,0 M,7,12383,13183,277,132,292,142 S,7,12383,13183,0.3639485,0 P,0,12383,13183,A F,0,29221,,1,0
Sprite,Foreground,Centre,"sb\d.png",0,0 M,7,12530,13330,218,242,316,202 S,7,12530,13330,0.3844979,0 P,0,12530,13330,A F,0,29221,,1,0
Sprite,Foreground,Centre,"sb\d.png",0,0 M,7,12530,13330,218,242,130,235 S,7,12530,13330,0.3844979,0 P,0,12530,13330,A F,0,29221,,1,0
Sprite,Foreground,Centre,"sb\d.png",0,0 M,7,12530,13330,218,242,214,185 S,7,12530,13330,0.3844979,0 P,0,12530,13330,A F,0,29221,,1,0
Sprite,Foreground,Centre,"sb\d.png",0,0 M,7,12530,13330,218,242,132,188 S,7,12530,13330,0.3844979,0 P,0,12530,13330,A F,0,29221,,1,0
Sprite,Foreground,Centre,"sb\d.png",0,0 M,7,12530,13330,218,242,148,231 S,7,12530,13330,0.3844979,0 P,0,12530,13330,A F,0,29221,,1,0
Sprite,Foreground,Centre,"sb\d.png",0,0 M,7,12530,13330,218,242,208,145 S,7,12530,13330,0.3844979,0 P,0,12530,13330,A F,0,29221,,1,0
Sprite,Foreground,Centre,"sb\d.png",0,0 M,7,12530,13330,218,242,195,305 S,7,12530,13330,0.3844979,0 P,0,12530,13330,A F,0,29221,,1,0
Sprite,Foreground,Centre,"sb\d.png",0,0 M,7,12530,13330,218,242,158,324 S,7,12530,13330,0.3844979,0 P,0,12530,13330,A F,0,29221,,1,0
Sprite,Foreground,Centre,"sb\d.png",0,0 M,7,12530,13330,218,242,123,243 S,7,12530,13330,0.3844979,0 P,0,12530,13330,A F,0,29221,,1,0
Sprite,Foreground,Centre,"sb\d.png",0,0 M,7,12530,13330,218,242,310,340 S,7,12530,13330,0.3844979,0 P,0,12530,13330,A F,0,29221,,1,0
Sprite,Foreground,Centre,"sb\d.png",0,0 M,7,12677,13477,123,167,153,122 S,7,12677,13477,0.253374,0 P,0,12677,13477,A F,0,29221,,1,0
Sprite,Foreground,Centre,"sb\d.png",0,0 M,7,12677,13477,123,167,216,184 S,7,12677,13477,0.253374,0 P,0,12677,13477,A F,0,29221,,1,0
Sprite,Foreground,Centre,"sb\d.png",0,0 M,7,12677,13477,123,167,177,131 S,7,12677,13477,0.253374,0 P,0,12677,13477,A F,0,29221,,1,0
Sprite,Foreground,Centre,"sb\d.png",0,0 M,7,12677,13477,123,167,107,261 S,7,12677,13477,0.253374,0 P,0,12677,13477,A F,0,29221,,1,0
Sprite,Foreground,Centre,"sb\d.png",0,0 M,7,12677,13477,123,167,200,261 S,7,12677,13477,0.253374,0 P,0,12677,13477,A F,0,29221,,1,0
Sprite,Foreground,Centre,"sb\d.png",0,0 M,7,12677,13477,123,167,74,93 S,7,12677,13477,0.253374,0 P,0,12677,13477,A F,0,29221,,1,0
Sprite,Foreground,Centre,"sb\d.png",0,0 M,7,12677,13477,123,167,202,102 S,7,12677,13477,0.253374,0 P,0,12677,13477,A F,0,29221,,1,0
Sprite,Foreground,Centre,"sb\d.png",0,0 M,7,12677,13477,123,167,199,175 S,7,12677,13477,0.253374,0 P,0,12677,13477,A F,0,29221,,1,0
Sprite,Foreground,Centre,"sb\d.png",0,0 M,7,12677,13477,123,167,180,169 S,7,12677,13477,0.253374,0 P,0,12677,13477,A F,0,29221,,1,0
Sprite,Foreground,Centre,"sb\d.png",0,0 M,7,12677,13477,123,167,93,265 S,7,12677,13477,0.253374,0 P,0,12677,13477,A F,0,29221,,1,0
Sprite,Foreground,Centre,"sb\d.png",0,0 M,7,12824,13624,73,273,111,197 S,7,12824,13624,0.2566886,0 P,0,12824,13624,A F,0,29221,,1,0
Sprite,Foreground,Centre,"sb\d.png",0,0 M,7,12824,13624,73,273,11,272 S,7,12824,13624,0.2566886,0 P,0,12824,13624,A F,0,29221,,1,0
Sprite,Foreground,Centre,"sb\d.png",0,0 M,7,12824,13624,73,273,89,225 S,7,12824,13624,0.2566886,0 P,0,12824,13624,A F,0,29221,,1,0
Sprite,Foreground,Centre,"sb\d.png",0,0 M,7,12824,13624,73,273,35,221 S,7,12824,13624,0.2566886,0 P,0,12824,13624,A F,0,29221,,1,0
Sprite,Foreground,Centre,"sb\d.png",0,0 M,7,12824,13624,73,273,129,199 S,7,12824,13624,0.2566886,0 P,0,12824,13624,A F,0,29221,,1,0
Sprite,Foreground,Centre,"sb\d.png",0,0 M,7,12824,13624,73,273,95,284 S,7,12824,13624,0.2566886,0 P,0,12824,13624,A F,0,29221,,1,0
Sprite,Foreground,Centre,"sb\d.png",0,0 M,7,12824,13624,73,273,104,241 S,7,12824,13624,0.2566886,0 P,0,12824,13624,A F,0,29221,,1,0
Sprite,Foreground,Centre,"sb\d.png",0,0 M,7,12824,13624,73,273,-23,192 S,7,12824,13624,0.2566886,0 P,0,12824,13624,A F,0,29221,,1,0
Sprite,Foreground,Centre,"sb\d.png",0,0 M,7,12824,13624,73,273,148,315 S,7,12824,13624,0.2566886,0 P,0,12824,13624,A F,0,29221,,1,0
Sprite,Foreground,Centre,"sb\d.png",0,0 M,7,12824,13624,73,273,151,303 S,7,12824,13624,0.2566886,0 P,0,12824,13624,A F,0,29221,,1,0
Sprite,Foreground,Centre,"sb\d.png",0,0 M,7,13118,13918,271,418,223,412 S,7,13118,13918,0.3010615,0 P,0,13118,13918,A F,0,29221,,1,0
Sprite,Foreground,Centre,"sb\d.png",0,0 M,7,13118,13918,271,418,210,495 S,7,13118,13918,0.3010615,0 P,0,13118,13918,A F,0,29221,,1,0
Sprite,Foreground,Centre,"sb\d.png",0,0 M,7,13118,13918,271,418,269,445 S,7,13118,13918,0.3010615,0 P,0,13118,13918,A F,0,29221,,1,0
Sprite,Foreground,Centre,"sb\d.png",0,0 M,7,13118,13918,271,418,234,391 S,7,13118,13918,0.3010615,0 P,0,13118,13918,A F,0,29221,,1,0
Sprite,Foreground,Centre,"sb\d.png",0,0 M,7,13118,13918,271,418,219,517 S,7,13118,13918,0.3010615,0 P,0,13118,13918,A F,0,29221,,1,0
Sprite,Foreground,Centre,"sb\d.png",0,0 M,7,13118,13918,271,418,293,318 S,7,13118,13918,0.3010615,0 P,0,13118,13918,A F,0,29221,,1,0
Sprite,Foreground,Centre,"sb\d.png",0,0 M,7,13118,13918,271,418,367,510 S,7,13118,13918,0.3010615,0 P,0,13118,13918,A F,0,29221,,1,0
Sprite,Foreground,Centre,"sb\d.png",0,0 M,7,13118,13918,271,418,202,472 S,7,13118,13918,0.3010615,0 P,0,13118,13918,A F,0,29221,,1,0
Sprite,Foreground,Centre,"sb\d.png",0,0 M,7,13118,13918,271,418,189,356 S,7,13118,13918,0.3010615,0 P,0,13118,13918,A F,0,29221,,1,0
Sprite,Foreground,Centre,"sb\d.png",0,0 M,7,13118,13918,271,418,183,340 S,7,13118,13918,0.3010615,0 P,0,13118,13918,A F,0,29221,,1,0
Sprite,Foreground,Centre,"sb\d.png",0,0 M,7,13560,14360,293,287,213,354 S,7,13560,14360,0.3965594,0 P,0,13560,14360,A F,0,29221,,1,0
Sprite,Foreground,Centre,"sb\d.png",0,0 M,7,13560,14360,293,287,321,301 S,7,13560,14360,0.3965594,0 P,0,13560,14360,A F,0,29221,,1,0
Sprite,Foreground,Centre,"sb\d.png",0,0 M,7,13560,14360,293,287,241,354 S,7,13560,14360,0.3965594,0 P,0,13560,14360,A F,0,29221,,1,0
Sprite,Foreground,Centre,"sb\d.png",0,0 M,7,13560,14360,293,287,364,276 S,7,13560,14360,0.3965594,0 P,0,13560,14360,A F,0,29221,,1,0
Sprite,Foreground,Centre,"sb\d.png",0,0 M,7,13560,14360,293,287,374,347 S,7,13560,14360,0.3965594,0 P,0,13560,14360,A F,0,29221,,1,0
Sprite,Foreground,Centre,"sb\d.png",0,0 M,7,13560,14360,293,287,285,255 S,7,13560,14360,0.3965594,0 P,0,13560,14360,A F,0,29221,,1,0
Sprite,Foreground,Centre,"sb\d.png",0,0 M,7,13560,14360,293,287,348,272 S,7,13560,14360,0.3965594,0 P,0,13560,14360,A F,0,29221,,1,0
Sprite,Foreground,Centre,"sb\d.png",0,0 M,7,13560,14360,293,287,322,386 S,7,13560,14360,0.3965594,0 P,0,13560,14360,A F,0,29221,,1,0
Sprite,Foreground,Centre,"sb\d.png",0,0 M,7,13560,14360,293,287,314,204 S,7,13560,14360,0.3965594,0 P,0,13560,14360,A F,0,29221,,1,0
Sprite,Foreground,Centre,"sb\d.png",0,0 M,7,13560,14360,293,287,317,385 S,7,13560,14360,0.3965594,0 P,0,13560,14360,A F,0,29221,,1,0
Sprite,Foreground,Centre,"sb\d.png",0,0 M,7,13707,14507,398,405,405,332 S,7,13707,14507,0.4246328,0 P,0,13707,14507,A F,0,29221,,1,0
Sprite,Foreground,Centre,"sb\d.png",0,0 M,7,13707,14507,398,405,298,416 S,7,13707,14507,0.4246328,0 P,0,13707,14507,A F,0,29221,,1,0
Sprite,Foreground,Centre,"sb\d.png",0,0 M,7,13707,14507,398,405,432,380 S,7,13707,14507,0.4246328,0 P,0,13707,14507,A F,0,29221,,1,0
Sprite,Foreground,Centre,"sb\d.png",0,0 M,7,13707,14507,398,405,471,370 S,7,13707,14507,0.4246328,0 P,0,13707,14507,A F,0,29221,,1,0
Sprite,Foreground,Centre,"sb\d.png",0,0 M,7,13707,14507,398,405,455,408 S,7,13707,14507,0.4246328,0 P,0,13707,14507,A F,0,29221,,1,0
Sprite,Foreground,Centre,"sb\d.png",0,0 M,7,13707,14507,398,405,463,413 S,7,13707,14507,0.4246328,0 P,0,13707,14507,A F,0,29221,,1,0
Sprite,Foreground,Centre,"sb\d.png",0,0 M,7,13707,14507,398,405,402,337 S,7,13707,14507,0.4246328,0 P,0,13707,14507,A F,0,29221,,1,0
Sprite,Foreground,Centre,"sb\d.png",0,0 M,7,13707,14507,398,405,424,415 S,7,13707,14507,0.4246328,0 P,0,13707,14507,A F,0,29221,,1,0
Sprite,Foreground,Centre,"sb\d.png",0,0 M,7,13707,14507,398,405,360,354 S,7,13707,14507,0.4246328,0 P,0,13707,14507,A F,0,29221,,1,0
Sprite,Foreground,Centre,"sb\d.png",0,0 M,7,13707,14507,398,405,458,397 S,7,13707,14507,0.4246328,0 P,0,13707,14507,A F,0,29221,,1,0
Sprite,Foreground,Centre,"sb\d.png",0,0 M,7,14001,14801,541,304,508,242 S,7,14001,14801,0.4343202,0 P,0,14001,14801,A F,0,29221,,1,0
Sprite,Foreground,Centre,"sb\d.png",0,0 M,7,14001,14801,541,304,471,336 S,7,14001,14801,0.4343202,0 P,0,14001,14801,A F,0,29221,,1,0
Sprite,Foreground,Centre,"sb\d.png",0,0 M,7,14001,14801,541,304,482,310 S,7,14001,14801,0.4343202,0 P,0,14001,14801,A F,0,29221,,1,0
Sprite,Foreground,Centre,"sb\d.png",0,0 M,7,14001,14801,541,304,542,358 S,7,14001,14801,0.4343202,0 P,0,14001,14801,A F,0,29221,,1,0
Sprite,Foreground,Centre,"sb\d.png",0,0 M,7,14001,14801,541,304,537,224 S,7,14001,14801,0.4343202,0 P,0,14001,14801,A F,0,29221,,1,0
Sprite,Foreground,Centre,"sb\d.png",0,0 M,7,14001,14801,541,304,528,227 S,7,14001,14801,0.4343202,0 P,0,14001,14801,A F,0,29221,,1,0
Sprite,Foreground,Centre,"sb\d.png",0,0 M,7,14001,14801,541,304,612,316 S,7,14001,14801,0.4343202,0 P,0,14001,14801,A F,0,29221,,1,0
Sprite,Foreground,Centre,"sb\d.png",0,0 M,7,14001,14801,541,304,581,332 S,7,14001,14801,0.4343202,0 P,0,14001,14801,A F,0,29221,,1,0
Sprite,Foreground,Centre,"sb\d.png",0,0 M,7,14001,14801,541,304,444,317 S,7,14001,14801,0.4343202,0 P,0,14001,14801,A F,0,29221,,1,0
Sprite,Foreground,Centre,"sb\d.png",0,0 M,7,14001,14801,541,304,532,402 S,7,14001,14801,0.4343202,0 P,0,14001,14801,A F,0,29221,,1,0
Sprite,Foreground,Centre,"sb\d.png",0,0 M,7,14148,14948,425,240,349,196 S,7,14148,14948,0.2744685,0 P,0,14148,14948,A F,0,29221,,1,0
Sprite,Foreground,Centre,"sb\d.png",0,0 M,7,14148,14948,425,240,451,299 S,7,14148,14948,0.2744685,0 P,0,14148,14948,A F,0,29221,,1,0
Sprite,Foreground,Centre,"sb\d.png",0,0 M,7,14148,14948,425,240,376,192 S,7,14148,14948,0.2744685,0 P,0,14148,14948,A F,0,29221,,1,0
Sprite,Foreground,Centre,"sb\d.png",0,0 M,7,14148,14948,425,240,327,229 S,7,14148,14948,0.2744685,0 P,0,14148,14948,A F,0,29221,,1,0
Sprite,Foreground,Centre,"sb\d.png",0,0 M,7,14148,14948,425,240,383,307 S,7,14148,14948,0.2744685,0 P,0,14148,14948,A F,0,29221,,1,0
Sprite,Foreground,Centre,"sb\d.png",0,0 M,7,14148,14948,425,240,489,246 S,7,14148,14948,0.2744685,0 P,0,14148,14948,A F,0,29221,,1,0
Sprite,Foreground,Centre,"sb\d.png",0,0 M,7,14148,14948,425,240,515,180 S,7,14148,14948,0.2744685,0 P,0,14148,14948,A F,0,29221,,1,0
Sprite,Foreground,Centre,"sb\d.png",0,0 M,7,14148,14948,425,240,514,310 S,7,14148,14948,0.2744685,0 P,0,14148,14948,A F,0,29221,,1,0
Sprite,Foreground,Centre,"sb\d.png",0,0 M,7,14148,14948,425,240,504,233 S,7,14148,14948,0.2744685,0 P,0,14148,14948,A F,0,29221,,1,0
Sprite,Foreground,Centre,"sb\d.png",0,0 M,7,14148,14948,425,240,493,211 S,7,14148,14948,0.2744685,0 P,0,14148,14948,A F,0,29221,,1,0
Sprite,Foreground,Centre,"sb\d.png",0,0 M,7,14295,15095,514,141,474,124 S,7,14295,15095,0.3603556,0 P,0,14295,15095,A F,0,29221,,1,0
Sprite,Foreground,Centre,"sb\d.png",0,0 M,7,14295,15095,514,141,492,125 S,7,14295,15095,0.3603556,0 P,0,14295,15095,A F,0,29221,,1,0
Sprite,Foreground,Centre,"sb\d.png",0,0 M,7,14295,15095,514,141,546,161 S,7,14295,15095,0.3603556,0 P,0,14295,15095,A F,0,29221,,1,0
Sprite,Foreground,Centre,"sb\d.png",0,0 M,7,14295,15095,514,141,600,223 S,7,14295,15095,0.3603556,0 P,0,14295,15095,A F,0,29221,,1,0
Sprite,Foreground,Centre,"sb\d.png",0,0 M,7,14295,15095,514,141,473,177 S,7,14295,15095,0.3603556,0 P,0,14295,15095,A F,0,29221,,1,0
Sprite,Foreground,Centre,"sb\d.png",0,0 M,7,14295,15095,514,141,482,134 S,7,14295,15095,0.3603556,0 P,0,14295,15095,A F,0,29221,,1,0
Sprite,Foreground,Centre,"sb\d.png",0,0 M,7,14295,15095,514,141,573,84 S,7,14295,15095,0.3603556,0 P,0,14295,15095,A F,0,29221,,1,0
Sprite,Foreground,Centre,"sb\d.png",0,0 M,7,14295,15095,514,141,595,144 S,7,14295,15095,0.3603556,0 P,0,14295,15095,A F,0,29221,,1,0
Sprite,Foreground,Centre,"sb\d.png",0,0 M,7,14295,15095,514,141,586,230 S,7,14295,15095,0.3603556,0 P,0,14295,15095,A F,0,29221,,1,0
Sprite,Foreground,Centre,"sb\d.png",0,0 M,7,14295,15095,514,141,468,140 S,7,14295,15095,0.3603556,0 P,0,14295,15095,A F,0,29221,,1,0
Sprite,Foreground,Centre,"sb\d.png",0,0 M,7,14589,15389,327,120,264,72 S,7,14589,15389,0.3154958,0 P,0,14589,15389,A F,0,29221,,1,0
Sprite,Foreground,Centre,"sb\d.png",0,0 M,7,14589,15389,327,120,350,137 S,7,14589,15389,0.3154958,0 P,0,14589,15389,A F,0,29221,,1,0
Sprite,Foreground,Centre,"sb\d.png",0,0 M,7,14589,15389,327,120,408,92 S,7,14589,15389,0.3154958,0 P,0,14589,15389,A F,0,29221,,1,0
Sprite,Foreground,Centre,"sb\d.png",0,0 M,7,14589,15389,327,120,378,177 S,7,14589,15389,0.3154958,0 P,0,14589,15389,A F,0,29221,,1,0
Sprite,Foreground,Centre,"sb\d.png",0,0 M,7,14589,15389,327,120,250,40 S,7,14589,15389,0.3154958,0 P,0,14589,15389,A F,0,29221,,1,0
Sprite,Foreground,Centre,"sb\d.png",0,0 M,7,14589,15389,327,120,349,147 S,7,14589,15389,0.3154958,0 P,0,14589,15389,A F,0,29221,,1,0
Sprite,Foreground,Centre,"sb\d.png",0,0 M,7,14589,15389,327,120,341,183 S,7,14589,15389,0.3154958,0 P,0,14589,15389,A F,0,29221,,1,0
Sprite,Foreground,Centre,"sb\d.png",0,0 M,7,14589,15389,327,120,399,67 S,7,14589,15389,0.3154958,0 P,0,14589,15389,A F,0,29221,,1,0
Sprite,Foreground,Centre,"sb\d.png",0,0 M,7,14589,15389,327,120,302,138 S,7,14589,15389,0.3154958,0 P,0,14589,15389,A F,0,29221,,1,0
Sprite,Foreground,Centre,"sb\d.png",0,0 M,7,14589,15389,327,120,359,36 S,7,14589,15389,0.3154958,0 P,0,14589,15389,A F,0,29221,,1,0
Sprite,Foreground,Centre,"sb\d.png",0,0 M,7,15030,15830,436,87,535,18 S,7,15030,15830,0.3566422,0 P,0,15030,15830,A F,0,29221,,1,0
Sprite,Foreground,Centre,"sb\d.png",0,0 M,7,15030,15830,436,87,432,-1 S,7,15030,15830,0.3566422,0 P,0,15030,15830,A F,0,29221,,1,0
Sprite,Foreground,Centre,"sb\d.png",0,0 M,7,15030,15830,436,87,366,184 S,7,15030,15830,0.3566422,0 P,0,15030,15830,A F,0,29221,,1,0
Sprite,Foreground,Centre,"sb\d.png",0,0 M,7,15030,15830,436,87,343,53 S,7,15030,15830,0.3566422,0 P,0,15030,15830,A F,0,29221,,1,0
Sprite,Foreground,Centre,"sb\d.png",0,0 M,7,15030,15830,436,87,342,90 S,7,15030,15830,0.3566422,0 P,0,15030,15830,A F,0,29221,,1,0
Sprite,Foreground,Centre,"sb\d.png",0,0 M,7,15030,15830,436,87,450,158 S,7,15030,15830,0.3566422,0 P,0,15030,15830,A F,0,29221,,1,0
Sprite,Foreground,Centre,"sb\d.png",0,0 M,7,15030,15830,436,87,380,10 S,7,15030,15830,0.3566422,0 P,0,15030,15830,A F,0,29221,,1,0
Sprite,Foreground,Centre,"sb\d.png",0,0 M,7,15030,15830,436,87,367,142 S,7,15030,15830,0.3566422,0 P,0,15030,15830,A F,0,29221,,1,0
Sprite,Foreground,Centre,"sb\d.png",0,0 M,7,15030,15830,436,87,502,137 S,7,15030,15830,0.3566422,0 P,0,15030,15830,A F,0,29221,,1,0
Sprite,Foreground,Centre,"sb\d.png",0,0 M,7,15030,15830,436,87,384,22 S,7,15030,15830,0.3566422,0 P,0,15030,15830,A F,0,29221,,1,0
Sprite,Foreground,Centre,"sb\d.png",0,0 M,7,15177,15977,218,99,153,114 S,7,15177,15977,0.2747247,0 P,0,15177,15977,A F,0,29221,,1,0
Sprite,Foreground,Centre,"sb\d.png",0,0 M,7,15177,15977,218,99,263,164 S,7,15177,15977,0.2747247,0 P,0,15177,15977,A F,0,29221,,1,0
Sprite,Foreground,Centre,"sb\d.png",0,0 M,7,15177,15977,218,99,163,79 S,7,15177,15977,0.2747247,0 P,0,15177,15977,A F,0,29221,,1,0
Sprite,Foreground,Centre,"sb\d.png",0,0 M,7,15177,15977,218,99,126,55 S,7,15177,15977,0.2747247,0 P,0,15177,15977,A F,0,29221,,1,0
Sprite,Foreground,Centre,"sb\d.png",0,0 M,7,15177,15977,218,99,214,70 S,7,15177,15977,0.2747247,0 P,0,15177,15977,A F,0,29221,,1,0
Sprite,Foreground,Centre,"sb\d.png",0,0 M,7,15177,15977,218,99,239,82 S,7,15177,15977,0.2747247,0 P,0,15177,15977,A F,0,29221,,1,0
Sprite,Foreground,Centre,"sb\d.png",0,0 M,7,15177,15977,218,99,276,37 S,7,15177,15977,0.2747247,0 P,0,15177,15977,A F,0,29221,,1,0
Sprite,Foreground,Centre,"sb\d.png",0,0 M,7,15177,15977,218,99,138,25 S,7,15177,15977,0.2747247,0 P,0,15177,15977,A F,0,29221,,1,0
Sprite,Foreground,Centre,"sb\d.png",0,0 M,7,15177,15977,218,99,223,150 S,7,15177,15977,0.2747247,0 P,0,15177,15977,A F,0,29221,,1,0
Sprite,Foreground,Centre,"sb\d.png",0,0 M,7,15177,15977,218,99,192,143 S,7,15177,15977,0.2747247,0 P,0,15177,15977,A F,0,29221,,1,0
Sprite,Foreground,Centre,"sb\d.png",0,0 M,7,15471,16271,84,217,1,234 S,7,15471,16271,0.3413711,0 P,0,15471,16271,A F,0,29221,,1,0
Sprite,Foreground,Centre,"sb\d.png",0,0 M,7,15471,16271,84,217,-8,272 S,7,15471,16271,0.3413711,0 P,0,15471,16271,A F,0,29221,,1,0
Sprite,Foreground,Centre,"sb\d.png",0,0 M,7,15471,16271,84,217,53,256 S,7,15471,16271,0.3413711,0 P,0,15471,16271,A F,0,29221,,1,0
Sprite,Foreground,Centre,"sb\d.png",0,0 M,7,15471,16271,84,217,125,209 S,7,15471,16271,0.3413711,0 P,0,15471,16271,A F,0,29221,,1,0
Sprite,Foreground,Centre,"sb\d.png",0,0 M,7,15471,16271,84,217,92,284 S,7,15471,16271,0.3413711,0 P,0,15471,16271,A F,0,29221,,1,0
Sprite,Foreground,Centre,"sb\d.png",0,0 M,7,15471,16271,84,217,68,298 S,7,15471,16271,0.3413711,0 P,0,15471,16271,A F,0,29221,,1,0
Sprite,Foreground,Centre,"sb\d.png",0,0 M,7,15471,16271,84,217,65,280 S,7,15471,16271,0.3413711,0 P,0,15471,16271,A F,0,29221,,1,0
Sprite,Foreground,Centre,"sb\d.png",0,0 M,7,15471,16271,84,217,100,267 S,7,15471,16271,0.3413711,0 P,0,15471,16271,A F,0,29221,,1,0
Sprite,Foreground,Centre,"sb\d.png",0,0 M,7,15471,16271,84,217,30,301 S,7,15471,16271,0.3413711,0 P,0,15471,16271,A F,0,29221,,1,0
Sprite,Foreground,Centre,"sb\d.png",0,0 M,7,15471,16271,84,217,100,315 S,7,15471,16271,0.3413711,0 P,0,15471,16271,A F,0,29221,,1,0
Sprite,Foreground,Centre,"sb\d.png",0,0 M,7,15912,16712,175,291,184,223 S,7,15912,16712,0.2604122,0 P,0,15912,16712,A F,0,29221,,1,0
Sprite,Foreground,Centre,"sb\d.png",0,0 M,7,15912,16712,175,291,268,279 S,7,15912,16712,0.2604122,0 P,0,15912,16712,A F,0,29221,,1,0
Sprite,Foreground,Centre,"sb\d.png",0,0 M,7,15912,16712,175,291,161,375 S,7,15912,16712,0.2604122,0 P,0,15912,16712,A F,0,29221,,1,0
Sprite,Foreground,Centre,"sb\d.png",0,0 M,7,15912,16712,175,291,86,319 S,7,15912,16712,0.2604122,0 P,0,15912,16712,A F,0,29221,,1,0
Sprite,Foreground,Centre,"sb\d.png",0,0 M,7,15912,16712,175,291,136,390 S,7,15912,16712,0.2604122,0 P,0,15912,16712,A F,0,29221,,1,0
Sprite,Foreground,Centre,"sb\d.png",0,0 M,7,15912,16712,175,291,248,281 S,7,15912,16712,0.2604122,0 P,0,15912,16712,A F,0,29221,,1,0
Sprite,Foreground,Centre,"sb\d.png",0,0 M,7,15912,16712,175,291,208,209 S,7,15912,16712,0.2604122,0 P,0,15912,16712,A F,0,29221,,1,0
Sprite,Foreground,Centre,"sb\d.png",0,0 M,7,15912,16712,175,291,273,328 S,7,15912,16712,0.2604122,0 P,0,15912,16712,A F,0,29221,,1,0
Sprite,Foreground,Centre,"sb\d.png",0,0 M,7,15912,16712,175,291,85,367 S,7,15912,16712,0.2604122,0 P,0,15912,16712,A F,0,29221,,1,0
Sprite,Foreground,Centre,"sb\d.png",0,0 M,7,15912,16712,175,291,215,258 S,7,15912,16712,0.2604122,0 P,0,15912,16712,A F,0,29221,,1,0
Sprite,Foreground,Centre,"sb\d.png",0,0 M,7,16060,16860,223,397,310,400 S,7,16060,16860,0.4131823,0 P,0,16060,16860,A F,0,29221,,1,0
Sprite,Foreground,Centre,"sb\d.png",0,0 M,7,16060,16860,223,397,159,399 S,7,16060,16860,0.4131823,0 P,0,16060,16860,A F,0,29221,,1,0
Sprite,Foreground,Centre,"sb\d.png",0,0 M,7,16060,16860,223,397,199,372 S,7,16060,16860,0.4131823,0 P,0,16060,16860,A F,0,29221,,1,0
Sprite,Foreground,Centre,"sb\d.png",0,0 M,7,16060,16860,223,397,227,373 S,7,16060,16860,0.4131823,0 P,0,16060,16860,A F,0,29221,,1,0
Sprite,Foreground,Centre,"sb\d.png",0,0 M,7,16060,16860,223,397,181,463 S,7,16060,16860,0.4131823,0 P,0,16060,16860,A F,0,29221,,1,0
Sprite,Foreground,Centre,"sb\d.png",0,0 M,7,16060,16860,223,397,281,442 S,7,16060,16860,0.4131823,0 P,0,16060,16860,A F,0,29221,,1,0
Sprite,Foreground,Centre,"sb\d.png",0,0 M,7,16060,16860,223,397,203,404 S,7,16060,16860,0.4131823,0 P,0,16060,16860,A F,0,29221,,1,0
Sprite,Foreground,Centre,"sb\d.png",0,0 M,7,16060,16860,223,397,207,311 S,7,16060,16860,0.4131823,0 P,0,16060,16860,A F,0,29221,,1,0
Sprite,Foreground,Centre,"sb\d.png",0,0 M,7,16060,16860,223,397,189,480 S,7,16060,16860,0.4131823,0 P,0,16060,16860,A F,0,29221,,1,0
Sprite,Foreground,Centre,"sb\d.png",0,0 M,7,16060,16860,223,397,278,427 S,7,16060,16860,0.4131823,0 P,0,16060,16860,A F,0,29221,,1,0
Sprite,Foreground,Centre,"sb\d.png",0,0 M,7,16207,17007,323,334,270,401 S,7,16207,17007,0.4146999,0 P,0,16207,17007,A F,0,29221,,1,0
Sprite,Foreground,Centre,"sb\d.png",0,0 M,7,16207,17007,323,334,334,324 S,7,16207,17007,0.4146999,0 P,0,16207,17007,A F,0,29221,,1,0
Sprite,Foreground,Centre,"sb\d.png",0,0 M,7,16207,17007,323,334,371,378 S,7,16207,17007,0.4146999,0 P,0,16207,17007,A F,0,29221,,1,0
Sprite,Foreground,Centre,"sb\d.png",0,0 M,7,16207,17007,323,334,340,246 S,7,16207,17007,0.4146999,0 P,0,16207,17007,A F,0,29221,,1,0
Sprite,Foreground,Centre,"sb\d.png",0,0 M,7,16207,17007,323,334,259,242 S,7,16207,17007,0.4146999,0 P,0,16207,17007,A F,0,29221,,1,0
Sprite,Foreground,Centre,"sb\d.png",0,0 M,7,16207,17007,323,334,399,364 S,7,16207,17007,0.4146999,0 P,0,16207,17007,A F,0,29221,,1,0
Sprite,Foreground,Centre,"sb\d.png",0,0 M,7,16207,17007,323,334,270,355 S,7,16207,17007,0.4146999,0 P,0,16207,17007,A F,0,29221,,1,0
Sprite,Foreground,Centre,"sb\d.png",0,0 M,7,16207,17007,323,334,351,390 S,7,16207,17007,0.4146999,0 P,0,16207,17007,A F,0,29221,,1,0
Sprite,Foreground,Centre,"sb\d.png",0,0 M,7,16207,17007,323,334,409,243 S,7,16207,17007,0.4146999,0 P,0,16207,17007,A F,0,29221,,1,0
Sprite,Foreground,Centre,"sb\d.png",0,0 M,7,16207,17007,323,334,332,340 S,7,16207,17007,0.4146999,0 P,0,16207,17007,A F,0,29221,,1,0
Sprite,Foreground,Centre,"sb\d.png",0,0 M,7,16354,17154,389,440,292,373 S,7,16354,17154,0.3014354,0 P,0,16354,17154,A F,0,29221,,1,0
Sprite,Foreground,Centre,"sb\d.png",0,0 M,7,16354,17154,389,440,303,485 S,7,16354,17154,0.3014354,0 P,0,16354,17154,A F,0,29221,,1,0
Sprite,Foreground,Centre,"sb\d.png",0,0 M,7,16354,17154,389,440,341,451 S,7,16354,17154,0.3014354,0 P,0,16354,17154,A F,0,29221,,1,0
Sprite,Foreground,Centre,"sb\d.png",0,0 M,7,16354,17154,389,440,402,462 S,7,16354,17154,0.3014354,0 P,0,16354,17154,A F,0,29221,,1,0
Sprite,Foreground,Centre,"sb\d.png",0,0 M,7,16354,17154,389,440,432,533 S,7,16354,17154,0.3014354,0 P,0,16354,17154,A F,0,29221,,1,0
Sprite,Foreground,Centre,"sb\d.png",0,0 M,7,16354,17154,389,440,473,477 S,7,16354,17154,0.3014354,0 P,0,16354,17154,A F,0,29221,,1,0
Sprite,Foreground,Centre,"sb\d.png",0,0 M,7,16354,17154,389,440,487,480 S,7,16354,17154,0.3014354,0 P,0,16354,17154,A F,0,29221,,1,0
Sprite,Foreground,Centre,"sb\d.png",0,0 M,7,16354,17154,389,440,425,465 S,7,16354,17154,0.3014354,0 P,0,16354,17154,A F,0,29221,,1,0
Sprite,Foreground,Centre,"sb\d.png",0,0 M,7,16354,17154,389,440,300,468 S,7,16354,17154,0.3014354,0 P,0,16354,17154,A F,0,29221,,1,0
Sprite,Foreground,Centre,"sb\d.png",0,0 M,7,16354,17154,389,440,420,526 S,7,16354,17154,0.3014354,0 P,0,16354,17154,A F,0,29221,,1,0
Sprite,Foreground,Centre,"sb\d.png",0,0 M,7,16648,17448,576,296,497,354 S,7,16648,17448,0.3141639,0 P,0,16648,17448,A F,0,29221,,1,0
Sprite,Foreground,Centre,"sb\d.png",0,0 M,7,16648,17448,576,296,657,210 S,7,16648,17448,0.3141639,0 P,0,16648,17448,A F,0,29221,,1,0
Sprite,Foreground,Centre,"sb\d.png",0,0 M,7,16648,17448,576,296,509,381 S,7,16648,17448,0.3141639,0 P,0,16648,17448,A F,0,29221,,1,0
Sprite,Foreground,Centre,"sb\d.png",0,0 M,7,16648,17448,576,296,632,254 S,7,16648,17448,0.3141639,0 P,0,16648,17448,A F,0,29221,,1,0
Sprite,Foreground,Centre,"sb\d.png",0,0 M,7,16648,17448,576,296,556,370 S,7,16648,17448,0.3141639,0 P,0,16648,17448,A F,0,29221,,1,0
Sprite,Foreground,Centre,"sb\d.png",0,0 M,7,16648,17448,576,296,522,219 S,7,16648,17448,0.3141639,0 P,0,16648,17448,A F,0,29221,,1,0
Sprite,Foreground,Centre,"sb\d.png",0,0 M,7,16648,17448,576,296,589,239 S,7,16648,17448,0.3141639,0 P,0,16648,17448,A F,0,29221,,1,0
Sprite,Foreground,Centre,"sb\d.png",0,0 M,7,16648,17448,576,296,610,292 S,7,16648,17448,0.3141639,0 P,0,16648,17448,A F,0,29221,,1,0
Sprite,Foreground,Centre,"sb\d.png",0,0 M,7,16648,17448,576,296,621,292 S,7,16648,17448,0.3141639,0 P,0,16648,17448,A F,0,29221,,1,0
Sprite,Foreground,Centre,"sb\d.png",0,0 M,7,16648,17448,576,296,508,200 S,7,16648,17448,0.3141639,0 P,0,16648,17448,A F,0,29221,,1,0
Sprite,Foreground,Centre,"sb\d.png",0,0 M,7,17089,17889,412,148,405,62 S,7,17089,17889,0.3395926,0 P,0,17089,17889,A F,0,29221,,1,0
Sprite,Foreground,Centre,"sb\d.png",0,0 M,7,17089,17889,412,148,503,241 S,7,17089,17889,0.3395926,0 P,0,17089,17889,A F,0,29221,,1,0
Sprite,Foreground,Centre,"sb\d.png",0,0 M,7,17089,17889,412,148,360,229 S,7,17089,17889,0.3395926,0 P,0,17089,17889,A F,0,29221,,1,0
Sprite,Foreground,Centre,"sb\d.png",0,0 M,7,17089,17889,412,148,504,79 S,7,17089,17889,0.3395926,0 P,0,17089,17889,A F,0,29221,,1,0
Sprite,Foreground,Centre,"sb\d.png",0,0 M,7,17089,17889,412,148,486,128 S,7,17089,17889,0.3395926,0 P,0,17089,17889,A F,0,29221,,1,0
Sprite,Foreground,Centre,"sb\d.png",0,0 M,7,17089,17889,412,148,489,168 S,7,17089,17889,0.3395926,0 P,0,17089,17889,A F,0,29221,,1,0
Sprite,Foreground,Centre,"sb\d.png",0,0 M,7,17089,17889,412,148,499,229 S,7,17089,17889,0.3395926,0 P,0,17089,17889,A F,0,29221,,1,0
Sprite,Foreground,Centre,"sb\d.png",0,0 M,7,17089,17889,412,148,387,81 S,7,17089,17889,0.3395926,0 P,0,17089,17889,A F,0,29221,,1,0
Sprite,Foreground,Centre,"sb\d.png",0,0 M,7,17089,17889,412,148,442,66 S,7,17089,17889,0.3395926,0 P,0,17089,17889,A F,0,29221,,1,0
Sprite,Foreground,Centre,"sb\d.png",0,0 M,7,17089,17889,412,148,438,204 S,7,17089,17889,0.3395926,0 P,0,17089,17889,A F,0,29221,,1,0
Sprite,Foreground,Centre,"sb\d.png",0,0 M,7,17236,18036,319,224,281,143 S,7,17236,18036,0.314422,0 P,0,17236,18036,A F,0,29221,,1,0
Sprite,Foreground,Centre,"sb\d.png",0,0 M,7,17236,18036,319,224,357,237 S,7,17236,18036,0.314422,0 P,0,17236,18036,A F,0,29221,,1,0
Sprite,Foreground,Centre,"sb\d.png",0,0 M,7,17236,18036,319,224,304,220 S,7,17236,18036,0.314422,0 P,0,17236,18036,A F,0,29221,,1,0
Sprite,Foreground,Centre,"sb\d.png",0,0 M,7,17236,18036,319,224,220,152 S,7,17236,18036,0.314422,0 P,0,17236,18036,A F,0,29221,,1,0
Sprite,Foreground,Centre,"sb\d.png",0,0 M,7,17236,18036,319,224,285,156 S,7,17236,18036,0.314422,0 P,0,17236,18036,A F,0,29221,,1,0
Sprite,Foreground,Centre,"sb\d.png",0,0 M,7,17236,18036,319,224,317,306 S,7,17236,18036,0.314422,0 P,0,17236,18036,A F,0,29221,,1,0
Sprite,Foreground,Centre,"sb\d.png",0,0 M,7,17236,18036,319,224,393,252 S,7,17236,18036,0.314422,0 P,0,17236,18036,A F,0,29221,,1,0
Sprite,Foreground,Centre,"sb\d.png",0,0 M,7,17236,18036,319,224,362,313 S,7,17236,18036,0.314422,0 P,0,17236,18036,A F,0,29221,,1,0
Sprite,Foreground,Centre,"sb\d.png",0,0 M,7,17236,18036,319,224,240,308 S,7,17236,18036,0.314422,0 P,0,17236,18036,A F,0,29221,,1,0
Sprite,Foreground,Centre,"sb\d.png",0,0 M,7,17236,18036,319,224,223,288 S,7,17236,18036,0.314422,0 P,0,17236,18036,A F,0,29221,,1,0
Sprite,Foreground,Centre,"sb\d.png",0,0 M,7,17383,18183,271,120,276,113 S,7,17383,18183,0.2774628,0 P,0,17383,18183,A F,0,29221,,1,0
Sprite,Foreground,Centre,"sb\d.png",0,0 M,7,17383,18183,271,120,239,123 S,7,17383,18183,0.2774628,0 P,0,17383,18183,A F,0,29221,,1,0
Sprite,Foreground,Centre,"sb\d.png",0,0 M,7,17383,18183,271,120,296,82 S,7,17383,18183,0.2774628,0 P,0,17383,18183,A F,0,29221,,1,0
Sprite,Foreground,Centre,"sb\d.png",0,0 M,7,17383,18183,271,120,230,82 S,7,17383,18183,0.2774628,0 P,0,17383,18183,A F,0,29221,,1,0
Sprite,Foreground,Centre,"sb\d.png",0,0 M,7,17383,18183,271,120,185,97 S,7,17383,18183,0.2774628,0 P,0,17383,18183,A F,0,29221,,1,0
Sprite,Foreground,Centre,"sb\d.png",0,0 M,7,17383,18183,271,120,277,67 S,7,17383,18183,0.2774628,0 P,0,17383,18183,A F,0,29221,,1,0
Sprite,Foreground,Centre,"sb\d.png",0,0 M,7,17383,18183,271,120,196,50 S,7,17383,18183,0.2774628,0 P,0,17383,18183,A F,0,29221,,1,0
Sprite,Foreground,Centre,"sb\d.png",0,0 M,7,17383,18183,271,120,366,73 S,7,17383,18183,0.2774628,0 P,0,17383,18183,A F,0,29221,,1,0
Sprite,Foreground,Centre,"sb\d.png",0,0 M,7,17383,18183,271,120,251,183 S,7,17383,18183,0.2774628,0 P,0,17383,18183,A F,0,29221,,1,0
Sprite,Foreground,Centre,"sb\d.png",0,0 M,7,17383,18183,271,120,255,210 S,7,17383,18183,0.2774628,0 P,0,17383,18183,A F,0,29221,,1,0
Sprite,Foreground,Centre,"sb\d.png",0,0 M,7,17530,18330,178,199,185,147 S,7,17530,18330,0.2523468,0 P,0,17530,18330,A F,0,29221,,1,0
Sprite,Foreground,Centre,"sb\d.png",0,0 M,7,17530,18330,178,199,157,237 S,7,17530,18330,0.2523468,0 P,0,17530,18330,A F,0,29221,,1,0
Sprite,Foreground,Centre,"sb\d.png",0,0 M,7,17530,18330,178,199,90,152 S,7,17530,18330,0.2523468,0 P,0,17530,18330,A F,0,29221,,1,0
Sprite,Foreground,Centre,"sb\d.png",0,0 M,7,17530,18330,178,199,209,143 S,7,17530,18330,0.2523468,0 P,0,17530,18330,A F,0,29221,,1,0
Sprite,Foreground,Centre,"sb\d.png",0,0 M,7,17530,18330,178,199,187,132 S,7,17530,18330,0.2523468,0 P,0,17530,18330,A F,0,29221,,1,0
Sprite,Foreground,Centre,"sb\d.png",0,0 M,7,17530,18330,178,199,200,291 S,7,17530,18330,0.2523468,0 P,0,17530,18330,A F,0,29221,,1,0
Sprite,Foreground,Centre,"sb\d.png",0,0 M,7,17530,18330,178,199,114,256 S,7,17530,18330,0.2523468,0 P,0,17530,18330,A F,0,29221,,1,0
Sprite,Foreground,Centre,"sb\d.png",0,0 M,7,17530,18330,178,199,203,169 S,7,17530,18330,0.2523468,0 P,0,17530,18330,A F,0,29221,,1,0
Sprite,Foreground,Centre,"sb\d.png",0,0 M,7,17530,18330,178,199,88,258 S,7,17530,18330,0.2523468,0 P,0,17530,18330,A F,0,29221,,1,0
Sprite,Foreground,Centre,"sb\d.png",0,0 M,7,17530,18330,178,199,112,241 S,7,17530,18330,0.2523468,0 P,0,17530,18330,A F,0,29221,,1,0
Sprite,Foreground,Centre,"sb\d.png",0,0 M,7,17824,18624,64,406,16,460 S,7,17824,18624,0.4157625,0 P,0,17824,18624,A F,0,29221,,1,0
Sprite,Foreground,Centre,"sb\d.png",0,0 M,7,17824,18624,64,406,156,440 S,7,17824,18624,0.4157625,0 P,0,17824,18624,A F,0,29221,,1,0
Sprite,Foreground,Centre,"sb\d.png",0,0 M,7,17824,18624,64,406,113,404 S,7,17824,18624,0.4157625,0 P,0,17824,18624,A F,0,29221,,1,0
Sprite,Foreground,Centre,"sb\d.png",0,0 M,7,17824,18624,64,406,111,442 S,7,17824,18624,0.4157625,0 P,0,17824,18624,A F,0,29221,,1,0
Sprite,Foreground,Centre,"sb\d.png",0,0 M,7,17824,18624,64,406,104,327 S,7,17824,18624,0.4157625,0 P,0,17824,18624,A F,0,29221,,1,0
Sprite,Foreground,Centre,"sb\d.png",0,0 M,7,17824,18624,64,406,83,479 S,7,17824,18624,0.4157625,0 P,0,17824,18624,A F,0,29221,,1,0
Sprite,Foreground,Centre,"sb\d.png",0,0 M,7,17824,18624,64,406,-11,503 S,7,17824,18624,0.4157625,0 P,0,17824,18624,A F,0,29221,,1,0
Sprite,Foreground,Centre,"sb\d.png",0,0 M,7,17824,18624,64,406,8,494 S,7,17824,18624,0.4157625,0 P,0,17824,18624,A F,0,29221,,1,0
Sprite,Foreground,Centre,"sb\d.png",0,0 M,7,17824,18624,64,406,129,419 S,7,17824,18624,0.4157625,0 P,0,17824,18624,A F,0,29221,,1,0
Sprite,Foreground,Centre,"sb\d.png",0,0 M,7,17824,18624,64,406,-28,433 S,7,17824,18624,0.4157625,0 P,0,17824,18624,A F,0,29221,,1,0
Sprite,Foreground,Centre,"sb\d.png",0,0 M,7,18265,19065,70,237,75,180 S,7,18265,19065,0.2686976,0 P,0,18265,19065,A F,0,29221,,1,0
Sprite,Foreground,Centre,"sb\d.png",0,0 M,7,18265,19065,70,237,153,192 S,7,18265,19065,0.2686976,0 P,0,18265,19065,A F,0,29221,,1,0
Sprite,Foreground,Centre,"sb\d.png",0,0 M,7,18265,19065,70,237,158,209 S,7,18265,19065,0.2686976,0 P,0,18265,19065,A F,0,29221,,1,0
Sprite,Foreground,Centre,"sb\d.png",0,0 M,7,18265,19065,70,237,40,319 S,7,18265,19065,0.2686976,0 P,0,18265,19065,A F,0,29221,,1,0
Sprite,Foreground,Centre,"sb\d.png",0,0 M,7,18265,19065,70,237,40,141 S,7,18265,19065,0.2686976,0 P,0,18265,19065,A F,0,29221,,1,0
Sprite,Foreground,Centre,"sb\d.png",0,0 M,7,18265,19065,70,237,20,185 S,7,18265,19065,0.2686976,0 P,0,18265,19065,A F,0,29221,,1,0
Sprite,Foreground,Centre,"sb\d.png",0,0 M,7,18265,19065,70,237,6,192 S,7,18265,19065,0.2686976,0 P,0,18265,19065,A F,0,29221,,1,0
Sprite,Foreground,Centre,"sb\d.png",0,0 M,7,18265,19065,70,237,63,223 S,7,18265,19065,0.2686976,0 P,0,18265,19065,A F,0,29221,,1,0
Sprite,Foreground,Centre,"sb\d.png",0,0 M,7,18265,19065,70,237,-27,200 S,7,18265,19065,0.2686976,0 P,0,18265,19065,A F,0,29221,,1,0
Sprite,Foreground,Centre,"sb\d.png",0,0 M,7,18265,19065,70,237,125,321 S,7,18265,19065,0.2686976,0 P,0,18265,19065,A F,0,29221,,1,0
Sprite,Foreground,Centre,"sb\d.png",0,0 M,7,18412,19212,190,130,258,42 S,7,18412,19212,0.3579287,0 P,0,18412,19212,A F,0,29221,,1,0
Sprite,Foreground,Centre,"sb\d.png",0,0 M,7,18412,19212,190,130,93,48 S,7,18412,19212,0.3579287,0 P,0,18412,19212,A F,0,29221,,1,0
Sprite,Foreground,Centre,"sb\d.png",0,0 M,7,18412,19212,190,130,101,189 S,7,18412,19212,0.3579287,0 P,0,18412,19212,A F,0,29221,,1,0
Sprite,Foreground,Centre,"sb\d.png",0,0 M,7,18412,19212,190,130,170,111 S,7,18412,19212,0.3579287,0 P,0,18412,19212,A F,0,29221,,1,0
Sprite,Foreground,Centre,"sb\d.png",0,0 M,7,18412,19212,190,130,135,75 S,7,18412,19212,0.3579287,0 P,0,18412,19212,A F,0,29221,,1,0
Sprite,Foreground,Centre,"sb\d.png",0,0 M,7,18412,19212,190,130,115,45 S,7,18412,19212,0.3579287,0 P,0,18412,19212,A F,0,29221,,1,0
Sprite,Foreground,Centre,"sb\d.png",0,0 M,7,18412,19212,190,130,237,176 S,7,18412,19212,0.3579287,0 P,0,18412,19212,A F,0,29221,,1,0
Sprite,Foreground,Centre,"sb\d.png",0,0 M,7,18412,19212,190,130,200,39 S,7,18412,19212,0.3579287,0 P,0,18412,19212,A F,0,29221,,1,0
Sprite,Foreground,Centre,"sb\d.png",0,0 M,7,18412,19212,190,130,169,191 S,7,18412,19212,0.3579287,0 P,0,18412,19212,A F,0,29221,,1,0
Sprite,Foreground,Centre,"sb\d.png",0,0 M,7,18412,19212,190,130,115,106 S,7,18412,19212,0.3579287,0 P,0,18412,19212,A F,0,29221,,1,0
Sprite,Foreground,Centre,"sb\d.png",0,0 M,7,18707,19507,266,364,236,281 S,7,18707,19507,0.4039415,0 P,0,18707,19507,A F,0,29221,,1,0
Sprite,Foreground,Centre,"sb\d.png",0,0 M,7,18707,19507,266,364,235,389 S,7,18707,19507,0.4039415,0 P,0,18707,19507,A F,0,29221,,1,0
Sprite,Foreground,Centre,"sb\d.png",0,0 M,7,18707,19507,266,364,354,405 S,7,18707,19507,0.4039415,0 P,0,18707,19507,A F,0,29221,,1,0
Sprite,Foreground,Centre,"sb\d.png",0,0 M,7,18707,19507,266,364,317,366 S,7,18707,19507,0.4039415,0 P,0,18707,19507,A F,0,29221,,1,0
Sprite,Foreground,Centre,"sb\d.png",0,0 M,7,18707,19507,266,364,327,313 S,7,18707,19507,0.4039415,0 P,0,18707,19507,A F,0,29221,,1,0
Sprite,Foreground,Centre,"sb\d.png",0,0 M,7,18707,19507,266,364,219,406 S,7,18707,19507,0.4039415,0 P,0,18707,19507,A F,0,29221,,1,0
Sprite,Foreground,Centre,"sb\d.png",0,0 M,7,18707,19507,266,364,276,400 S,7,18707,19507,0.4039415,0 P,0,18707,19507,A F,0,29221,,1,0
Sprite,Foreground,Centre,"sb\d.png",0,0 M,7,18707,19507,266,364,197,444 S,7,18707,19507,0.4039415,0 P,0,18707,19507,A F,0,29221,,1,0
Sprite,Foreground,Centre,"sb\d.png",0,0 M,7,18707,19507,266,364,202,440 S,7,18707,19507,0.4039415,0 P,0,18707,19507,A F,0,29221,,1,0
Sprite,Foreground,Centre,"sb\d.png",0,0 M,7,18707,19507,266,364,278,453 S,7,18707,19507,0.4039415,0 P,0,18707,19507,A F,0,29221,,1,0
Sprite,Foreground,Centre,"sb\d.png",0,0 M,7,18854,19654,388,294,312,352 S,7,18854,19654,0.350412,0 P,0,18854,19654,A F,0,29221,,1,0
Sprite,Foreground,Centre,"sb\d.png",0,0 M,7,18854,19654,388,294,312,227 S,7,18854,19654,0.350412,0 P,0,18854,19654,A F,0,29221,,1,0
Sprite,Foreground,Centre,"sb\d.png",0,0 M,7,18854,19654,388,294,377,303 S,7,18854,19654,0.350412,0 P,0,18854,19654,A F,0,29221,,1,0
Sprite,Foreground,Centre,"sb\d.png",0,0 M,7,18854,19654,388,294,470,271 S,7,18854,19654,0.350412,0 P,0,18854,19654,A F,0,29221,,1,0
Sprite,Foreground,Centre,"sb\d.png",0,0 M,7,18854,19654,388,294,411,296 S,7,18854,19654,0.350412,0 P,0,18854,19654,A F,0,29221,,1,0
Sprite,Foreground,Centre,"sb\d.png",0,0 M,7,18854,19654,388,294,417,301 S,7,18854,19654,0.350412,0 P,0,18854,19654,A F,0,29221,,1,0
Sprite,Foreground,Centre,"sb\d.png",0,0 M,7,18854,19654,388,294,441,291 S,7,18854,19654,0.350412,0 P,0,18854,19654,A F,0,29221,,1,0
Sprite,Foreground,Centre,"sb\d.png",0,0 M,7,18854,19654,388,294,483,327 S,7,18854,19654,0.350412,0 P,0,18854,19654,A F,0,29221,,1,0
Sprite,Foreground,Centre,"sb\d.png",0,0 M,7,18854,19654,388,294,380,217 S,7,18854,19654,0.350412,0 P,0,18854,19654,A F,0,29221,,1,0
Sprite,Foreground,Centre,"sb\d.png",0,0 M,7,18854,19654,388,294,305,323 S,7,18854,19654,0.350412,0 P,0,18854,19654,A F,0,29221,,1,0
Sprite,Foreground,Centre,"sb\d.png",0,0 M,7,19001,19801,287,202,270,297 S,7,19001,19801,0.4297897,0 P,0,19001,19801,A F,0,29221,,1,0
Sprite,Foreground,Centre,"sb\d.png",0,0 M,7,19001,19801,287,202,359,174 S,7,19001,19801,0.4297897,0 P,0,19001,19801,A F,0,29221,,1,0
Sprite,Foreground,Centre,"sb\d.png",0,0 M,7,19001,19801,287,202,223,111 S,7,19001,19801,0.4297897,0 P,0,19001,19801,A F,0,29221,,1,0
Sprite,Foreground,Centre,"sb\d.png",0,0 M,7,19001,19801,287,202,266,130 S,7,19001,19801,0.4297897,0 P,0,19001,19801,A F,0,29221,,1,0
Sprite,Foreground,Centre,"sb\d.png",0,0 M,7,19001,19801,287,202,230,286 S,7,19001,19801,0.4297897,0 P,0,19001,19801,A F,0,29221,,1,0
Sprite,Foreground,Centre,"sb\d.png",0,0 M,7,19001,19801,287,202,299,189 S,7,19001,19801,0.4297897,0 P,0,19001,19801,A F,0,29221,,1,0
Sprite,Foreground,Centre,"sb\d.png",0,0 M,7,19001,19801,287,202,240,147 S,7,19001,19801,0.4297897,0 P,0,19001,19801,A F,0,29221,,1,0
Sprite,Foreground,Centre,"sb\d.png",0,0 M,7,19001,19801,287,202,245,147 S,7,19001,19801,0.4297897,0 P,0,19001,19801,A F,0,29221,,1,0
Sprite,Foreground,Centre,"sb\d.png",0,0 M,7,19001,19801,287,202,279,201 S,7,19001,19801,0.4297897,0 P,0,19001,19801,A F,0,29221,,1,0
Sprite,Foreground,Centre,"sb\d.png",0,0 M,7,19001,19801,287,202,219,270 S,7,19001,19801,0.4297897,0 P,0,19001,19801,A F,0,29221,,1,0
Sprite,Foreground,Centre,"sb\d.png",0,0 M,7,19295,20095,488,440,426,487 S,7,19295,20095,0.2745848,0 P,0,19295,20095,A F,0,29221,,1,0
Sprite,Foreground,Centre,"sb\d.png",0,0 M,7,19295,20095,488,440,511,374 S,7,19295,20095,0.2745848,0 P,0,19295,20095,A F,0,29221,,1,0
Sprite,Foreground,Centre,"sb\d.png",0,0 M,7,19295,20095,488,440,544,379 S,7,19295,20095,0.2745848,0 P,0,19295,20095,A F,0,29221,,1,0
Sprite,Foreground,Centre,"sb\d.png",0,0 M,7,19295,20095,488,440,424,386 S,7,19295,20095,0.2745848,0 P,0,19295,20095,A F,0,29221,,1,0
Sprite,Foreground,Centre,"sb\d.png",0,0 M,7,19295,20095,488,440,531,493 S,7,19295,20095,0.2745848,0 P,0,19295,20095,A F,0,29221,,1,0
Sprite,Foreground,Centre,"sb\d.png",0,0 M,7,19295,20095,488,440,482,400 S,7,19295,20095,0.2745848,0 P,0,19295,20095,A F,0,29221,,1,0
Sprite,Foreground,Centre,"sb\d.png",0,0 M,7,19295,20095,488,440,508,481 S,7,19295,20095,0.2745848,0 P,0,19295,20095,A F,0,29221,,1,0
Sprite,Foreground,Centre,"sb\d.png",0,0 M,7,19295,20095,488,440,550,391 S,7,19295,20095,0.2745848,0 P,0,19295,20095,A F,0,29221,,1,0
Sprite,Foreground,Centre,"sb\d.png",0,0 M,7,19295,20095,488,440,548,393 S,7,19295,20095,0.2745848,0 P,0,19295,20095,A F,0,29221,,1,0
Sprite,Foreground,Centre,"sb\d.png",0,0 M,7,19295,20095,488,440,487,443 S,7,19295,20095,0.2745848,0 P,0,19295,20095,A F,0,29221,,1,0
Sprite,Foreground,Centre,"sb\d.png",0,0 M,7,19736,20536,379,205,359,222 S,7,19736,20536,0.2991575,0 P,0,19736,20536,A F,0,29221,,1,0
Sprite,Foreground,Centre,"sb\d.png",0,0 M,7,19736,20536,379,205,296,125 S,7,19736,20536,0.2991575,0 P,0,19736,20536,A F,0,29221,,1,0
Sprite,Foreground,Centre,"sb\d.png",0,0 M,7,19736,20536,379,205,379,156 S,7,19736,20536,0.2991575,0 P,0,19736,20536,A F,0,29221,,1,0
Sprite,Foreground,Centre,"sb\d.png",0,0 M,7,19736,20536,379,205,415,193 S,7,19736,20536,0.2991575,0 P,0,19736,20536,A F,0,29221,,1,0
Sprite,Foreground,Centre,"sb\d.png",0,0 M,7,19736,20536,379,205,279,229 S,7,19736,20536,0.2991575,0 P,0,19736,20536,A F,0,29221,,1,0
Sprite,Foreground,Centre,"sb\d.png",0,0 M,7,19736,20536,379,205,464,266 S,7,19736,20536,0.2991575,0 P,0,19736,20536,A F,0,29221,,1,0
Sprite,Foreground,Centre,"sb\d.png",0,0 M,7,19736,20536,379,205,434,149 S,7,19736,20536,0.2991575,0 P,0,19736,20536,A F,0,29221,,1,0
Sprite,Foreground,Centre,"sb\d.png",0,0 M,7,19736,20536,379,205,327,153 S,7,19736,20536,0.2991575,0 P,0,19736,20536,A F,0,29221,,1,0
Sprite,Foreground,Centre,"sb\d.png",0,0 M,7,19736,20536,379,205,316,184 S,7,19736,20536,0.2991575,0 P,0,19736,20536,A F,0,29221,,1,0
Sprite,Foreground,Centre,"sb\d.png",0,0 M,7,19736,20536,379,205,449,147 S,7,19736,20536,0.2991575,0 P,0,19736,20536,A F,0,29221,,1,0
Sprite,Foreground,Centre,"sb\d.png",0,0 M,7,19883,20683,531,130,530,61 S,7,19883,20683,0.4314323,0 P,0,19883,20683,A F,0,29221,,1,0
Sprite,Foreground,Centre,"sb\d.png",0,0 M,7,19883,20683,531,130,448,56 S,7,19883,20683,0.4314323,0 P,0,19883,20683,A F,0,29221,,1,0
Sprite,Foreground,Centre,"sb\d.png",0,0 M,7,19883,20683,531,130,563,134 S,7,19883,20683,0.4314323,0 P,0,19883,20683,A F,0,29221,,1,0
Sprite,Foreground,Centre,"sb\d.png",0,0 M,7,19883,20683,531,130,527,223 S,7,19883,20683,0.4314323,0 P,0,19883,20683,A F,0,29221,,1,0
Sprite,Foreground,Centre,"sb\d.png",0,0 M,7,19883,20683,531,130,563,75 S,7,19883,20683,0.4314323,0 P,0,19883,20683,A F,0,29221,,1,0
Sprite,Foreground,Centre,"sb\d.png",0,0 M,7,19883,20683,531,130,564,94 S,7,19883,20683,0.4314323,0 P,0,19883,20683,A F,0,29221,,1,0
Sprite,Foreground,Centre,"sb\d.png",0,0 M,7,19883,20683,531,130,606,188 S,7,19883,20683,0.4314323,0 P,0,19883,20683,A F,0,29221,,1,0
Sprite,Foreground,Centre,"sb\d.png",0,0 M,7,19883,20683,531,130,461,136 S,7,19883,20683,0.4314323,0 P,0,19883,20683,A F,0,29221,,1,0
Sprite,Foreground,Centre,"sb\d.png",0,0 M,7,19883,20683,531,130,444,86 S,7,19883,20683,0.4314323,0 P,0,19883,20683,A F,0,29221,,1,0
Sprite,Foreground,Centre,"sb\d.png",0,0 M,7,19883,20683,531,130,618,130 S,7,19883,20683,0.4314323,0 P,0,19883,20683,A F,0,29221,,1,0
Sprite,Foreground,Centre,"sb\d.png",0,0 M,7,20177,20977,358,66,401,-6 S,7,20177,20977,0.408531,0 P,0,20177,20977,A F,0,29221,,1,0
Sprite,Foreground,Centre,"sb\d.png",0,0 M,7,20177,20977,358,66,367,65 S,7,20177,20977,0.408531,0 P,0,20177,20977,A F,0,29221,,1,0
Sprite,Foreground,Centre,"sb\d.png",0,0 M,7,20177,20977,358,66,423,62 S,7,20177,20977,0.408531,0 P,0,20177,20977,A F,0,29221,,1,0
Sprite,Foreground,Centre,"sb\d.png",0,0 M,7,20177,20977,358,66,372,-31 S,7,20177,20977,0.408531,0 P,0,20177,20977,A F,0,29221,,1,0
Sprite,Foreground,Centre,"sb\d.png",0,0 M,7,20177,20977,358,66,380,139 S,7,20177,20977,0.408531,0 P,0,20177,20977,A F,0,29221,,1,0
Sprite,Foreground,Centre,"sb\d.png",0,0 M,7,20177,20977,358,66,386,26 S,7,20177,20977,0.408531,0 P,0,20177,20977,A F,0,29221,,1,0
Sprite,Foreground,Centre,"sb\d.png",0,0 M,7,20177,20977,358,66,325,146 S,7,20177,20977,0.408531,0 P,0,20177,20977,A F,0,29221,,1,0
Sprite,Foreground,Centre,"sb\d.png",0,0 M,7,20177,20977,358,66,343,-34 S,7,20177,20977,0.408531,0 P,0,20177,20977,A F,0,29221,,1,0
Sprite,Foreground,Centre,"sb\d.png",0,0 M,7,20177,20977,358,66,451,133 S,7,20177,20977,0.408531,0 P,0,20177,20977,A F,0,29221,,1,0
Sprite,Foreground,Centre,"sb\d.png",0,0 M,7,20177,20977,358,66,405,5 S,7,20177,20977,0.408531,0 P,0,20177,20977,A F,0,29221,,1,0
Sprite,Foreground,Centre,"sb\d.png",0,0 M,7,20618,21418,268,143,236,121 S,7,20618,21418,0.3452249,0 P,0,20618,21418,A F,0,29221,,1,0
Sprite,Foreground,Centre,"sb\d.png",0,0 M,7,20618,21418,268,143,219,139 S,7,20618,21418,0.3452249,0 P,0,20618,21418,A F,0,29221,,1,0
Sprite,Foreground,Centre,"sb\d.png",0,0 M,7,20618,21418,268,143,347,129 S,7,20618,21418,0.3452249,0 P,0,20618,21418,A F,0,29221,,1,0
Sprite,Foreground,Centre,"sb\d.png",0,0 M,7,20618,21418,268,143,185,185 S,7,20618,21418,0.3452249,0 P,0,20618,21418,A F,0,29221,,1,0
Sprite,Foreground,Centre,"sb\d.png",0,0 M,7,20618,21418,268,143,191,66 S,7,20618,21418,0.3452249,0 P,0,20618,21418,A F,0,29221,,1,0
Sprite,Foreground,Centre,"sb\d.png",0,0 M,7,20618,21418,268,143,351,185 S,7,20618,21418,0.3452249,0 P,0,20618,21418,A F,0,29221,,1,0
Sprite,Foreground,Centre,"sb\d.png",0,0 M,7,20618,21418,268,143,190,199 S,7,20618,21418,0.3452249,0 P,0,20618,21418,A F,0,29221,,1,0
Sprite,Foreground,Centre,"sb\d.png",0,0 M,7,20618,21418,268,143,171,150 S,7,20618,21418,0.3452249,0 P,0,20618,21418,A F,0,29221,,1,0
Sprite,Foreground,Centre,"sb\d.png",0,0 M,7,20618,21418,268,143,295,210 S,7,20618,21418,0.3452249,0 P,0,20618,21418,A F,0,29221,,1,0
Sprite,Foreground,Centre,"sb\d.png",0,0 M,7,20618,21418,268,143,175,224 S,7,20618,21418,0.3452249,0 P,0,20618,21418,A F,0,29221,,1,0
Sprite,Foreground,Centre,"sb\d.png",0,0 M,7,20765,21565,221,250,130,222 S,7,20765,21565,0.4399963,0 P,0,20765,21565,A F,0,29221,,1,0
Sprite,Foreground,Centre,"sb\d.png",0,0 M,7,20765,21565,221,250,125,153 S,7,20765,21565,0.4399963,0 P,0,20765,21565,A F,0,29221,,1,0
Sprite,Foreground,Centre,"sb\d.png",0,0 M,7,20765,21565,221,250,228,327 S,7,20765,21565,0.4399963,0 P,0,20765,21565,A F,0,29221,,1,0
Sprite,Foreground,Centre,"sb\d.png",0,0 M,7,20765,21565,221,250,266,256 S,7,20765,21565,0.4399963,0 P,0,20765,21565,A F,0,29221,,1,0
Sprite,Foreground,Centre,"sb\d.png",0,0 M,7,20765,21565,221,250,141,238 S,7,20765,21565,0.4399963,0 P,0,20765,21565,A F,0,29221,,1,0
Sprite,Foreground,Centre,"sb\d.png",0,0 M,7,20765,21565,221,250,160,210 S,7,20765,21565,0.4399963,0 P,0,20765,21565,A F,0,29221,,1,0
Sprite,Foreground,Centre,"sb\d.png",0,0 M,7,20765,21565,221,250,184,225 S,7,20765,21565,0.4399963,0 P,0,20765,21565,A F,0,29221,,1,0
Sprite,Foreground,Centre,"sb\d.png",0,0 M,7,20765,21565,221,250,271,207 S,7,20765,21565,0.4399963,0 P,0,20765,21565,A F,0,29221,,1,0
Sprite,Foreground,Centre,"sb\d.png",0,0 M,7,20765,21565,221,250,123,335 S,7,20765,21565,0.4399963,0 P,0,20765,21565,A F,0,29221,,1,0
Sprite,Foreground,Centre,"sb\d.png",0,0 M,7,20765,21565,221,250,131,246 S,7,20765,21565,0.4399963,0 P,0,20765,21565,A F,0,29221,,1,0
Sprite,Foreground,Centre,"sb\d.png",0,0 M,7,20912,21712,121,187,119,237 S,7,20912,21712,0.3107208,0 P,0,20912,21712,A F,0,29221,,1,0
Sprite,Foreground,Centre,"sb\d.png",0,0 M,7,20912,21712,121,187,166,205 S,7,20912,21712,0.3107208,0 P,0,20912,21712,A F,0,29221,,1,0
Sprite,Foreground,Centre,"sb\d.png",0,0 M,7,20912,21712,121,187,65,111 S,7,20912,21712,0.3107208,0 P,0,20912,21712,A F,0,29221,,1,0
Sprite,Foreground,Centre,"sb\d.png",0,0 M,7,20912,21712,121,187,103,179 S,7,20912,21712,0.3107208,0 P,0,20912,21712,A F,0,29221,,1,0
Sprite,Foreground,Centre,"sb\d.png",0,0 M,7,20912,21712,121,187,87,87 S,7,20912,21712,0.3107208,0 P,0,20912,21712,A F,0,29221,,1,0
Sprite,Foreground,Centre,"sb\d.png",0,0 M,7,20912,21712,121,187,161,145 S,7,20912,21712,0.3107208,0 P,0,20912,21712,A F,0,29221,,1,0
Sprite,Foreground,Centre,"sb\d.png",0,0 M,7,20912,21712,121,187,126,145 S,7,20912,21712,0.3107208,0 P,0,20912,21712,A F,0,29221,,1,0
Sprite,Foreground,Centre,"sb\d.png",0,0 M,7,20912,21712,121,187,27,134 S,7,20912,21712,0.3107208,0 P,0,20912,21712,A F,0,29221,,1,0
Sprite,Foreground,Centre,"sb\d.png",0,0 M,7,20912,21712,121,187,113,159 S,7,20912,21712,0.3107208,0 P,0,20912,21712,A F,0,29221,,1,0
Sprite,Foreground,Centre,"sb\d.png",0,0 M,7,20912,21712,121,187,129,159 S,7,20912,21712,0.3107208,0 P,0,20912,21712,A F,0,29221,,1,0
Sprite,Foreground,Centre,"sb\d.png",0,0 M,7,21060,21860,64,337,-33,371 S,7,21060,21860,0.2864169,0 P,0,21060,21860,A F,0,29221,,1,0
Sprite,Foreground,Centre,"sb\d.png",0,0 M,7,21060,21860,64,337,107,319 S,7,21060,21860,0.2864169,0 P,0,21060,21860,A F,0,29221,,1,0
Sprite,Foreground,Centre,"sb\d.png",0,0 M,7,21060,21860,64,337,123,317 S,7,21060,21860,0.2864169,0 P,0,21060,21860,A F,0,29221,,1,0
Sprite,Foreground,Centre,"sb\d.png",0,0 M,7,21060,21860,64,337,16,286 S,7,21060,21860,0.2864169,0 P,0,21060,21860,A F,0,29221,,1,0
Sprite,Foreground,Centre,"sb\d.png",0,0 M,7,21060,21860,64,337,88,418 S,7,21060,21860,0.2864169,0 P,0,21060,21860,A F,0,29221,,1,0
Sprite,Foreground,Centre,"sb\d.png",0,0 M,7,21060,21860,64,337,160,322 S,7,21060,21860,0.2864169,0 P,0,21060,21860,A F,0,29221,,1,0
Sprite,Foreground,Centre,"sb\d.png",0,0 M,7,21060,21860,64,337,93,348 S,7,21060,21860,0.2864169,0 P,0,21060,21860,A F,0,29221,,1,0
Sprite,Foreground,Centre,"sb\d.png",0,0 M,7,21060,21860,64,337,85,295 S,7,21060,21860,0.2864169,0 P,0,21060,21860,A F,0,29221,,1,0
Sprite,Foreground,Centre,"sb\d.png",0,0 M,7,21060,21860,64,337,49,299 S,7,21060,21860,0.2864169,0 P,0,21060,21860,A F,0,29221,,1,0
Sprite,Foreground,Centre,"sb\d.png",0,0 M,7,21060,21860,64,337,117,299 S,7,21060,21860,0.2864169,0 P,0,21060,21860,A F,0,29221,,1,0
Sprite,Foreground,Centre,"sb\d.png",0,0 M,7,21354,22154,301,440,354,428 S,7,21354,22154,0.2636937,0 P,0,21354,22154,A F,0,29221,,1,0
Sprite,Foreground,Centre,"sb\d.png",0,0 M,7,21354,22154,301,440,300,342 S,7,21354,22154,0.2636937,0 P,0,21354,22154,A F,0,29221,,1,0
Sprite,Foreground,Centre,"sb\d.png",0,0 M,7,21354,22154,301,440,359,356 S,7,21354,22154,0.2636937,0 P,0,21354,22154,A F,0,29221,,1,0
Sprite,Foreground,Centre,"sb\d.png",0,0 M,7,21354,22154,301,440,344,350 S,7,21354,22154,0.2636937,0 P,0,21354,22154,A F,0,29221,,1,0
Sprite,Foreground,Centre,"sb\d.png",0,0 M,7,21354,22154,301,440,311,453 S,7,21354,22154,0.2636937,0 P,0,21354,22154,A F,0,29221,,1,0
Sprite,Foreground,Centre,"sb\d.png",0,0 M,7,21354,22154,301,440,302,364 S,7,21354,22154,0.2636937,0 P,0,21354,22154,A F,0,29221,,1,0
Sprite,Foreground,Centre,"sb\d.png",0,0 M,7,21354,22154,301,440,225,434 S,7,21354,22154,0.2636937,0 P,0,21354,22154,A F,0,29221,,1,0
Sprite,Foreground,Centre,"sb\d.png",0,0 M,7,21354,22154,301,440,217,342 S,7,21354,22154,0.2636937,0 P,0,21354,22154,A F,0,29221,,1,0
Sprite,Foreground,Centre,"sb\d.png",0,0 M,7,21354,22154,301,440,236,425 S,7,21354,22154,0.2636937,0 P,0,21354,22154,A F,0,29221,,1,0
Sprite,Foreground,Centre,"sb\d.png",0,0 M,7,21354,22154,301,440,344,369 S,7,21354,22154,0.2636937,0 P,0,21354,22154,A F,0,29221,,1,0
Sprite,Foreground,Centre,"sb\d.png",0,0 M,7,21795,22595,342,313,383,231 S,7,21795,22595,0.2926837,0 P,0,21795,22595,A F,0,29221,,1,0
Sprite,Foreground,Centre,"sb\d.png",0,0 M,7,21795,22595,342,313,385,385 S,7,21795,22595,0.2926837,0 P,0,21795,22595,A F,0,29221,,1,0
Sprite,Foreground,Centre,"sb\d.png",0,0 M,7,21795,22595,342,313,417,360 S,7,21795,22595,0.2926837,0 P,0,21795,22595,A F,0,29221,,1,0
Sprite,Foreground,Centre,"sb\d.png",0,0 M,7,21795,22595,342,313,326,401 S,7,21795,22595,0.2926837,0 P,0,21795,22595,A F,0,29221,,1,0
Sprite,Foreground,Centre,"sb\d.png",0,0 M,7,21795,22595,342,313,248,222 S,7,21795,22595,0.2926837,0 P,0,21795,22595,A F,0,29221,,1,0
Sprite,Foreground,Centre,"sb\d.png",0,0 M,7,21795,22595,342,313,397,222 S,7,21795,22595,0.2926837,0 P,0,21795,22595,A F,0,29221,,1,0
Sprite,Foreground,Centre,"sb\d.png",0,0 M,7,21795,22595,342,313,264,263 S,7,21795,22595,0.2926837,0 P,0,21795,22595,A F,0,29221,,1,0
Sprite,Foreground,Centre,"sb\d.png",0,0 M,7,21795,22595,342,313,287,256 S,7,21795,22595,0.2926837,0 P,0,21795,22595,A F,0,29221,,1,0
Sprite,Foreground,Centre,"sb\d.png",0,0 M,7,21795,22595,342,313,322,214 S,7,21795,22595,0.2926837,0 P,0,21795,22595,A F,0,29221,,1,0
Sprite,Foreground,Centre,"sb\d.png",0,0 M,7,21795,22595,342,313,306,321 S,7,21795,22595,0.2926837,0 P,0,21795,22595,A F,0,29221,,1,0
Sprite,Foreground,Centre,"sb\d.png",0,0 M,7,21942,22742,221,250,135,218 S,7,21942,22742,0.2890063,0 P,0,21942,22742,A F,0,29221,,1,0
Sprite,Foreground,Centre,"sb\d.png",0,0 M,7,21942,22742,221,250,215,210 S,7,21942,22742,0.2890063,0 P,0,21942,22742,A F,0,29221,,1,0
Sprite,Foreground,Centre,"sb\d.png",0,0 M,7,21942,22742,221,250,225,166 S,7,21942,22742,0.2890063,0 P,0,21942,22742,A F,0,29221,,1,0
Sprite,Foreground,Centre,"sb\d.png",0,0 M,7,21942,22742,221,250,226,205 S,7,21942,22742,0.2890063,0 P,0,21942,22742,A F,0,29221,,1,0
Sprite,Foreground,Centre,"sb\d.png",0,0 M,7,21942,22742,221,250,170,327 S,7,21942,22742,0.2890063,0 P,0,21942,22742,A F,0,29221,,1,0
Sprite,Foreground,Centre,"sb\d.png",0,0 M,7,21942,22742,221,250,130,182 S,7,21942,22742,0.2890063,0 P,0,21942,22742,A F,0,29221,,1,0
Sprite,Foreground,Centre,"sb\d.png",0,0 M,7,21942,22742,221,250,292,162 S,7,21942,22742,0.2890063,0 P,0,21942,22742,A F,0,29221,,1,0
Sprite,Foreground,Centre,"sb\d.png",0,0 M,7,21942,22742,221,250,191,306 S,7,21942,22742,0.2890063,0 P,0,21942,22742,A F,0,29221,,1,0
Sprite,Foreground,Centre,"sb\d.png",0,0 M,7,21942,22742,221,250,150,332 S,7,21942,22742,0.2890063,0 P,0,21942,22742,A F,0,29221,,1,0
Sprite,Foreground,Centre,"sb\d.png",0,0 M,7,21942,22742,221,250,190,208 S,7,21942,22742,0.2890063,0 P,0,21942,22742,A F,0,29221,,1,0
Sprite,Foreground,Centre,"sb\d.png",0,0 M,7,22089,22889,340,175,343,179 S,7,22089,22889,0.2723029,0 P,0,22089,22889,A F,0,29221,,1,0
Sprite,Foreground,Centre,"sb\d.png",0,0 M,7,22089,22889,340,175,386,89 S,7,22089,22889,0.2723029,0 P,0,22089,22889,A F,0,29221,,1,0
Sprite,Foreground,Centre,"sb\d.png",0,0 M,7,22089,22889,340,175,241,119 S,7,22089,22889,0.2723029,0 P,0,22089,22889,A F,0,29221,,1,0
Sprite,Foreground,Centre,"sb\d.png",0,0 M,7,22089,22889,340,175,410,234 S,7,22089,22889,0.2723029,0 P,0,22089,22889,A F,0,29221,,1,0
Sprite,Foreground,Centre,"sb\d.png",0,0 M,7,22089,22889,340,175,395,158 S,7,22089,22889,0.2723029,0 P,0,22089,22889,A F,0,29221,,1,0
Sprite,Foreground,Centre,"sb\d.png",0,0 M,7,22089,22889,340,175,319,195 S,7,22089,22889,0.2723029,0 P,0,22089,22889,A F,0,29221,,1,0
Sprite,Foreground,Centre,"sb\d.png",0,0 M,7,22089,22889,340,175,243,201 S,7,22089,22889,0.2723029,0 P,0,22089,22889,A F,0,29221,,1,0
Sprite,Foreground,Centre,"sb\d.png",0,0 M,7,22089,22889,340,175,389,123 S,7,22089,22889,0.2723029,0 P,0,22089,22889,A F,0,29221,,1,0
Sprite,Foreground,Centre,"sb\d.png",0,0 M,7,22089,22889,340,175,352,145 S,7,22089,22889,0.2723029,0 P,0,22089,22889,A F,0,29221,,1,0
Sprite,Foreground,Centre,"sb\d.png",0,0 M,7,22089,22889,340,175,370,254 S,7,22089,22889,0.2723029,0 P,0,22089,22889,A F,0,29221,,1,0
Sprite,Foreground,Centre,"sb\d.png",0,0 M,7,22236,23036,216,85,273,16 S,7,22236,23036,0.3824163,0 P,0,22236,23036,A F,0,29221,,1,0
Sprite,Foreground,Centre,"sb\d.png",0,0 M,7,22236,23036,216,85,262,162 S,7,22236,23036,0.3824163,0 P,0,22236,23036,A F,0,29221,,1,0
Sprite,Foreground,Centre,"sb\d.png",0,0 M,7,22236,23036,216,85,167,22 S,7,22236,23036,0.3824163,0 P,0,22236,23036,A F,0,29221,,1,0
Sprite,Foreground,Centre,"sb\d.png",0,0 M,7,22236,23036,216,85,291,71 S,7,22236,23036,0.3824163,0 P,0,22236,23036,A F,0,29221,,1,0
Sprite,Foreground,Centre,"sb\d.png",0,0 M,7,22236,23036,216,85,167,4 S,7,22236,23036,0.3824163,0 P,0,22236,23036,A F,0,29221,,1,0
Sprite,Foreground,Centre,"sb\d.png",0,0 M,7,22236,23036,216,85,310,35 S,7,22236,23036,0.3824163,0 P,0,22236,23036,A F,0,29221,,1,0
Sprite,Foreground,Centre,"sb\d.png",0,0 M,7,22236,23036,216,85,132,96 S,7,22236,23036,0.3824163,0 P,0,22236,23036,A F,0,29221,,1,0
Sprite,Foreground,Centre,"sb\d.png",0,0 M,7,22236,23036,216,85,279,133 S,7,22236,23036,0.3824163,0 P,0,22236,23036,A F,0,29221,,1,0
Sprite,Foreground,Centre,"sb\d.png",0,0 M,7,22236,23036,216,85,161,88 S,7,22236,23036,0.3824163,0 P,0,22236,23036,A F,0,29221,,1,0
Sprite,Foreground,Centre,"sb\d.png",0,0 M,7,22236,23036,216,85,288,120 S,7,22236,23036,0.3824163,0 P,0,22236,23036,A F,0,29221,,1,0
Sprite,Foreground,Centre,"sb\d.png",0,0 M,7,22530,23330,406,252,400,245 S,7,22530,23330,0.3462926,0 P,0,22530,23330,A F,0,29221,,1,0
Sprite,Foreground,Centre,"sb\d.png",0,0 M,7,22530,23330,406,252,435,263 S,7,22530,23330,0.3462926,0 P,0,22530,23330,A F,0,29221,,1,0
Sprite,Foreground,Centre,"sb\d.png",0,0 M,7,22530,23330,406,252,473,237 S,7,22530,23330,0.3462926,0 P,0,22530,23330,A F,0,29221,,1,0
Sprite,Foreground,Centre,"sb\d.png",0,0 M,7,22530,23330,406,252,426,260 S,7,22530,23330,0.3462926,0 P,0,22530,23330,A F,0,29221,,1,0
Sprite,Foreground,Centre,"sb\d.png",0,0 M,7,22530,23330,406,252,422,263 S,7,22530,23330,0.3462926,0 P,0,22530,23330,A F,0,29221,,1,0
Sprite,Foreground,Centre,"sb\d.png",0,0 M,7,22530,23330,406,252,445,231 S,7,22530,23330,0.3462926,0 P,0,22530,23330,A F,0,29221,,1,0
Sprite,Foreground,Centre,"sb\d.png",0,0 M,7,22530,23330,406,252,395,298 S,7,22530,23330,0.3462926,0 P,0,22530,23330,A F,0,29221,,1,0
Sprite,Foreground,Centre,"sb\d.png",0,0 M,7,22530,23330,406,252,378,152 S,7,22530,23330,0.3462926,0 P,0,22530,23330,A F,0,29221,,1,0
Sprite,Foreground,Centre,"sb\d.png",0,0 M,7,22530,23330,406,252,343,301 S,7,22530,23330,0.3462926,0 P,0,22530,23330,A F,0,29221,,1,0
Sprite,Foreground,Centre,"sb\d.png",0,0 M,7,22530,23330,406,252,312,347 S,7,22530,23330,0.3462926,0 P,0,22530,23330,A F,0,29221,,1,0
Sprite,Foreground,Centre,"sb\d.png",0,0 M,7,22971,23771,270,313,274,277 S,7,22971,23771,0.3233354,0 P,0,22971,23771,A F,0,29221,,1,0
Sprite,Foreground,Centre,"sb\d.png",0,0 M,7,22971,23771,270,313,255,283 S,7,22971,23771,0.3233354,0 P,0,22971,23771,A F,0,29221,,1,0
Sprite,Foreground,Centre,"sb\d.png",0,0 M,7,22971,23771,270,313,356,228 S,7,22971,23771,0.3233354,0 P,0,22971,23771,A F,0,29221,,1,0
Sprite,Foreground,Centre,"sb\d.png",0,0 M,7,22971,23771,270,313,356,312 S,7,22971,23771,0.3233354,0 P,0,22971,23771,A F,0,29221,,1,0
Sprite,Foreground,Centre,"sb\d.png",0,0 M,7,22971,23771,270,313,236,380 S,7,22971,23771,0.3233354,0 P,0,22971,23771,A F,0,29221,,1,0
Sprite,Foreground,Centre,"sb\d.png",0,0 M,7,22971,23771,270,313,328,257 S,7,22971,23771,0.3233354,0 P,0,22971,23771,A F,0,29221,,1,0
Sprite,Foreground,Centre,"sb\d.png",0,0 M,7,22971,23771,270,313,206,275 S,7,22971,23771,0.3233354,0 P,0,22971,23771,A F,0,29221,,1,0
Sprite,Foreground,Centre,"sb\d.png",0,0 M,7,22971,23771,270,313,307,229 S,7,22971,23771,0.3233354,0 P,0,22971,23771,A F,0,29221,,1,0
Sprite,Foreground,Centre,"sb\d.png",0,0 M,7,22971,23771,270,313,235,297 S,7,22971,23771,0.3233354,0 P,0,22971,23771,A F,0,29221,,1,0
Sprite,Foreground,Centre,"sb\d.png",0,0 M,7,22971,23771,270,313,322,267 S,7,22971,23771,0.3233354,0 P,0,22971,23771,A F,0,29221,,1,0
Sprite,Foreground,Centre,"sb\d.png",0,0 M,7,23118,23918,173,439,207,447 S,7,23118,23918,0.4278983,0 P,0,23118,23918,A F,0,29221,,1,0
Sprite,Foreground,Centre,"sb\d.png",0,0 M,7,23118,23918,173,439,128,509 S,7,23118,23918,0.4278983,0 P,0,23118,23918,A F,0,29221,,1,0
Sprite,Foreground,Centre,"sb\d.png",0,0 M,7,23118,23918,173,439,199,504 S,7,23118,23918,0.4278983,0 P,0,23118,23918,A F,0,29221,,1,0
Sprite,Foreground,Centre,"sb\d.png",0,0 M,7,23118,23918,173,439,164,487 S,7,23118,23918,0.4278983,0 P,0,23118,23918,A F,0,29221,,1,0
Sprite,Foreground,Centre,"sb\d.png",0,0 M,7,23118,23918,173,439,81,492 S,7,23118,23918,0.4278983,0 P,0,23118,23918,A F,0,29221,,1,0
Sprite,Foreground,Centre,"sb\d.png",0,0 M,7,23118,23918,173,439,238,478 S,7,23118,23918,0.4278983,0 P,0,23118,23918,A F,0,29221,,1,0
Sprite,Foreground,Centre,"sb\d.png",0,0 M,7,23118,23918,173,439,95,528 S,7,23118,23918,0.4278983,0 P,0,23118,23918,A F,0,29221,,1,0
Sprite,Foreground,Centre,"sb\d.png",0,0 M,7,23118,23918,173,439,102,383 S,7,23118,23918,0.4278983,0 P,0,23118,23918,A F,0,29221,,1,0
Sprite,Foreground,Centre,"sb\d.png",0,0 M,7,23118,23918,173,439,114,519 S,7,23118,23918,0.4278983,0 P,0,23118,23918,A F,0,29221,,1,0
Sprite,Foreground,Centre,"sb\d.png",0,0 M,7,23118,23918,173,439,142,473 S,7,23118,23918,0.4278983,0 P,0,23118,23918,A F,0,29221,,1,0
Sprite,Foreground,Centre,"sb\d.png",0,0 M,7,23412,24212,64,301,14,344 S,7,23412,24212,0.2587548,0 P,0,23412,24212,A F,0,29221,,1,0
Sprite,Foreground,Centre,"sb\d.png",0,0 M,7,23412,24212,64,301,145,236 S,7,23412,24212,0.2587548,0 P,0,23412,24212,A F,0,29221,,1,0
Sprite,Foreground,Centre,"sb\d.png",0,0 M,7,23412,24212,64,301,17,284 S,7,23412,24212,0.2587548,0 P,0,23412,24212,A F,0,29221,,1,0
Sprite,Foreground,Centre,"sb\d.png",0,0 M,7,23412,24212,64,301,99,384 S,7,23412,24212,0.2587548,0 P,0,23412,24212,A F,0,29221,,1,0
Sprite,Foreground,Centre,"sb\d.png",0,0 M,7,23412,24212,64,301,136,266 S,7,23412,24212,0.2587548,0 P,0,23412,24212,A F,0,29221,,1,0
Sprite,Foreground,Centre,"sb\d.png",0,0 M,7,23412,24212,64,301,17,341 S,7,23412,24212,0.2587548,0 P,0,23412,24212,A F,0,29221,,1,0
Sprite,Foreground,Centre,"sb\d.png",0,0 M,7,23412,24212,64,301,59,371 S,7,23412,24212,0.2587548,0 P,0,23412,24212,A F,0,29221,,1,0
Sprite,Foreground,Centre,"sb\d.png",0,0 M,7,23412,24212,64,301,120,231 S,7,23412,24212,0.2587548,0 P,0,23412,24212,A F,0,29221,,1,0
Sprite,Foreground,Centre,"sb\d.png",0,0 M,7,23412,24212,64,301,64,261 S,7,23412,24212,0.2587548,0 P,0,23412,24212,A F,0,29221,,1,0
Sprite,Foreground,Centre,"sb\d.png",0,0 M,7,23412,24212,64,301,14,295 S,7,23412,24212,0.2587548,0 P,0,23412,24212,A F,0,29221,,1,0
Sprite,Foreground,Centre,"sb\d.png",0,0 M,7,23560,24360,208,242,166,156 S,7,23560,24360,0.4015281,0 P,0,23560,24360,A F,0,29221,,1,0
Sprite,Foreground,Centre,"sb\d.png",0,0 M,7,23560,24360,208,242,300,246 S,7,23560,24360,0.4015281,0 P,0,23560,24360,A F,0,29221,,1,0
Sprite,Foreground,Centre,"sb\d.png",0,0 M,7,23560,24360,208,242,121,214 S,7,23560,24360,0.4015281,0 P,0,23560,24360,A F,0,29221,,1,0
Sprite,Foreground,Centre,"sb\d.png",0,0 M,7,23560,24360,208,242,215,313 S,7,23560,24360,0.4015281,0 P,0,23560,24360,A F,0,29221,,1,0
Sprite,Foreground,Centre,"sb\d.png",0,0 M,7,23560,24360,208,242,131,246 S,7,23560,24360,0.4015281,0 P,0,23560,24360,A F,0,29221,,1,0
Sprite,Foreground,Centre,"sb\d.png",0,0 M,7,23560,24360,208,242,191,262 S,7,23560,24360,0.4015281,0 P,0,23560,24360,A F,0,29221,,1,0
Sprite,Foreground,Centre,"sb\d.png",0,0 M,7,23560,24360,208,242,277,226 S,7,23560,24360,0.4015281,0 P,0,23560,24360,A F,0,29221,,1,0
Sprite,Foreground,Centre,"sb\d.png",0,0 M,7,23560,24360,208,242,272,215 S,7,23560,24360,0.4015281,0 P,0,23560,24360,A F,0,29221,,1,0
Sprite,Foreground,Centre,"sb\d.png",0,0 M,7,23560,24360,208,242,243,215 S,7,23560,24360,0.4015281,0 P,0,23560,24360,A F,0,29221,,1,0
Sprite,Foreground,Centre,"sb\d.png",0,0 M,7,23560,24360,208,242,189,297 S,7,23560,24360,0.4015281,0 P,0,23560,24360,A F,0,29221,,1,0
Sprite,Foreground,Centre,"sb\d.png",0,0 M,7,23707,24507,110,133,45,121 S,7,23707,24507,0.4142304,0 P,0,23707,24507,A F,0,29221,,1,0
Sprite,Foreground,Centre,"sb\d.png",0,0 M,7,23707,24507,110,133,122,232 S,7,23707,24507,0.4142304,0 P,0,23707,24507,A F,0,29221,,1,0
Sprite,Foreground,Centre,"sb\d.png",0,0 M,7,23707,24507,110,133,137,52 S,7,23707,24507,0.4142304,0 P,0,23707,24507,A F,0,29221,,1,0
Sprite,Foreground,Centre,"sb\d.png",0,0 M,7,23707,24507,110,133,83,47 S,7,23707,24507,0.4142304,0 P,0,23707,24507,A F,0,29221,,1,0
Sprite,Foreground,Centre,"sb\d.png",0,0 M,7,23707,24507,110,133,150,153 S,7,23707,24507,0.4142304,0 P,0,23707,24507,A F,0,29221,,1,0
Sprite,Foreground,Centre,"sb\d.png",0,0 M,7,23707,24507,110,133,28,72 S,7,23707,24507,0.4142304,0 P,0,23707,24507,A F,0,29221,,1,0
Sprite,Foreground,Centre,"sb\d.png",0,0 M,7,23707,24507,110,133,67,224 S,7,23707,24507,0.4142304,0 P,0,23707,24507,A F,0,29221,,1,0
Sprite,Foreground,Centre,"sb\d.png",0,0 M,7,23707,24507,110,133,139,222 S,7,23707,24507,0.4142304,0 P,0,23707,24507,A F,0,29221,,1,0
Sprite,Foreground,Centre,"sb\d.png",0,0 M,7,23707,24507,110,133,140,73 S,7,23707,24507,0.4142304,0 P,0,23707,24507,A F,0,29221,,1,0
Sprite,Foreground,Centre,"sb\d.png",0,0 M,7,23707,24507,110,133,20,60 S,7,23707,24507,0.4142304,0 P,0,23707,24507,A F,0,29221,,1,0
Sprite,Foreground,Centre,"sb\d.png",0,0 M,7,24001,24801,318,56,366,117 S,7,24001,24801,0.2619846,0 P,0,24001,24801,A F,0,29221,,1,0
Sprite,Foreground,Centre,"sb\d.png",0,0 M,7,24001,24801,318,56,388,-24 S,7,24001,24801,0.2619846,0 P,0,24001,24801,A F,0,29221,,1,0
Sprite,Foreground,Centre,"sb\d.png",0,0 M,7,24001,24801,318,56,344,41 S,7,24001,24801,0.2619846,0 P,0,24001,24801,A F,0,29221,,1,0
Sprite,Foreground,Centre,"sb\d.png",0,0 M,7,24001,24801,318,56,409,112 S,7,24001,24801,0.2619846,0 P,0,24001,24801,A F,0,29221,,1,0
Sprite,Foreground,Centre,"sb\d.png",0,0 M,7,24001,24801,318,56,383,143 S,7,24001,24801,0.2619846,0 P,0,24001,24801,A F,0,29221,,1,0
Sprite,Foreground,Centre,"sb\d.png",0,0 M,7,24001,24801,318,56,387,95 S,7,24001,24801,0.2619846,0 P,0,24001,24801,A F,0,29221,,1,0
Sprite,Foreground,Centre,"sb\d.png",0,0 M,7,24001,24801,318,56,405,-22 S,7,24001,24801,0.2619846,0 P,0,24001,24801,A F,0,29221,,1,0
Sprite,Foreground,Centre,"sb\d.png",0,0 M,7,24001,24801,318,56,344,36 S,7,24001,24801,0.2619846,0 P,0,24001,24801,A F,0,29221,,1,0
Sprite,Foreground,Centre,"sb\d.png",0,0 M,7,24001,24801,318,56,323,41 S,7,24001,24801,0.2619846,0 P,0,24001,24801,A F,0,29221,,1,0
Sprite,Foreground,Centre,"sb\d.png",0,0 M,7,24001,24801,318,56,270,-10 S,7,24001,24801,0.2619846,0 P,0,24001,24801,A F,0,29221,,1,0
Sprite,Foreground,Centre,"sb\d.png",0,0 M,7,24442,25242,445,147,428,230 S,7,24442,25242,0.4077407,0 P,0,24442,25242,A F,0,29221,,1,0
Sprite,Foreground,Centre,"sb\d.png",0,0 M,7,24442,25242,445,147,409,127 S,7,24442,25242,0.4077407,0 P,0,24442,25242,A F,0,29221,,1,0
Sprite,Foreground,Centre,"sb\d.png",0,0 M,7,24442,25242,445,147,456,139 S,7,24442,25242,0.4077407,0 P,0,24442,25242,A F,0,29221,,1,0
Sprite,Foreground,Centre,"sb\d.png",0,0 M,7,24442,25242,445,147,380,131 S,7,24442,25242,0.4077407,0 P,0,24442,25242,A F,0,29221,,1,0
Sprite,Foreground,Centre,"sb\d.png",0,0 M,7,24442,25242,445,147,349,79 S,7,24442,25242,0.4077407,0 P,0,24442,25242,A F,0,29221,,1,0
Sprite,Foreground,Centre,"sb\d.png",0,0 M,7,24442,25242,445,147,415,175 S,7,24442,25242,0.4077407,0 P,0,24442,25242,A F,0,29221,,1,0
Sprite,Foreground,Centre,"sb\d.png",0,0 M,7,24442,25242,445,147,497,134 S,7,24442,25242,0.4077407,0 P,0,24442,25242,A F,0,29221,,1,0
Sprite,Foreground,Centre,"sb\d.png",0,0 M,7,24442,25242,445,147,471,188 S,7,24442,25242,0.4077407,0 P,0,24442,25242,A F,0,29221,,1,0
Sprite,Foreground,Centre,"sb\d.png",0,0 M,7,24442,25242,445,147,523,48 S,7,24442,25242,0.4077407,0 P,0,24442,25242,A F,0,29221,,1,0
Sprite,Foreground,Centre,"sb\d.png",0,0 M,7,24442,25242,445,147,479,129 S,7,24442,25242,0.4077407,0 P,0,24442,25242,A F,0,29221,,1,0
Sprite,Foreground,Centre,"sb\d.png",0,0 M,7,24589,25389,545,302,620,335 S,7,24589,25389,0.3079728,0 P,0,24589,25389,A F,0,29221,,1,0
Sprite,Foreground,Centre,"sb\d.png",0,0 M,7,24589,25389,545,302,494,302 S,7,24589,25389,0.3079728,0 P,0,24589,25389,A F,0,29221,,1,0
Sprite,Foreground,Centre,"sb\d.png",0,0 M,7,24589,25389,545,302,514,370 S,7,24589,25389,0.3079728,0 P,0,24589,25389,A F,0,29221,,1,0
Sprite,Foreground,Centre,"sb\d.png",0,0 M,7,24589,25389,545,302,448,310 S,7,24589,25389,0.3079728,0 P,0,24589,25389,A F,0,29221,,1,0
Sprite,Foreground,Centre,"sb\d.png",0,0 M,7,24589,25389,545,302,470,356 S,7,24589,25389,0.3079728,0 P,0,24589,25389,A F,0,29221,,1,0
Sprite,Foreground,Centre,"sb\d.png",0,0 M,7,24589,25389,545,302,603,394 S,7,24589,25389,0.3079728,0 P,0,24589,25389,A F,0,29221,,1,0
Sprite,Foreground,Centre,"sb\d.png",0,0 M,7,24589,25389,545,302,499,267 S,7,24589,25389,0.3079728,0 P,0,24589,25389,A F,0,29221,,1,0
Sprite,Foreground,Centre,"sb\d.png",0,0 M,7,24589,25389,545,302,622,308 S,7,24589,25389,0.3079728,0 P,0,24589,25389,A F,0,29221,,1,0
Sprite,Foreground,Centre,"sb\d.png",0,0 M,7,24589,25389,545,302,585,216 S,7,24589,25389,0.3079728,0 P,0,24589,25389,A F,0,29221,,1,0
Sprite,Foreground,Centre,"sb\d.png",0,0 M,7,24589,25389,545,302,638,358 S,7,24589,25389,0.3079728,0 P,0,24589,25389,A F,0,29221,,1,0
Sprite,Foreground,Centre,"sb\d.png",0,0 M,7,24883,25683,297,396,357,450 S,7,24883,25683,0.3213597,0 P,0,24883,25683,A F,0,29221,,1,0
Sprite,Foreground,Centre,"sb\d.png",0,0 M,7,24883,25683,297,396,295,306 S,7,24883,25683,0.3213597,0 P,0,24883,25683,A F,0,29221,,1,0
Sprite,Foreground,Centre,"sb\d.png",0,0 M,7,24883,25683,297,396,232,431 S,7,24883,25683,0.3213597,0 P,0,24883,25683,A F,0,29221,,1,0
Sprite,Foreground,Centre,"sb\d.png",0,0 M,7,24883,25683,297,396,396,434 S,7,24883,25683,0.3213597,0 P,0,24883,25683,A F,0,29221,,1,0
Sprite,Foreground,Centre,"sb\d.png",0,0 M,7,24883,25683,297,396,323,380 S,7,24883,25683,0.3213597,0 P,0,24883,25683,A F,0,29221,,1,0
Sprite,Foreground,Centre,"sb\d.png",0,0 M,7,24883,25683,297,396,315,448 S,7,24883,25683,0.3213597,0 P,0,24883,25683,A F,0,29221,,1,0
Sprite,Foreground,Centre,"sb\d.png",0,0 M,7,24883,25683,297,396,296,403 S,7,24883,25683,0.3213597,0 P,0,24883,25683,A F,0,29221,,1,0
Sprite,Foreground,Centre,"sb\d.png",0,0 M,7,24883,25683,297,396,247,310 S,7,24883,25683,0.3213597,0 P,0,24883,25683,A F,0,29221,,1,0
Sprite,Foreground,Centre,"sb\d.png",0,0 M,7,24883,25683,297,396,376,337 S,7,24883,25683,0.3213597,0 P,0,24883,25683,A F,0,29221,,1,0
Sprite,Foreground,Centre,"sb\d.png",0,0 M,7,24883,25683,297,396,320,327 S,7,24883,25683,0.3213597,0 P,0,24883,25683,A F,0,29221,,1,0
Sprite,Foreground,Centre,"sb\d.png",0,0 M,7,25324,26124,323,235,402,212 S,7,25324,26124,0.4260408,0 P,0,25324,26124,A F,0,29221,,1,0
Sprite,Foreground,Centre,"sb\d.png",0,0 M,7,25324,26124,323,235,335,270 S,7,25324,26124,0.4260408,0 P,0,25324,26124,A F,0,29221,,1,0
Sprite,Foreground,Centre,"sb\d.png",0,0 M,7,25324,26124,323,235,321,156 S,7,25324,26124,0.4260408,0 P,0,25324,26124,A F,0,29221,,1,0
Sprite,Foreground,Centre,"sb\d.png",0,0 M,7,25324,26124,323,235,371,170 S,7,25324,26124,0.4260408,0 P,0,25324,26124,A F,0,29221,,1,0
Sprite,Foreground,Centre,"sb\d.png",0,0 M,7,25324,26124,323,235,261,321 S,7,25324,26124,0.4260408,0 P,0,25324,26124,A F,0,29221,,1,0
Sprite,Foreground,Centre,"sb\d.png",0,0 M,7,25324,26124,323,235,363,261 S,7,25324,26124,0.4260408,0 P,0,25324,26124,A F,0,29221,,1,0
Sprite,Foreground,Centre,"sb\d.png",0,0 M,7,25324,26124,323,235,409,150 S,7,25324,26124,0.4260408,0 P,0,25324,26124,A F,0,29221,,1,0
Sprite,Foreground,Centre,"sb\d.png",0,0 M,7,25324,26124,323,235,401,285 S,7,25324,26124,0.4260408,0 P,0,25324,26124,A F,0,29221,,1,0
Sprite,Foreground,Centre,"sb\d.png",0,0 M,7,25324,26124,323,235,313,169 S,7,25324,26124,0.4260408,0 P,0,25324,26124,A F,0,29221,,1,0
Sprite,Foreground,Centre,"sb\d.png",0,0 M,7,25324,26124,323,235,256,138 S,7,25324,26124,0.4260408,0 P,0,25324,26124,A F,0,29221,,1,0
Sprite,Foreground,Centre,"sb\d.png",0,0 M,7,25471,26271,230,325,228,295 S,7,25471,26271,0.4202144,0 P,0,25471,26271,A F,0,29221,,1,0
Sprite,Foreground,Centre,"sb\d.png",0,0 M,7,25471,26271,230,325,169,265 S,7,25471,26271,0.4202144,0 P,0,25471,26271,A F,0,29221,,1,0
Sprite,Foreground,Centre,"sb\d.png",0,0 M,7,25471,26271,230,325,284,383 S,7,25471,26271,0.4202144,0 P,0,25471,26271,A F,0,29221,,1,0
Sprite,Foreground,Centre,"sb\d.png",0,0 M,7,25471,26271,230,325,256,316 S,7,25471,26271,0.4202144,0 P,0,25471,26271,A F,0,29221,,1,0
Sprite,Foreground,Centre,"sb\d.png",0,0 M,7,25471,26271,230,325,290,397 S,7,25471,26271,0.4202144,0 P,0,25471,26271,A F,0,29221,,1,0
Sprite,Foreground,Centre,"sb\d.png",0,0 M,7,25471,26271,230,325,199,349 S,7,25471,26271,0.4202144,0 P,0,25471,26271,A F,0,29221,,1,0
Sprite,Foreground,Centre,"sb\d.png",0,0 M,7,25471,26271,230,325,225,406 S,7,25471,26271,0.4202144,0 P,0,25471,26271,A F,0,29221,,1,0
Sprite,Foreground,Centre,"sb\d.png",0,0 M,7,25471,26271,230,325,207,411 S,7,25471,26271,0.4202144,0 P,0,25471,26271,A F,0,29221,,1,0
Sprite,Foreground,Centre,"sb\d.png",0,0 M,7,25471,26271,230,325,204,362 S,7,25471,26271,0.4202144,0 P,0,25471,26271,A F,0,29221,,1,0
Sprite,Foreground,Centre,"sb\d.png",0,0 M,7,25471,26271,230,325,244,275 S,7,25471,26271,0.4202144,0 P,0,25471,26271,A F,0,29221,,1,0
Sprite,Foreground,Centre,"sb\d.png",0,0 M,7,25618,26418,165,214,152,211 S,7,25618,26418,0.3533439,0 P,0,25618,26418,A F,0,29221,,1,0
Sprite,Foreground,Centre,"sb\d.png",0,0 M,7,25618,26418,165,214,243,140 S,7,25618,26418,0.3533439,0 P,0,25618,26418,A F,0,29221,,1,0
Sprite,Foreground,Centre,"sb\d.png",0,0 M,7,25618,26418,165,214,178,205 S,7,25618,26418,0.3533439,0 P,0,25618,26418,A F,0,29221,,1,0
Sprite,Foreground,Centre,"sb\d.png",0,0 M,7,25618,26418,165,214,137,178 S,7,25618,26418,0.3533439,0 P,0,25618,26418,A F,0,29221,,1,0
Sprite,Foreground,Centre,"sb\d.png",0,0 M,7,25618,26418,165,214,154,121 S,7,25618,26418,0.3533439,0 P,0,25618,26418,A F,0,29221,,1,0
Sprite,Foreground,Centre,"sb\d.png",0,0 M,7,25618,26418,165,214,155,141 S,7,25618,26418,0.3533439,0 P,0,25618,26418,A F,0,29221,,1,0
Sprite,Foreground,Centre,"sb\d.png",0,0 M,7,25618,26418,165,214,70,194 S,7,25618,26418,0.3533439,0 P,0,25618,26418,A F,0,29221,,1,0
Sprite,Foreground,Centre,"sb\d.png",0,0 M,7,25618,26418,165,214,71,186 S,7,25618,26418,0.3533439,0 P,0,25618,26418,A F,0,29221,,1,0
Sprite,Foreground,Centre,"sb\d.png",0,0 M,7,25618,26418,165,214,160,257 S,7,25618,26418,0.3533439,0 P,0,25618,26418,A F,0,29221,,1,0
Sprite,Foreground,Centre,"sb\d.png",0,0 M,7,25618,26418,165,214,128,136 S,7,25618,26418,0.3533439,0 P,0,25618,26418,A F,0,29221,,1,0
Sprite,Foreground,Centre,"sb\d.png",0,0 M,7,25765,26565,76,325,54,239 S,7,25765,26565,0.3938835,0 P,0,25765,26565,A F,0,29221,,1,0
Sprite,Foreground,Centre,"sb\d.png",0,0 M,7,25765,26565,76,325,47,226 S,7,25765,26565,0.3938835,0 P,0,25765,26565,A F,0,29221,,1,0
Sprite,Foreground,Centre,"sb\d.png",0,0 M,7,25765,26565,76,325,67,259 S,7,25765,26565,0.3938835,0 P,0,25765,26565,A F,0,29221,,1,0
Sprite,Foreground,Centre,"sb\d.png",0,0 M,7,25765,26565,76,325,77,388 S,7,25765,26565,0.3938835,0 P,0,25765,26565,A F,0,29221,,1,0
Sprite,Foreground,Centre,"sb\d.png",0,0 M,7,25765,26565,76,325,-9,322 S,7,25765,26565,0.3938835,0 P,0,25765,26565,A F,0,29221,,1,0
Sprite,Foreground,Centre,"sb\d.png",0,0 M,7,25765,26565,76,325,94,378 S,7,25765,26565,0.3938835,0 P,0,25765,26565,A F,0,29221,,1,0
Sprite,Foreground,Centre,"sb\d.png",0,0 M,7,25765,26565,76,325,42,236 S,7,25765,26565,0.3938835,0 P,0,25765,26565,A F,0,29221,,1,0
Sprite,Foreground,Centre,"sb\d.png",0,0 M,7,25765,26565,76,325,148,286 S,7,25765,26565,0.3938835,0 P,0,25765,26565,A F,0,29221,,1,0
Sprite,Foreground,Centre,"sb\d.png",0,0 M,7,25765,26565,76,325,-10,266 S,7,25765,26565,0.3938835,0 P,0,25765,26565,A F,0,29221,,1,0
Sprite,Foreground,Centre,"sb\d.png",0,0 M,7,25765,26565,76,325,42,279 S,7,25765,26565,0.3938835,0 P,0,25765,26565,A F,0,29221,,1,0
Sprite,Foreground,Centre,"sb\d.png",0,0 M,7,26060,26860,190,76,160,141 S,7,26060,26860,0.2773249,0 P,0,26060,26860,A F,0,29221,,1,0
Sprite,Foreground,Centre,"sb\d.png",0,0 M,7,26060,26860,190,76,268,72 S,7,26060,26860,0.2773249,0 P,0,26060,26860,A F,0,29221,,1,0
Sprite,Foreground,Centre,"sb\d.png",0,0 M,7,26060,26860,190,76,179,76 S,7,26060,26860,0.2773249,0 P,0,26060,26860,A F,0,29221,,1,0
Sprite,Foreground,Centre,"sb\d.png",0,0 M,7,26060,26860,190,76,160,89 S,7,26060,26860,0.2773249,0 P,0,26060,26860,A F,0,29221,,1,0
Sprite,Foreground,Centre,"sb\d.png",0,0 M,7,26060,26860,190,76,269,169 S,7,26060,26860,0.2773249,0 P,0,26060,26860,A F,0,29221,,1,0
Sprite,Foreground,Centre,"sb\d.png",0,0 M,7,26060,26860,190,76,141,4 S,7,26060,26860,0.2773249,0 P,0,26060,26860,A F,0,29221,,1,0
Sprite,Foreground,Centre,"sb\d.png",0,0 M,7,26060,26860,190,76,249,-15 S,7,26060,26860,0.2773249,0 P,0,26060,26860,A F,0,29221,,1,0
Sprite,Foreground,Centre,"sb\d.png",0,0 M,7,26060,26860,190,76,173,82 S,7,26060,26860,0.2773249,0 P,0,26060,26860,A F,0,29221,,1,0
Sprite,Foreground,Centre,"sb\d.png",0,0 M,7,26060,26860,190,76,114,-3 S,7,26060,26860,0.2773249,0 P,0,26060,26860,A F,0,29221,,1,0
Sprite,Foreground,Centre,"sb\d.png",0,0 M,7,26060,26860,190,76,147,146 S,7,26060,26860,0.2773249,0 P,0,26060,26860,A F,0,29221,,1,0
Sprite,Foreground,Centre,"sb\d.png",0,0 M,7,26501,27301,283,160,256,169 S,7,26501,27301,0.3501077,0 P,0,26501,27301,A F,0,29221,,1,0
Sprite,Foreground,Centre,"sb\d.png",0,0 M,7,26501,27301,283,160,354,134 S,7,26501,27301,0.3501077,0 P,0,26501,27301,A F,0,29221,,1,0
Sprite,Foreground,Centre,"sb\d.png",0,0 M,7,26501,27301,283,160,321,129 S,7,26501,27301,0.3501077,0 P,0,26501,27301,A F,0,29221,,1,0
Sprite,Foreground,Centre,"sb\d.png",0,0 M,7,26501,27301,283,160,217,71 S,7,26501,27301,0.3501077,0 P,0,26501,27301,A F,0,29221,,1,0
Sprite,Foreground,Centre,"sb\d.png",0,0 M,7,26501,27301,283,160,263,162 S,7,26501,27301,0.3501077,0 P,0,26501,27301,A F,0,29221,,1,0
Sprite,Foreground,Centre,"sb\d.png",0,0 M,7,26501,27301,283,160,379,227 S,7,26501,27301,0.3501077,0 P,0,26501,27301,A F,0,29221,,1,0
Sprite,Foreground,Centre,"sb\d.png",0,0 M,7,26501,27301,283,160,299,67 S,7,26501,27301,0.3501077,0 P,0,26501,27301,A F,0,29221,,1,0
Sprite,Foreground,Centre,"sb\d.png",0,0 M,7,26501,27301,283,160,232,152 S,7,26501,27301,0.3501077,0 P,0,26501,27301,A F,0,29221,,1,0
Sprite,Foreground,Centre,"sb\d.png",0,0 M,7,26501,27301,283,160,288,61 S,7,26501,27301,0.3501077,0 P,0,26501,27301,A F,0,29221,,1,0
Sprite,Foreground,Centre,"sb\d.png",0,0 M,7,26501,27301,283,160,316,91 S,7,26501,27301,0.3501077,0 P,0,26501,27301,A F,0,29221,,1,0
Sprite,Foreground,Centre,"sb\d.png",0,0 M,7,26648,27448,312,277,248,281 S,7,26648,27448,0.3000997,0 P,0,26648,27448,A F,0,29221,,1,0
Sprite,Foreground,Centre,"sb\d.png",0,0 M,7,26648,27448,312,277,279,301 S,7,26648,27448,0.3000997,0 P,0,26648,27448,A F,0,29221,,1,0
Sprite,Foreground,Centre,"sb\d.png",0,0 M,7,26648,27448,312,277,319,178 S,7,26648,27448,0.3000997,0 P,0,26648,27448,A F,0,29221,,1,0
Sprite,Foreground,Centre,"sb\d.png",0,0 M,7,26648,27448,312,277,301,331 S,7,26648,27448,0.3000997,0 P,0,26648,27448,A F,0,29221,,1,0
Sprite,Foreground,Centre,"sb\d.png",0,0 M,7,26648,27448,312,277,401,196 S,7,26648,27448,0.3000997,0 P,0,26648,27448,A F,0,29221,,1,0
Sprite,Foreground,Centre,"sb\d.png",0,0 M,7,26648,27448,312,277,221,260 S,7,26648,27448,0.3000997,0 P,0,26648,27448,A F,0,29221,,1,0
Sprite,Foreground,Centre,"sb\d.png",0,0 M,7,26648,27448,312,277,339,374 S,7,26648,27448,0.3000997,0 P,0,26648,27448,A F,0,29221,,1,0
Sprite,Foreground,Centre,"sb\d.png",0,0 M,7,26648,27448,312,277,267,184 S,7,26648,27448,0.3000997,0 P,0,26648,27448,A F,0,29221,,1,0
Sprite,Foreground,Centre,"sb\d.png",0,0 M,7,26648,27448,312,277,234,327 S,7,26648,27448,0.3000997,0 P,0,26648,27448,A F,0,29221,,1,0
Sprite,Foreground,Centre,"sb\d.png",0,0 M,7,26648,27448,312,277,243,213 S,7,26648,27448,0.3000997,0 P,0,26648,27448,A F,0,29221,,1,0
Sprite,Foreground,Centre,"sb\d.png",0,0 M,7,26795,27595,419,212,417,203 S,7,26795,27595,0.3524437,0 P,0,26795,27595,A F,0,29221,,1,0
Sprite,Foreground,Centre,"sb\d.png",0,0 M,7,26795,27595,419,212,373,173 S,7,26795,27595,0.3524437,0 P,0,26795,27595,A F,0,29221,,1,0
Sprite,Foreground,Centre,"sb\d.png",0,0 M,7,26795,27595,419,212,361,114 S,7,26795,27595,0.3524437,0 P,0,26795,27595,A F,0,29221,,1,0
Sprite,Foreground,Centre,"sb\d.png",0,0 M,7,26795,27595,419,212,352,126 S,7,26795,27595,0.3524437,0 P,0,26795,27595,A F,0,29221,,1,0
Sprite,Foreground,Centre,"sb\d.png",0,0 M,7,26795,27595,419,212,438,132 S,7,26795,27595,0.3524437,0 P,0,26795,27595,A F,0,29221,,1,0
Sprite,Foreground,Centre,"sb\d.png",0,0 M,7,26795,27595,419,212,442,251 S,7,26795,27595,0.3524437,0 P,0,26795,27595,A F,0,29221,,1,0
Sprite,Foreground,Centre,"sb\d.png",0,0 M,7,26795,27595,419,212,369,149 S,7,26795,27595,0.3524437,0 P,0,26795,27595,A F,0,29221,,1,0
Sprite,Foreground,Centre,"sb\d.png",0,0 M,7,26795,27595,419,212,323,216 S,7,26795,27595,0.3524437,0 P,0,26795,27595,A F,0,29221,,1,0
Sprite,Foreground,Centre,"sb\d.png",0,0 M,7,26795,27595,419,212,468,143 S,7,26795,27595,0.3524437,0 P,0,26795,27595,A F,0,29221,,1,0
Sprite,Foreground,Centre,"sb\d.png",0,0 M,7,26795,27595,419,212,386,256 S,7,26795,27595,0.3524437,0 P,0,26795,27595,A F,0,29221,,1,0
Sprite,Foreground,Centre,"sb\d.png",0,0 M,7,26942,27742,423,343,414,325 S,7,26942,27742,0.3067908,0 P,0,26942,27742,A F,0,29221,,1,0
Sprite,Foreground,Centre,"sb\d.png",0,0 M,7,26942,27742,423,343,510,326 S,7,26942,27742,0.3067908,0 P,0,26942,27742,A F,0,29221,,1,0
Sprite,Foreground,Centre,"sb\d.png",0,0 M,7,26942,27742,423,343,512,253 S,7,26942,27742,0.3067908,0 P,0,26942,27742,A F,0,29221,,1,0
Sprite,Foreground,Centre,"sb\d.png",0,0 M,7,26942,27742,423,343,516,328 S,7,26942,27742,0.3067908,0 P,0,26942,27742,A F,0,29221,,1,0
Sprite,Foreground,Centre,"sb\d.png",0,0 M,7,26942,27742,423,343,405,294 S,7,26942,27742,0.3067908,0 P,0,26942,27742,A F,0,29221,,1,0
Sprite,Foreground,Centre,"sb\d.png",0,0 M,7,26942,27742,423,343,424,438 S,7,26942,27742,0.3067908,0 P,0,26942,27742,A F,0,29221,,1,0
Sprite,Foreground,Centre,"sb\d.png",0,0 M,7,26942,27742,423,343,470,381 S,7,26942,27742,0.3067908,0 P,0,26942,27742,A F,0,29221,,1,0
Sprite,Foreground,Centre,"sb\d.png",0,0 M,7,26942,27742,423,343,335,255 S,7,26942,27742,0.3067908,0 P,0,26942,27742,A F,0,29221,,1,0
Sprite,Foreground,Centre,"sb\d.png",0,0 M,7,26942,27742,423,343,386,307 S,7,26942,27742,0.3067908,0 P,0,26942,27742,A F,0,29221,,1,0
Sprite,Foreground,Centre,"sb\d.png",0,0 M,7,26942,27742,423,343,522,298 S,7,26942,27742,0.3067908,0 P,0,26942,27742,A F,0,29221,,1,0
Sprite,Foreground,Centre,"sb\d.png",0,0 M,7,27236,28036,576,202,546,301 S,7,27236,28036,0.3903091,0 P,0,27236,28036,A F,0,29221,,1,0
Sprite,Foreground,Centre,"sb\d.png",0,0 M,7,27236,28036,576,202,561,245 S,7,27236,28036,0.3903091,0 P,0,27236,28036,A F,0,29221,,1,0
Sprite,Foreground,Centre,"sb\d.png",0,0 M,7,27236,28036,576,202,553,261 S,7,27236,28036,0.3903091,0 P,0,27236,28036,A F,0,29221,,1,0
Sprite,Foreground,Centre,"sb\d.png",0,0 M,7,27236,28036,576,202,527,204 S,7,27236,28036,0.3903091,0 P,0,27236,28036,A F,0,29221,,1,0
Sprite,Foreground,Centre,"sb\d.png",0,0 M,7,27236,28036,576,202,548,220 S,7,27236,28036,0.3903091,0 P,0,27236,28036,A F,0,29221,,1,0
Sprite,Foreground,Centre,"sb\d.png",0,0 M,7,27236,28036,576,202,640,193 S,7,27236,28036,0.3903091,0 P,0,27236,28036,A F,0,29221,,1,0
Sprite,Foreground,Centre,"sb\d.png",0,0 M,7,27236,28036,576,202,521,109 S,7,27236,28036,0.3903091,0 P,0,27236,28036,A F,0,29221,,1,0
Sprite,Foreground,Centre,"sb\d.png",0,0 M,7,27236,28036,576,202,484,169 S,7,27236,28036,0.3903091,0 P,0,27236,28036,A F,0,29221,,1,0
Sprite,Foreground,Centre,"sb\d.png",0,0 M,7,27236,28036,576,202,653,155 S,7,27236,28036,0.3903091,0 P,0,27236,28036,A F,0,29221,,1,0
Sprite,Foreground,Centre,"sb\d.png",0,0 M,7,27236,28036,576,202,667,142 S,7,27236,28036,0.3903091,0 P,0,27236,28036,A F,0,29221,,1,0
Sprite,Foreground,Centre,"sb\d.png",0,0 M,7,27677,28477,419,212,355,280 S,7,27677,28477,0.3791319,0 P,0,27677,28477,A F,0,29221,,1,0
Sprite,Foreground,Centre,"sb\d.png",0,0 M,7,27677,28477,419,212,341,256 S,7,27677,28477,0.3791319,0 P,0,27677,28477,A F,0,29221,,1,0
Sprite,Foreground,Centre,"sb\d.png",0,0 M,7,27677,28477,419,212,421,210 S,7,27677,28477,0.3791319,0 P,0,27677,28477,A F,0,29221,,1,0
Sprite,Foreground,Centre,"sb\d.png",0,0 M,7,27677,28477,419,212,510,203 S,7,27677,28477,0.3791319,0 P,0,27677,28477,A F,0,29221,,1,0
Sprite,Foreground,Centre,"sb\d.png",0,0 M,7,27677,28477,419,212,404,279 S,7,27677,28477,0.3791319,0 P,0,27677,28477,A F,0,29221,,1,0
Sprite,Foreground,Centre,"sb\d.png",0,0 M,7,27677,28477,419,212,386,200 S,7,27677,28477,0.3791319,0 P,0,27677,28477,A F,0,29221,,1,0
Sprite,Foreground,Centre,"sb\d.png",0,0 M,7,27677,28477,419,212,435,132 S,7,27677,28477,0.3791319,0 P,0,27677,28477,A F,0,29221,,1,0
Sprite,Foreground,Centre,"sb\d.png",0,0 M,7,27677,28477,419,212,402,213 S,7,27677,28477,0.3791319,0 P,0,27677,28477,A F,0,29221,,1,0
Sprite,Foreground,Centre,"sb\d.png",0,0 M,7,27677,28477,419,212,458,224 S,7,27677,28477,0.3791319,0 P,0,27677,28477,A F,0,29221,,1,0
Sprite,Foreground,Centre,"sb\d.png",0,0 M,7,27677,28477,419,212,369,254 S,7,27677,28477,0.3791319,0 P,0,27677,28477,A F,0,29221,,1,0
Sprite,Foreground,Centre,"sb\d.png",0,0 M,7,27824,28624,354,356,263,388 S,7,27824,28624,0.4322778,0 P,0,27824,28624,A F,0,29221,,1,0
Sprite,Foreground,Centre,"sb\d.png",0,0 M,7,27824,28624,354,356,390,359 S,7,27824,28624,0.4322778,0 P,0,27824,28624,A F,0,29221,,1,0
Sprite,Foreground,Centre,"sb\d.png",0,0 M,7,27824,28624,354,356,356,387 S,7,27824,28624,0.4322778,0 P,0,27824,28624,A F,0,29221,,1,0
Sprite,Foreground,Centre,"sb\d.png",0,0 M,7,27824,28624,354,356,258,400 S,7,27824,28624,0.4322778,0 P,0,27824,28624,A F,0,29221,,1,0
Sprite,Foreground,Centre,"sb\d.png",0,0 M,7,27824,28624,354,356,340,266 S,7,27824,28624,0.4322778,0 P,0,27824,28624,A F,0,29221,,1,0
Sprite,Foreground,Centre,"sb\d.png",0,0 M,7,27824,28624,354,356,261,271 S,7,27824,28624,0.4322778,0 P,0,27824,28624,A F,0,29221,,1,0
Sprite,Foreground,Centre,"sb\d.png",0,0 M,7,27824,28624,354,356,265,289 S,7,27824,28624,0.4322778,0 P,0,27824,28624,A F,0,29221,,1,0
Sprite,Foreground,Centre,"sb\d.png",0,0 M,7,27824,28624,354,356,284,318 S,7,27824,28624,0.4322778,0 P,0,27824,28624,A F,0,29221,,1,0
Sprite,Foreground,Centre,"sb\d.png",0,0 M,7,27824,28624,354,356,453,430 S,7,27824,28624,0.4322778,0 P,0,27824,28624,A F,0,29221,,1,0
Sprite,Foreground,Centre,"sb\d.png",0,0 M,7,27824,28624,354,356,314,315 S,7,27824,28624,0.4322778,0 P,0,27824,28624,A F,0,29221,,1,0
Sprite,Foreground,Centre,"sb\d.png",0,0 M,7,28118,28918,223,144,310,195 S,7,28118,28918,0.2613185,0 P,0,28118,28918,A F,0,29221,,1,0
Sprite,Foreground,Centre,"sb\d.png",0,0 M,7,28118,28918,223,144,219,47 S,7,28118,28918,0.2613185,0 P,0,28118,28918,A F,0,29221,,1,0
Sprite,Foreground,Centre,"sb\d.png",0,0 M,7,28118,28918,223,144,252,230 S,7,28118,28918,0.2613185,0 P,0,28118,28918,A F,0,29221,,1,0
Sprite,Foreground,Centre,"sb\d.png",0,0 M,7,28118,28918,223,144,248,210 S,7,28118,28918,0.2613185,0 P,0,28118,28918,A F,0,29221,,1,0
Sprite,Foreground,Centre,"sb\d.png",0,0 M,7,28118,28918,223,144,160,185 S,7,28118,28918,0.2613185,0 P,0,28118,28918,A F,0,29221,,1,0
Sprite,Foreground,Centre,"sb\d.png",0,0 M,7,28118,28918,223,144,264,142 S,7,28118,28918,0.2613185,0 P,0,28118,28918,A F,0,29221,,1,0
Sprite,Foreground,Centre,"sb\d.png",0,0 M,7,28118,28918,223,144,269,71 S,7,28118,28918,0.2613185,0 P,0,28118,28918,A F,0,29221,,1,0
Sprite,Foreground,Centre,"sb\d.png",0,0 M,7,28118,28918,223,144,159,129 S,7,28118,28918,0.2613185,0 P,0,28118,28918,A F,0,29221,,1,0
Sprite,Foreground,Centre,"sb\d.png",0,0 M,7,28118,28918,223,144,164,44 S,7,28118,28918,0.2613185,0 P,0,28118,28918,A F,0,29221,,1,0
Sprite,Foreground,Centre,"sb\d.png",0,0 M,7,28118,28918,223,144,290,231 S,7,28118,28918,0.2613185,0 P,0,28118,28918,A F,0,29221,,1,0
Sprite,Foreground,Centre,"sb\d.png",0,0 M,7,28265,29065,191,299,290,355 S,7,28265,29065,0.3968093,0 P,0,28265,29065,A F,0,29221,,1,0
Sprite,Foreground,Centre,"sb\d.png",0,0 M,7,28265,29065,191,299,150,272 S,7,28265,29065,0.3968093,0 P,0,28265,29065,A F,0,29221,,1,0
Sprite,Foreground,Centre,"sb\d.png",0,0 M,7,28265,29065,191,299,196,386 S,7,28265,29065,0.3968093,0 P,0,28265,29065,A F,0,29221,,1,0
Sprite,Foreground,Centre,"sb\d.png",0,0 M,7,28265,29065,191,299,143,237 S,7,28265,29065,0.3968093,0 P,0,28265,29065,A F,0,29221,,1,0
Sprite,Foreground,Centre,"sb\d.png",0,0 M,7,28265,29065,191,299,231,336 S,7,28265,29065,0.3968093,0 P,0,28265,29065,A F,0,29221,,1,0
Sprite,Foreground,Centre,"sb\d.png",0,0 M,7,28265,29065,191,299,280,282 S,7,28265,29065,0.3968093,0 P,0,28265,29065,A F,0,29221,,1,0
Sprite,Foreground,Centre,"sb\d.png",0,0 M,7,28265,29065,191,299,261,221 S,7,28265,29065,0.3968093,0 P,0,28265,29065,A F,0,29221,,1,0
Sprite,Foreground,Centre,"sb\d.png",0,0 M,7,28265,29065,191,299,271,239 S,7,28265,29065,0.3968093,0 P,0,28265,29065,A F,0,29221,,1,0
Sprite,Foreground,Centre,"sb\d.png",0,0 M,7,28265,29065,191,299,190,371 S,7,28265,29065,0.3968093,0 P,0,28265,29065,A F,0,29221,,1,0
Sprite,Foreground,Centre,"sb\d.png",0,0 M,7,28265,29065,191,299,236,278 S,7,28265,29065,0.3968093,0 P,0,28265,29065,A F,0,29221,,1,0
Sprite,Foreground,Centre,"sb\d.png",0,0 M,7,28412,29212,334,265,282,234 S,7,28412,29212,0.4287953,0 P,0,28412,29212,A F,0,29221,,1,0
Sprite,Foreground,Centre,"sb\d.png",0,0 M,7,28412,29212,334,265,300,281 S,7,28412,29212,0.4287953,0 P,0,28412,29212,A F,0,29221,,1,0
Sprite,Foreground,Centre,"sb\d.png",0,0 M,7,28412,29212,334,265,298,171 S,7,28412,29212,0.4287953,0 P,0,28412,29212,A F,0,29221,,1,0
Sprite,Foreground,Centre,"sb\d.png",0,0 M,7,28412,29212,334,265,428,342 S,7,28412,29212,0.4287953,0 P,0,28412,29212,A F,0,29221,,1,0
Sprite,Foreground,Centre,"sb\d.png",0,0 M,7,28412,29212,334,265,391,339 S,7,28412,29212,0.4287953,0 P,0,28412,29212,A F,0,29221,,1,0
Sprite,Foreground,Centre,"sb\d.png",0,0 M,7,28412,29212,334,265,327,236 S,7,28412,29212,0.4287953,0 P,0,28412,29212,A F,0,29221,,1,0
Sprite,Foreground,Centre,"sb\d.png",0,0 M,7,28412,29212,334,265,298,352 S,7,28412,29212,0.4287953,0 P,0,28412,29212,A F,0,29221,,1,0
Sprite,Foreground,Centre,"sb\d.png",0,0 M,7,28412,29212,334,265,429,201 S,7,28412,29212,0.4287953,0 P,0,28412,29212,A F,0,29221,,1,0
Sprite,Foreground,Centre,"sb\d.png",0,0 M,7,28412,29212,334,265,364,188 S,7,28412,29212,0.4287953,0 P,0,28412,29212,A F,0,29221,,1,0
Sprite,Foreground,Centre,"sb\d.png",0,0 M,7,28412,29212,334,265,432,237 S,7,28412,29212,0.4287953,0 P,0,28412,29212,A F,0,29221,,1,0
Sprite,Foreground,Centre,"sb\d.png",0,0 M,7,28707,29507,124,423,121,327 S,7,28707,29507,0.377078,0 P,0,28707,29507,A F,0,29221,,1,0
Sprite,Foreground,Centre,"sb\d.png",0,0 M,7,28707,29507,124,423,175,338 S,7,28707,29507,0.377078,0 P,0,28707,29507,A F,0,29221,,1,0
Sprite,Foreground,Centre,"sb\d.png",0,0 M,7,28707,29507,124,423,199,327 S,7,28707,29507,0.377078,0 P,0,28707,29507,A F,0,29221,,1,0
Sprite,Foreground,Centre,"sb\d.png",0,0 M,7,28707,29507,124,423,80,368 S,7,28707,29507,0.377078,0 P,0,28707,29507,A F,0,29221,,1,0
Sprite,Foreground,Centre,"sb\d.png",0,0 M,7,28707,29507,124,423,166,350 S,7,28707,29507,0.377078,0 P,0,28707,29507,A F,0,29221,,1,0
Sprite,Foreground,Centre,"sb\d.png",0,0 M,7,28707,29507,124,423,46,431 S,7,28707,29507,0.377078,0 P,0,28707,29507,A F,0,29221,,1,0
Sprite,Foreground,Centre,"sb\d.png",0,0 M,7,28707,29507,124,423,192,474 S,7,28707,29507,0.377078,0 P,0,28707,29507,A F,0,29221,,1,0
Sprite,Foreground,Centre,"sb\d.png",0,0 M,7,28707,29507,124,423,110,516 S,7,28707,29507,0.377078,0 P,0,28707,29507,A F,0,29221,,1,0
Sprite,Foreground,Centre,"sb\d.png",0,0 M,7,28707,29507,124,423,180,363 S,7,28707,29507,0.377078,0 P,0,28707,29507,A F,0,29221,,1,0
Sprite,Foreground,Centre,"sb\d.png",0,0 M,7,28707,29507,124,423,205,381 S,7,28707,29507,0.377078,0 P,0,28707,29507,A F,0,29221,,1,0
Sprite,Foreground,Centre,"sb\d.png",0,0 M,7,29001,29801,124,228,207,290 S,7,29001,29801,0.3115217,0 P,0,29001,29801,A F,0,29221,,1,0
Sprite,Foreground,Centre,"sb\d.png",0,0 M,7,29001,29801,124,228,120,139 S,7,29001,29801,0.3115217,0 P,0,29001,29801,A F,0,29221,,1,0
Sprite,Foreground,Centre,"sb\d.png",0,0 M,7,29001,29801,124,228,130,162 S,7,29001,29801,0.3115217,0 P,0,29001,29801,A F,0,29221,,1,0
Sprite,Foreground,Centre,"sb\d.png",0,0 M,7,29001,29801,124,228,208,131 S,7,29001,29801,0.3115217,0 P,0,29001,29801,A F,0,29221,,1,0
Sprite,Foreground,Centre,"sb\d.png",0,0 M,7,29001,29801,124,228,192,276 S,7,29001,29801,0.3115217,0 P,0,29001,29801,A F,0,29221,,1,0
Sprite,Foreground,Centre,"sb\d.png",0,0 M,7,29001,29801,124,228,170,134 S,7,29001,29801,0.3115217,0 P,0,29001,29801,A F,0,29221,,1,0
Sprite,Foreground,Centre,"sb\d.png",0,0 M,7,29001,29801,124,228,75,279 S,7,29001,29801,0.3115217,0 P,0,29001,29801,A F,0,29221,,1,0
Sprite,Foreground,Centre,"sb\d.png",0,0 M,7,29001,29801,124,228,89,243 S,7,29001,29801,0.3115217,0 P,0,29001,29801,A F,0,29221,,1,0
Sprite,Foreground,Centre,"sb\d.png",0,0 M,7,29001,29801,124,228,125,216 S,7,29001,29801,0.3115217,0 P,0,29001,29801,A F,0,29221,,1,0
Sprite,Foreground,Centre,"sb\d.png",0,0 M,7,29001,29801,124,228,25,265 S,7,29001,29801,0.3115217,0 P,0,29001,29801,A F,0,29221,,1,0
Animation,Foreground,Centre,"sb\circleani\Ellipse.png",303,247,31,25,LoopOnce C,0,208118,,0,151,75 S,7,208118,208893,0,0.512
Animation,Foreground,Centre,"sb\circleani\Ellipse.png",557,268,31,25,LoopOnce C,0,209295,,0,151,75 S,7,209295,210070,0,0.512
Animation,Foreground,Centre,"sb\circleani\Ellipse.png",498,403,31,25,LoopOnce C,0,212824,,0,151,75 S,7,212824,213599,0,0.512
Animation,Foreground,Centre,"sb\circleani\Ellipse.png",268,134,31,25,LoopOnce C,0,214001,,0,151,75 S,7,214001,214776,0,0.512
Animation,Foreground,Centre,"sb\circleani\Ellipse.png",152,153,31,25,LoopOnce C,0,215177,,0,151,75 S,7,215177,215952,0,0.512
Animation,Foreground,Centre,"sb\circleani\Ellipse.png",275,100,31,25,LoopOnce C,0,210471,,0,151,75 S,7,210471,211246,0,0.512
Animation,Foreground,Centre,"sb\circleani\Ellipse.png",264,392,31,25,LoopOnce C,0,211648,,0,151,75 S,7,211648,212423,0,0.512
Animation,Foreground,Centre,"sb\circleani\Ellipse.png",452,179,31,25,LoopOnce C,0,216354,,0,151,75 S,7,216354,217129,0,0.512
Animation,Foreground,Centre,"sb\circleani\Ellipse.png",576,56,31,25,LoopOnce C,0,216942,,0,151,75 S,7,216942,217717,0,0.512
Animation,Foreground,Centre,"sb\circleani\Ellipse.png",387,283,31,25,LoopOnce C,0,212236,,0,151,75 S,7,212236,213011,0,0.512
Sprite,Foreground,Centre,"sb\ring.png",0,0 M,0,103412,,407,101 F,0,103412,,0 P,0,103412,,A F,7,103412,104412,1,0 S,7,103412,104412,0,1.8 M,0,104515,,320,2000
Sprite,Foreground,Centre,"sb\ring.png",0,0 M,0,103412,,509,172 F,0,103412,,0 P,0,103707,,A F,7,103707,104707,1,0 S,7,103707,104707,0,1.8 M,0,104515,,320,2000
Sprite,Foreground,Centre,"sb\ring.png",0,0 M,0,103412,,464,310 F,0,103412,,0 P,0,104001,,A F,7,104001,105001,1,0 S,7,104001,105001,0,1.8 M,0,104515,,320,2000
Sprite,Foreground,Centre,"sb\ring.png",0,0 M,0,103412,,362,381 F,0,103412,,0 P,0,104296,,A F,7,104296,105296,1,0 S,7,104296,105296,0,1.8 M,0,104515,,320,2000
Sprite,Foreground,Centre,"sb\d.png",0,0 M,7,198707,199507,190,352,253,405 S,7,198707,199507,0.3952487,0 P,0,198707,199507,A F,0,208118,,1,0
Sprite,Foreground,Centre,"sb\d.png",0,0 M,7,198707,199507,190,352,201,293 S,7,198707,199507,0.3952487,0 P,0,198707,199507,A F,0,208118,,1,0
Sprite,Foreground,Centre,"sb\d.png",0,0 M,7,198707,199507,190,352,201,433 S,7,198707,199507,0.3952487,0 P,0,198707,199507,A F,0,208118,,1,0
Sprite,Foreground,Centre,"sb\d.png",0,0 M,7,198707,199507,190,352,178,447 S,7,198707,199507,0.3952487,0 P,0,198707,199507,A F,0,208118,,1,0
Sprite,Foreground,Centre,"sb\d.png",0,0 M,7,198707,199507,190,352,144,310 S,7,198707,199507,0.3952487,0 P,0,198707,199507,A F,0,208118,,1,0
Sprite,Foreground,Centre,"sb\d.png",0,0 M,7,198707,199507,190,352,183,378 S,7,198707,199507,0.3952487,0 P,0,198707,199507,A F,0,208118,,1,0
Sprite,Foreground,Centre,"sb\d.png",0,0 M,7,198707,199507,190,352,183,448 S,7,198707,199507,0.3952487,0 P,0,198707,199507,A F,0,208118,,1,0
Sprite,Foreground,Centre,"sb\d.png",0,0 M,7,198707,199507,190,352,96,424 S,7,198707,199507,0.3952487,0 P,0,198707,199507,A F,0,208118,,1,0
Sprite,Foreground,Centre,"sb\d.png",0,0 M,7,198707,199507,190,352,289,387 S,7,198707,199507,0.3952487,0 P,0,198707,199507,A F,0,208118,,1,0
Sprite,Foreground,Centre,"sb\d.png",0,0 M,7,198707,199507,190,352,152,415 S,7,198707,199507,0.3952487,0 P,0,198707,199507,A F,0,208118,,1,0
Sprite,Foreground,Centre,"sb\d.png",0,0 M,7,199001,199801,64,426,162,332 S,7,199001,199801,0.4196104,0 P,0,199001,199801,A F,0,208118,,1,0
Sprite,Foreground,Centre,"sb\d.png",0,0 M,7,199001,199801,64,426,103,431 S,7,199001,199801,0.4196104,0 P,0,199001,199801,A F,0,208118,,1,0
Sprite,Foreground,Centre,"sb\d.png",0,0 M,7,199001,199801,64,426,150,463 S,7,199001,199801,0.4196104,0 P,0,199001,199801,A F,0,208118,,1,0
Sprite,Foreground,Centre,"sb\d.png",0,0 M,7,199001,199801,64,426,73,342 S,7,199001,199801,0.4196104,0 P,0,199001,199801,A F,0,208118,,1,0
Sprite,Foreground,Centre,"sb\d.png",0,0 M,7,199001,199801,64,426,1,416 S,7,199001,199801,0.4196104,0 P,0,199001,199801,A F,0,208118,,1,0
Sprite,Foreground,Centre,"sb\d.png",0,0 M,7,199001,199801,64,426,23,523 S,7,199001,199801,0.4196104,0 P,0,199001,199801,A F,0,208118,,1,0
Sprite,Foreground,Centre,"sb\d.png",0,0 M,7,199001,199801,64,426,92,478 S,7,199001,199801,0.4196104,0 P,0,199001,199801,A F,0,208118,,1,0
Sprite,Foreground,Centre,"sb\d.png",0,0 M,7,199001,199801,64,426,-30,402 S,7,199001,199801,0.4196104,0 P,0,199001,199801,A F,0,208118,,1,0
Sprite,Foreground,Centre,"sb\d.png",0,0 M,7,199001,199801,64,426,32,517 S,7,199001,199801,0.4196104,0 P,0,199001,199801,A F,0,208118,,1,0
Sprite,Foreground,Centre,"sb\d.png",0,0 M,7,199001,199801,64,426,65,469 S,7,199001,199801,0.4196104,0 P,0,199001,199801,A F,0,208118,,1,0
Sprite,Foreground,Centre,"sb\d.png",0,0 M,7,199442,200242,64,270,18,351 S,7,199442,200242,0.2737916,0 P,0,199442,200242,A F,0,208118,,1,0
Sprite,Foreground,Centre,"sb\d.png",0,0 M,7,199442,200242,64,270,122,237 S,7,199442,200242,0.2737916,0 P,0,199442,200242,A F,0,208118,,1,0
Sprite,Foreground,Centre,"sb\d.png",0,0 M,7,199442,200242,64,270,55,199 S,7,199442,200242,0.2737916,0 P,0,199442,200242,A F,0,208118,,1,0
Sprite,Foreground,Centre,"sb\d.png",0,0 M,7,199442,200242,64,270,8,252 S,7,199442,200242,0.2737916,0 P,0,199442,200242,A F,0,208118,,1,0
Sprite,Foreground,Centre,"sb\d.png",0,0 M,7,199442,200242,64,270,107,293 S,7,199442,200242,0.2737916,0 P,0,199442,200242,A F,0,208118,,1,0
Sprite,Foreground,Centre,"sb\d.png",0,0 M,7,199442,200242,64,270,61,208 S,7,199442,200242,0.2737916,0 P,0,199442,200242,A F,0,208118,,1,0
Sprite,Foreground,Centre,"sb\d.png",0,0 M,7,199442,200242,64,270,139,335 S,7,199442,200242,0.2737916,0 P,0,199442,200242,A F,0,208118,,1,0
Sprite,Foreground,Centre,"sb\d.png",0,0 M,7,199442,200242,64,270,111,341 S,7,199442,200242,0.2737916,0 P,0,199442,200242,A F,0,208118,,1,0
Sprite,Foreground,Centre,"sb\d.png",0,0 M,7,199442,200242,64,270,99,294 S,7,199442,200242,0.2737916,0 P,0,199442,200242,A F,0,208118,,1,0
Sprite,Foreground,Centre,"sb\d.png",0,0 M,7,199442,200242,64,270,7,349 S,7,199442,200242,0.2737916,0 P,0,199442,200242,A F,0,208118,,1,0
Sprite,Foreground,Centre,"sb\d.png",0,0 M,7,199589,200389,172,123,89,190 S,7,199589,200389,0.429288,0 P,0,199589,200389,A F,0,208118,,1,0
Sprite,Foreground,Centre,"sb\d.png",0,0 M,7,199589,200389,172,123,106,151 S,7,199589,200389,0.429288,0 P,0,199589,200389,A F,0,208118,,1,0
Sprite,Foreground,Centre,"sb\d.png",0,0 M,7,199589,200389,172,123,237,66 S,7,199589,200389,0.429288,0 P,0,199589,200389,A F,0,208118,,1,0
Sprite,Foreground,Centre,"sb\d.png",0,0 M,7,199589,200389,172,123,271,119 S,7,199589,200389,0.429288,0 P,0,199589,200389,A F,0,208118,,1,0
Sprite,Foreground,Centre,"sb\d.png",0,0 M,7,199589,200389,172,123,202,166 S,7,199589,200389,0.429288,0 P,0,199589,200389,A F,0,208118,,1,0
Sprite,Foreground,Centre,"sb\d.png",0,0 M,7,199589,200389,172,123,233,43 S,7,199589,200389,0.429288,0 P,0,199589,200389,A F,0,208118,,1,0
Sprite,Foreground,Centre,"sb\d.png",0,0 M,7,199589,200389,172,123,217,166 S,7,199589,200389,0.429288,0 P,0,199589,200389,A F,0,208118,,1,0
Sprite,Foreground,Centre,"sb\d.png",0,0 M,7,199589,200389,172,123,97,204 S,7,199589,200389,0.429288,0 P,0,199589,200389,A F,0,208118,,1,0
Sprite,Foreground,Centre,"sb\d.png",0,0 M,7,199589,200389,172,123,109,118 S,7,199589,200389,0.429288,0 P,0,199589,200389,A F,0,208118,,1,0
Sprite,Foreground,Centre,"sb\d.png",0,0 M,7,199589,200389,172,123,180,88 S,7,199589,200389,0.429288,0 P,0,199589,200389,A F,0,208118,,1,0
Sprite,Foreground,Centre,"sb\d.png",0,0 M,7,199883,200683,313,270,306,336 S,7,199883,200683,0.3842073,0 P,0,199883,200683,A F,0,208118,,1,0
Sprite,Foreground,Centre,"sb\d.png",0,0 M,7,199883,200683,313,270,374,328 S,7,199883,200683,0.3842073,0 P,0,199883,200683,A F,0,208118,,1,0
Sprite,Foreground,Centre,"sb\d.png",0,0 M,7,199883,200683,313,270,365,357 S,7,199883,200683,0.3842073,0 P,0,199883,200683,A F,0,208118,,1,0
Sprite,Foreground,Centre,"sb\d.png",0,0 M,7,199883,200683,313,270,271,274 S,7,199883,200683,0.3842073,0 P,0,199883,200683,A F,0,208118,,1,0
Sprite,Foreground,Centre,"sb\d.png",0,0 M,7,199883,200683,313,270,345,236 S,7,199883,200683,0.3842073,0 P,0,199883,200683,A F,0,208118,,1,0
Sprite,Foreground,Centre,"sb\d.png",0,0 M,7,199883,200683,313,270,270,334 S,7,199883,200683,0.3842073,0 P,0,199883,200683,A F,0,208118,,1,0
Sprite,Foreground,Centre,"sb\d.png",0,0 M,7,199883,200683,313,270,257,207 S,7,199883,200683,0.3842073,0 P,0,199883,200683,A F,0,208118,,1,0
Sprite,Foreground,Centre,"sb\d.png",0,0 M,7,199883,200683,313,270,226,294 S,7,199883,200683,0.3842073,0 P,0,199883,200683,A F,0,208118,,1,0
Sprite,Foreground,Centre,"sb\d.png",0,0 M,7,199883,200683,313,270,351,296 S,7,199883,200683,0.3842073,0 P,0,199883,200683,A F,0,208118,,1,0
Sprite,Foreground,Centre,"sb\d.png",0,0 M,7,199883,200683,313,270,398,214 S,7,199883,200683,0.3842073,0 P,0,199883,200683,A F,0,208118,,1,0
Sprite,Foreground,Centre,"sb\d.png",0,0 M,7,200177,200977,416,376,329,456 S,7,200177,200977,0.4357415,0 P,0,200177,200977,A F,0,208118,,1,0
Sprite,Foreground,Centre,"sb\d.png",0,0 M,7,200177,200977,416,376,451,294 S,7,200177,200977,0.4357415,0 P,0,200177,200977,A F,0,208118,,1,0
Sprite,Foreground,Centre,"sb\d.png",0,0 M,7,200177,200977,416,376,345,297 S,7,200177,200977,0.4357415,0 P,0,200177,200977,A F,0,208118,,1,0
Sprite,Foreground,Centre,"sb\d.png",0,0 M,7,200177,200977,416,376,437,466 S,7,200177,200977,0.4357415,0 P,0,200177,200977,A F,0,208118,,1,0
Sprite,Foreground,Centre,"sb\d.png",0,0 M,7,200177,200977,416,376,414,305 S,7,200177,200977,0.4357415,0 P,0,200177,200977,A F,0,208118,,1,0
Sprite,Foreground,Centre,"sb\d.png",0,0 M,7,200177,200977,416,376,451,389 S,7,200177,200977,0.4357415,0 P,0,200177,200977,A F,0,208118,,1,0
Sprite,Foreground,Centre,"sb\d.png",0,0 M,7,200177,200977,416,376,361,399 S,7,200177,200977,0.4357415,0 P,0,200177,200977,A F,0,208118,,1,0
Sprite,Foreground,Centre,"sb\d.png",0,0 M,7,200177,200977,416,376,317,348 S,7,200177,200977,0.4357415,0 P,0,200177,200977,A F,0,208118,,1,0
Sprite,Foreground,Centre,"sb\d.png",0,0 M,7,200177,200977,416,376,486,288 S,7,200177,200977,0.4357415,0 P,0,200177,200977,A F,0,208118,,1,0
Sprite,Foreground,Centre,"sb\d.png",0,0 M,7,200177,200977,416,376,372,416 S,7,200177,200977,0.4357415,0 P,0,200177,200977,A F,0,208118,,1,0
Sprite,Foreground,Centre,"sb\d.png",0,0 M,7,200618,201418,394,217,491,194 S,7,200618,201418,0.4417161,0 P,0,200618,201418,A F,0,208118,,1,0
Sprite,Foreground,Centre,"sb\d.png",0,0 M,7,200618,201418,394,217,398,173 S,7,200618,201418,0.4417161,0 P,0,200618,201418,A F,0,208118,,1,0
Sprite,Foreground,Centre,"sb\d.png",0,0 M,7,200618,201418,394,217,395,223 S,7,200618,201418,0.4417161,0 P,0,200618,201418,A F,0,208118,,1,0
Sprite,Foreground,Centre,"sb\d.png",0,0 M,7,200618,201418,394,217,305,173 S,7,200618,201418,0.4417161,0 P,0,200618,201418,A F,0,208118,,1,0
Sprite,Foreground,Centre,"sb\d.png",0,0 M,7,200618,201418,394,217,393,286 S,7,200618,201418,0.4417161,0 P,0,200618,201418,A F,0,208118,,1,0
Sprite,Foreground,Centre,"sb\d.png",0,0 M,7,200618,201418,394,217,416,137 S,7,200618,201418,0.4417161,0 P,0,200618,201418,A F,0,208118,,1,0
Sprite,Foreground,Centre,"sb\d.png",0,0 M,7,200618,201418,394,217,442,197 S,7,200618,201418,0.4417161,0 P,0,200618,201418,A F,0,208118,,1,0
Sprite,Foreground,Centre,"sb\d.png",0,0 M,7,200618,201418,394,217,480,143 S,7,200618,201418,0.4417161,0 P,0,200618,201418,A F,0,208118,,1,0
Sprite,Foreground,Centre,"sb\d.png",0,0 M,7,200618,201418,394,217,433,240 S,7,200618,201418,0.4417161,0 P,0,200618,201418,A F,0,208118,,1,0
Sprite,Foreground,Centre,"sb\d.png",0,0 M,7,200618,201418,394,217,460,254 S,7,200618,201418,0.4417161,0 P,0,200618,201418,A F,0,208118,,1,0
Sprite,Foreground,Centre,"sb\d.png",0,0 M,7,200765,201565,576,309,510,245 S,7,200765,201565,0.3639485,0 P,0,200765,201565,A F,0,208118,,1,0
Sprite,Foreground,Centre,"sb\d.png",0,0 M,7,200765,201565,576,309,597,259 S,7,200765,201565,0.3639485,0 P,0,200765,201565,A F,0,208118,,1,0
Sprite,Foreground,Centre,"sb\d.png",0,0 M,7,200765,201565,576,309,675,322 S,7,200765,201565,0.3639485,0 P,0,200765,201565,A F,0,208118,,1,0
Sprite,Foreground,Centre,"sb\d.png",0,0 M,7,200765,201565,576,309,488,261 S,7,200765,201565,0.3639485,0 P,0,200765,201565,A F,0,208118,,1,0
Sprite,Foreground,Centre,"sb\d.png",0,0 M,7,200765,201565,576,309,644,322 S,7,200765,201565,0.3639485,0 P,0,200765,201565,A F,0,208118,,1,0
Sprite,Foreground,Centre,"sb\d.png",0,0 M,7,200765,201565,576,309,605,312 S,7,200765,201565,0.3639485,0 P,0,200765,201565,A F,0,208118,,1,0
Sprite,Foreground,Centre,"sb\d.png",0,0 M,7,200765,201565,576,309,670,224 S,7,200765,201565,0.3639485,0 P,0,200765,201565,A F,0,208118,,1,0
Sprite,Foreground,Centre,"sb\d.png",0,0 M,7,200765,201565,576,309,578,240 S,7,200765,201565,0.3639485,0 P,0,200765,201565,A F,0,208118,,1,0
Sprite,Foreground,Centre,"sb\d.png",0,0 M,7,200765,201565,576,309,638,337 S,7,200765,201565,0.3639485,0 P,0,200765,201565,A F,0,208118,,1,0
Sprite,Foreground,Centre,"sb\d.png",0,0 M,7,200765,201565,576,309,591,319 S,7,200765,201565,0.3639485,0 P,0,200765,201565,A F,0,208118,,1,0
Sprite,Foreground,Centre,"sb\d.png",0,0 M,7,201060,201860,381,126,479,86 S,7,201060,201860,0.3844979,0 P,0,201060,201860,A F,0,208118,,1,0
Sprite,Foreground,Centre,"sb\d.png",0,0 M,7,201060,201860,381,126,293,119 S,7,201060,201860,0.3844979,0 P,0,201060,201860,A F,0,208118,,1,0
Sprite,Foreground,Centre,"sb\d.png",0,0 M,7,201060,201860,381,126,377,69 S,7,201060,201860,0.3844979,0 P,0,201060,201860,A F,0,208118,,1,0
Sprite,Foreground,Centre,"sb\d.png",0,0 M,7,201060,201860,381,126,295,72 S,7,201060,201860,0.3844979,0 P,0,201060,201860,A F,0,208118,,1,0
Sprite,Foreground,Centre,"sb\d.png",0,0 M,7,201060,201860,381,126,311,115 S,7,201060,201860,0.3844979,0 P,0,201060,201860,A F,0,208118,,1,0
Sprite,Foreground,Centre,"sb\d.png",0,0 M,7,201060,201860,381,126,371,29 S,7,201060,201860,0.3844979,0 P,0,201060,201860,A F,0,208118,,1,0
Sprite,Foreground,Centre,"sb\d.png",0,0 M,7,201060,201860,381,126,358,189 S,7,201060,201860,0.3844979,0 P,0,201060,201860,A F,0,208118,,1,0
Sprite,Foreground,Centre,"sb\d.png",0,0 M,7,201060,201860,381,126,321,208 S,7,201060,201860,0.3844979,0 P,0,201060,201860,A F,0,208118,,1,0
Sprite,Foreground,Centre,"sb\d.png",0,0 M,7,201060,201860,381,126,286,127 S,7,201060,201860,0.3844979,0 P,0,201060,201860,A F,0,208118,,1,0
Sprite,Foreground,Centre,"sb\d.png",0,0 M,7,201060,201860,381,126,473,224 S,7,201060,201860,0.3844979,0 P,0,201060,201860,A F,0,208118,,1,0
Sprite,Foreground,Centre,"sb\d.png",0,0 M,7,201354,202154,299,68,329,23 S,7,201354,202154,0.253374,0 P,0,201354,202154,A F,0,208118,,1,0
Sprite,Foreground,Centre,"sb\d.png",0,0 M,7,201354,202154,299,68,392,85 S,7,201354,202154,0.253374,0 P,0,201354,202154,A F,0,208118,,1,0
Sprite,Foreground,Centre,"sb\d.png",0,0 M,7,201354,202154,299,68,353,32 S,7,201354,202154,0.253374,0 P,0,201354,202154,A F,0,208118,,1,0
Sprite,Foreground,Centre,"sb\d.png",0,0 M,7,201354,202154,299,68,283,162 S,7,201354,202154,0.253374,0 P,0,201354,202154,A F,0,208118,,1,0
Sprite,Foreground,Centre,"sb\d.png",0,0 M,7,201354,202154,299,68,376,162 S,7,201354,202154,0.253374,0 P,0,201354,202154,A F,0,208118,,1,0
Sprite,Foreground,Centre,"sb\d.png",0,0 M,7,201354,202154,299,68,250,-6 S,7,201354,202154,0.253374,0 P,0,201354,202154,A F,0,208118,,1,0
Sprite,Foreground,Centre,"sb\d.png",0,0 M,7,201354,202154,299,68,378,3 S,7,201354,202154,0.253374,0 P,0,201354,202154,A F,0,208118,,1,0
Sprite,Foreground,Centre,"sb\d.png",0,0 M,7,201354,202154,299,68,375,76 S,7,201354,202154,0.253374,0 P,0,201354,202154,A F,0,208118,,1,0
Sprite,Foreground,Centre,"sb\d.png",0,0 M,7,201354,202154,299,68,356,70 S,7,201354,202154,0.253374,0 P,0,201354,202154,A F,0,208118,,1,0
Sprite,Foreground,Centre,"sb\d.png",0,0 M,7,201354,202154,299,68,269,166 S,7,201354,202154,0.253374,0 P,0,201354,202154,A F,0,208118,,1,0
Sprite,Foreground,Centre,"sb\d.png",0,0 M,7,201795,202595,280,228,318,152 S,7,201795,202595,0.2566886,0 P,0,201795,202595,A F,0,208118,,1,0
Sprite,Foreground,Centre,"sb\d.png",0,0 M,7,201795,202595,280,228,218,227 S,7,201795,202595,0.2566886,0 P,0,201795,202595,A F,0,208118,,1,0
Sprite,Foreground,Centre,"sb\d.png",0,0 M,7,201795,202595,280,228,296,180 S,7,201795,202595,0.2566886,0 P,0,201795,202595,A F,0,208118,,1,0
Sprite,Foreground,Centre,"sb\d.png",0,0 M,7,201795,202595,280,228,242,176 S,7,201795,202595,0.2566886,0 P,0,201795,202595,A F,0,208118,,1,0
Sprite,Foreground,Centre,"sb\d.png",0,0 M,7,201795,202595,280,228,336,154 S,7,201795,202595,0.2566886,0 P,0,201795,202595,A F,0,208118,,1,0
Sprite,Foreground,Centre,"sb\d.png",0,0 M,7,201795,202595,280,228,302,239 S,7,201795,202595,0.2566886,0 P,0,201795,202595,A F,0,208118,,1,0
Sprite,Foreground,Centre,"sb\d.png",0,0 M,7,201795,202595,280,228,311,196 S,7,201795,202595,0.2566886,0 P,0,201795,202595,A F,0,208118,,1,0
Sprite,Foreground,Centre,"sb\d.png",0,0 M,7,201795,202595,280,228,184,147 S,7,201795,202595,0.2566886,0 P,0,201795,202595,A F,0,208118,,1,0
Sprite,Foreground,Centre,"sb\d.png",0,0 M,7,201795,202595,280,228,355,270 S,7,201795,202595,0.2566886,0 P,0,201795,202595,A F,0,208118,,1,0
Sprite,Foreground,Centre,"sb\d.png",0,0 M,7,201795,202595,280,228,358,258 S,7,201795,202595,0.2566886,0 P,0,201795,202595,A F,0,208118,,1,0
Sprite,Foreground,Centre,"sb\d.png",0,0 M,7,201942,202742,107,200,59,194 S,7,201942,202742,0.3010615,0 P,0,201942,202742,A F,0,208118,,1,0
Sprite,Foreground,Centre,"sb\d.png",0,0 M,7,201942,202742,107,200,46,277 S,7,201942,202742,0.3010615,0 P,0,201942,202742,A F,0,208118,,1,0
Sprite,Foreground,Centre,"sb\d.png",0,0 M,7,201942,202742,107,200,105,227 S,7,201942,202742,0.3010615,0 P,0,201942,202742,A F,0,208118,,1,0
Sprite,Foreground,Centre,"sb\d.png",0,0 M,7,201942,202742,107,200,70,173 S,7,201942,202742,0.3010615,0 P,0,201942,202742,A F,0,208118,,1,0
Sprite,Foreground,Centre,"sb\d.png",0,0 M,7,201942,202742,107,200,55,299 S,7,201942,202742,0.3010615,0 P,0,201942,202742,A F,0,208118,,1,0
Sprite,Foreground,Centre,"sb\d.png",0,0 M,7,201942,202742,107,200,129,100 S,7,201942,202742,0.3010615,0 P,0,201942,202742,A F,0,208118,,1,0
Sprite,Foreground,Centre,"sb\d.png",0,0 M,7,201942,202742,107,200,203,292 S,7,201942,202742,0.3010615,0 P,0,201942,202742,A F,0,208118,,1,0
Sprite,Foreground,Centre,"sb\d.png",0,0 M,7,201942,202742,107,200,38,254 S,7,201942,202742,0.3010615,0 P,0,201942,202742,A F,0,208118,,1,0
Sprite,Foreground,Centre,"sb\d.png",0,0 M,7,201942,202742,107,200,25,138 S,7,201942,202742,0.3010615,0 P,0,201942,202742,A F,0,208118,,1,0
Sprite,Foreground,Centre,"sb\d.png",0,0 M,7,201942,202742,107,200,19,122 S,7,201942,202742,0.3010615,0 P,0,201942,202742,A F,0,208118,,1,0
Sprite,Foreground,Centre,"sb\d.png",0,0 M,7,202236,203036,325,383,245,450 S,7,202236,203036,0.3965594,0 P,0,202236,203036,A F,0,208118,,1,0
Sprite,Foreground,Centre,"sb\d.png",0,0 M,7,202236,203036,325,383,353,397 S,7,202236,203036,0.3965594,0 P,0,202236,203036,A F,0,208118,,1,0
Sprite,Foreground,Centre,"sb\d.png",0,0 M,7,202236,203036,325,383,273,450 S,7,202236,203036,0.3965594,0 P,0,202236,203036,A F,0,208118,,1,0
Sprite,Foreground,Centre,"sb\d.png",0,0 M,7,202236,203036,325,383,396,372 S,7,202236,203036,0.3965594,0 P,0,202236,203036,A F,0,208118,,1,0
Sprite,Foreground,Centre,"sb\d.png",0,0 M,7,202236,203036,325,383,406,443 S,7,202236,203036,0.3965594,0 P,0,202236,203036,A F,0,208118,,1,0
Sprite,Foreground,Centre,"sb\d.png",0,0 M,7,202236,203036,325,383,317,351 S,7,202236,203036,0.3965594,0 P,0,202236,203036,A F,0,208118,,1,0
Sprite,Foreground,Centre,"sb\d.png",0,0 M,7,202236,203036,325,383,380,368 S,7,202236,203036,0.3965594,0 P,0,202236,203036,A F,0,208118,,1,0
Sprite,Foreground,Centre,"sb\d.png",0,0 M,7,202236,203036,325,383,354,482 S,7,202236,203036,0.3965594,0 P,0,202236,203036,A F,0,208118,,1,0
Sprite,Foreground,Centre,"sb\d.png",0,0 M,7,202236,203036,325,383,346,300 S,7,202236,203036,0.3965594,0 P,0,202236,203036,A F,0,208118,,1,0
Sprite,Foreground,Centre,"sb\d.png",0,0 M,7,202236,203036,325,383,349,481 S,7,202236,203036,0.3965594,0 P,0,202236,203036,A F,0,208118,,1,0
Sprite,Foreground,Centre,"sb\d.png",0,0 M,7,202383,203183,179,357,186,284 S,7,202383,203183,0.4246328,0 P,0,202383,203183,A F,0,208118,,1,0
Sprite,Foreground,Centre,"sb\d.png",0,0 M,7,202383,203183,179,357,79,368 S,7,202383,203183,0.4246328,0 P,0,202383,203183,A F,0,208118,,1,0
Sprite,Foreground,Centre,"sb\d.png",0,0 M,7,202383,203183,179,357,213,332 S,7,202383,203183,0.4246328,0 P,0,202383,203183,A F,0,208118,,1,0
Sprite,Foreground,Centre,"sb\d.png",0,0 M,7,202383,203183,179,357,252,322 S,7,202383,203183,0.4246328,0 P,0,202383,203183,A F,0,208118,,1,0
Sprite,Foreground,Centre,"sb\d.png",0,0 M,7,202383,203183,179,357,236,360 S,7,202383,203183,0.4246328,0 P,0,202383,203183,A F,0,208118,,1,0
Sprite,Foreground,Centre,"sb\d.png",0,0 M,7,202383,203183,179,357,244,365 S,7,202383,203183,0.4246328,0 P,0,202383,203183,A F,0,208118,,1,0
Sprite,Foreground,Centre,"sb\d.png",0,0 M,7,202383,203183,179,357,183,289 S,7,202383,203183,0.4246328,0 P,0,202383,203183,A F,0,208118,,1,0
Sprite,Foreground,Centre,"sb\d.png",0,0 M,7,202383,203183,179,357,205,367 S,7,202383,203183,0.4246328,0 P,0,202383,203183,A F,0,208118,,1,0
Sprite,Foreground,Centre,"sb\d.png",0,0 M,7,202383,203183,179,357,141,306 S,7,202383,203183,0.4246328,0 P,0,202383,203183,A F,0,208118,,1,0
Sprite,Foreground,Centre,"sb\d.png",0,0 M,7,202383,203183,179,357,239,349 S,7,202383,203183,0.4246328,0 P,0,202383,203183,A F,0,208118,,1,0
Sprite,Foreground,Centre,"sb\d.png",0,0 M,7,202530,203330,280,228,247,166 S,7,202530,203330,0.4343202,0 P,0,202530,203330,A F,0,208118,,1,0
Sprite,Foreground,Centre,"sb\d.png",0,0 M,7,202530,203330,280,228,210,260 S,7,202530,203330,0.4343202,0 P,0,202530,203330,A F,0,208118,,1,0
Sprite,Foreground,Centre,"sb\d.png",0,0 M,7,202530,203330,280,228,221,234 S,7,202530,203330,0.4343202,0 P,0,202530,203330,A F,0,208118,,1,0
Sprite,Foreground,Centre,"sb\d.png",0,0 M,7,202530,203330,280,228,281,282 S,7,202530,203330,0.4343202,0 P,0,202530,203330,A F,0,208118,,1,0
Sprite,Foreground,Centre,"sb\d.png",0,0 M,7,202530,203330,280,228,276,148 S,7,202530,203330,0.4343202,0 P,0,202530,203330,A F,0,208118,,1,0
Sprite,Foreground,Centre,"sb\d.png",0,0 M,7,202530,203330,280,228,267,151 S,7,202530,203330,0.4343202,0 P,0,202530,203330,A F,0,208118,,1,0
Sprite,Foreground,Centre,"sb\d.png",0,0 M,7,202530,203330,280,228,351,240 S,7,202530,203330,0.4343202,0 P,0,202530,203330,A F,0,208118,,1,0
Sprite,Foreground,Centre,"sb\d.png",0,0 M,7,202530,203330,280,228,320,256 S,7,202530,203330,0.4343202,0 P,0,202530,203330,A F,0,208118,,1,0
Sprite,Foreground,Centre,"sb\d.png",0,0 M,7,202530,203330,280,228,183,241 S,7,202530,203330,0.4343202,0 P,0,202530,203330,A F,0,208118,,1,0
Sprite,Foreground,Centre,"sb\d.png",0,0 M,7,202530,203330,280,228,271,326 S,7,202530,203330,0.4343202,0 P,0,202530,203330,A F,0,208118,,1,0
Sprite,Foreground,Centre,"sb\d.png",0,0 M,7,202824,203624,455,385,379,341 S,7,202824,203624,0.2744685,0 P,0,202824,203624,A F,0,208118,,1,0
Sprite,Foreground,Centre,"sb\d.png",0,0 M,7,202824,203624,455,385,481,444 S,7,202824,203624,0.2744685,0 P,0,202824,203624,A F,0,208118,,1,0
Sprite,Foreground,Centre,"sb\d.png",0,0 M,7,202824,203624,455,385,406,337 S,7,202824,203624,0.2744685,0 P,0,202824,203624,A F,0,208118,,1,0
Sprite,Foreground,Centre,"sb\d.png",0,0 M,7,202824,203624,455,385,357,374 S,7,202824,203624,0.2744685,0 P,0,202824,203624,A F,0,208118,,1,0
Sprite,Foreground,Centre,"sb\d.png",0,0 M,7,202824,203624,455,385,413,452 S,7,202824,203624,0.2744685,0 P,0,202824,203624,A F,0,208118,,1,0
Sprite,Foreground,Centre,"sb\d.png",0,0 M,7,202824,203624,455,385,519,391 S,7,202824,203624,0.2744685,0 P,0,202824,203624,A F,0,208118,,1,0
Sprite,Foreground,Centre,"sb\d.png",0,0 M,7,202824,203624,455,385,545,325 S,7,202824,203624,0.2744685,0 P,0,202824,203624,A F,0,208118,,1,0
Sprite,Foreground,Centre,"sb\d.png",0,0 M,7,202824,203624,455,385,544,455 S,7,202824,203624,0.2744685,0 P,0,202824,203624,A F,0,208118,,1,0
Sprite,Foreground,Centre,"sb\d.png",0,0 M,7,202824,203624,455,385,534,378 S,7,202824,203624,0.2744685,0 P,0,202824,203624,A F,0,208118,,1,0
Sprite,Foreground,Centre,"sb\d.png",0,0 M,7,202824,203624,455,385,523,356 S,7,202824,203624,0.2744685,0 P,0,202824,203624,A F,0,208118,,1,0
Sprite,Foreground,Centre,"sb\d.png",0,0 M,7,203265,204065,365,295,325,278 S,7,203265,204065,0.3603556,0 P,0,203265,204065,A F,0,208118,,1,0
Sprite,Foreground,Centre,"sb\d.png",0,0 M,7,203265,204065,365,295,343,279 S,7,203265,204065,0.3603556,0 P,0,203265,204065,A F,0,208118,,1,0
Sprite,Foreground,Centre,"sb\d.png",0,0 M,7,203265,204065,365,295,397,315 S,7,203265,204065,0.3603556,0 P,0,203265,204065,A F,0,208118,,1,0
Sprite,Foreground,Centre,"sb\d.png",0,0 M,7,203265,204065,365,295,451,377 S,7,203265,204065,0.3603556,0 P,0,203265,204065,A F,0,208118,,1,0
Sprite,Foreground,Centre,"sb\d.png",0,0 M,7,203265,204065,365,295,324,331 S,7,203265,204065,0.3603556,0 P,0,203265,204065,A F,0,208118,,1,0
Sprite,Foreground,Centre,"sb\d.png",0,0 M,7,203265,204065,365,295,333,288 S,7,203265,204065,0.3603556,0 P,0,203265,204065,A F,0,208118,,1,0
Sprite,Foreground,Centre,"sb\d.png",0,0 M,7,203265,204065,365,295,424,238 S,7,203265,204065,0.3603556,0 P,0,203265,204065,A F,0,208118,,1,0
Sprite,Foreground,Centre,"sb\d.png",0,0 M,7,203265,204065,365,295,446,298 S,7,203265,204065,0.3603556,0 P,0,203265,204065,A F,0,208118,,1,0
Sprite,Foreground,Centre,"sb\d.png",0,0 M,7,203265,204065,365,295,437,384 S,7,203265,204065,0.3603556,0 P,0,203265,204065,A F,0,208118,,1,0
Sprite,Foreground,Centre,"sb\d.png",0,0 M,7,203265,204065,365,295,319,294 S,7,203265,204065,0.3603556,0 P,0,203265,204065,A F,0,208118,,1,0
Sprite,Foreground,Centre,"sb\d.png",0,0 M,7,203412,204212,552,175,489,127 S,7,203412,204212,0.3154958,0 P,0,203412,204212,A F,0,208118,,1,0
Sprite,Foreground,Centre,"sb\d.png",0,0 M,7,203412,204212,552,175,575,192 S,7,203412,204212,0.3154958,0 P,0,203412,204212,A F,0,208118,,1,0
Sprite,Foreground,Centre,"sb\d.png",0,0 M,7,203412,204212,552,175,633,147 S,7,203412,204212,0.3154958,0 P,0,203412,204212,A F,0,208118,,1,0
Sprite,Foreground,Centre,"sb\d.png",0,0 M,7,203412,204212,552,175,603,232 S,7,203412,204212,0.3154958,0 P,0,203412,204212,A F,0,208118,,1,0
Sprite,Foreground,Centre,"sb\d.png",0,0 M,7,203412,204212,552,175,475,95 S,7,203412,204212,0.3154958,0 P,0,203412,204212,A F,0,208118,,1,0
Sprite,Foreground,Centre,"sb\d.png",0,0 M,7,203412,204212,552,175,574,202 S,7,203412,204212,0.3154958,0 P,0,203412,204212,A F,0,208118,,1,0
Sprite,Foreground,Centre,"sb\d.png",0,0 M,7,203412,204212,552,175,566,238 S,7,203412,204212,0.3154958,0 P,0,203412,204212,A F,0,208118,,1,0
Sprite,Foreground,Centre,"sb\d.png",0,0 M,7,203412,204212,552,175,624,122 S,7,203412,204212,0.3154958,0 P,0,203412,204212,A F,0,208118,,1,0
Sprite,Foreground,Centre,"sb\d.png",0,0 M,7,203412,204212,552,175,527,193 S,7,203412,204212,0.3154958,0 P,0,203412,204212,A F,0,208118,,1,0
Sprite,Foreground,Centre,"sb\d.png",0,0 M,7,203412,204212,552,175,584,91 S,7,203412,204212,0.3154958,0 P,0,203412,204212,A F,0,208118,,1,0
Sprite,Foreground,Centre,"sb\d.png",0,0 M,7,203707,204507,395,67,494,-2 S,7,203707,204507,0.3566422,0 P,0,203707,204507,A F,0,208118,,1,0
Sprite,Foreground,Centre,"sb\d.png",0,0 M,7,203707,204507,395,67,391,-21 S,7,203707,204507,0.3566422,0 P,0,203707,204507,A F,0,208118,,1,0
Sprite,Foreground,Centre,"sb\d.png",0,0 M,7,203707,204507,395,67,325,164 S,7,203707,204507,0.3566422,0 P,0,203707,204507,A F,0,208118,,1,0
Sprite,Foreground,Centre,"sb\d.png",0,0 M,7,203707,204507,395,67,302,33 S,7,203707,204507,0.3566422,0 P,0,203707,204507,A F,0,208118,,1,0
Sprite,Foreground,Centre,"sb\d.png",0,0 M,7,203707,204507,395,67,301,70 S,7,203707,204507,0.3566422,0 P,0,203707,204507,A F,0,208118,,1,0
Sprite,Foreground,Centre,"sb\d.png",0,0 M,7,203707,204507,395,67,409,138 S,7,203707,204507,0.3566422,0 P,0,203707,204507,A F,0,208118,,1,0
Sprite,Foreground,Centre,"sb\d.png",0,0 M,7,203707,204507,395,67,339,-10 S,7,203707,204507,0.3566422,0 P,0,203707,204507,A F,0,208118,,1,0
Sprite,Foreground,Centre,"sb\d.png",0,0 M,7,203707,204507,395,67,326,122 S,7,203707,204507,0.3566422,0 P,0,203707,204507,A F,0,208118,,1,0
Sprite,Foreground,Centre,"sb\d.png",0,0 M,7,203707,204507,395,67,461,117 S,7,203707,204507,0.3566422,0 P,0,203707,204507,A F,0,208118,,1,0
Sprite,Foreground,Centre,"sb\d.png",0,0 M,7,203707,204507,395,67,343,2 S,7,203707,204507,0.3566422,0 P,0,203707,204507,A F,0,208118,,1,0
Sprite,Foreground,Centre,"sb\d.png",0,0 M,7,204148,204948,446,205,381,220 S,7,204148,204948,0.2747247,0 P,0,204148,204948,A F,0,208118,,1,0
Sprite,Foreground,Centre,"sb\d.png",0,0 M,7,204148,204948,446,205,491,270 S,7,204148,204948,0.2747247,0 P,0,204148,204948,A F,0,208118,,1,0
Sprite,Foreground,Centre,"sb\d.png",0,0 M,7,204148,204948,446,205,391,185 S,7,204148,204948,0.2747247,0 P,0,204148,204948,A F,0,208118,,1,0
Sprite,Foreground,Centre,"sb\d.png",0,0 M,7,204148,204948,446,205,354,161 S,7,204148,204948,0.2747247,0 P,0,204148,204948,A F,0,208118,,1,0
Sprite,Foreground,Centre,"sb\d.png",0,0 M,7,204148,204948,446,205,442,176 S,7,204148,204948,0.2747247,0 P,0,204148,204948,A F,0,208118,,1,0
Sprite,Foreground,Centre,"sb\d.png",0,0 M,7,204148,204948,446,205,467,188 S,7,204148,204948,0.2747247,0 P,0,204148,204948,A F,0,208118,,1,0
Sprite,Foreground,Centre,"sb\d.png",0,0 M,7,204148,204948,446,205,504,143 S,7,204148,204948,0.2747247,0 P,0,204148,204948,A F,0,208118,,1,0
Sprite,Foreground,Centre,"sb\d.png",0,0 M,7,204148,204948,446,205,366,131 S,7,204148,204948,0.2747247,0 P,0,204148,204948,A F,0,208118,,1,0
Sprite,Foreground,Centre,"sb\d.png",0,0 M,7,204148,204948,446,205,451,256 S,7,204148,204948,0.2747247,0 P,0,204148,204948,A F,0,208118,,1,0
Sprite,Foreground,Centre,"sb\d.png",0,0 M,7,204148,204948,446,205,420,249 S,7,204148,204948,0.2747247,0 P,0,204148,204948,A F,0,208118,,1,0
Sprite,Foreground,Centre,"sb\d.png",0,0 M,7,204295,205095,303,106,220,123 S,7,204295,205095,0.3413711,0 P,0,204295,205095,A F,0,208118,,1,0
Sprite,Foreground,Centre,"sb\d.png",0,0 M,7,204295,205095,303,106,211,161 S,7,204295,205095,0.3413711,0 P,0,204295,205095,A F,0,208118,,1,0
Sprite,Foreground,Centre,"sb\d.png",0,0 M,7,204295,205095,303,106,272,145 S,7,204295,205095,0.3413711,0 P,0,204295,205095,A F,0,208118,,1,0
Sprite,Foreground,Centre,"sb\d.png",0,0 M,7,204295,205095,303,106,344,98 S,7,204295,205095,0.3413711,0 P,0,204295,205095,A F,0,208118,,1,0
Sprite,Foreground,Centre,"sb\d.png",0,0 M,7,204295,205095,303,106,311,173 S,7,204295,205095,0.3413711,0 P,0,204295,205095,A F,0,208118,,1,0
Sprite,Foreground,Centre,"sb\d.png",0,0 M,7,204295,205095,303,106,287,187 S,7,204295,205095,0.3413711,0 P,0,204295,205095,A F,0,208118,,1,0
Sprite,Foreground,Centre,"sb\d.png",0,0 M,7,204295,205095,303,106,284,169 S,7,204295,205095,0.3413711,0 P,0,204295,205095,A F,0,208118,,1,0
Sprite,Foreground,Centre,"sb\d.png",0,0 M,7,204295,205095,303,106,319,156 S,7,204295,205095,0.3413711,0 P,0,204295,205095,A F,0,208118,,1,0
Sprite,Foreground,Centre,"sb\d.png",0,0 M,7,204295,205095,303,106,249,190 S,7,204295,205095,0.3413711,0 P,0,204295,205095,A F,0,208118,,1,0
Sprite,Foreground,Centre,"sb\d.png",0,0 M,7,204295,205095,303,106,319,204 S,7,204295,205095,0.3413711,0 P,0,204295,205095,A F,0,208118,,1,0
Sprite,Foreground,Centre,"sb\d.png",0,0 M,7,204589,205389,149,280,158,212 S,7,204589,205389,0.2604122,0 P,0,204589,205389,A F,0,208118,,1,0
Sprite,Foreground,Centre,"sb\d.png",0,0 M,7,204589,205389,149,280,242,268 S,7,204589,205389,0.2604122,0 P,0,204589,205389,A F,0,208118,,1,0
Sprite,Foreground,Centre,"sb\d.png",0,0 M,7,204589,205389,149,280,135,364 S,7,204589,205389,0.2604122,0 P,0,204589,205389,A F,0,208118,,1,0
Sprite,Foreground,Centre,"sb\d.png",0,0 M,7,204589,205389,149,280,60,308 S,7,204589,205389,0.2604122,0 P,0,204589,205389,A F,0,208118,,1,0
Sprite,Foreground,Centre,"sb\d.png",0,0 M,7,204589,205389,149,280,110,379 S,7,204589,205389,0.2604122,0 P,0,204589,205389,A F,0,208118,,1,0
Sprite,Foreground,Centre,"sb\d.png",0,0 M,7,204589,205389,149,280,222,270 S,7,204589,205389,0.2604122,0 P,0,204589,205389,A F,0,208118,,1,0
Sprite,Foreground,Centre,"sb\d.png",0,0 M,7,204589,205389,149,280,182,198 S,7,204589,205389,0.2604122,0 P,0,204589,205389,A F,0,208118,,1,0
Sprite,Foreground,Centre,"sb\d.png",0,0 M,7,204589,205389,149,280,247,317 S,7,204589,205389,0.2604122,0 P,0,204589,205389,A F,0,208118,,1,0
Sprite,Foreground,Centre,"sb\d.png",0,0 M,7,204589,205389,149,280,59,356 S,7,204589,205389,0.2604122,0 P,0,204589,205389,A F,0,208118,,1,0
Sprite,Foreground,Centre,"sb\d.png",0,0 M,7,204589,205389,149,280,189,247 S,7,204589,205389,0.2604122,0 P,0,204589,205389,A F,0,208118,,1,0
Sprite,Foreground,Centre,"sb\d.png",0,0 M,7,204883,205683,229,392,316,395 S,7,204883,205683,0.4131823,0 P,0,204883,205683,A F,0,208118,,1,0
Sprite,Foreground,Centre,"sb\d.png",0,0 M,7,204883,205683,229,392,165,394 S,7,204883,205683,0.4131823,0 P,0,204883,205683,A F,0,208118,,1,0
Sprite,Foreground,Centre,"sb\d.png",0,0 M,7,204883,205683,229,392,205,367 S,7,204883,205683,0.4131823,0 P,0,204883,205683,A F,0,208118,,1,0
Sprite,Foreground,Centre,"sb\d.png",0,0 M,7,204883,205683,229,392,233,368 S,7,204883,205683,0.4131823,0 P,0,204883,205683,A F,0,208118,,1,0
Sprite,Foreground,Centre,"sb\d.png",0,0 M,7,204883,205683,229,392,187,458 S,7,204883,205683,0.4131823,0 P,0,204883,205683,A F,0,208118,,1,0
Sprite,Foreground,Centre,"sb\d.png",0,0 M,7,204883,205683,229,392,287,437 S,7,204883,205683,0.4131823,0 P,0,204883,205683,A F,0,208118,,1,0
Sprite,Foreground,Centre,"sb\d.png",0,0 M,7,204883,205683,229,392,209,399 S,7,204883,205683,0.4131823,0 P,0,204883,205683,A F,0,208118,,1,0
Sprite,Foreground,Centre,"sb\d.png",0,0 M,7,204883,205683,229,392,213,306 S,7,204883,205683,0.4131823,0 P,0,204883,205683,A F,0,208118,,1,0
Sprite,Foreground,Centre,"sb\d.png",0,0 M,7,204883,205683,229,392,195,475 S,7,204883,205683,0.4131823,0 P,0,204883,205683,A F,0,208118,,1,0
Sprite,Foreground,Centre,"sb\d.png",0,0 M,7,204883,205683,229,392,284,422 S,7,204883,205683,0.4131823,0 P,0,204883,205683,A F,0,208118,,1,0
Sprite,Foreground,Centre,"sb\d.png",0,0 M,7,205324,206124,161,197,108,264 S,7,205324,206124,0.4146999,0 P,0,205324,206124,A F,0,208118,,1,0
Sprite,Foreground,Centre,"sb\d.png",0,0 M,7,205324,206124,161,197,172,187 S,7,205324,206124,0.4146999,0 P,0,205324,206124,A F,0,208118,,1,0
Sprite,Foreground,Centre,"sb\d.png",0,0 M,7,205324,206124,161,197,209,241 S,7,205324,206124,0.4146999,0 P,0,205324,206124,A F,0,208118,,1,0
Sprite,Foreground,Centre,"sb\d.png",0,0 M,7,205324,206124,161,197,178,109 S,7,205324,206124,0.4146999,0 P,0,205324,206124,A F,0,208118,,1,0
Sprite,Foreground,Centre,"sb\d.png",0,0 M,7,205324,206124,161,197,97,105 S,7,205324,206124,0.4146999,0 P,0,205324,206124,A F,0,208118,,1,0
Sprite,Foreground,Centre,"sb\d.png",0,0 M,7,205324,206124,161,197,237,227 S,7,205324,206124,0.4146999,0 P,0,205324,206124,A F,0,208118,,1,0
Sprite,Foreground,Centre,"sb\d.png",0,0 M,7,205324,206124,161,197,108,218 S,7,205324,206124,0.4146999,0 P,0,205324,206124,A F,0,208118,,1,0
Sprite,Foreground,Centre,"sb\d.png",0,0 M,7,205324,206124,161,197,189,253 S,7,205324,206124,0.4146999,0 P,0,205324,206124,A F,0,208118,,1,0
Sprite,Foreground,Centre,"sb\d.png",0,0 M,7,205324,206124,161,197,247,106 S,7,205324,206124,0.4146999,0 P,0,205324,206124,A F,0,208118,,1,0
Sprite,Foreground,Centre,"sb\d.png",0,0 M,7,205324,206124,161,197,170,203 S,7,205324,206124,0.4146999,0 P,0,205324,206124,A F,0,208118,,1,0
Sprite,Foreground,Centre,"sb\d.png",0,0 M,7,205471,206271,351,276,254,209 S,7,205471,206271,0.3014354,0 P,0,205471,206271,A F,0,208118,,1,0
Sprite,Foreground,Centre,"sb\d.png",0,0 M,7,205471,206271,351,276,265,321 S,7,205471,206271,0.3014354,0 P,0,205471,206271,A F,0,208118,,1,0
Sprite,Foreground,Centre,"sb\d.png",0,0 M,7,205471,206271,351,276,303,287 S,7,205471,206271,0.3014354,0 P,0,205471,206271,A F,0,208118,,1,0
Sprite,Foreground,Centre,"sb\d.png",0,0 M,7,205471,206271,351,276,364,298 S,7,205471,206271,0.3014354,0 P,0,205471,206271,A F,0,208118,,1,0
Sprite,Foreground,Centre,"sb\d.png",0,0 M,7,205471,206271,351,276,394,369 S,7,205471,206271,0.3014354,0 P,0,205471,206271,A F,0,208118,,1,0
Sprite,Foreground,Centre,"sb\d.png",0,0 M,7,205471,206271,351,276,435,313 S,7,205471,206271,0.3014354,0 P,0,205471,206271,A F,0,208118,,1,0
Sprite,Foreground,Centre,"sb\d.png",0,0 M,7,205471,206271,351,276,449,316 S,7,205471,206271,0.3014354,0 P,0,205471,206271,A F,0,208118,,1,0
Sprite,Foreground,Centre,"sb\d.png",0,0 M,7,205471,206271,351,276,387,301 S,7,205471,206271,0.3014354,0 P,0,205471,206271,A F,0,208118,,1,0
Sprite,Foreground,Centre,"sb\d.png",0,0 M,7,205471,206271,351,276,262,304 S,7,205471,206271,0.3014354,0 P,0,205471,206271,A F,0,208118,,1,0
Sprite,Foreground,Centre,"sb\d.png",0,0 M,7,205471,206271,351,276,382,362 S,7,205471,206271,0.3014354,0 P,0,205471,206271,A F,0,208118,,1,0
Sprite,Foreground,Centre,"sb\d.png",0,0 M,7,205765,206565,465,228,386,286 S,7,205765,206565,0.3141639,0 P,0,205765,206565,A F,0,208118,,1,0
Sprite,Foreground,Centre,"sb\d.png",0,0 M,7,205765,206565,465,228,546,142 S,7,205765,206565,0.3141639,0 P,0,205765,206565,A F,0,208118,,1,0
Sprite,Foreground,Centre,"sb\d.png",0,0 M,7,205765,206565,465,228,398,313 S,7,205765,206565,0.3141639,0 P,0,205765,206565,A F,0,208118,,1,0
Sprite,Foreground,Centre,"sb\d.png",0,0 M,7,205765,206565,465,228,521,186 S,7,205765,206565,0.3141639,0 P,0,205765,206565,A F,0,208118,,1,0
Sprite,Foreground,Centre,"sb\d.png",0,0 M,7,205765,206565,465,228,445,302 S,7,205765,206565,0.3141639,0 P,0,205765,206565,A F,0,208118,,1,0
Sprite,Foreground,Centre,"sb\d.png",0,0 M,7,205765,206565,465,228,411,151 S,7,205765,206565,0.3141639,0 P,0,205765,206565,A F,0,208118,,1,0
Sprite,Foreground,Centre,"sb\d.png",0,0 M,7,205765,206565,465,228,478,171 S,7,205765,206565,0.3141639,0 P,0,205765,206565,A F,0,208118,,1,0
Sprite,Foreground,Centre,"sb\d.png",0,0 M,7,205765,206565,465,228,499,224 S,7,205765,206565,0.3141639,0 P,0,205765,206565,A F,0,208118,,1,0
Sprite,Foreground,Centre,"sb\d.png",0,0 M,7,205765,206565,465,228,510,224 S,7,205765,206565,0.3141639,0 P,0,205765,206565,A F,0,208118,,1,0
Sprite,Foreground,Centre,"sb\d.png",0,0 M,7,205765,206565,465,228,397,132 S,7,205765,206565,0.3141639,0 P,0,205765,206565,A F,0,208118,,1,0
Sprite,Foreground,Centre,"sb\d.png",0,0 M,7,206060,206860,325,387,318,301 S,7,206060,206860,0.3395926,0 P,0,206060,206860,A F,0,208118,,1,0
Sprite,Foreground,Centre,"sb\d.png",0,0 M,7,206060,206860,325,387,416,480 S,7,206060,206860,0.3395926,0 P,0,206060,206860,A F,0,208118,,1,0
Sprite,Foreground,Centre,"sb\d.png",0,0 M,7,206060,206860,325,387,273,468 S,7,206060,206860,0.3395926,0 P,0,206060,206860,A F,0,208118,,1,0
Sprite,Foreground,Centre,"sb\d.png",0,0 M,7,206060,206860,325,387,417,318 S,7,206060,206860,0.3395926,0 P,0,206060,206860,A F,0,208118,,1,0
Sprite,Foreground,Centre,"sb\d.png",0,0 M,7,206060,206860,325,387,399,367 S,7,206060,206860,0.3395926,0 P,0,206060,206860,A F,0,208118,,1,0
Sprite,Foreground,Centre,"sb\d.png",0,0 M,7,206060,206860,325,387,402,407 S,7,206060,206860,0.3395926,0 P,0,206060,206860,A F,0,208118,,1,0
Sprite,Foreground,Centre,"sb\d.png",0,0 M,7,206060,206860,325,387,412,468 S,7,206060,206860,0.3395926,0 P,0,206060,206860,A F,0,208118,,1,0
Sprite,Foreground,Centre,"sb\d.png",0,0 M,7,206060,206860,325,387,300,320 S,7,206060,206860,0.3395926,0 P,0,206060,206860,A F,0,208118,,1,0
Sprite,Foreground,Centre,"sb\d.png",0,0 M,7,206060,206860,325,387,355,305 S,7,206060,206860,0.3395926,0 P,0,206060,206860,A F,0,208118,,1,0
Sprite,Foreground,Centre,"sb\d.png",0,0 M,7,206060,206860,325,387,351,443 S,7,206060,206860,0.3395926,0 P,0,206060,206860,A F,0,208118,,1,0
Sprite,Foreground,Centre,"sb\d.png",0,0 M,7,206501,207301,485,405,447,324 S,7,206501,207301,0.314422,0 P,0,206501,207301,A F,0,208118,,1,0
Sprite,Foreground,Centre,"sb\d.png",0,0 M,7,206501,207301,485,405,523,418 S,7,206501,207301,0.314422,0 P,0,206501,207301,A F,0,208118,,1,0
Sprite,Foreground,Centre,"sb\d.png",0,0 M,7,206501,207301,485,405,470,401 S,7,206501,207301,0.314422,0 P,0,206501,207301,A F,0,208118,,1,0
Sprite,Foreground,Centre,"sb\d.png",0,0 M,7,206501,207301,485,405,386,333 S,7,206501,207301,0.314422,0 P,0,206501,207301,A F,0,208118,,1,0
Sprite,Foreground,Centre,"sb\d.png",0,0 M,7,206501,207301,485,405,451,337 S,7,206501,207301,0.314422,0 P,0,206501,207301,A F,0,208118,,1,0
Sprite,Foreground,Centre,"sb\d.png",0,0 M,7,206501,207301,485,405,483,487 S,7,206501,207301,0.314422,0 P,0,206501,207301,A F,0,208118,,1,0
Sprite,Foreground,Centre,"sb\d.png",0,0 M,7,206501,207301,485,405,559,433 S,7,206501,207301,0.314422,0 P,0,206501,207301,A F,0,208118,,1,0
Sprite,Foreground,Centre,"sb\d.png",0,0 M,7,206501,207301,485,405,528,494 S,7,206501,207301,0.314422,0 P,0,206501,207301,A F,0,208118,,1,0
Sprite,Foreground,Centre,"sb\d.png",0,0 M,7,206501,207301,485,405,406,489 S,7,206501,207301,0.314422,0 P,0,206501,207301,A F,0,208118,,1,0
Sprite,Foreground,Centre,"sb\d.png",0,0 M,7,206501,207301,485,405,389,469 S,7,206501,207301,0.314422,0 P,0,206501,207301,A F,0,208118,,1,0
Sprite,Foreground,Centre,"sb\d.png",0,0 M,7,206648,207448,363,264,368,257 S,7,206648,207448,0.2774628,0 P,0,206648,207448,A F,0,208118,,1,0
Sprite,Foreground,Centre,"sb\d.png",0,0 M,7,206648,207448,363,264,331,267 S,7,206648,207448,0.2774628,0 P,0,206648,207448,A F,0,208118,,1,0
Sprite,Foreground,Centre,"sb\d.png",0,0 M,7,206648,207448,363,264,388,226 S,7,206648,207448,0.2774628,0 P,0,206648,207448,A F,0,208118,,1,0
Sprite,Foreground,Centre,"sb\d.png",0,0 M,7,206648,207448,363,264,322,226 S,7,206648,207448,0.2774628,0 P,0,206648,207448,A F,0,208118,,1,0
Sprite,Foreground,Centre,"sb\d.png",0,0 M,7,206648,207448,363,264,277,241 S,7,206648,207448,0.2774628,0 P,0,206648,207448,A F,0,208118,,1,0
Sprite,Foreground,Centre,"sb\d.png",0,0 M,7,206648,207448,363,264,369,211 S,7,206648,207448,0.2774628,0 P,0,206648,207448,A F,0,208118,,1,0
Sprite,Foreground,Centre,"sb\d.png",0,0 M,7,206648,207448,363,264,288,194 S,7,206648,207448,0.2774628,0 P,0,206648,207448,A F,0,208118,,1,0
Sprite,Foreground,Centre,"sb\d.png",0,0 M,7,206648,207448,363,264,458,217 S,7,206648,207448,0.2774628,0 P,0,206648,207448,A F,0,208118,,1,0
Sprite,Foreground,Centre,"sb\d.png",0,0 M,7,206648,207448,363,264,343,327 S,7,206648,207448,0.2774628,0 P,0,206648,207448,A F,0,208118,,1,0
Sprite,Foreground,Centre,"sb\d.png",0,0 M,7,206648,207448,363,264,347,354 S,7,206648,207448,0.2774628,0 P,0,206648,207448,A F,0,208118,,1,0
Sprite,Foreground,Centre,"sb\d.png",0,0 M,7,206942,207742,121,203,128,151 S,7,206942,207742,0.2523468,0 P,0,206942,207742,A F,0,208118,,1,0
Sprite,Foreground,Centre,"sb\d.png",0,0 M,7,206942,207742,121,203,100,241 S,7,206942,207742,0.2523468,0 P,0,206942,207742,A F,0,208118,,1,0
Sprite,Foreground,Centre,"sb\d.png",0,0 M,7,206942,207742,121,203,33,156 S,7,206942,207742,0.2523468,0 P,0,206942,207742,A F,0,208118,,1,0
Sprite,Foreground,Centre,"sb\d.png",0,0 M,7,206942,207742,121,203,152,147 S,7,206942,207742,0.2523468,0 P,0,206942,207742,A F,0,208118,,1,0
Sprite,Foreground,Centre,"sb\d.png",0,0 M,7,206942,207742,121,203,130,136 S,7,206942,207742,0.2523468,0 P,0,206942,207742,A F,0,208118,,1,0
Sprite,Foreground,Centre,"sb\d.png",0,0 M,7,206942,207742,121,203,143,295 S,7,206942,207742,0.2523468,0 P,0,206942,207742,A F,0,208118,,1,0
Sprite,Foreground,Centre,"sb\d.png",0,0 M,7,206942,207742,121,203,57,260 S,7,206942,207742,0.2523468,0 P,0,206942,207742,A F,0,208118,,1,0
Sprite,Foreground,Centre,"sb\d.png",0,0 M,7,206942,207742,121,203,146,173 S,7,206942,207742,0.2523468,0 P,0,206942,207742,A F,0,208118,,1,0
Sprite,Foreground,Centre,"sb\d.png",0,0 M,7,206942,207742,121,203,31,262 S,7,206942,207742,0.2523468,0 P,0,206942,207742,A F,0,208118,,1,0
Sprite,Foreground,Centre,"sb\d.png",0,0 M,7,206942,207742,121,203,55,245 S,7,206942,207742,0.2523468,0 P,0,206942,207742,A F,0,208118,,1,0
Sprite,Foreground,Centre,"sb\d.png",0,0 M,7,207089,207889,276,245,228,299 S,7,207089,207889,0.4157625,0 P,0,207089,207889,A F,0,208118,,1,0
Sprite,Foreground,Centre,"sb\d.png",0,0 M,7,207089,207889,276,245,368,279 S,7,207089,207889,0.4157625,0 P,0,207089,207889,A F,0,208118,,1,0
Sprite,Foreground,Centre,"sb\d.png",0,0 M,7,207089,207889,276,245,325,243 S,7,207089,207889,0.4157625,0 P,0,207089,207889,A F,0,208118,,1,0
Sprite,Foreground,Centre,"sb\d.png",0,0 M,7,207089,207889,276,245,323,281 S,7,207089,207889,0.4157625,0 P,0,207089,207889,A F,0,208118,,1,0
Sprite,Foreground,Centre,"sb\d.png",0,0 M,7,207089,207889,276,245,316,166 S,7,207089,207889,0.4157625,0 P,0,207089,207889,A F,0,208118,,1,0
Sprite,Foreground,Centre,"sb\d.png",0,0 M,7,207089,207889,276,245,295,318 S,7,207089,207889,0.4157625,0 P,0,207089,207889,A F,0,208118,,1,0
Sprite,Foreground,Centre,"sb\d.png",0,0 M,7,207089,207889,276,245,201,342 S,7,207089,207889,0.4157625,0 P,0,207089,207889,A F,0,208118,,1,0
Sprite,Foreground,Centre,"sb\d.png",0,0 M,7,207089,207889,276,245,220,333 S,7,207089,207889,0.4157625,0 P,0,207089,207889,A F,0,208118,,1,0
Sprite,Foreground,Centre,"sb\d.png",0,0 M,7,207089,207889,276,245,341,258 S,7,207089,207889,0.4157625,0 P,0,207089,207889,A F,0,208118,,1,0
Sprite,Foreground,Centre,"sb\d.png",0,0 M,7,207089,207889,276,245,184,272 S,7,207089,207889,0.4157625,0 P,0,207089,207889,A F,0,208118,,1,0
Sprite,Foreground,Centre,"sb\d.png",0,0 M,7,207236,208036,231,400,236,343 S,7,207236,208036,0.2686976,0 P,0,207236,208036,A F,0,208118,,1,0
Sprite,Foreground,Centre,"sb\d.png",0,0 M,7,207236,208036,231,400,314,355 S,7,207236,208036,0.2686976,0 P,0,207236,208036,A F,0,208118,,1,0
Sprite,Foreground,Centre,"sb\d.png",0,0 M,7,207236,208036,231,400,319,372 S,7,207236,208036,0.2686976,0 P,0,207236,208036,A F,0,208118,,1,0
Sprite,Foreground,Centre,"sb\d.png",0,0 M,7,207236,208036,231,400,201,482 S,7,207236,208036,0.2686976,0 P,0,207236,208036,A F,0,208118,,1,0
Sprite,Foreground,Centre,"sb\d.png",0,0 M,7,207236,208036,231,400,201,304 S,7,207236,208036,0.2686976,0 P,0,207236,208036,A F,0,208118,,1,0
Sprite,Foreground,Centre,"sb\d.png",0,0 M,7,207236,208036,231,400,181,348 S,7,207236,208036,0.2686976,0 P,0,207236,208036,A F,0,208118,,1,0
Sprite,Foreground,Centre,"sb\d.png",0,0 M,7,207236,208036,231,400,167,355 S,7,207236,208036,0.2686976,0 P,0,207236,208036,A F,0,208118,,1,0
Sprite,Foreground,Centre,"sb\d.png",0,0 M,7,207236,208036,231,400,224,386 S,7,207236,208036,0.2686976,0 P,0,207236,208036,A F,0,208118,,1,0
Sprite,Foreground,Centre,"sb\d.png",0,0 M,7,207236,208036,231,400,134,363 S,7,207236,208036,0.2686976,0 P,0,207236,208036,A F,0,208118,,1,0
Sprite,Foreground,Centre,"sb\d.png",0,0 M,7,207236,208036,231,400,286,484 S,7,207236,208036,0.2686976,0 P,0,207236,208036,A F,0,208118,,1,0
Sprite,Foreground,Centre,"sb\d.png",0,0 M,7,207530,208330,340,79,408,-9 S,7,207530,208330,0.3579287,0 P,0,207530,208330,A F,0,208118,,1,0
Sprite,Foreground,Centre,"sb\d.png",0,0 M,7,207530,208330,340,79,243,-3 S,7,207530,208330,0.3579287,0 P,0,207530,208330,A F,0,208118,,1,0
Sprite,Foreground,Centre,"sb\d.png",0,0 M,7,207530,208330,340,79,251,138 S,7,207530,208330,0.3579287,0 P,0,207530,208330,A F,0,208118,,1,0
Sprite,Foreground,Centre,"sb\d.png",0,0 M,7,207530,208330,340,79,320,60 S,7,207530,208330,0.3579287,0 P,0,207530,208330,A F,0,208118,,1,0
Sprite,Foreground,Centre,"sb\d.png",0,0 M,7,207530,208330,340,79,285,24 S,7,207530,208330,0.3579287,0 P,0,207530,208330,A F,0,208118,,1,0
Sprite,Foreground,Centre,"sb\d.png",0,0 M,7,207530,208330,340,79,265,-6 S,7,207530,208330,0.3579287,0 P,0,207530,208330,A F,0,208118,,1,0
Sprite,Foreground,Centre,"sb\d.png",0,0 M,7,207530,208330,340,79,387,125 S,7,207530,208330,0.3579287,0 P,0,207530,208330,A F,0,208118,,1,0
Sprite,Foreground,Centre,"sb\d.png",0,0 M,7,207530,208330,340,79,350,-12 S,7,207530,208330,0.3579287,0 P,0,207530,208330,A F,0,208118,,1,0
Sprite,Foreground,Centre,"sb\d.png",0,0 M,7,207530,208330,340,79,319,140 S,7,207530,208330,0.3579287,0 P,0,207530,208330,A F,0,208118,,1,0
Sprite,Foreground,Centre,"sb\d.png",0,0 M,7,207530,208330,340,79,265,55 S,7,207530,208330,0.3579287,0 P,0,207530,208330,A F,0,208118,,1,0
Sprite,Foreground,Centre,"sb\d.png",0,0 M,7,207677,208477,205,199,175,116 S,7,207677,208477,0.4039415,0 P,0,207677,208477,A F,0,208118,,1,0
Sprite,Foreground,Centre,"sb\d.png",0,0 M,7,207677,208477,205,199,174,224 S,7,207677,208477,0.4039415,0 P,0,207677,208477,A F,0,208118,,1,0
Sprite,Foreground,Centre,"sb\d.png",0,0 M,7,207677,208477,205,199,293,240 S,7,207677,208477,0.4039415,0 P,0,207677,208477,A F,0,208118,,1,0
Sprite,Foreground,Centre,"sb\d.png",0,0 M,7,207677,208477,205,199,256,201 S,7,207677,208477,0.4039415,0 P,0,207677,208477,A F,0,208118,,1,0
Sprite,Foreground,Centre,"sb\d.png",0,0 M,7,207677,208477,205,199,266,148 S,7,207677,208477,0.4039415,0 P,0,207677,208477,A F,0,208118,,1,0
Sprite,Foreground,Centre,"sb\d.png",0,0 M,7,207677,208477,205,199,158,241 S,7,207677,208477,0.4039415,0 P,0,207677,208477,A F,0,208118,,1,0
Sprite,Foreground,Centre,"sb\d.png",0,0 M,7,207677,208477,205,199,215,235 S,7,207677,208477,0.4039415,0 P,0,207677,208477,A F,0,208118,,1,0
Sprite,Foreground,Centre,"sb\d.png",0,0 M,7,207677,208477,205,199,136,279 S,7,207677,208477,0.4039415,0 P,0,207677,208477,A F,0,208118,,1,0
Sprite,Foreground,Centre,"sb\d.png",0,0 M,7,207677,208477,205,199,141,275 S,7,207677,208477,0.4039415,0 P,0,207677,208477,A F,0,208118,,1,0
Sprite,Foreground,Centre,"sb\d.png",0,0 M,7,207677,208477,205,199,217,288 S,7,207677,208477,0.4039415,0 P,0,207677,208477,A F,0,208118,,1,0
Sprite,Foreground,Centre,"sb\d.png",0,0 M,7,207824,208624,382,176,306,234 S,7,207824,208624,0.350412,0 P,0,207824,208624,A F,0,208118,,1,0
Sprite,Foreground,Centre,"sb\d.png",0,0 M,7,207824,208624,382,176,306,109 S,7,207824,208624,0.350412,0 P,0,207824,208624,A F,0,208118,,1,0
Sprite,Foreground,Centre,"sb\d.png",0,0 M,7,207824,208624,382,176,371,185 S,7,207824,208624,0.350412,0 P,0,207824,208624,A F,0,208118,,1,0
Sprite,Foreground,Centre,"sb\d.png",0,0 M,7,207824,208624,382,176,464,153 S,7,207824,208624,0.350412,0 P,0,207824,208624,A F,0,208118,,1,0
Sprite,Foreground,Centre,"sb\d.png",0,0 M,7,207824,208624,382,176,405,178 S,7,207824,208624,0.350412,0 P,0,207824,208624,A F,0,208118,,1,0
Sprite,Foreground,Centre,"sb\d.png",0,0 M,7,207824,208624,382,176,411,183 S,7,207824,208624,0.350412,0 P,0,207824,208624,A F,0,208118,,1,0
Sprite,Foreground,Centre,"sb\d.png",0,0 M,7,207824,208624,382,176,435,173 S,7,207824,208624,0.350412,0 P,0,207824,208624,A F,0,208118,,1,0
Sprite,Foreground,Centre,"sb\d.png",0,0 M,7,207824,208624,382,176,477,209 S,7,207824,208624,0.350412,0 P,0,207824,208624,A F,0,208118,,1,0
Sprite,Foreground,Centre,"sb\d.png",0,0 M,7,207824,208624,382,176,374,99 S,7,207824,208624,0.350412,0 P,0,207824,208624,A F,0,208118,,1,0
Sprite,Foreground,Centre,"sb\d.png",0,0 M,7,207824,208624,382,176,299,205 S,7,207824,208624,0.350412,0 P,0,207824,208624,A F,0,208118,,1,0
Sprite,Foreground,Centre,"sb\d.png",0,0 M,7,207971,208771,221,95,204,190 S,7,207971,208771,0.4297897,0 P,0,207971,208771,A F,0,208118,,1,0
Sprite,Foreground,Centre,"sb\d.png",0,0 M,7,207971,208771,221,95,293,67 S,7,207971,208771,0.4297897,0 P,0,207971,208771,A F,0,208118,,1,0
Sprite,Foreground,Centre,"sb\d.png",0,0 M,7,207971,208771,221,95,157,4 S,7,207971,208771,0.4297897,0 P,0,207971,208771,A F,0,208118,,1,0
Sprite,Foreground,Centre,"sb\d.png",0,0 M,7,207971,208771,221,95,200,23 S,7,207971,208771,0.4297897,0 P,0,207971,208771,A F,0,208118,,1,0
Sprite,Foreground,Centre,"sb\d.png",0,0 M,7,207971,208771,221,95,164,179 S,7,207971,208771,0.4297897,0 P,0,207971,208771,A F,0,208118,,1,0
Sprite,Foreground,Centre,"sb\d.png",0,0 M,7,207971,208771,221,95,233,82 S,7,207971,208771,0.4297897,0 P,0,207971,208771,A F,0,208118,,1,0
Sprite,Foreground,Centre,"sb\d.png",0,0 M,7,207971,208771,221,95,174,40 S,7,207971,208771,0.4297897,0 P,0,207971,208771,A F,0,208118,,1,0
Sprite,Foreground,Centre,"sb\d.png",0,0 M,7,207971,208771,221,95,179,40 S,7,207971,208771,0.4297897,0 P,0,207971,208771,A F,0,208118,,1,0
Sprite,Foreground,Centre,"sb\d.png",0,0 M,7,207971,208771,221,95,213,94 S,7,207971,208771,0.4297897,0 P,0,207971,208771,A F,0,208118,,1,0
Sprite,Foreground,Centre,"sb\d.png",0,0 M,7,207971,208771,221,95,153,163 S,7,207971,208771,0.4297897,0 P,0,207971,208771,A F,0,208118,,1,0
Sprite,Foreground,Centre,"sb\d.png",0,0 M,7,123412,124212,423,412,486,465 S,7,123412,124212,0.3952487,0 P,0,123412,124212,A F,0,142236,,1,0
Sprite,Foreground,Centre,"sb\d.png",0,0 M,7,123412,124212,423,412,434,353 S,7,123412,124212,0.3952487,0 P,0,123412,124212,A F,0,142236,,1,0
Sprite,Foreground,Centre,"sb\d.png",0,0 M,7,123412,124212,423,412,434,493 S,7,123412,124212,0.3952487,0 P,0,123412,124212,A F,0,142236,,1,0
Sprite,Foreground,Centre,"sb\d.png",0,0 M,7,123412,124212,423,412,411,507 S,7,123412,124212,0.3952487,0 P,0,123412,124212,A F,0,142236,,1,0
Sprite,Foreground,Centre,"sb\d.png",0,0 M,7,123412,124212,423,412,377,370 S,7,123412,124212,0.3952487,0 P,0,123412,124212,A F,0,142236,,1,0
Sprite,Foreground,Centre,"sb\d.png",0,0 M,7,123412,124212,423,412,416,438 S,7,123412,124212,0.3952487,0 P,0,123412,124212,A F,0,142236,,1,0
Sprite,Foreground,Centre,"sb\d.png",0,0 M,7,123412,124212,423,412,416,508 S,7,123412,124212,0.3952487,0 P,0,123412,124212,A F,0,142236,,1,0
Sprite,Foreground,Centre,"sb\d.png",0,0 M,7,123412,124212,423,412,329,484 S,7,123412,124212,0.3952487,0 P,0,123412,124212,A F,0,142236,,1,0
Sprite,Foreground,Centre,"sb\d.png",0,0 M,7,123412,124212,423,412,522,447 S,7,123412,124212,0.3952487,0 P,0,123412,124212,A F,0,142236,,1,0
Sprite,Foreground,Centre,"sb\d.png",0,0 M,7,123412,124212,423,412,385,475 S,7,123412,124212,0.3952487,0 P,0,123412,124212,A F,0,142236,,1,0
Sprite,Foreground,Centre,"sb\d.png",0,0 M,7,123707,124507,174,300,272,206 S,7,123707,124507,0.4196104,0 P,0,123707,124507,A F,0,142236,,1,0
Sprite,Foreground,Centre,"sb\d.png",0,0 M,7,123707,124507,174,300,213,305 S,7,123707,124507,0.4196104,0 P,0,123707,124507,A F,0,142236,,1,0
Sprite,Foreground,Centre,"sb\d.png",0,0 M,7,123707,124507,174,300,260,337 S,7,123707,124507,0.4196104,0 P,0,123707,124507,A F,0,142236,,1,0
Sprite,Foreground,Centre,"sb\d.png",0,0 M,7,123707,124507,174,300,183,216 S,7,123707,124507,0.4196104,0 P,0,123707,124507,A F,0,142236,,1,0
Sprite,Foreground,Centre,"sb\d.png",0,0 M,7,123707,124507,174,300,111,290 S,7,123707,124507,0.4196104,0 P,0,123707,124507,A F,0,142236,,1,0
Sprite,Foreground,Centre,"sb\d.png",0,0 M,7,123707,124507,174,300,133,397 S,7,123707,124507,0.4196104,0 P,0,123707,124507,A F,0,142236,,1,0
Sprite,Foreground,Centre,"sb\d.png",0,0 M,7,123707,124507,174,300,202,352 S,7,123707,124507,0.4196104,0 P,0,123707,124507,A F,0,142236,,1,0
Sprite,Foreground,Centre,"sb\d.png",0,0 M,7,123707,124507,174,300,80,276 S,7,123707,124507,0.4196104,0 P,0,123707,124507,A F,0,142236,,1,0
Sprite,Foreground,Centre,"sb\d.png",0,0 M,7,123707,124507,174,300,142,391 S,7,123707,124507,0.4196104,0 P,0,123707,124507,A F,0,142236,,1,0
Sprite,Foreground,Centre,"sb\d.png",0,0 M,7,123707,124507,174,300,175,343 S,7,123707,124507,0.4196104,0 P,0,123707,124507,A F,0,142236,,1,0
Sprite,Foreground,Centre,"sb\d.png",0,0 M,7,124001,124801,432,262,386,343 S,7,124001,124801,0.2737916,0 P,0,124001,124801,A F,0,142236,,1,0
Sprite,Foreground,Centre,"sb\d.png",0,0 M,7,124001,124801,432,262,490,229 S,7,124001,124801,0.2737916,0 P,0,124001,124801,A F,0,142236,,1,0
Sprite,Foreground,Centre,"sb\d.png",0,0 M,7,124001,124801,432,262,423,191 S,7,124001,124801,0.2737916,0 P,0,124001,124801,A F,0,142236,,1,0
Sprite,Foreground,Centre,"sb\d.png",0,0 M,7,124001,124801,432,262,376,244 S,7,124001,124801,0.2737916,0 P,0,124001,124801,A F,0,142236,,1,0
Sprite,Foreground,Centre,"sb\d.png",0,0 M,7,124001,124801,432,262,475,285 S,7,124001,124801,0.2737916,0 P,0,124001,124801,A F,0,142236,,1,0
Sprite,Foreground,Centre,"sb\d.png",0,0 M,7,124001,124801,432,262,429,200 S,7,124001,124801,0.2737916,0 P,0,124001,124801,A F,0,142236,,1,0
Sprite,Foreground,Centre,"sb\d.png",0,0 M,7,124001,124801,432,262,507,327 S,7,124001,124801,0.2737916,0 P,0,124001,124801,A F,0,142236,,1,0
Sprite,Foreground,Centre,"sb\d.png",0,0 M,7,124001,124801,432,262,479,333 S,7,124001,124801,0.2737916,0 P,0,124001,124801,A F,0,142236,,1,0
Sprite,Foreground,Centre,"sb\d.png",0,0 M,7,124001,124801,432,262,467,286 S,7,124001,124801,0.2737916,0 P,0,124001,124801,A F,0,142236,,1,0
Sprite,Foreground,Centre,"sb\d.png",0,0 M,7,124001,124801,432,262,375,341 S,7,124001,124801,0.2737916,0 P,0,124001,124801,A F,0,142236,,1,0
Sprite,Foreground,Centre,"sb\d.png",0,0 M,7,124148,124948,347,372,264,439 S,7,124148,124948,0.429288,0 P,0,124148,124948,A F,0,142236,,1,0
Sprite,Foreground,Centre,"sb\d.png",0,0 M,7,124148,124948,347,372,281,400 S,7,124148,124948,0.429288,0 P,0,124148,124948,A F,0,142236,,1,0
Sprite,Foreground,Centre,"sb\d.png",0,0 M,7,124148,124948,347,372,412,315 S,7,124148,124948,0.429288,0 P,0,124148,124948,A F,0,142236,,1,0
Sprite,Foreground,Centre,"sb\d.png",0,0 M,7,124148,124948,347,372,446,368 S,7,124148,124948,0.429288,0 P,0,124148,124948,A F,0,142236,,1,0
Sprite,Foreground,Centre,"sb\d.png",0,0 M,7,124148,124948,347,372,377,415 S,7,124148,124948,0.429288,0 P,0,124148,124948,A F,0,142236,,1,0
Sprite,Foreground,Centre,"sb\d.png",0,0 M,7,124148,124948,347,372,408,292 S,7,124148,124948,0.429288,0 P,0,124148,124948,A F,0,142236,,1,0
Sprite,Foreground,Centre,"sb\d.png",0,0 M,7,124148,124948,347,372,392,415 S,7,124148,124948,0.429288,0 P,0,124148,124948,A F,0,142236,,1,0
Sprite,Foreground,Centre,"sb\d.png",0,0 M,7,124148,124948,347,372,272,453 S,7,124148,124948,0.429288,0 P,0,124148,124948,A F,0,142236,,1,0
Sprite,Foreground,Centre,"sb\d.png",0,0 M,7,124148,124948,347,372,284,367 S,7,124148,124948,0.429288,0 P,0,124148,124948,A F,0,142236,,1,0
Sprite,Foreground,Centre,"sb\d.png",0,0 M,7,124148,124948,347,372,355,337 S,7,124148,124948,0.429288,0 P,0,124148,124948,A F,0,142236,,1,0
Sprite,Foreground,Centre,"sb\d.png",0,0 M,7,124295,125095,516,440,509,506 S,7,124295,125095,0.3842073,0 P,0,124295,125095,A F,0,142236,,1,0
Sprite,Foreground,Centre,"sb\d.png",0,0 M,7,124295,125095,516,440,577,498 S,7,124295,125095,0.3842073,0 P,0,124295,125095,A F,0,142236,,1,0
Sprite,Foreground,Centre,"sb\d.png",0,0 M,7,124295,125095,516,440,568,527 S,7,124295,125095,0.3842073,0 P,0,124295,125095,A F,0,142236,,1,0
Sprite,Foreground,Centre,"sb\d.png",0,0 M,7,124295,125095,516,440,474,444 S,7,124295,125095,0.3842073,0 P,0,124295,125095,A F,0,142236,,1,0
Sprite,Foreground,Centre,"sb\d.png",0,0 M,7,124295,125095,516,440,548,406 S,7,124295,125095,0.3842073,0 P,0,124295,125095,A F,0,142236,,1,0
Sprite,Foreground,Centre,"sb\d.png",0,0 M,7,124295,125095,516,440,473,504 S,7,124295,125095,0.3842073,0 P,0,124295,125095,A F,0,142236,,1,0
Sprite,Foreground,Centre,"sb\d.png",0,0 M,7,124295,125095,516,440,460,377 S,7,124295,125095,0.3842073,0 P,0,124295,125095,A F,0,142236,,1,0
Sprite,Foreground,Centre,"sb\d.png",0,0 M,7,124295,125095,516,440,429,464 S,7,124295,125095,0.3842073,0 P,0,124295,125095,A F,0,142236,,1,0
Sprite,Foreground,Centre,"sb\d.png",0,0 M,7,124295,125095,516,440,554,466 S,7,124295,125095,0.3842073,0 P,0,124295,125095,A F,0,142236,,1,0
Sprite,Foreground,Centre,"sb\d.png",0,0 M,7,124295,125095,516,440,601,384 S,7,124295,125095,0.3842073,0 P,0,124295,125095,A F,0,142236,,1,0
Sprite,Foreground,Centre,"sb\d.png",0,0 M,7,124589,125389,309,237,222,317 S,7,124589,125389,0.4357415,0 P,0,124589,125389,A F,0,142236,,1,0
Sprite,Foreground,Centre,"sb\d.png",0,0 M,7,124589,125389,309,237,344,155 S,7,124589,125389,0.4357415,0 P,0,124589,125389,A F,0,142236,,1,0
Sprite,Foreground,Centre,"sb\d.png",0,0 M,7,124589,125389,309,237,238,158 S,7,124589,125389,0.4357415,0 P,0,124589,125389,A F,0,142236,,1,0
Sprite,Foreground,Centre,"sb\d.png",0,0 M,7,124589,125389,309,237,330,327 S,7,124589,125389,0.4357415,0 P,0,124589,125389,A F,0,142236,,1,0
Sprite,Foreground,Centre,"sb\d.png",0,0 M,7,124589,125389,309,237,307,166 S,7,124589,125389,0.4357415,0 P,0,124589,125389,A F,0,142236,,1,0
Sprite,Foreground,Centre,"sb\d.png",0,0 M,7,124589,125389,309,237,344,250 S,7,124589,125389,0.4357415,0 P,0,124589,125389,A F,0,142236,,1,0
Sprite,Foreground,Centre,"sb\d.png",0,0 M,7,124589,125389,309,237,254,260 S,7,124589,125389,0.4357415,0 P,0,124589,125389,A F,0,142236,,1,0
Sprite,Foreground,Centre,"sb\d.png",0,0 M,7,124589,125389,309,237,210,209 S,7,124589,125389,0.4357415,0 P,0,124589,125389,A F,0,142236,,1,0
Sprite,Foreground,Centre,"sb\d.png",0,0 M,7,124589,125389,309,237,379,149 S,7,124589,125389,0.4357415,0 P,0,124589,125389,A F,0,142236,,1,0
Sprite,Foreground,Centre,"sb\d.png",0,0 M,7,124589,125389,309,237,265,277 S,7,124589,125389,0.4357415,0 P,0,124589,125389,A F,0,142236,,1,0
Sprite,Foreground,Centre,"sb\d.png",0,0 M,7,124736,125536,410,143,507,120 S,7,124736,125536,0.4417161,0 P,0,124736,125536,A F,0,142236,,1,0
Sprite,Foreground,Centre,"sb\d.png",0,0 M,7,124736,125536,410,143,414,99 S,7,124736,125536,0.4417161,0 P,0,124736,125536,A F,0,142236,,1,0
Sprite,Foreground,Centre,"sb\d.png",0,0 M,7,124736,125536,410,143,411,149 S,7,124736,125536,0.4417161,0 P,0,124736,125536,A F,0,142236,,1,0
Sprite,Foreground,Centre,"sb\d.png",0,0 M,7,124736,125536,410,143,321,99 S,7,124736,125536,0.4417161,0 P,0,124736,125536,A F,0,142236,,1,0
Sprite,Foreground,Centre,"sb\d.png",0,0 M,7,124736,125536,410,143,409,212 S,7,124736,125536,0.4417161,0 P,0,124736,125536,A F,0,142236,,1,0
Sprite,Foreground,Centre,"sb\d.png",0,0 M,7,124736,125536,410,143,432,63 S,7,124736,125536,0.4417161,0 P,0,124736,125536,A F,0,142236,,1,0
Sprite,Foreground,Centre,"sb\d.png",0,0 M,7,124736,125536,410,143,458,123 S,7,124736,125536,0.4417161,0 P,0,124736,125536,A F,0,142236,,1,0
Sprite,Foreground,Centre,"sb\d.png",0,0 M,7,124736,125536,410,143,496,69 S,7,124736,125536,0.4417161,0 P,0,124736,125536,A F,0,142236,,1,0
Sprite,Foreground,Centre,"sb\d.png",0,0 M,7,124736,125536,410,143,449,166 S,7,124736,125536,0.4417161,0 P,0,124736,125536,A F,0,142236,,1,0
Sprite,Foreground,Centre,"sb\d.png",0,0 M,7,124736,125536,410,143,476,180 S,7,124736,125536,0.4417161,0 P,0,124736,125536,A F,0,142236,,1,0
Sprite,Foreground,Centre,"sb\d.png",0,0 M,7,124883,125683,300,243,234,179 S,7,124883,125683,0.3639485,0 P,0,124883,125683,A F,0,142236,,1,0
Sprite,Foreground,Centre,"sb\d.png",0,0 M,7,124883,125683,300,243,321,193 S,7,124883,125683,0.3639485,0 P,0,124883,125683,A F,0,142236,,1,0
Sprite,Foreground,Centre,"sb\d.png",0,0 M,7,124883,125683,300,243,399,256 S,7,124883,125683,0.3639485,0 P,0,124883,125683,A F,0,142236,,1,0
Sprite,Foreground,Centre,"sb\d.png",0,0 M,7,124883,125683,300,243,212,195 S,7,124883,125683,0.3639485,0 P,0,124883,125683,A F,0,142236,,1,0
Sprite,Foreground,Centre,"sb\d.png",0,0 M,7,124883,125683,300,243,368,256 S,7,124883,125683,0.3639485,0 P,0,124883,125683,A F,0,142236,,1,0
Sprite,Foreground,Centre,"sb\d.png",0,0 M,7,124883,125683,300,243,329,246 S,7,124883,125683,0.3639485,0 P,0,124883,125683,A F,0,142236,,1,0
Sprite,Foreground,Centre,"sb\d.png",0,0 M,7,124883,125683,300,243,394,158 S,7,124883,125683,0.3639485,0 P,0,124883,125683,A F,0,142236,,1,0
Sprite,Foreground,Centre,"sb\d.png",0,0 M,7,124883,125683,300,243,302,174 S,7,124883,125683,0.3639485,0 P,0,124883,125683,A F,0,142236,,1,0
Sprite,Foreground,Centre,"sb\d.png",0,0 M,7,124883,125683,300,243,362,271 S,7,124883,125683,0.3639485,0 P,0,124883,125683,A F,0,142236,,1,0
Sprite,Foreground,Centre,"sb\d.png",0,0 M,7,124883,125683,300,243,315,253 S,7,124883,125683,0.3639485,0 P,0,124883,125683,A F,0,142236,,1,0
Sprite,Foreground,Centre,"sb\d.png",0,0 M,7,125030,125830,440,276,538,236 S,7,125030,125830,0.3844979,0 P,0,125030,125830,A F,0,142236,,1,0
Sprite,Foreground,Centre,"sb\d.png",0,0 M,7,125030,125830,440,276,352,269 S,7,125030,125830,0.3844979,0 P,0,125030,125830,A F,0,142236,,1,0
Sprite,Foreground,Centre,"sb\d.png",0,0 M,7,125030,125830,440,276,436,219 S,7,125030,125830,0.3844979,0 P,0,125030,125830,A F,0,142236,,1,0
Sprite,Foreground,Centre,"sb\d.png",0,0 M,7,125030,125830,440,276,354,222 S,7,125030,125830,0.3844979,0 P,0,125030,125830,A F,0,142236,,1,0
Sprite,Foreground,Centre,"sb\d.png",0,0 M,7,125030,125830,440,276,370,265 S,7,125030,125830,0.3844979,0 P,0,125030,125830,A F,0,142236,,1,0
Sprite,Foreground,Centre,"sb\d.png",0,0 M,7,125030,125830,440,276,430,179 S,7,125030,125830,0.3844979,0 P,0,125030,125830,A F,0,142236,,1,0
Sprite,Foreground,Centre,"sb\d.png",0,0 M,7,125030,125830,440,276,417,339 S,7,125030,125830,0.3844979,0 P,0,125030,125830,A F,0,142236,,1,0
Sprite,Foreground,Centre,"sb\d.png",0,0 M,7,125030,125830,440,276,380,358 S,7,125030,125830,0.3844979,0 P,0,125030,125830,A F,0,142236,,1,0
Sprite,Foreground,Centre,"sb\d.png",0,0 M,7,125030,125830,440,276,345,277 S,7,125030,125830,0.3844979,0 P,0,125030,125830,A F,0,142236,,1,0
Sprite,Foreground,Centre,"sb\d.png",0,0 M,7,125030,125830,440,276,532,374 S,7,125030,125830,0.3844979,0 P,0,125030,125830,A F,0,142236,,1,0
Sprite,Foreground,Centre,"sb\d.png",0,0 M,7,125177,125977,308,138,338,93 S,7,125177,125977,0.253374,0 P,0,125177,125977,A F,0,142236,,1,0
Sprite,Foreground,Centre,"sb\d.png",0,0 M,7,125177,125977,308,138,401,155 S,7,125177,125977,0.253374,0 P,0,125177,125977,A F,0,142236,,1,0
Sprite,Foreground,Centre,"sb\d.png",0,0 M,7,125177,125977,308,138,362,102 S,7,125177,125977,0.253374,0 P,0,125177,125977,A F,0,142236,,1,0
Sprite,Foreground,Centre,"sb\d.png",0,0 M,7,125177,125977,308,138,292,232 S,7,125177,125977,0.253374,0 P,0,125177,125977,A F,0,142236,,1,0
Sprite,Foreground,Centre,"sb\d.png",0,0 M,7,125177,125977,308,138,385,232 S,7,125177,125977,0.253374,0 P,0,125177,125977,A F,0,142236,,1,0
Sprite,Foreground,Centre,"sb\d.png",0,0 M,7,125177,125977,308,138,259,64 S,7,125177,125977,0.253374,0 P,0,125177,125977,A F,0,142236,,1,0
Sprite,Foreground,Centre,"sb\d.png",0,0 M,7,125177,125977,308,138,387,73 S,7,125177,125977,0.253374,0 P,0,125177,125977,A F,0,142236,,1,0
Sprite,Foreground,Centre,"sb\d.png",0,0 M,7,125177,125977,308,138,384,146 S,7,125177,125977,0.253374,0 P,0,125177,125977,A F,0,142236,,1,0
Sprite,Foreground,Centre,"sb\d.png",0,0 M,7,125177,125977,308,138,365,140 S,7,125177,125977,0.253374,0 P,0,125177,125977,A F,0,142236,,1,0
Sprite,Foreground,Centre,"sb\d.png",0,0 M,7,125177,125977,308,138,278,236 S,7,125177,125977,0.253374,0 P,0,125177,125977,A F,0,142236,,1,0
Sprite,Foreground,Centre,"sb\d.png",0,0 M,7,125471,126271,207,237,245,161 S,7,125471,126271,0.2566886,0 P,0,125471,126271,A F,0,142236,,1,0
Sprite,Foreground,Centre,"sb\d.png",0,0 M,7,125471,126271,207,237,145,236 S,7,125471,126271,0.2566886,0 P,0,125471,126271,A F,0,142236,,1,0
Sprite,Foreground,Centre,"sb\d.png",0,0 M,7,125471,126271,207,237,223,189 S,7,125471,126271,0.2566886,0 P,0,125471,126271,A F,0,142236,,1,0
Sprite,Foreground,Centre,"sb\d.png",0,0 M,7,125471,126271,207,237,169,185 S,7,125471,126271,0.2566886,0 P,0,125471,126271,A F,0,142236,,1,0
Sprite,Foreground,Centre,"sb\d.png",0,0 M,7,125471,126271,207,237,263,163 S,7,125471,126271,0.2566886,0 P,0,125471,126271,A F,0,142236,,1,0
Sprite,Foreground,Centre,"sb\d.png",0,0 M,7,125471,126271,207,237,229,248 S,7,125471,126271,0.2566886,0 P,0,125471,126271,A F,0,142236,,1,0
Sprite,Foreground,Centre,"sb\d.png",0,0 M,7,125471,126271,207,237,238,205 S,7,125471,126271,0.2566886,0 P,0,125471,126271,A F,0,142236,,1,0
Sprite,Foreground,Centre,"sb\d.png",0,0 M,7,125471,126271,207,237,111,156 S,7,125471,126271,0.2566886,0 P,0,125471,126271,A F,0,142236,,1,0
Sprite,Foreground,Centre,"sb\d.png",0,0 M,7,125471,126271,207,237,282,279 S,7,125471,126271,0.2566886,0 P,0,125471,126271,A F,0,142236,,1,0
Sprite,Foreground,Centre,"sb\d.png",0,0 M,7,125471,126271,207,237,285,267 S,7,125471,126271,0.2566886,0 P,0,125471,126271,A F,0,142236,,1,0
Sprite,Foreground,Centre,"sb\d.png",0,0 M,7,125765,126565,125,181,77,175 S,7,125765,126565,0.3010615,0 P,0,125765,126565,A F,0,142236,,1,0
Sprite,Foreground,Centre,"sb\d.png",0,0 M,7,125765,126565,125,181,64,258 S,7,125765,126565,0.3010615,0 P,0,125765,126565,A F,0,142236,,1,0
Sprite,Foreground,Centre,"sb\d.png",0,0 M,7,125765,126565,125,181,123,208 S,7,125765,126565,0.3010615,0 P,0,125765,126565,A F,0,142236,,1,0
Sprite,Foreground,Centre,"sb\d.png",0,0 M,7,125765,126565,125,181,88,154 S,7,125765,126565,0.3010615,0 P,0,125765,126565,A F,0,142236,,1,0
Sprite,Foreground,Centre,"sb\d.png",0,0 M,7,125765,126565,125,181,73,280 S,7,125765,126565,0.3010615,0 P,0,125765,126565,A F,0,142236,,1,0
Sprite,Foreground,Centre,"sb\d.png",0,0 M,7,125765,126565,125,181,147,81 S,7,125765,126565,0.3010615,0 P,0,125765,126565,A F,0,142236,,1,0
Sprite,Foreground,Centre,"sb\d.png",0,0 M,7,125765,126565,125,181,221,273 S,7,125765,126565,0.3010615,0 P,0,125765,126565,A F,0,142236,,1,0
Sprite,Foreground,Centre,"sb\d.png",0,0 M,7,125765,126565,125,181,56,235 S,7,125765,126565,0.3010615,0 P,0,125765,126565,A F,0,142236,,1,0
Sprite,Foreground,Centre,"sb\d.png",0,0 M,7,125765,126565,125,181,43,119 S,7,125765,126565,0.3010615,0 P,0,125765,126565,A F,0,142236,,1,0
Sprite,Foreground,Centre,"sb\d.png",0,0 M,7,125765,126565,125,181,37,103 S,7,125765,126565,0.3010615,0 P,0,125765,126565,A F,0,142236,,1,0
Sprite,Foreground,Centre,"sb\d.png",0,0 M,7,126060,126860,287,363,207,430 S,7,126060,126860,0.3965594,0 P,0,126060,126860,A F,0,142236,,1,0
Sprite,Foreground,Centre,"sb\d.png",0,0 M,7,126060,126860,287,363,315,377 S,7,126060,126860,0.3965594,0 P,0,126060,126860,A F,0,142236,,1,0
Sprite,Foreground,Centre,"sb\d.png",0,0 M,7,126060,126860,287,363,235,430 S,7,126060,126860,0.3965594,0 P,0,126060,126860,A F,0,142236,,1,0
Sprite,Foreground,Centre,"sb\d.png",0,0 M,7,126060,126860,287,363,358,352 S,7,126060,126860,0.3965594,0 P,0,126060,126860,A F,0,142236,,1,0
Sprite,Foreground,Centre,"sb\d.png",0,0 M,7,126060,126860,287,363,368,423 S,7,126060,126860,0.3965594,0 P,0,126060,126860,A F,0,142236,,1,0
Sprite,Foreground,Centre,"sb\d.png",0,0 M,7,126060,126860,287,363,279,331 S,7,126060,126860,0.3965594,0 P,0,126060,126860,A F,0,142236,,1,0
Sprite,Foreground,Centre,"sb\d.png",0,0 M,7,126060,126860,287,363,342,348 S,7,126060,126860,0.3965594,0 P,0,126060,126860,A F,0,142236,,1,0
Sprite,Foreground,Centre,"sb\d.png",0,0 M,7,126060,126860,287,363,316,462 S,7,126060,126860,0.3965594,0 P,0,126060,126860,A F,0,142236,,1,0
Sprite,Foreground,Centre,"sb\d.png",0,0 M,7,126060,126860,287,363,308,280 S,7,126060,126860,0.3965594,0 P,0,126060,126860,A F,0,142236,,1,0
Sprite,Foreground,Centre,"sb\d.png",0,0 M,7,126060,126860,287,363,311,461 S,7,126060,126860,0.3965594,0 P,0,126060,126860,A F,0,142236,,1,0
Sprite,Foreground,Centre,"sb\d.png",0,0 M,7,126207,127007,176,408,183,335 S,7,126207,127007,0.4246328,0 P,0,126207,127007,A F,0,142236,,1,0
Sprite,Foreground,Centre,"sb\d.png",0,0 M,7,126207,127007,176,408,76,419 S,7,126207,127007,0.4246328,0 P,0,126207,127007,A F,0,142236,,1,0
Sprite,Foreground,Centre,"sb\d.png",0,0 M,7,126207,127007,176,408,210,383 S,7,126207,127007,0.4246328,0 P,0,126207,127007,A F,0,142236,,1,0
Sprite,Foreground,Centre,"sb\d.png",0,0 M,7,126207,127007,176,408,249,373 S,7,126207,127007,0.4246328,0 P,0,126207,127007,A F,0,142236,,1,0
Sprite,Foreground,Centre,"sb\d.png",0,0 M,7,126207,127007,176,408,233,411 S,7,126207,127007,0.4246328,0 P,0,126207,127007,A F,0,142236,,1,0
Sprite,Foreground,Centre,"sb\d.png",0,0 M,7,126207,127007,176,408,241,416 S,7,126207,127007,0.4246328,0 P,0,126207,127007,A F,0,142236,,1,0
Sprite,Foreground,Centre,"sb\d.png",0,0 M,7,126207,127007,176,408,180,340 S,7,126207,127007,0.4246328,0 P,0,126207,127007,A F,0,142236,,1,0
Sprite,Foreground,Centre,"sb\d.png",0,0 M,7,126207,127007,176,408,202,418 S,7,126207,127007,0.4246328,0 P,0,126207,127007,A F,0,142236,,1,0
Sprite,Foreground,Centre,"sb\d.png",0,0 M,7,126207,127007,176,408,138,357 S,7,126207,127007,0.4246328,0 P,0,126207,127007,A F,0,142236,,1,0
Sprite,Foreground,Centre,"sb\d.png",0,0 M,7,126207,127007,176,408,236,400 S,7,126207,127007,0.4246328,0 P,0,126207,127007,A F,0,142236,,1,0
Sprite,Foreground,Centre,"sb\d.png",0,0 M,7,126354,127154,374,380,341,318 S,7,126354,127154,0.4343202,0 P,0,126354,127154,A F,0,142236,,1,0
Sprite,Foreground,Centre,"sb\d.png",0,0 M,7,126354,127154,374,380,304,412 S,7,126354,127154,0.4343202,0 P,0,126354,127154,A F,0,142236,,1,0
Sprite,Foreground,Centre,"sb\d.png",0,0 M,7,126354,127154,374,380,315,386 S,7,126354,127154,0.4343202,0 P,0,126354,127154,A F,0,142236,,1,0
Sprite,Foreground,Centre,"sb\d.png",0,0 M,7,126354,127154,374,380,375,434 S,7,126354,127154,0.4343202,0 P,0,126354,127154,A F,0,142236,,1,0
Sprite,Foreground,Centre,"sb\d.png",0,0 M,7,126354,127154,374,380,370,300 S,7,126354,127154,0.4343202,0 P,0,126354,127154,A F,0,142236,,1,0
Sprite,Foreground,Centre,"sb\d.png",0,0 M,7,126354,127154,374,380,361,303 S,7,126354,127154,0.4343202,0 P,0,126354,127154,A F,0,142236,,1,0
Sprite,Foreground,Centre,"sb\d.png",0,0 M,7,126354,127154,374,380,445,392 S,7,126354,127154,0.4343202,0 P,0,126354,127154,A F,0,142236,,1,0
Sprite,Foreground,Centre,"sb\d.png",0,0 M,7,126354,127154,374,380,414,408 S,7,126354,127154,0.4343202,0 P,0,126354,127154,A F,0,142236,,1,0
Sprite,Foreground,Centre,"sb\d.png",0,0 M,7,126354,127154,374,380,277,393 S,7,126354,127154,0.4343202,0 P,0,126354,127154,A F,0,142236,,1,0
Sprite,Foreground,Centre,"sb\d.png",0,0 M,7,126354,127154,374,380,365,478 S,7,126354,127154,0.4343202,0 P,0,126354,127154,A F,0,142236,,1,0
Sprite,Foreground,Centre,"sb\d.png",0,0 M,7,126501,127301,287,273,211,229 S,7,126501,127301,0.2744685,0 P,0,126501,127301,A F,0,142236,,1,0
Sprite,Foreground,Centre,"sb\d.png",0,0 M,7,126501,127301,287,273,313,332 S,7,126501,127301,0.2744685,0 P,0,126501,127301,A F,0,142236,,1,0
Sprite,Foreground,Centre,"sb\d.png",0,0 M,7,126501,127301,287,273,238,225 S,7,126501,127301,0.2744685,0 P,0,126501,127301,A F,0,142236,,1,0
Sprite,Foreground,Centre,"sb\d.png",0,0 M,7,126501,127301,287,273,189,262 S,7,126501,127301,0.2744685,0 P,0,126501,127301,A F,0,142236,,1,0
Sprite,Foreground,Centre,"sb\d.png",0,0 M,7,126501,127301,287,273,245,340 S,7,126501,127301,0.2744685,0 P,0,126501,127301,A F,0,142236,,1,0
Sprite,Foreground,Centre,"sb\d.png",0,0 M,7,126501,127301,287,273,351,279 S,7,126501,127301,0.2744685,0 P,0,126501,127301,A F,0,142236,,1,0
Sprite,Foreground,Centre,"sb\d.png",0,0 M,7,126501,127301,287,273,377,213 S,7,126501,127301,0.2744685,0 P,0,126501,127301,A F,0,142236,,1,0
Sprite,Foreground,Centre,"sb\d.png",0,0 M,7,126501,127301,287,273,376,343 S,7,126501,127301,0.2744685,0 P,0,126501,127301,A F,0,142236,,1,0
Sprite,Foreground,Centre,"sb\d.png",0,0 M,7,126501,127301,287,273,366,266 S,7,126501,127301,0.2744685,0 P,0,126501,127301,A F,0,142236,,1,0
Sprite,Foreground,Centre,"sb\d.png",0,0 M,7,126501,127301,287,273,355,244 S,7,126501,127301,0.2744685,0 P,0,126501,127301,A F,0,142236,,1,0
Sprite,Foreground,Centre,"sb\d.png",0,0 M,7,126648,127448,382,391,342,374 S,7,126648,127448,0.3603556,0 P,0,126648,127448,A F,0,142236,,1,0
Sprite,Foreground,Centre,"sb\d.png",0,0 M,7,126648,127448,382,391,360,375 S,7,126648,127448,0.3603556,0 P,0,126648,127448,A F,0,142236,,1,0
Sprite,Foreground,Centre,"sb\d.png",0,0 M,7,126648,127448,382,391,414,411 S,7,126648,127448,0.3603556,0 P,0,126648,127448,A F,0,142236,,1,0
Sprite,Foreground,Centre,"sb\d.png",0,0 M,7,126648,127448,382,391,468,473 S,7,126648,127448,0.3603556,0 P,0,126648,127448,A F,0,142236,,1,0
Sprite,Foreground,Centre,"sb\d.png",0,0 M,7,126648,127448,382,391,341,427 S,7,126648,127448,0.3603556,0 P,0,126648,127448,A F,0,142236,,1,0
Sprite,Foreground,Centre,"sb\d.png",0,0 M,7,126648,127448,382,391,350,384 S,7,126648,127448,0.3603556,0 P,0,126648,127448,A F,0,142236,,1,0
Sprite,Foreground,Centre,"sb\d.png",0,0 M,7,126648,127448,382,391,441,334 S,7,126648,127448,0.3603556,0 P,0,126648,127448,A F,0,142236,,1,0
Sprite,Foreground,Centre,"sb\d.png",0,0 M,7,126648,127448,382,391,463,394 S,7,126648,127448,0.3603556,0 P,0,126648,127448,A F,0,142236,,1,0
Sprite,Foreground,Centre,"sb\d.png",0,0 M,7,126648,127448,382,391,454,480 S,7,126648,127448,0.3603556,0 P,0,126648,127448,A F,0,142236,,1,0
Sprite,Foreground,Centre,"sb\d.png",0,0 M,7,126648,127448,382,391,336,390 S,7,126648,127448,0.3603556,0 P,0,126648,127448,A F,0,142236,,1,0
Sprite,Foreground,Centre,"sb\d.png",0,0 M,7,126795,127595,426,260,363,212 S,7,126795,127595,0.3154958,0 P,0,126795,127595,A F,0,142236,,1,0
Sprite,Foreground,Centre,"sb\d.png",0,0 M,7,126795,127595,426,260,449,277 S,7,126795,127595,0.3154958,0 P,0,126795,127595,A F,0,142236,,1,0
Sprite,Foreground,Centre,"sb\d.png",0,0 M,7,126795,127595,426,260,507,232 S,7,126795,127595,0.3154958,0 P,0,126795,127595,A F,0,142236,,1,0
Sprite,Foreground,Centre,"sb\d.png",0,0 M,7,126795,127595,426,260,477,317 S,7,126795,127595,0.3154958,0 P,0,126795,127595,A F,0,142236,,1,0
Sprite,Foreground,Centre,"sb\d.png",0,0 M,7,126795,127595,426,260,349,180 S,7,126795,127595,0.3154958,0 P,0,126795,127595,A F,0,142236,,1,0
Sprite,Foreground,Centre,"sb\d.png",0,0 M,7,126795,127595,426,260,448,287 S,7,126795,127595,0.3154958,0 P,0,126795,127595,A F,0,142236,,1,0
Sprite,Foreground,Centre,"sb\d.png",0,0 M,7,126795,127595,426,260,440,323 S,7,126795,127595,0.3154958,0 P,0,126795,127595,A F,0,142236,,1,0
Sprite,Foreground,Centre,"sb\d.png",0,0 M,7,126795,127595,426,260,498,207 S,7,126795,127595,0.3154958,0 P,0,126795,127595,A F,0,142236,,1,0
Sprite,Foreground,Centre,"sb\d.png",0,0 M,7,126795,127595,426,260,401,278 S,7,126795,127595,0.3154958,0 P,0,126795,127595,A F,0,142236,,1,0
Sprite,Foreground,Centre,"sb\d.png",0,0 M,7,126795,127595,426,260,458,176 S,7,126795,127595,0.3154958,0 P,0,126795,127595,A F,0,142236,,1,0
Sprite,Foreground,Centre,"sb\d.png",0,0 M,7,126942,127742,545,370,644,301 S,7,126942,127742,0.3566422,0 P,0,126942,127742,A F,0,142236,,1,0
Sprite,Foreground,Centre,"sb\d.png",0,0 M,7,126942,127742,545,370,541,282 S,7,126942,127742,0.3566422,0 P,0,126942,127742,A F,0,142236,,1,0
Sprite,Foreground,Centre,"sb\d.png",0,0 M,7,126942,127742,545,370,475,467 S,7,126942,127742,0.3566422,0 P,0,126942,127742,A F,0,142236,,1,0
Sprite,Foreground,Centre,"sb\d.png",0,0 M,7,126942,127742,545,370,452,336 S,7,126942,127742,0.3566422,0 P,0,126942,127742,A F,0,142236,,1,0
Sprite,Foreground,Centre,"sb\d.png",0,0 M,7,126942,127742,545,370,451,373 S,7,126942,127742,0.3566422,0 P,0,126942,127742,A F,0,142236,,1,0
Sprite,Foreground,Centre,"sb\d.png",0,0 M,7,126942,127742,545,370,559,441 S,7,126942,127742,0.3566422,0 P,0,126942,127742,A F,0,142236,,1,0
Sprite,Foreground,Centre,"sb\d.png",0,0 M,7,126942,127742,545,370,489,293 S,7,126942,127742,0.3566422,0 P,0,126942,127742,A F,0,142236,,1,0
Sprite,Foreground,Centre,"sb\d.png",0,0 M,7,126942,127742,545,370,476,425 S,7,126942,127742,0.3566422,0 P,0,126942,127742,A F,0,142236,,1,0
Sprite,Foreground,Centre,"sb\d.png",0,0 M,7,126942,127742,545,370,611,420 S,7,126942,127742,0.3566422,0 P,0,126942,127742,A F,0,142236,,1,0
Sprite,Foreground,Centre,"sb\d.png",0,0 M,7,126942,127742,545,370,493,305 S,7,126942,127742,0.3566422,0 P,0,126942,127742,A F,0,142236,,1,0
Sprite,Foreground,Centre,"sb\d.png",0,0 M,7,127236,128036,489,157,424,172 S,7,127236,128036,0.2747247,0 P,0,127236,128036,A F,0,142236,,1,0
Sprite,Foreground,Centre,"sb\d.png",0,0 M,7,127236,128036,489,157,534,222 S,7,127236,128036,0.2747247,0 P,0,127236,128036,A F,0,142236,,1,0
Sprite,Foreground,Centre,"sb\d.png",0,0 M,7,127236,128036,489,157,434,137 S,7,127236,128036,0.2747247,0 P,0,127236,128036,A F,0,142236,,1,0
Sprite,Foreground,Centre,"sb\d.png",0,0 M,7,127236,128036,489,157,397,113 S,7,127236,128036,0.2747247,0 P,0,127236,128036,A F,0,142236,,1,0
Sprite,Foreground,Centre,"sb\d.png",0,0 M,7,127236,128036,489,157,485,128 S,7,127236,128036,0.2747247,0 P,0,127236,128036,A F,0,142236,,1,0
Sprite,Foreground,Centre,"sb\d.png",0,0 M,7,127236,128036,489,157,510,140 S,7,127236,128036,0.2747247,0 P,0,127236,128036,A F,0,142236,,1,0
Sprite,Foreground,Centre,"sb\d.png",0,0 M,7,127236,128036,489,157,547,95 S,7,127236,128036,0.2747247,0 P,0,127236,128036,A F,0,142236,,1,0
Sprite,Foreground,Centre,"sb\d.png",0,0 M,7,127236,128036,489,157,409,83 S,7,127236,128036,0.2747247,0 P,0,127236,128036,A F,0,142236,,1,0
Sprite,Foreground,Centre,"sb\d.png",0,0 M,7,127236,128036,489,157,494,208 S,7,127236,128036,0.2747247,0 P,0,127236,128036,A F,0,142236,,1,0
Sprite,Foreground,Centre,"sb\d.png",0,0 M,7,127236,128036,489,157,463,201 S,7,127236,128036,0.2747247,0 P,0,127236,128036,A F,0,142236,,1,0
Sprite,Foreground,Centre,"sb\d.png",0,0 M,7,127383,128183,576,250,493,267 S,7,127383,128183,0.3413711,0 P,0,127383,128183,A F,0,142236,,1,0
Sprite,Foreground,Centre,"sb\d.png",0,0 M,7,127383,128183,576,250,484,305 S,7,127383,128183,0.3413711,0 P,0,127383,128183,A F,0,142236,,1,0
Sprite,Foreground,Centre,"sb\d.png",0,0 M,7,127383,128183,576,250,545,289 S,7,127383,128183,0.3413711,0 P,0,127383,128183,A F,0,142236,,1,0
Sprite,Foreground,Centre,"sb\d.png",0,0 M,7,127383,128183,576,250,617,242 S,7,127383,128183,0.3413711,0 P,0,127383,128183,A F,0,142236,,1,0
Sprite,Foreground,Centre,"sb\d.png",0,0 M,7,127383,128183,576,250,584,317 S,7,127383,128183,0.3413711,0 P,0,127383,128183,A F,0,142236,,1,0
Sprite,Foreground,Centre,"sb\d.png",0,0 M,7,127383,128183,576,250,560,331 S,7,127383,128183,0.3413711,0 P,0,127383,128183,A F,0,142236,,1,0
Sprite,Foreground,Centre,"sb\d.png",0,0 M,7,127383,128183,576,250,557,313 S,7,127383,128183,0.3413711,0 P,0,127383,128183,A F,0,142236,,1,0
Sprite,Foreground,Centre,"sb\d.png",0,0 M,7,127383,128183,576,250,592,300 S,7,127383,128183,0.3413711,0 P,0,127383,128183,A F,0,142236,,1,0
Sprite,Foreground,Centre,"sb\d.png",0,0 M,7,127383,128183,576,250,522,334 S,7,127383,128183,0.3413711,0 P,0,127383,128183,A F,0,142236,,1,0
Sprite,Foreground,Centre,"sb\d.png",0,0 M,7,127383,128183,576,250,592,348 S,7,127383,128183,0.3413711,0 P,0,127383,128183,A F,0,142236,,1,0
Sprite,Foreground,Centre,"sb\d.png",0,0 M,7,127530,128330,363,308,372,240 S,7,127530,128330,0.2604122,0 P,0,127530,128330,A F,0,142236,,1,0
Sprite,Foreground,Centre,"sb\d.png",0,0 M,7,127530,128330,363,308,456,296 S,7,127530,128330,0.2604122,0 P,0,127530,128330,A F,0,142236,,1,0
Sprite,Foreground,Centre,"sb\d.png",0,0 M,7,127530,128330,363,308,349,392 S,7,127530,128330,0.2604122,0 P,0,127530,128330,A F,0,142236,,1,0
Sprite,Foreground,Centre,"sb\d.png",0,0 M,7,127530,128330,363,308,274,336 S,7,127530,128330,0.2604122,0 P,0,127530,128330,A F,0,142236,,1,0
Sprite,Foreground,Centre,"sb\d.png",0,0 M,7,127530,128330,363,308,324,407 S,7,127530,128330,0.2604122,0 P,0,127530,128330,A F,0,142236,,1,0
Sprite,Foreground,Centre,"sb\d.png",0,0 M,7,127530,128330,363,308,436,298 S,7,127530,128330,0.2604122,0 P,0,127530,128330,A F,0,142236,,1,0
Sprite,Foreground,Centre,"sb\d.png",0,0 M,7,127530,128330,363,308,396,226 S,7,127530,128330,0.2604122,0 P,0,127530,128330,A F,0,142236,,1,0
Sprite,Foreground,Centre,"sb\d.png",0,0 M,7,127530,128330,363,308,461,345 S,7,127530,128330,0.2604122,0 P,0,127530,128330,A F,0,142236,,1,0
Sprite,Foreground,Centre,"sb\d.png",0,0 M,7,127530,128330,363,308,273,384 S,7,127530,128330,0.2604122,0 P,0,127530,128330,A F,0,142236,,1,0
Sprite,Foreground,Centre,"sb\d.png",0,0 M,7,127530,128330,363,308,403,275 S,7,127530,128330,0.2604122,0 P,0,127530,128330,A F,0,142236,,1,0
Sprite,Foreground,Centre,"sb\d.png",0,0 M,7,127824,128624,219,256,306,259 S,7,127824,128624,0.4131823,0 P,0,127824,128624,A F,0,142236,,1,0
Sprite,Foreground,Centre,"sb\d.png",0,0 M,7,127824,128624,219,256,155,258 S,7,127824,128624,0.4131823,0 P,0,127824,128624,A F,0,142236,,1,0
Sprite,Foreground,Centre,"sb\d.png",0,0 M,7,127824,128624,219,256,195,231 S,7,127824,128624,0.4131823,0 P,0,127824,128624,A F,0,142236,,1,0
Sprite,Foreground,Centre,"sb\d.png",0,0 M,7,127824,128624,219,256,223,232 S,7,127824,128624,0.4131823,0 P,0,127824,128624,A F,0,142236,,1,0
Sprite,Foreground,Centre,"sb\d.png",0,0 M,7,127824,128624,219,256,177,322 S,7,127824,128624,0.4131823,0 P,0,127824,128624,A F,0,142236,,1,0
Sprite,Foreground,Centre,"sb\d.png",0,0 M,7,127824,128624,219,256,277,301 S,7,127824,128624,0.4131823,0 P,0,127824,128624,A F,0,142236,,1,0
Sprite,Foreground,Centre,"sb\d.png",0,0 M,7,127824,128624,219,256,199,263 S,7,127824,128624,0.4131823,0 P,0,127824,128624,A F,0,142236,,1,0
Sprite,Foreground,Centre,"sb\d.png",0,0 M,7,127824,128624,219,256,203,170 S,7,127824,128624,0.4131823,0 P,0,127824,128624,A F,0,142236,,1,0
Sprite,Foreground,Centre,"sb\d.png",0,0 M,7,127824,128624,219,256,185,339 S,7,127824,128624,0.4131823,0 P,0,127824,128624,A F,0,142236,,1,0
Sprite,Foreground,Centre,"sb\d.png",0,0 M,7,127824,128624,219,256,274,286 S,7,127824,128624,0.4131823,0 P,0,127824,128624,A F,0,142236,,1,0
Sprite,Foreground,Centre,"sb\d.png",0,0 M,7,127971,128771,157,113,104,180 S,7,127971,128771,0.4146999,0 P,0,127971,128771,A F,0,142236,,1,0
Sprite,Foreground,Centre,"sb\d.png",0,0 M,7,127971,128771,157,113,168,103 S,7,127971,128771,0.4146999,0 P,0,127971,128771,A F,0,142236,,1,0
Sprite,Foreground,Centre,"sb\d.png",0,0 M,7,127971,128771,157,113,205,157 S,7,127971,128771,0.4146999,0 P,0,127971,128771,A F,0,142236,,1,0
Sprite,Foreground,Centre,"sb\d.png",0,0 M,7,127971,128771,157,113,174,25 S,7,127971,128771,0.4146999,0 P,0,127971,128771,A F,0,142236,,1,0
Sprite,Foreground,Centre,"sb\d.png",0,0 M,7,127971,128771,157,113,93,21 S,7,127971,128771,0.4146999,0 P,0,127971,128771,A F,0,142236,,1,0
Sprite,Foreground,Centre,"sb\d.png",0,0 M,7,127971,128771,157,113,233,143 S,7,127971,128771,0.4146999,0 P,0,127971,128771,A F,0,142236,,1,0
Sprite,Foreground,Centre,"sb\d.png",0,0 M,7,127971,128771,157,113,104,134 S,7,127971,128771,0.4146999,0 P,0,127971,128771,A F,0,142236,,1,0
Sprite,Foreground,Centre,"sb\d.png",0,0 M,7,127971,128771,157,113,185,169 S,7,127971,128771,0.4146999,0 P,0,127971,128771,A F,0,142236,,1,0
Sprite,Foreground,Centre,"sb\d.png",0,0 M,7,127971,128771,157,113,243,22 S,7,127971,128771,0.4146999,0 P,0,127971,128771,A F,0,142236,,1,0
Sprite,Foreground,Centre,"sb\d.png",0,0 M,7,127971,128771,157,113,166,119 S,7,127971,128771,0.4146999,0 P,0,127971,128771,A F,0,142236,,1,0
Sprite,Foreground,Centre,"sb\d.png",0,0 M,7,128118,128918,64,231,-33,164 S,7,128118,128918,0.3014354,0 P,0,128118,128918,A F,0,142236,,1,0
Sprite,Foreground,Centre,"sb\d.png",0,0 M,7,128118,128918,64,231,-22,276 S,7,128118,128918,0.3014354,0 P,0,128118,128918,A F,0,142236,,1,0
Sprite,Foreground,Centre,"sb\d.png",0,0 M,7,128118,128918,64,231,16,242 S,7,128118,128918,0.3014354,0 P,0,128118,128918,A F,0,142236,,1,0
Sprite,Foreground,Centre,"sb\d.png",0,0 M,7,128118,128918,64,231,77,253 S,7,128118,128918,0.3014354,0 P,0,128118,128918,A F,0,142236,,1,0
Sprite,Foreground,Centre,"sb\d.png",0,0 M,7,128118,128918,64,231,107,324 S,7,128118,128918,0.3014354,0 P,0,128118,128918,A F,0,142236,,1,0
Sprite,Foreground,Centre,"sb\d.png",0,0 M,7,128118,128918,64,231,148,268 S,7,128118,128918,0.3014354,0 P,0,128118,128918,A F,0,142236,,1,0
Sprite,Foreground,Centre,"sb\d.png",0,0 M,7,128118,128918,64,231,162,271 S,7,128118,128918,0.3014354,0 P,0,128118,128918,A F,0,142236,,1,0
Sprite,Foreground,Centre,"sb\d.png",0,0 M,7,128118,128918,64,231,100,256 S,7,128118,128918,0.3014354,0 P,0,128118,128918,A F,0,142236,,1,0
Sprite,Foreground,Centre,"sb\d.png",0,0 M,7,128118,128918,64,231,-25,259 S,7,128118,128918,0.3014354,0 P,0,128118,128918,A F,0,142236,,1,0
Sprite,Foreground,Centre,"sb\d.png",0,0 M,7,128118,128918,64,231,95,317 S,7,128118,128918,0.3014354,0 P,0,128118,128918,A F,0,142236,,1,0
Sprite,Foreground,Centre,"sb\d.png",0,0 M,7,128412,129212,284,388,205,446 S,7,128412,129212,0.3141639,0 P,0,128412,129212,A F,0,142236,,1,0
Sprite,Foreground,Centre,"sb\d.png",0,0 M,7,128412,129212,284,388,365,302 S,7,128412,129212,0.3141639,0 P,0,128412,129212,A F,0,142236,,1,0
Sprite,Foreground,Centre,"sb\d.png",0,0 M,7,128412,129212,284,388,217,473 S,7,128412,129212,0.3141639,0 P,0,128412,129212,A F,0,142236,,1,0
Sprite,Foreground,Centre,"sb\d.png",0,0 M,7,128412,129212,284,388,340,346 S,7,128412,129212,0.3141639,0 P,0,128412,129212,A F,0,142236,,1,0
Sprite,Foreground,Centre,"sb\d.png",0,0 M,7,128412,129212,284,388,264,462 S,7,128412,129212,0.3141639,0 P,0,128412,129212,A F,0,142236,,1,0
Sprite,Foreground,Centre,"sb\d.png",0,0 M,7,128412,129212,284,388,230,311 S,7,128412,129212,0.3141639,0 P,0,128412,129212,A F,0,142236,,1,0
Sprite,Foreground,Centre,"sb\d.png",0,0 M,7,128412,129212,284,388,297,331 S,7,128412,129212,0.3141639,0 P,0,128412,129212,A F,0,142236,,1,0
Sprite,Foreground,Centre,"sb\d.png",0,0 M,7,128412,129212,284,388,318,384 S,7,128412,129212,0.3141639,0 P,0,128412,129212,A F,0,142236,,1,0
Sprite,Foreground,Centre,"sb\d.png",0,0 M,7,128412,129212,284,388,329,384 S,7,128412,129212,0.3141639,0 P,0,128412,129212,A F,0,142236,,1,0
Sprite,Foreground,Centre,"sb\d.png",0,0 M,7,128412,129212,284,388,216,292 S,7,128412,129212,0.3141639,0 P,0,128412,129212,A F,0,142236,,1,0
Sprite,Foreground,Centre,"sb\d.png",0,0 M,7,128707,129507,153,208,146,122 S,7,128707,129507,0.3395926,0 P,0,128707,129507,A F,0,142236,,1,0
Sprite,Foreground,Centre,"sb\d.png",0,0 M,7,128707,129507,153,208,244,301 S,7,128707,129507,0.3395926,0 P,0,128707,129507,A F,0,142236,,1,0
Sprite,Foreground,Centre,"sb\d.png",0,0 M,7,128707,129507,153,208,101,289 S,7,128707,129507,0.3395926,0 P,0,128707,129507,A F,0,142236,,1,0
Sprite,Foreground,Centre,"sb\d.png",0,0 M,7,128707,129507,153,208,245,139 S,7,128707,129507,0.3395926,0 P,0,128707,129507,A F,0,142236,,1,0
Sprite,Foreground,Centre,"sb\d.png",0,0 M,7,128707,129507,153,208,227,188 S,7,128707,129507,0.3395926,0 P,0,128707,129507,A F,0,142236,,1,0
Sprite,Foreground,Centre,"sb\d.png",0,0 M,7,128707,129507,153,208,230,228 S,7,128707,129507,0.3395926,0 P,0,128707,129507,A F,0,142236,,1,0
Sprite,Foreground,Centre,"sb\d.png",0,0 M,7,128707,129507,153,208,240,289 S,7,128707,129507,0.3395926,0 P,0,128707,129507,A F,0,142236,,1,0
Sprite,Foreground,Centre,"sb\d.png",0,0 M,7,128707,129507,153,208,128,141 S,7,128707,129507,0.3395926,0 P,0,128707,129507,A F,0,142236,,1,0
Sprite,Foreground,Centre,"sb\d.png",0,0 M,7,128707,129507,153,208,183,126 S,7,128707,129507,0.3395926,0 P,0,128707,129507,A F,0,142236,,1,0
Sprite,Foreground,Centre,"sb\d.png",0,0 M,7,128707,129507,153,208,179,264 S,7,128707,129507,0.3395926,0 P,0,128707,129507,A F,0,142236,,1,0
Sprite,Foreground,Centre,"sb\d.png",0,0 M,7,128854,129654,278,308,240,227 S,7,128854,129654,0.314422,0 P,0,128854,129654,A F,0,142236,,1,0
Sprite,Foreground,Centre,"sb\d.png",0,0 M,7,128854,129654,278,308,316,321 S,7,128854,129654,0.314422,0 P,0,128854,129654,A F,0,142236,,1,0
Sprite,Foreground,Centre,"sb\d.png",0,0 M,7,128854,129654,278,308,263,304 S,7,128854,129654,0.314422,0 P,0,128854,129654,A F,0,142236,,1,0
Sprite,Foreground,Centre,"sb\d.png",0,0 M,7,128854,129654,278,308,179,236 S,7,128854,129654,0.314422,0 P,0,128854,129654,A F,0,142236,,1,0
Sprite,Foreground,Centre,"sb\d.png",0,0 M,7,128854,129654,278,308,244,240 S,7,128854,129654,0.314422,0 P,0,128854,129654,A F,0,142236,,1,0
Sprite,Foreground,Centre,"sb\d.png",0,0 M,7,128854,129654,278,308,276,390 S,7,128854,129654,0.314422,0 P,0,128854,129654,A F,0,142236,,1,0
Sprite,Foreground,Centre,"sb\d.png",0,0 M,7,128854,129654,278,308,352,336 S,7,128854,129654,0.314422,0 P,0,128854,129654,A F,0,142236,,1,0
Sprite,Foreground,Centre,"sb\d.png",0,0 M,7,128854,129654,278,308,321,397 S,7,128854,129654,0.314422,0 P,0,128854,129654,A F,0,142236,,1,0
Sprite,Foreground,Centre,"sb\d.png",0,0 M,7,128854,129654,278,308,199,392 S,7,128854,129654,0.314422,0 P,0,128854,129654,A F,0,142236,,1,0
Sprite,Foreground,Centre,"sb\d.png",0,0 M,7,128854,129654,278,308,182,372 S,7,128854,129654,0.314422,0 P,0,128854,129654,A F,0,142236,,1,0
Sprite,Foreground,Centre,"sb\d.png",0,0 M,7,129001,129801,110,391,115,384 S,7,129001,129801,0.2774628,0 P,0,129001,129801,A F,0,142236,,1,0
Sprite,Foreground,Centre,"sb\d.png",0,0 M,7,129001,129801,110,391,78,394 S,7,129001,129801,0.2774628,0 P,0,129001,129801,A F,0,142236,,1,0
Sprite,Foreground,Centre,"sb\d.png",0,0 M,7,129001,129801,110,391,135,353 S,7,129001,129801,0.2774628,0 P,0,129001,129801,A F,0,142236,,1,0
Sprite,Foreground,Centre,"sb\d.png",0,0 M,7,129001,129801,110,391,69,353 S,7,129001,129801,0.2774628,0 P,0,129001,129801,A F,0,142236,,1,0
Sprite,Foreground,Centre,"sb\d.png",0,0 M,7,129001,129801,110,391,24,368 S,7,129001,129801,0.2774628,0 P,0,129001,129801,A F,0,142236,,1,0
Sprite,Foreground,Centre,"sb\d.png",0,0 M,7,129001,129801,110,391,116,338 S,7,129001,129801,0.2774628,0 P,0,129001,129801,A F,0,142236,,1,0
Sprite,Foreground,Centre,"sb\d.png",0,0 M,7,129001,129801,110,391,35,321 S,7,129001,129801,0.2774628,0 P,0,129001,129801,A F,0,142236,,1,0
Sprite,Foreground,Centre,"sb\d.png",0,0 M,7,129001,129801,110,391,205,344 S,7,129001,129801,0.2774628,0 P,0,129001,129801,A F,0,142236,,1,0
Sprite,Foreground,Centre,"sb\d.png",0,0 M,7,129001,129801,110,391,90,454 S,7,129001,129801,0.2774628,0 P,0,129001,129801,A F,0,142236,,1,0
Sprite,Foreground,Centre,"sb\d.png",0,0 M,7,129001,129801,110,391,94,481 S,7,129001,129801,0.2774628,0 P,0,129001,129801,A F,0,142236,,1,0
Sprite,Foreground,Centre,"sb\d.png",0,0 M,7,129295,130095,318,208,325,156 S,7,129295,130095,0.2523468,0 P,0,129295,130095,A F,0,142236,,1,0
Sprite,Foreground,Centre,"sb\d.png",0,0 M,7,129295,130095,318,208,297,246 S,7,129295,130095,0.2523468,0 P,0,129295,130095,A F,0,142236,,1,0
Sprite,Foreground,Centre,"sb\d.png",0,0 M,7,129295,130095,318,208,230,161 S,7,129295,130095,0.2523468,0 P,0,129295,130095,A F,0,142236,,1,0
Sprite,Foreground,Centre,"sb\d.png",0,0 M,7,129295,130095,318,208,349,152 S,7,129295,130095,0.2523468,0 P,0,129295,130095,A F,0,142236,,1,0
Sprite,Foreground,Centre,"sb\d.png",0,0 M,7,129295,130095,318,208,327,141 S,7,129295,130095,0.2523468,0 P,0,129295,130095,A F,0,142236,,1,0
Sprite,Foreground,Centre,"sb\d.png",0,0 M,7,129295,130095,318,208,340,300 S,7,129295,130095,0.2523468,0 P,0,129295,130095,A F,0,142236,,1,0
Sprite,Foreground,Centre,"sb\d.png",0,0 M,7,129295,130095,318,208,254,265 S,7,129295,130095,0.2523468,0 P,0,129295,130095,A F,0,142236,,1,0
Sprite,Foreground,Centre,"sb\d.png",0,0 M,7,129295,130095,318,208,343,178 S,7,129295,130095,0.2523468,0 P,0,129295,130095,A F,0,142236,,1,0
Sprite,Foreground,Centre,"sb\d.png",0,0 M,7,129295,130095,318,208,228,267 S,7,129295,130095,0.2523468,0 P,0,129295,130095,A F,0,142236,,1,0
Sprite,Foreground,Centre,"sb\d.png",0,0 M,7,129295,130095,318,208,252,250 S,7,129295,130095,0.2523468,0 P,0,129295,130095,A F,0,142236,,1,0
Sprite,Foreground,Centre,"sb\d.png",0,0 M,7,129442,130242,200,140,152,194 S,7,129442,130242,0.4157625,0 P,0,129442,130242,A F,0,142236,,1,0
Sprite,Foreground,Centre,"sb\d.png",0,0 M,7,129442,130242,200,140,292,174 S,7,129442,130242,0.4157625,0 P,0,129442,130242,A F,0,142236,,1,0
Sprite,Foreground,Centre,"sb\d.png",0,0 M,7,129442,130242,200,140,249,138 S,7,129442,130242,0.4157625,0 P,0,129442,130242,A F,0,142236,,1,0
Sprite,Foreground,Centre,"sb\d.png",0,0 M,7,129442,130242,200,140,247,176 S,7,129442,130242,0.4157625,0 P,0,129442,130242,A F,0,142236,,1,0
Sprite,Foreground,Centre,"sb\d.png",0,0 M,7,129442,130242,200,140,240,61 S,7,129442,130242,0.4157625,0 P,0,129442,130242,A F,0,142236,,1,0
Sprite,Foreground,Centre,"sb\d.png",0,0 M,7,129442,130242,200,140,219,213 S,7,129442,130242,0.4157625,0 P,0,129442,130242,A F,0,142236,,1,0
Sprite,Foreground,Centre,"sb\d.png",0,0 M,7,129442,130242,200,140,125,237 S,7,129442,130242,0.4157625,0 P,0,129442,130242,A F,0,142236,,1,0
Sprite,Foreground,Centre,"sb\d.png",0,0 M,7,129442,130242,200,140,144,228 S,7,129442,130242,0.4157625,0 P,0,129442,130242,A F,0,142236,,1,0
Sprite,Foreground,Centre,"sb\d.png",0,0 M,7,129442,130242,200,140,265,153 S,7,129442,130242,0.4157625,0 P,0,129442,130242,A F,0,142236,,1,0
Sprite,Foreground,Centre,"sb\d.png",0,0 M,7,129442,130242,200,140,108,167 S,7,129442,130242,0.4157625,0 P,0,129442,130242,A F,0,142236,,1,0
Sprite,Foreground,Centre,"sb\d.png",0,0 M,7,129589,130389,327,214,332,157 S,7,129589,130389,0.2686976,0 P,0,129589,130389,A F,0,142236,,1,0
Sprite,Foreground,Centre,"sb\d.png",0,0 M,7,129589,130389,327,214,410,169 S,7,129589,130389,0.2686976,0 P,0,129589,130389,A F,0,142236,,1,0
Sprite,Foreground,Centre,"sb\d.png",0,0 M,7,129589,130389,327,214,415,186 S,7,129589,130389,0.2686976,0 P,0,129589,130389,A F,0,142236,,1,0
Sprite,Foreground,Centre,"sb\d.png",0,0 M,7,129589,130389,327,214,297,296 S,7,129589,130389,0.2686976,0 P,0,129589,130389,A F,0,142236,,1,0
Sprite,Foreground,Centre,"sb\d.png",0,0 M,7,129589,130389,327,214,297,118 S,7,129589,130389,0.2686976,0 P,0,129589,130389,A F,0,142236,,1,0
Sprite,Foreground,Centre,"sb\d.png",0,0 M,7,129589,130389,327,214,277,162 S,7,129589,130389,0.2686976,0 P,0,129589,130389,A F,0,142236,,1,0
Sprite,Foreground,Centre,"sb\d.png",0,0 M,7,129589,130389,327,214,263,169 S,7,129589,130389,0.2686976,0 P,0,129589,130389,A F,0,142236,,1,0
Sprite,Foreground,Centre,"sb\d.png",0,0 M,7,129589,130389,327,214,320,200 S,7,129589,130389,0.2686976,0 P,0,129589,130389,A F,0,142236,,1,0
Sprite,Foreground,Centre,"sb\d.png",0,0 M,7,129589,130389,327,214,230,177 S,7,129589,130389,0.2686976,0 P,0,129589,130389,A F,0,142236,,1,0
Sprite,Foreground,Centre,"sb\d.png",0,0 M,7,129589,130389,327,214,382,298 S,7,129589,130389,0.2686976,0 P,0,129589,130389,A F,0,142236,,1,0
Sprite,Foreground,Centre,"sb\d.png",0,0 M,7,129736,130536,204,286,272,198 S,7,129736,130536,0.3579287,0 P,0,129736,130536,A F,0,142236,,1,0
Sprite,Foreground,Centre,"sb\d.png",0,0 M,7,129736,130536,204,286,107,204 S,7,129736,130536,0.3579287,0 P,0,129736,130536,A F,0,142236,,1,0
Sprite,Foreground,Centre,"sb\d.png",0,0 M,7,129736,130536,204,286,115,345 S,7,129736,130536,0.3579287,0 P,0,129736,130536,A F,0,142236,,1,0
Sprite,Foreground,Centre,"sb\d.png",0,0 M,7,129736,130536,204,286,184,267 S,7,129736,130536,0.3579287,0 P,0,129736,130536,A F,0,142236,,1,0
Sprite,Foreground,Centre,"sb\d.png",0,0 M,7,129736,130536,204,286,149,231 S,7,129736,130536,0.3579287,0 P,0,129736,130536,A F,0,142236,,1,0
Sprite,Foreground,Centre,"sb\d.png",0,0 M,7,129736,130536,204,286,129,201 S,7,129736,130536,0.3579287,0 P,0,129736,130536,A F,0,142236,,1,0
Sprite,Foreground,Centre,"sb\d.png",0,0 M,7,129736,130536,204,286,251,332 S,7,129736,130536,0.3579287,0 P,0,129736,130536,A F,0,142236,,1,0
Sprite,Foreground,Centre,"sb\d.png",0,0 M,7,129736,130536,204,286,214,195 S,7,129736,130536,0.3579287,0 P,0,129736,130536,A F,0,142236,,1,0
Sprite,Foreground,Centre,"sb\d.png",0,0 M,7,129736,130536,204,286,183,347 S,7,129736,130536,0.3579287,0 P,0,129736,130536,A F,0,142236,,1,0
Sprite,Foreground,Centre,"sb\d.png",0,0 M,7,129736,130536,204,286,129,262 S,7,129736,130536,0.3579287,0 P,0,129736,130536,A F,0,142236,,1,0
Sprite,Foreground,Centre,"sb\d.png",0,0 M,7,129883,130683,302,125,272,42 S,7,129883,130683,0.4039415,0 P,0,129883,130683,A F,0,142236,,1,0
Sprite,Foreground,Centre,"sb\d.png",0,0 M,7,129883,130683,302,125,271,150 S,7,129883,130683,0.4039415,0 P,0,129883,130683,A F,0,142236,,1,0
Sprite,Foreground,Centre,"sb\d.png",0,0 M,7,129883,130683,302,125,390,166 S,7,129883,130683,0.4039415,0 P,0,129883,130683,A F,0,142236,,1,0
Sprite,Foreground,Centre,"sb\d.png",0,0 M,7,129883,130683,302,125,353,127 S,7,129883,130683,0.4039415,0 P,0,129883,130683,A F,0,142236,,1,0
Sprite,Foreground,Centre,"sb\d.png",0,0 M,7,129883,130683,302,125,363,74 S,7,129883,130683,0.4039415,0 P,0,129883,130683,A F,0,142236,,1,0
Sprite,Foreground,Centre,"sb\d.png",0,0 M,7,129883,130683,302,125,255,167 S,7,129883,130683,0.4039415,0 P,0,129883,130683,A F,0,142236,,1,0
Sprite,Foreground,Centre,"sb\d.png",0,0 M,7,129883,130683,302,125,312,161 S,7,129883,130683,0.4039415,0 P,0,129883,130683,A F,0,142236,,1,0
Sprite,Foreground,Centre,"sb\d.png",0,0 M,7,129883,130683,302,125,233,205 S,7,129883,130683,0.4039415,0 P,0,129883,130683,A F,0,142236,,1,0
Sprite,Foreground,Centre,"sb\d.png",0,0 M,7,129883,130683,302,125,238,201 S,7,129883,130683,0.4039415,0 P,0,129883,130683,A F,0,142236,,1,0
Sprite,Foreground,Centre,"sb\d.png",0,0 M,7,129883,130683,302,125,314,214 S,7,129883,130683,0.4039415,0 P,0,129883,130683,A F,0,142236,,1,0
Sprite,Foreground,Centre,"sb\d.png",0,0 M,7,130177,130977,482,310,406,368 S,7,130177,130977,0.350412,0 P,0,130177,130977,A F,0,142236,,1,0
Sprite,Foreground,Centre,"sb\d.png",0,0 M,7,130177,130977,482,310,406,243 S,7,130177,130977,0.350412,0 P,0,130177,130977,A F,0,142236,,1,0
Sprite,Foreground,Centre,"sb\d.png",0,0 M,7,130177,130977,482,310,471,319 S,7,130177,130977,0.350412,0 P,0,130177,130977,A F,0,142236,,1,0
Sprite,Foreground,Centre,"sb\d.png",0,0 M,7,130177,130977,482,310,564,287 S,7,130177,130977,0.350412,0 P,0,130177,130977,A F,0,142236,,1,0
Sprite,Foreground,Centre,"sb\d.png",0,0 M,7,130177,130977,482,310,505,312 S,7,130177,130977,0.350412,0 P,0,130177,130977,A F,0,142236,,1,0
Sprite,Foreground,Centre,"sb\d.png",0,0 M,7,130177,130977,482,310,511,317 S,7,130177,130977,0.350412,0 P,0,130177,130977,A F,0,142236,,1,0
Sprite,Foreground,Centre,"sb\d.png",0,0 M,7,130177,130977,482,310,535,307 S,7,130177,130977,0.350412,0 P,0,130177,130977,A F,0,142236,,1,0
Sprite,Foreground,Centre,"sb\d.png",0,0 M,7,130177,130977,482,310,577,343 S,7,130177,130977,0.350412,0 P,0,130177,130977,A F,0,142236,,1,0
Sprite,Foreground,Centre,"sb\d.png",0,0 M,7,130177,130977,482,310,474,233 S,7,130177,130977,0.350412,0 P,0,130177,130977,A F,0,142236,,1,0
Sprite,Foreground,Centre,"sb\d.png",0,0 M,7,130177,130977,482,310,399,339 S,7,130177,130977,0.350412,0 P,0,130177,130977,A F,0,142236,,1,0
Sprite,Foreground,Centre,"sb\d.png",0,0 M,7,130471,131271,386,430,369,525 S,7,130471,131271,0.4297897,0 P,0,130471,131271,A F,0,142236,,1,0
Sprite,Foreground,Centre,"sb\d.png",0,0 M,7,130471,131271,386,430,458,402 S,7,130471,131271,0.4297897,0 P,0,130471,131271,A F,0,142236,,1,0
Sprite,Foreground,Centre,"sb\d.png",0,0 M,7,130471,131271,386,430,322,339 S,7,130471,131271,0.4297897,0 P,0,130471,131271,A F,0,142236,,1,0
Sprite,Foreground,Centre,"sb\d.png",0,0 M,7,130471,131271,386,430,365,358 S,7,130471,131271,0.4297897,0 P,0,130471,131271,A F,0,142236,,1,0
Sprite,Foreground,Centre,"sb\d.png",0,0 M,7,130471,131271,386,430,329,514 S,7,130471,131271,0.4297897,0 P,0,130471,131271,A F,0,142236,,1,0
Sprite,Foreground,Centre,"sb\d.png",0,0 M,7,130471,131271,386,430,398,417 S,7,130471,131271,0.4297897,0 P,0,130471,131271,A F,0,142236,,1,0
Sprite,Foreground,Centre,"sb\d.png",0,0 M,7,130471,131271,386,430,339,375 S,7,130471,131271,0.4297897,0 P,0,130471,131271,A F,0,142236,,1,0
Sprite,Foreground,Centre,"sb\d.png",0,0 M,7,130471,131271,386,430,344,375 S,7,130471,131271,0.4297897,0 P,0,130471,131271,A F,0,142236,,1,0
Sprite,Foreground,Centre,"sb\d.png",0,0 M,7,130471,131271,386,430,378,429 S,7,130471,131271,0.4297897,0 P,0,130471,131271,A F,0,142236,,1,0
Sprite,Foreground,Centre,"sb\d.png",0,0 M,7,130471,131271,386,430,318,498 S,7,130471,131271,0.4297897,0 P,0,130471,131271,A F,0,142236,,1,0
Sprite,Foreground,Centre,"sb\d.png",0,0 M,7,130765,131565,355,285,293,332 S,7,130765,131565,0.2745848,0 P,0,130765,131565,A F,0,142236,,1,0
Sprite,Foreground,Centre,"sb\d.png",0,0 M,7,130765,131565,355,285,378,219 S,7,130765,131565,0.2745848,0 P,0,130765,131565,A F,0,142236,,1,0
Sprite,Foreground,Centre,"sb\d.png",0,0 M,7,130765,131565,355,285,411,224 S,7,130765,131565,0.2745848,0 P,0,130765,131565,A F,0,142236,,1,0
Sprite,Foreground,Centre,"sb\d.png",0,0 M,7,130765,131565,355,285,291,231 S,7,130765,131565,0.2745848,0 P,0,130765,131565,A F,0,142236,,1,0
Sprite,Foreground,Centre,"sb\d.png",0,0 M,7,130765,131565,355,285,398,338 S,7,130765,131565,0.2745848,0 P,0,130765,131565,A F,0,142236,,1,0
Sprite,Foreground,Centre,"sb\d.png",0,0 M,7,130765,131565,355,285,349,245 S,7,130765,131565,0.2745848,0 P,0,130765,131565,A F,0,142236,,1,0
Sprite,Foreground,Centre,"sb\d.png",0,0 M,7,130765,131565,355,285,375,326 S,7,130765,131565,0.2745848,0 P,0,130765,131565,A F,0,142236,,1,0
Sprite,Foreground,Centre,"sb\d.png",0,0 M,7,130765,131565,355,285,417,236 S,7,130765,131565,0.2745848,0 P,0,130765,131565,A F,0,142236,,1,0
Sprite,Foreground,Centre,"sb\d.png",0,0 M,7,130765,131565,355,285,415,238 S,7,130765,131565,0.2745848,0 P,0,130765,131565,A F,0,142236,,1,0
Sprite,Foreground,Centre,"sb\d.png",0,0 M,7,130765,131565,355,285,354,288 S,7,130765,131565,0.2745848,0 P,0,130765,131565,A F,0,142236,,1,0
Sprite,Foreground,Centre,"sb\d.png",0,0 M,7,130912,131712,305,368,285,385 S,7,130912,131712,0.2991575,0 P,0,130912,131712,A F,0,142236,,1,0
Sprite,Foreground,Centre,"sb\d.png",0,0 M,7,130912,131712,305,368,222,288 S,7,130912,131712,0.2991575,0 P,0,130912,131712,A F,0,142236,,1,0
Sprite,Foreground,Centre,"sb\d.png",0,0 M,7,130912,131712,305,368,305,319 S,7,130912,131712,0.2991575,0 P,0,130912,131712,A F,0,142236,,1,0
Sprite,Foreground,Centre,"sb\d.png",0,0 M,7,130912,131712,305,368,341,356 S,7,130912,131712,0.2991575,0 P,0,130912,131712,A F,0,142236,,1,0
Sprite,Foreground,Centre,"sb\d.png",0,0 M,7,130912,131712,305,368,205,392 S,7,130912,131712,0.2991575,0 P,0,130912,131712,A F,0,142236,,1,0
Sprite,Foreground,Centre,"sb\d.png",0,0 M,7,130912,131712,305,368,390,429 S,7,130912,131712,0.2991575,0 P,0,130912,131712,A F,0,142236,,1,0
Sprite,Foreground,Centre,"sb\d.png",0,0 M,7,130912,131712,305,368,360,312 S,7,130912,131712,0.2991575,0 P,0,130912,131712,A F,0,142236,,1,0
Sprite,Foreground,Centre,"sb\d.png",0,0 M,7,130912,131712,305,368,253,316 S,7,130912,131712,0.2991575,0 P,0,130912,131712,A F,0,142236,,1,0
Sprite,Foreground,Centre,"sb\d.png",0,0 M,7,130912,131712,305,368,242,347 S,7,130912,131712,0.2991575,0 P,0,130912,131712,A F,0,142236,,1,0
Sprite,Foreground,Centre,"sb\d.png",0,0 M,7,130912,131712,305,368,375,310 S,7,130912,131712,0.2991575,0 P,0,130912,131712,A F,0,142236,,1,0
Sprite,Foreground,Centre,"sb\d.png",0,0 M,7,131060,131860,375,439,374,370 S,7,131060,131860,0.4314323,0 P,0,131060,131860,A F,0,142236,,1,0
Sprite,Foreground,Centre,"sb\d.png",0,0 M,7,131060,131860,375,439,292,365 S,7,131060,131860,0.4314323,0 P,0,131060,131860,A F,0,142236,,1,0
Sprite,Foreground,Centre,"sb\d.png",0,0 M,7,131060,131860,375,439,407,443 S,7,131060,131860,0.4314323,0 P,0,131060,131860,A F,0,142236,,1,0
Sprite,Foreground,Centre,"sb\d.png",0,0 M,7,131060,131860,375,439,371,532 S,7,131060,131860,0.4314323,0 P,0,131060,131860,A F,0,142236,,1,0
Sprite,Foreground,Centre,"sb\d.png",0,0 M,7,131060,131860,375,439,407,384 S,7,131060,131860,0.4314323,0 P,0,131060,131860,A F,0,142236,,1,0
Sprite,Foreground,Centre,"sb\d.png",0,0 M,7,131060,131860,375,439,408,403 S,7,131060,131860,0.4314323,0 P,0,131060,131860,A F,0,142236,,1,0
Sprite,Foreground,Centre,"sb\d.png",0,0 M,7,131060,131860,375,439,450,497 S,7,131060,131860,0.4314323,0 P,0,131060,131860,A F,0,142236,,1,0
Sprite,Foreground,Centre,"sb\d.png",0,0 M,7,131060,131860,375,439,305,445 S,7,131060,131860,0.4314323,0 P,0,131060,131860,A F,0,142236,,1,0
Sprite,Foreground,Centre,"sb\d.png",0,0 M,7,131060,131860,375,439,288,395 S,7,131060,131860,0.4314323,0 P,0,131060,131860,A F,0,142236,,1,0
Sprite,Foreground,Centre,"sb\d.png",0,0 M,7,131060,131860,375,439,462,439 S,7,131060,131860,0.4314323,0 P,0,131060,131860,A F,0,142236,,1,0
Sprite,Foreground,Centre,"sb\d.png",0,0 M,7,131354,132154,346,295,389,223 S,7,131354,132154,0.408531,0 P,0,131354,132154,A F,0,142236,,1,0
Sprite,Foreground,Centre,"sb\d.png",0,0 M,7,131354,132154,346,295,355,294 S,7,131354,132154,0.408531,0 P,0,131354,132154,A F,0,142236,,1,0
Sprite,Foreground,Centre,"sb\d.png",0,0 M,7,131354,132154,346,295,411,291 S,7,131354,132154,0.408531,0 P,0,131354,132154,A F,0,142236,,1,0
Sprite,Foreground,Centre,"sb\d.png",0,0 M,7,131354,132154,346,295,360,198 S,7,131354,132154,0.408531,0 P,0,131354,132154,A F,0,142236,,1,0
Sprite,Foreground,Centre,"sb\d.png",0,0 M,7,131354,132154,346,295,368,368 S,7,131354,132154,0.408531,0 P,0,131354,132154,A F,0,142236,,1,0
Sprite,Foreground,Centre,"sb\d.png",0,0 M,7,131354,132154,346,295,374,255 S,7,131354,132154,0.408531,0 P,0,131354,132154,A F,0,142236,,1,0
Sprite,Foreground,Centre,"sb\d.png",0,0 M,7,131354,132154,346,295,313,375 S,7,131354,132154,0.408531,0 P,0,131354,132154,A F,0,142236,,1,0
Sprite,Foreground,Centre,"sb\d.png",0,0 M,7,131354,132154,346,295,331,195 S,7,131354,132154,0.408531,0 P,0,131354,132154,A F,0,142236,,1,0
Sprite,Foreground,Centre,"sb\d.png",0,0 M,7,131354,132154,346,295,439,362 S,7,131354,132154,0.408531,0 P,0,131354,132154,A F,0,142236,,1,0
Sprite,Foreground,Centre,"sb\d.png",0,0 M,7,131354,132154,346,295,393,234 S,7,131354,132154,0.408531,0 P,0,131354,132154,A F,0,142236,,1,0
Sprite,Foreground,Centre,"sb\d.png",0,0 M,7,131501,132301,293,378,261,356 S,7,131501,132301,0.3452249,0 P,0,131501,132301,A F,0,142236,,1,0
Sprite,Foreground,Centre,"sb\d.png",0,0 M,7,131501,132301,293,378,244,374 S,7,131501,132301,0.3452249,0 P,0,131501,132301,A F,0,142236,,1,0
Sprite,Foreground,Centre,"sb\d.png",0,0 M,7,131501,132301,293,378,372,364 S,7,131501,132301,0.3452249,0 P,0,131501,132301,A F,0,142236,,1,0
Sprite,Foreground,Centre,"sb\d.png",0,0 M,7,131501,132301,293,378,210,420 S,7,131501,132301,0.3452249,0 P,0,131501,132301,A F,0,142236,,1,0
Sprite,Foreground,Centre,"sb\d.png",0,0 M,7,131501,132301,293,378,216,301 S,7,131501,132301,0.3452249,0 P,0,131501,132301,A F,0,142236,,1,0
Sprite,Foreground,Centre,"sb\d.png",0,0 M,7,131501,132301,293,378,376,420 S,7,131501,132301,0.3452249,0 P,0,131501,132301,A F,0,142236,,1,0
Sprite,Foreground,Centre,"sb\d.png",0,0 M,7,131501,132301,293,378,215,434 S,7,131501,132301,0.3452249,0 P,0,131501,132301,A F,0,142236,,1,0
Sprite,Foreground,Centre,"sb\d.png",0,0 M,7,131501,132301,293,378,196,385 S,7,131501,132301,0.3452249,0 P,0,131501,132301,A F,0,142236,,1,0
Sprite,Foreground,Centre,"sb\d.png",0,0 M,7,131501,132301,293,378,320,445 S,7,131501,132301,0.3452249,0 P,0,131501,132301,A F,0,142236,,1,0
Sprite,Foreground,Centre,"sb\d.png",0,0 M,7,131501,132301,293,378,200,459 S,7,131501,132301,0.3452249,0 P,0,131501,132301,A F,0,142236,,1,0
Sprite,Foreground,Centre,"sb\d.png",0,0 M,7,131648,132448,513,338,422,310 S,7,131648,132448,0.4399963,0 P,0,131648,132448,A F,0,142236,,1,0
Sprite,Foreground,Centre,"sb\d.png",0,0 M,7,131648,132448,513,338,417,241 S,7,131648,132448,0.4399963,0 P,0,131648,132448,A F,0,142236,,1,0
Sprite,Foreground,Centre,"sb\d.png",0,0 M,7,131648,132448,513,338,520,415 S,7,131648,132448,0.4399963,0 P,0,131648,132448,A F,0,142236,,1,0
Sprite,Foreground,Centre,"sb\d.png",0,0 M,7,131648,132448,513,338,558,344 S,7,131648,132448,0.4399963,0 P,0,131648,132448,A F,0,142236,,1,0
Sprite,Foreground,Centre,"sb\d.png",0,0 M,7,131648,132448,513,338,433,326 S,7,131648,132448,0.4399963,0 P,0,131648,132448,A F,0,142236,,1,0
Sprite,Foreground,Centre,"sb\d.png",0,0 M,7,131648,132448,513,338,452,298 S,7,131648,132448,0.4399963,0 P,0,131648,132448,A F,0,142236,,1,0
Sprite,Foreground,Centre,"sb\d.png",0,0 M,7,131648,132448,513,338,476,313 S,7,131648,132448,0.4399963,0 P,0,131648,132448,A F,0,142236,,1,0
Sprite,Foreground,Centre,"sb\d.png",0,0 M,7,131648,132448,513,338,563,295 S,7,131648,132448,0.4399963,0 P,0,131648,132448,A F,0,142236,,1,0
Sprite,Foreground,Centre,"sb\d.png",0,0 M,7,131648,132448,513,338,415,423 S,7,131648,132448,0.4399963,0 P,0,131648,132448,A F,0,142236,,1,0
Sprite,Foreground,Centre,"sb\d.png",0,0 M,7,131648,132448,513,338,423,334 S,7,131648,132448,0.4399963,0 P,0,131648,132448,A F,0,142236,,1,0
Sprite,Foreground,Centre,"sb\d.png",0,0 M,7,132089,132889,412,180,410,230 S,7,132089,132889,0.3107208,0 P,0,132089,132889,A F,0,142236,,1,0
Sprite,Foreground,Centre,"sb\d.png",0,0 M,7,132089,132889,412,180,457,198 S,7,132089,132889,0.3107208,0 P,0,132089,132889,A F,0,142236,,1,0
Sprite,Foreground,Centre,"sb\d.png",0,0 M,7,132089,132889,412,180,356,104 S,7,132089,132889,0.3107208,0 P,0,132089,132889,A F,0,142236,,1,0
Sprite,Foreground,Centre,"sb\d.png",0,0 M,7,132089,132889,412,180,394,172 S,7,132089,132889,0.3107208,0 P,0,132089,132889,A F,0,142236,,1,0
Sprite,Foreground,Centre,"sb\d.png",0,0 M,7,132089,132889,412,180,378,80 S,7,132089,132889,0.3107208,0 P,0,132089,132889,A F,0,142236,,1,0
Sprite,Foreground,Centre,"sb\d.png",0,0 M,7,132089,132889,412,180,452,138 S,7,132089,132889,0.3107208,0 P,0,132089,132889,A F,0,142236,,1,0
Sprite,Foreground,Centre,"sb\d.png",0,0 M,7,132089,132889,412,180,417,138 S,7,132089,132889,0.3107208,0 P,0,132089,132889,A F,0,142236,,1,0
Sprite,Foreground,Centre,"sb\d.png",0,0 M,7,132089,132889,412,180,318,127 S,7,132089,132889,0.3107208,0 P,0,132089,132889,A F,0,142236,,1,0
Sprite,Foreground,Centre,"sb\d.png",0,0 M,7,132089,132889,412,180,404,152 S,7,132089,132889,0.3107208,0 P,0,132089,132889,A F,0,142236,,1,0
Sprite,Foreground,Centre,"sb\d.png",0,0 M,7,132089,132889,412,180,420,152 S,7,132089,132889,0.3107208,0 P,0,132089,132889,A F,0,142236,,1,0
Sprite,Foreground,Centre,"sb\d.png",0,0 M,7,132236,133036,337,305,240,339 S,7,132236,133036,0.2864169,0 P,0,132236,133036,A F,0,142236,,1,0
Sprite,Foreground,Centre,"sb\d.png",0,0 M,7,132236,133036,337,305,380,287 S,7,132236,133036,0.2864169,0 P,0,132236,133036,A F,0,142236,,1,0
Sprite,Foreground,Centre,"sb\d.png",0,0 M,7,132236,133036,337,305,396,285 S,7,132236,133036,0.2864169,0 P,0,132236,133036,A F,0,142236,,1,0
Sprite,Foreground,Centre,"sb\d.png",0,0 M,7,132236,133036,337,305,289,254 S,7,132236,133036,0.2864169,0 P,0,132236,133036,A F,0,142236,,1,0
Sprite,Foreground,Centre,"sb\d.png",0,0 M,7,132236,133036,337,305,361,386 S,7,132236,133036,0.2864169,0 P,0,132236,133036,A F,0,142236,,1,0
Sprite,Foreground,Centre,"sb\d.png",0,0 M,7,132236,133036,337,305,433,290 S,7,132236,133036,0.2864169,0 P,0,132236,133036,A F,0,142236,,1,0
Sprite,Foreground,Centre,"sb\d.png",0,0 M,7,132236,133036,337,305,366,316 S,7,132236,133036,0.2864169,0 P,0,132236,133036,A F,0,142236,,1,0
Sprite,Foreground,Centre,"sb\d.png",0,0 M,7,132236,133036,337,305,358,263 S,7,132236,133036,0.2864169,0 P,0,132236,133036,A F,0,142236,,1,0
Sprite,Foreground,Centre,"sb\d.png",0,0 M,7,132236,133036,337,305,322,267 S,7,132236,133036,0.2864169,0 P,0,132236,133036,A F,0,142236,,1,0
Sprite,Foreground,Centre,"sb\d.png",0,0 M,7,132236,133036,337,305,390,267 S,7,132236,133036,0.2864169,0 P,0,132236,133036,A F,0,142236,,1,0
Sprite,Foreground,Centre,"sb\d.png",0,0 M,7,132530,133330,541,432,594,420 S,7,132530,133330,0.2636937,0 P,0,132530,133330,A F,0,142236,,1,0
Sprite,Foreground,Centre,"sb\d.png",0,0 M,7,132530,133330,541,432,540,334 S,7,132530,133330,0.2636937,0 P,0,132530,133330,A F,0,142236,,1,0
Sprite,Foreground,Centre,"sb\d.png",0,0 M,7,132530,133330,541,432,599,348 S,7,132530,133330,0.2636937,0 P,0,132530,133330,A F,0,142236,,1,0
Sprite,Foreground,Centre,"sb\d.png",0,0 M,7,132530,133330,541,432,584,342 S,7,132530,133330,0.2636937,0 P,0,132530,133330,A F,0,142236,,1,0
Sprite,Foreground,Centre,"sb\d.png",0,0 M,7,132530,133330,541,432,551,445 S,7,132530,133330,0.2636937,0 P,0,132530,133330,A F,0,142236,,1,0
Sprite,Foreground,Centre,"sb\d.png",0,0 M,7,132530,133330,541,432,542,356 S,7,132530,133330,0.2636937,0 P,0,132530,133330,A F,0,142236,,1,0
Sprite,Foreground,Centre,"sb\d.png",0,0 M,7,132530,133330,541,432,465,426 S,7,132530,133330,0.2636937,0 P,0,132530,133330,A F,0,142236,,1,0
Sprite,Foreground,Centre,"sb\d.png",0,0 M,7,132530,133330,541,432,457,334 S,7,132530,133330,0.2636937,0 P,0,132530,133330,A F,0,142236,,1,0
Sprite,Foreground,Centre,"sb\d.png",0,0 M,7,132530,133330,541,432,476,417 S,7,132530,133330,0.2636937,0 P,0,132530,133330,A F,0,142236,,1,0
Sprite,Foreground,Centre,"sb\d.png",0,0 M,7,132530,133330,541,432,584,361 S,7,132530,133330,0.2636937,0 P,0,132530,133330,A F,0,142236,,1,0
Sprite,Foreground,Centre,"sb\d.png",0,0 M,7,132824,133624,245,273,286,191 S,7,132824,133624,0.2926837,0 P,0,132824,133624,A F,0,142236,,1,0
Sprite,Foreground,Centre,"sb\d.png",0,0 M,7,132824,133624,245,273,288,345 S,7,132824,133624,0.2926837,0 P,0,132824,133624,A F,0,142236,,1,0
Sprite,Foreground,Centre,"sb\d.png",0,0 M,7,132824,133624,245,273,320,320 S,7,132824,133624,0.2926837,0 P,0,132824,133624,A F,0,142236,,1,0
Sprite,Foreground,Centre,"sb\d.png",0,0 M,7,132824,133624,245,273,229,361 S,7,132824,133624,0.2926837,0 P,0,132824,133624,A F,0,142236,,1,0
Sprite,Foreground,Centre,"sb\d.png",0,0 M,7,132824,133624,245,273,151,182 S,7,132824,133624,0.2926837,0 P,0,132824,133624,A F,0,142236,,1,0
Sprite,Foreground,Centre,"sb\d.png",0,0 M,7,132824,133624,245,273,300,182 S,7,132824,133624,0.2926837,0 P,0,132824,133624,A F,0,142236,,1,0
Sprite,Foreground,Centre,"sb\d.png",0,0 M,7,132824,133624,245,273,167,223 S,7,132824,133624,0.2926837,0 P,0,132824,133624,A F,0,142236,,1,0
Sprite,Foreground,Centre,"sb\d.png",0,0 M,7,132824,133624,245,273,190,216 S,7,132824,133624,0.2926837,0 P,0,132824,133624,A F,0,142236,,1,0
Sprite,Foreground,Centre,"sb\d.png",0,0 M,7,132824,133624,245,273,225,174 S,7,132824,133624,0.2926837,0 P,0,132824,133624,A F,0,142236,,1,0
Sprite,Foreground,Centre,"sb\d.png",0,0 M,7,132824,133624,245,273,209,281 S,7,132824,133624,0.2926837,0 P,0,132824,133624,A F,0,142236,,1,0
Sprite,Foreground,Centre,"sb\d.png",0,0 M,7,133118,133918,80,430,-6,398 S,7,133118,133918,0.2890063,0 P,0,133118,133918,A F,0,142236,,1,0
Sprite,Foreground,Centre,"sb\d.png",0,0 M,7,133118,133918,80,430,74,390 S,7,133118,133918,0.2890063,0 P,0,133118,133918,A F,0,142236,,1,0
Sprite,Foreground,Centre,"sb\d.png",0,0 M,7,133118,133918,80,430,84,346 S,7,133118,133918,0.2890063,0 P,0,133118,133918,A F,0,142236,,1,0
Sprite,Foreground,Centre,"sb\d.png",0,0 M,7,133118,133918,80,430,85,385 S,7,133118,133918,0.2890063,0 P,0,133118,133918,A F,0,142236,,1,0
Sprite,Foreground,Centre,"sb\d.png",0,0 M,7,133118,133918,80,430,29,507 S,7,133118,133918,0.2890063,0 P,0,133118,133918,A F,0,142236,,1,0
Sprite,Foreground,Centre,"sb\d.png",0,0 M,7,133118,133918,80,430,-11,362 S,7,133118,133918,0.2890063,0 P,0,133118,133918,A F,0,142236,,1,0
Sprite,Foreground,Centre,"sb\d.png",0,0 M,7,133118,133918,80,430,151,342 S,7,133118,133918,0.2890063,0 P,0,133118,133918,A F,0,142236,,1,0
Sprite,Foreground,Centre,"sb\d.png",0,0 M,7,133118,133918,80,430,50,486 S,7,133118,133918,0.2890063,0 P,0,133118,133918,A F,0,142236,,1,0
Sprite,Foreground,Centre,"sb\d.png",0,0 M,7,133118,133918,80,430,9,512 S,7,133118,133918,0.2890063,0 P,0,133118,133918,A F,0,142236,,1,0
Sprite,Foreground,Centre,"sb\d.png",0,0 M,7,133118,133918,80,430,49,388 S,7,133118,133918,0.2890063,0 P,0,133118,133918,A F,0,142236,,1,0
Sprite,Foreground,Centre,"sb\d.png",0,0 M,7,133412,134212,64,208,67,212 S,7,133412,134212,0.2723029,0 P,0,133412,134212,A F,0,142236,,1,0
Sprite,Foreground,Centre,"sb\d.png",0,0 M,7,133412,134212,64,208,110,122 S,7,133412,134212,0.2723029,0 P,0,133412,134212,A F,0,142236,,1,0
Sprite,Foreground,Centre,"sb\d.png",0,0 M,7,133412,134212,64,208,-35,152 S,7,133412,134212,0.2723029,0 P,0,133412,134212,A F,0,142236,,1,0
Sprite,Foreground,Centre,"sb\d.png",0,0 M,7,133412,134212,64,208,134,267 S,7,133412,134212,0.2723029,0 P,0,133412,134212,A F,0,142236,,1,0
Sprite,Foreground,Centre,"sb\d.png",0,0 M,7,133412,134212,64,208,119,191 S,7,133412,134212,0.2723029,0 P,0,133412,134212,A F,0,142236,,1,0
Sprite,Foreground,Centre,"sb\d.png",0,0 M,7,133412,134212,64,208,43,228 S,7,133412,134212,0.2723029,0 P,0,133412,134212,A F,0,142236,,1,0
Sprite,Foreground,Centre,"sb\d.png",0,0 M,7,133412,134212,64,208,-33,234 S,7,133412,134212,0.2723029,0 P,0,133412,134212,A F,0,142236,,1,0
Sprite,Foreground,Centre,"sb\d.png",0,0 M,7,133412,134212,64,208,113,156 S,7,133412,134212,0.2723029,0 P,0,133412,134212,A F,0,142236,,1,0
Sprite,Foreground,Centre,"sb\d.png",0,0 M,7,133412,134212,64,208,76,178 S,7,133412,134212,0.2723029,0 P,0,133412,134212,A F,0,142236,,1,0
Sprite,Foreground,Centre,"sb\d.png",0,0 M,7,133412,134212,64,208,94,287 S,7,133412,134212,0.2723029,0 P,0,133412,134212,A F,0,142236,,1,0
Sprite,Foreground,Centre,"sb\d.png",0,0 M,7,133560,134360,162,294,219,225 S,7,133560,134360,0.3824163,0 P,0,133560,134360,A F,0,142236,,1,0
Sprite,Foreground,Centre,"sb\d.png",0,0 M,7,133560,134360,162,294,208,371 S,7,133560,134360,0.3824163,0 P,0,133560,134360,A F,0,142236,,1,0
Sprite,Foreground,Centre,"sb\d.png",0,0 M,7,133560,134360,162,294,113,231 S,7,133560,134360,0.3824163,0 P,0,133560,134360,A F,0,142236,,1,0
Sprite,Foreground,Centre,"sb\d.png",0,0 M,7,133560,134360,162,294,237,280 S,7,133560,134360,0.3824163,0 P,0,133560,134360,A F,0,142236,,1,0
Sprite,Foreground,Centre,"sb\d.png",0,0 M,7,133560,134360,162,294,113,213 S,7,133560,134360,0.3824163,0 P,0,133560,134360,A F,0,142236,,1,0
Sprite,Foreground,Centre,"sb\d.png",0,0 M,7,133560,134360,162,294,256,244 S,7,133560,134360,0.3824163,0 P,0,133560,134360,A F,0,142236,,1,0
Sprite,Foreground,Centre,"sb\d.png",0,0 M,7,133560,134360,162,294,78,305 S,7,133560,134360,0.3824163,0 P,0,133560,134360,A F,0,142236,,1,0
Sprite,Foreground,Centre,"sb\d.png",0,0 M,7,133560,134360,162,294,225,342 S,7,133560,134360,0.3824163,0 P,0,133560,134360,A F,0,142236,,1,0
Sprite,Foreground,Centre,"sb\d.png",0,0 M,7,133560,134360,162,294,107,297 S,7,133560,134360,0.3824163,0 P,0,133560,134360,A F,0,142236,,1,0
Sprite,Foreground,Centre,"sb\d.png",0,0 M,7,133560,134360,162,294,234,329 S,7,133560,134360,0.3824163,0 P,0,133560,134360,A F,0,142236,,1,0
Sprite,Foreground,Centre,"sb\d.png",0,0 M,7,133707,134507,228,172,222,165 S,7,133707,134507,0.3462926,0 P,0,133707,134507,A F,0,142236,,1,0
Sprite,Foreground,Centre,"sb\d.png",0,0 M,7,133707,134507,228,172,257,183 S,7,133707,134507,0.3462926,0 P,0,133707,134507,A F,0,142236,,1,0
Sprite,Foreground,Centre,"sb\d.png",0,0 M,7,133707,134507,228,172,295,157 S,7,133707,134507,0.3462926,0 P,0,133707,134507,A F,0,142236,,1,0
Sprite,Foreground,Centre,"sb\d.png",0,0 M,7,133707,134507,228,172,248,180 S,7,133707,134507,0.3462926,0 P,0,133707,134507,A F,0,142236,,1,0
Sprite,Foreground,Centre,"sb\d.png",0,0 M,7,133707,134507,228,172,244,183 S,7,133707,134507,0.3462926,0 P,0,133707,134507,A F,0,142236,,1,0
Sprite,Foreground,Centre,"sb\d.png",0,0 M,7,133707,134507,228,172,267,151 S,7,133707,134507,0.3462926,0 P,0,133707,134507,A F,0,142236,,1,0
Sprite,Foreground,Centre,"sb\d.png",0,0 M,7,133707,134507,228,172,217,218 S,7,133707,134507,0.3462926,0 P,0,133707,134507,A F,0,142236,,1,0
Sprite,Foreground,Centre,"sb\d.png",0,0 M,7,133707,134507,228,172,200,72 S,7,133707,134507,0.3462926,0 P,0,133707,134507,A F,0,142236,,1,0
Sprite,Foreground,Centre,"sb\d.png",0,0 M,7,133707,134507,228,172,165,221 S,7,133707,134507,0.3462926,0 P,0,133707,134507,A F,0,142236,,1,0
Sprite,Foreground,Centre,"sb\d.png",0,0 M,7,133707,134507,228,172,134,267 S,7,133707,134507,0.3462926,0 P,0,133707,134507,A F,0,142236,,1,0
Sprite,Foreground,Centre,"sb\d.png",0,0 M,7,134001,134801,371,341,375,305 S,7,134001,134801,0.3233354,0 P,0,134001,134801,A F,0,142236,,1,0
Sprite,Foreground,Centre,"sb\d.png",0,0 M,7,134001,134801,371,341,356,311 S,7,134001,134801,0.3233354,0 P,0,134001,134801,A F,0,142236,,1,0
Sprite,Foreground,Centre,"sb\d.png",0,0 M,7,134001,134801,371,341,457,256 S,7,134001,134801,0.3233354,0 P,0,134001,134801,A F,0,142236,,1,0
Sprite,Foreground,Centre,"sb\d.png",0,0 M,7,134001,134801,371,341,457,340 S,7,134001,134801,0.3233354,0 P,0,134001,134801,A F,0,142236,,1,0
Sprite,Foreground,Centre,"sb\d.png",0,0 M,7,134001,134801,371,341,337,408 S,7,134001,134801,0.3233354,0 P,0,134001,134801,A F,0,142236,,1,0
Sprite,Foreground,Centre,"sb\d.png",0,0 M,7,134001,134801,371,341,429,285 S,7,134001,134801,0.3233354,0 P,0,134001,134801,A F,0,142236,,1,0
Sprite,Foreground,Centre,"sb\d.png",0,0 M,7,134001,134801,371,341,307,303 S,7,134001,134801,0.3233354,0 P,0,134001,134801,A F,0,142236,,1,0
Sprite,Foreground,Centre,"sb\d.png",0,0 M,7,134001,134801,371,341,408,257 S,7,134001,134801,0.3233354,0 P,0,134001,134801,A F,0,142236,,1,0
Sprite,Foreground,Centre,"sb\d.png",0,0 M,7,134001,134801,371,341,336,325 S,7,134001,134801,0.3233354,0 P,0,134001,134801,A F,0,142236,,1,0
Sprite,Foreground,Centre,"sb\d.png",0,0 M,7,134001,134801,371,341,423,295 S,7,134001,134801,0.3233354,0 P,0,134001,134801,A F,0,142236,,1,0
Sprite,Foreground,Centre,"sb\d.png",0,0 M,7,134148,134948,421,218,455,226 S,7,134148,134948,0.4278983,0 P,0,134148,134948,A F,0,142236,,1,0
Sprite,Foreground,Centre,"sb\d.png",0,0 M,7,134148,134948,421,218,376,288 S,7,134148,134948,0.4278983,0 P,0,134148,134948,A F,0,142236,,1,0
Sprite,Foreground,Centre,"sb\d.png",0,0 M,7,134148,134948,421,218,447,283 S,7,134148,134948,0.4278983,0 P,0,134148,134948,A F,0,142236,,1,0
Sprite,Foreground,Centre,"sb\d.png",0,0 M,7,134148,134948,421,218,412,266 S,7,134148,134948,0.4278983,0 P,0,134148,134948,A F,0,142236,,1,0
Sprite,Foreground,Centre,"sb\d.png",0,0 M,7,134148,134948,421,218,329,271 S,7,134148,134948,0.4278983,0 P,0,134148,134948,A F,0,142236,,1,0
Sprite,Foreground,Centre,"sb\d.png",0,0 M,7,134148,134948,421,218,486,257 S,7,134148,134948,0.4278983,0 P,0,134148,134948,A F,0,142236,,1,0
Sprite,Foreground,Centre,"sb\d.png",0,0 M,7,134148,134948,421,218,343,307 S,7,134148,134948,0.4278983,0 P,0,134148,134948,A F,0,142236,,1,0
Sprite,Foreground,Centre,"sb\d.png",0,0 M,7,134148,134948,421,218,350,162 S,7,134148,134948,0.4278983,0 P,0,134148,134948,A F,0,142236,,1,0
Sprite,Foreground,Centre,"sb\d.png",0,0 M,7,134148,134948,421,218,362,298 S,7,134148,134948,0.4278983,0 P,0,134148,134948,A F,0,142236,,1,0
Sprite,Foreground,Centre,"sb\d.png",0,0 M,7,134148,134948,421,218,390,252 S,7,134148,134948,0.4278983,0 P,0,134148,134948,A F,0,142236,,1,0
Sprite,Foreground,Centre,"sb\d.png",0,0 M,7,134295,135095,365,349,315,392 S,7,134295,135095,0.2587548,0 P,0,134295,135095,A F,0,142236,,1,0
Sprite,Foreground,Centre,"sb\d.png",0,0 M,7,134295,135095,365,349,446,284 S,7,134295,135095,0.2587548,0 P,0,134295,135095,A F,0,142236,,1,0
Sprite,Foreground,Centre,"sb\d.png",0,0 M,7,134295,135095,365,349,318,332 S,7,134295,135095,0.2587548,0 P,0,134295,135095,A F,0,142236,,1,0
Sprite,Foreground,Centre,"sb\d.png",0,0 M,7,134295,135095,365,349,400,432 S,7,134295,135095,0.2587548,0 P,0,134295,135095,A F,0,142236,,1,0
Sprite,Foreground,Centre,"sb\d.png",0,0 M,7,134295,135095,365,349,437,314 S,7,134295,135095,0.2587548,0 P,0,134295,135095,A F,0,142236,,1,0
Sprite,Foreground,Centre,"sb\d.png",0,0 M,7,134295,135095,365,349,318,389 S,7,134295,135095,0.2587548,0 P,0,134295,135095,A F,0,142236,,1,0
Sprite,Foreground,Centre,"sb\d.png",0,0 M,7,134295,135095,365,349,360,419 S,7,134295,135095,0.2587548,0 P,0,134295,135095,A F,0,142236,,1,0
Sprite,Foreground,Centre,"sb\d.png",0,0 M,7,134295,135095,365,349,421,279 S,7,134295,135095,0.2587548,0 P,0,134295,135095,A F,0,142236,,1,0
Sprite,Foreground,Centre,"sb\d.png",0,0 M,7,134295,135095,365,349,365,309 S,7,134295,135095,0.2587548,0 P,0,134295,135095,A F,0,142236,,1,0
Sprite,Foreground,Centre,"sb\d.png",0,0 M,7,134295,135095,365,349,315,343 S,7,134295,135095,0.2587548,0 P,0,134295,135095,A F,0,142236,,1,0
Sprite,Foreground,Centre,"sb\d.png",0,0 M,7,134442,135242,282,239,240,153 S,7,134442,135242,0.4015281,0 P,0,134442,135242,A F,0,142236,,1,0
Sprite,Foreground,Centre,"sb\d.png",0,0 M,7,134442,135242,282,239,374,243 S,7,134442,135242,0.4015281,0 P,0,134442,135242,A F,0,142236,,1,0
Sprite,Foreground,Centre,"sb\d.png",0,0 M,7,134442,135242,282,239,195,211 S,7,134442,135242,0.4015281,0 P,0,134442,135242,A F,0,142236,,1,0
Sprite,Foreground,Centre,"sb\d.png",0,0 M,7,134442,135242,282,239,289,310 S,7,134442,135242,0.4015281,0 P,0,134442,135242,A F,0,142236,,1,0
Sprite,Foreground,Centre,"sb\d.png",0,0 M,7,134442,135242,282,239,205,243 S,7,134442,135242,0.4015281,0 P,0,134442,135242,A F,0,142236,,1,0
Sprite,Foreground,Centre,"sb\d.png",0,0 M,7,134442,135242,282,239,265,259 S,7,134442,135242,0.4015281,0 P,0,134442,135242,A F,0,142236,,1,0
Sprite,Foreground,Centre,"sb\d.png",0,0 M,7,134442,135242,282,239,351,223 S,7,134442,135242,0.4015281,0 P,0,134442,135242,A F,0,142236,,1,0
Sprite,Foreground,Centre,"sb\d.png",0,0 M,7,134442,135242,282,239,346,212 S,7,134442,135242,0.4015281,0 P,0,134442,135242,A F,0,142236,,1,0
Sprite,Foreground,Centre,"sb\d.png",0,0 M,7,134442,135242,282,239,317,212 S,7,134442,135242,0.4015281,0 P,0,134442,135242,A F,0,142236,,1,0
Sprite,Foreground,Centre,"sb\d.png",0,0 M,7,134442,135242,282,239,263,294 S,7,134442,135242,0.4015281,0 P,0,134442,135242,A F,0,142236,,1,0
Sprite,Foreground,Centre,"sb\d.png",0,0 M,7,134589,135389,461,317,396,305 S,7,134589,135389,0.4142304,0 P,0,134589,135389,A F,0,142236,,1,0
Sprite,Foreground,Centre,"sb\d.png",0,0 M,7,134589,135389,461,317,473,416 S,7,134589,135389,0.4142304,0 P,0,134589,135389,A F,0,142236,,1,0
Sprite,Foreground,Centre,"sb\d.png",0,0 M,7,134589,135389,461,317,488,236 S,7,134589,135389,0.4142304,0 P,0,134589,135389,A F,0,142236,,1,0
Sprite,Foreground,Centre,"sb\d.png",0,0 M,7,134589,135389,461,317,434,231 S,7,134589,135389,0.4142304,0 P,0,134589,135389,A F,0,142236,,1,0
Sprite,Foreground,Centre,"sb\d.png",0,0 M,7,134589,135389,461,317,501,337 S,7,134589,135389,0.4142304,0 P,0,134589,135389,A F,0,142236,,1,0
Sprite,Foreground,Centre,"sb\d.png",0,0 M,7,134589,135389,461,317,379,256 S,7,134589,135389,0.4142304,0 P,0,134589,135389,A F,0,142236,,1,0
Sprite,Foreground,Centre,"sb\d.png",0,0 M,7,134589,135389,461,317,418,408 S,7,134589,135389,0.4142304,0 P,0,134589,135389,A F,0,142236,,1,0
Sprite,Foreground,Centre,"sb\d.png",0,0 M,7,134589,135389,461,317,490,406 S,7,134589,135389,0.4142304,0 P,0,134589,135389,A F,0,142236,,1,0
Sprite,Foreground,Centre,"sb\d.png",0,0 M,7,134589,135389,461,317,491,257 S,7,134589,135389,0.4142304,0 P,0,134589,135389,A F,0,142236,,1,0
Sprite,Foreground,Centre,"sb\d.png",0,0 M,7,134589,135389,461,317,371,244 S,7,134589,135389,0.4142304,0 P,0,134589,135389,A F,0,142236,,1,0
Sprite,Foreground,Centre,"sb\d.png",0,0 M,7,134883,135683,223,440,271,501 S,7,134883,135683,0.2619846,0 P,0,134883,135683,A F,0,142236,,1,0
Sprite,Foreground,Centre,"sb\d.png",0,0 M,7,134883,135683,223,440,293,360 S,7,134883,135683,0.2619846,0 P,0,134883,135683,A F,0,142236,,1,0
Sprite,Foreground,Centre,"sb\d.png",0,0 M,7,134883,135683,223,440,249,425 S,7,134883,135683,0.2619846,0 P,0,134883,135683,A F,0,142236,,1,0
Sprite,Foreground,Centre,"sb\d.png",0,0 M,7,134883,135683,223,440,314,496 S,7,134883,135683,0.2619846,0 P,0,134883,135683,A F,0,142236,,1,0
Sprite,Foreground,Centre,"sb\d.png",0,0 M,7,134883,135683,223,440,288,527 S,7,134883,135683,0.2619846,0 P,0,134883,135683,A F,0,142236,,1,0
Sprite,Foreground,Centre,"sb\d.png",0,0 M,7,134883,135683,223,440,292,479 S,7,134883,135683,0.2619846,0 P,0,134883,135683,A F,0,142236,,1,0
Sprite,Foreground,Centre,"sb\d.png",0,0 M,7,134883,135683,223,440,310,362 S,7,134883,135683,0.2619846,0 P,0,134883,135683,A F,0,142236,,1,0
Sprite,Foreground,Centre,"sb\d.png",0,0 M,7,134883,135683,223,440,249,420 S,7,134883,135683,0.2619846,0 P,0,134883,135683,A F,0,142236,,1,0
Sprite,Foreground,Centre,"sb\d.png",0,0 M,7,134883,135683,223,440,228,425 S,7,134883,135683,0.2619846,0 P,0,134883,135683,A F,0,142236,,1,0
Sprite,Foreground,Centre,"sb\d.png",0,0 M,7,134883,135683,223,440,175,374 S,7,134883,135683,0.2619846,0 P,0,134883,135683,A F,0,142236,,1,0
Sprite,Foreground,Centre,"sb\d.png",0,0 M,7,135177,135977,412,227,395,310 S,7,135177,135977,0.4077407,0 P,0,135177,135977,A F,0,142236,,1,0
Sprite,Foreground,Centre,"sb\d.png",0,0 M,7,135177,135977,412,227,376,207 S,7,135177,135977,0.4077407,0 P,0,135177,135977,A F,0,142236,,1,0
Sprite,Foreground,Centre,"sb\d.png",0,0 M,7,135177,135977,412,227,423,219 S,7,135177,135977,0.4077407,0 P,0,135177,135977,A F,0,142236,,1,0
Sprite,Foreground,Centre,"sb\d.png",0,0 M,7,135177,135977,412,227,347,211 S,7,135177,135977,0.4077407,0 P,0,135177,135977,A F,0,142236,,1,0
Sprite,Foreground,Centre,"sb\d.png",0,0 M,7,135177,135977,412,227,316,159 S,7,135177,135977,0.4077407,0 P,0,135177,135977,A F,0,142236,,1,0
Sprite,Foreground,Centre,"sb\d.png",0,0 M,7,135177,135977,412,227,382,255 S,7,135177,135977,0.4077407,0 P,0,135177,135977,A F,0,142236,,1,0
Sprite,Foreground,Centre,"sb\d.png",0,0 M,7,135177,135977,412,227,464,214 S,7,135177,135977,0.4077407,0 P,0,135177,135977,A F,0,142236,,1,0
Sprite,Foreground,Centre,"sb\d.png",0,0 M,7,135177,135977,412,227,438,268 S,7,135177,135977,0.4077407,0 P,0,135177,135977,A F,0,142236,,1,0
Sprite,Foreground,Centre,"sb\d.png",0,0 M,7,135177,135977,412,227,490,128 S,7,135177,135977,0.4077407,0 P,0,135177,135977,A F,0,142236,,1,0
Sprite,Foreground,Centre,"sb\d.png",0,0 M,7,135177,135977,412,227,446,209 S,7,135177,135977,0.4077407,0 P,0,135177,135977,A F,0,142236,,1,0
Sprite,Foreground,Centre,"sb\d.png",0,0 M,7,135471,136271,264,56,339,89 S,7,135471,136271,0.3079728,0 P,0,135471,136271,A F,0,142236,,1,0
Sprite,Foreground,Centre,"sb\d.png",0,0 M,7,135471,136271,264,56,213,56 S,7,135471,136271,0.3079728,0 P,0,135471,136271,A F,0,142236,,1,0
Sprite,Foreground,Centre,"sb\d.png",0,0 M,7,135471,136271,264,56,233,124 S,7,135471,136271,0.3079728,0 P,0,135471,136271,A F,0,142236,,1,0
Sprite,Foreground,Centre,"sb\d.png",0,0 M,7,135471,136271,264,56,167,64 S,7,135471,136271,0.3079728,0 P,0,135471,136271,A F,0,142236,,1,0
Sprite,Foreground,Centre,"sb\d.png",0,0 M,7,135471,136271,264,56,189,110 S,7,135471,136271,0.3079728,0 P,0,135471,136271,A F,0,142236,,1,0
Sprite,Foreground,Centre,"sb\d.png",0,0 M,7,135471,136271,264,56,322,148 S,7,135471,136271,0.3079728,0 P,0,135471,136271,A F,0,142236,,1,0
Sprite,Foreground,Centre,"sb\d.png",0,0 M,7,135471,136271,264,56,218,21 S,7,135471,136271,0.3079728,0 P,0,135471,136271,A F,0,142236,,1,0
Sprite,Foreground,Centre,"sb\d.png",0,0 M,7,135471,136271,264,56,341,62 S,7,135471,136271,0.3079728,0 P,0,135471,136271,A F,0,142236,,1,0
Sprite,Foreground,Centre,"sb\d.png",0,0 M,7,135471,136271,264,56,304,-30 S,7,135471,136271,0.3079728,0 P,0,135471,136271,A F,0,142236,,1,0
Sprite,Foreground,Centre,"sb\d.png",0,0 M,7,135471,136271,264,56,357,112 S,7,135471,136271,0.3079728,0 P,0,135471,136271,A F,0,142236,,1,0
Sprite,Foreground,Centre,"sb\d.png",0,0 M,7,135618,136418,333,163,393,217 S,7,135618,136418,0.3213597,0 P,0,135618,136418,A F,0,142236,,1,0
Sprite,Foreground,Centre,"sb\d.png",0,0 M,7,135618,136418,333,163,331,73 S,7,135618,136418,0.3213597,0 P,0,135618,136418,A F,0,142236,,1,0
Sprite,Foreground,Centre,"sb\d.png",0,0 M,7,135618,136418,333,163,268,198 S,7,135618,136418,0.3213597,0 P,0,135618,136418,A F,0,142236,,1,0
Sprite,Foreground,Centre,"sb\d.png",0,0 M,7,135618,136418,333,163,432,201 S,7,135618,136418,0.3213597,0 P,0,135618,136418,A F,0,142236,,1,0
Sprite,Foreground,Centre,"sb\d.png",0,0 M,7,135618,136418,333,163,359,147 S,7,135618,136418,0.3213597,0 P,0,135618,136418,A F,0,142236,,1,0
Sprite,Foreground,Centre,"sb\d.png",0,0 M,7,135618,136418,333,163,351,215 S,7,135618,136418,0.3213597,0 P,0,135618,136418,A F,0,142236,,1,0
Sprite,Foreground,Centre,"sb\d.png",0,0 M,7,135618,136418,333,163,332,170 S,7,135618,136418,0.3213597,0 P,0,135618,136418,A F,0,142236,,1,0
Sprite,Foreground,Centre,"sb\d.png",0,0 M,7,135618,136418,333,163,283,77 S,7,135618,136418,0.3213597,0 P,0,135618,136418,A F,0,142236,,1,0
Sprite,Foreground,Centre,"sb\d.png",0,0 M,7,135618,136418,333,163,412,104 S,7,135618,136418,0.3213597,0 P,0,135618,136418,A F,0,142236,,1,0
Sprite,Foreground,Centre,"sb\d.png",0,0 M,7,135618,136418,333,163,356,94 S,7,135618,136418,0.3213597,0 P,0,135618,136418,A F,0,142236,,1,0
Sprite,Foreground,Centre,"sb\d.png",0,0 M,7,135765,136565,166,237,245,214 S,7,135765,136565,0.4260408,0 P,0,135765,136565,A F,0,142236,,1,0
Sprite,Foreground,Centre,"sb\d.png",0,0 M,7,135765,136565,166,237,178,272 S,7,135765,136565,0.4260408,0 P,0,135765,136565,A F,0,142236,,1,0
Sprite,Foreground,Centre,"sb\d.png",0,0 M,7,135765,136565,166,237,164,158 S,7,135765,136565,0.4260408,0 P,0,135765,136565,A F,0,142236,,1,0
Sprite,Foreground,Centre,"sb\d.png",0,0 M,7,135765,136565,166,237,214,172 S,7,135765,136565,0.4260408,0 P,0,135765,136565,A F,0,142236,,1,0
Sprite,Foreground,Centre,"sb\d.png",0,0 M,7,135765,136565,166,237,104,323 S,7,135765,136565,0.4260408,0 P,0,135765,136565,A F,0,142236,,1,0
Sprite,Foreground,Centre,"sb\d.png",0,0 M,7,135765,136565,166,237,206,263 S,7,135765,136565,0.4260408,0 P,0,135765,136565,A F,0,142236,,1,0
Sprite,Foreground,Centre,"sb\d.png",0,0 M,7,135765,136565,166,237,252,152 S,7,135765,136565,0.4260408,0 P,0,135765,136565,A F,0,142236,,1,0
Sprite,Foreground,Centre,"sb\d.png",0,0 M,7,135765,136565,166,237,244,287 S,7,135765,136565,0.4260408,0 P,0,135765,136565,A F,0,142236,,1,0
Sprite,Foreground,Centre,"sb\d.png",0,0 M,7,135765,136565,166,237,156,171 S,7,135765,136565,0.4260408,0 P,0,135765,136565,A F,0,142236,,1,0
Sprite,Foreground,Centre,"sb\d.png",0,0 M,7,135765,136565,166,237,99,140 S,7,135765,136565,0.4260408,0 P,0,135765,136565,A F,0,142236,,1,0
Sprite,Foreground,Centre,"sb\d.png",0,0 M,7,135912,136712,251,139,249,109 S,7,135912,136712,0.4202144,0 P,0,135912,136712,A F,0,142236,,1,0
Sprite,Foreground,Centre,"sb\d.png",0,0 M,7,135912,136712,251,139,190,79 S,7,135912,136712,0.4202144,0 P,0,135912,136712,A F,0,142236,,1,0
Sprite,Foreground,Centre,"sb\d.png",0,0 M,7,135912,136712,251,139,305,197 S,7,135912,136712,0.4202144,0 P,0,135912,136712,A F,0,142236,,1,0
Sprite,Foreground,Centre,"sb\d.png",0,0 M,7,135912,136712,251,139,277,130 S,7,135912,136712,0.4202144,0 P,0,135912,136712,A F,0,142236,,1,0
Sprite,Foreground,Centre,"sb\d.png",0,0 M,7,135912,136712,251,139,311,211 S,7,135912,136712,0.4202144,0 P,0,135912,136712,A F,0,142236,,1,0
Sprite,Foreground,Centre,"sb\d.png",0,0 M,7,135912,136712,251,139,220,163 S,7,135912,136712,0.4202144,0 P,0,135912,136712,A F,0,142236,,1,0
Sprite,Foreground,Centre,"sb\d.png",0,0 M,7,135912,136712,251,139,246,220 S,7,135912,136712,0.4202144,0 P,0,135912,136712,A F,0,142236,,1,0
Sprite,Foreground,Centre,"sb\d.png",0,0 M,7,135912,136712,251,139,228,225 S,7,135912,136712,0.4202144,0 P,0,135912,136712,A F,0,142236,,1,0
Sprite,Foreground,Centre,"sb\d.png",0,0 M,7,135912,136712,251,139,225,176 S,7,135912,136712,0.4202144,0 P,0,135912,136712,A F,0,142236,,1,0
Sprite,Foreground,Centre,"sb\d.png",0,0 M,7,135912,136712,251,139,265,89 S,7,135912,136712,0.4202144,0 P,0,135912,136712,A F,0,142236,,1,0
Sprite,Foreground,Centre,"sb\d.png",0,0 M,7,136060,136860,159,245,146,242 S,7,136060,136860,0.3533439,0 P,0,136060,136860,A F,0,142236,,1,0
Sprite,Foreground,Centre,"sb\d.png",0,0 M,7,136060,136860,159,245,237,171 S,7,136060,136860,0.3533439,0 P,0,136060,136860,A F,0,142236,,1,0
Sprite,Foreground,Centre,"sb\d.png",0,0 M,7,136060,136860,159,245,172,236 S,7,136060,136860,0.3533439,0 P,0,136060,136860,A F,0,142236,,1,0
Sprite,Foreground,Centre,"sb\d.png",0,0 M,7,136060,136860,159,245,131,209 S,7,136060,136860,0.3533439,0 P,0,136060,136860,A F,0,142236,,1,0
Sprite,Foreground,Centre,"sb\d.png",0,0 M,7,136060,136860,159,245,148,152 S,7,136060,136860,0.3533439,0 P,0,136060,136860,A F,0,142236,,1,0
Sprite,Foreground,Centre,"sb\d.png",0,0 M,7,136060,136860,159,245,149,172 S,7,136060,136860,0.3533439,0 P,0,136060,136860,A F,0,142236,,1,0
Sprite,Foreground,Centre,"sb\d.png",0,0 M,7,136060,136860,159,245,64,225 S,7,136060,136860,0.3533439,0 P,0,136060,136860,A F,0,142236,,1,0
Sprite,Foreground,Centre,"sb\d.png",0,0 M,7,136060,136860,159,245,65,217 S,7,136060,136860,0.3533439,0 P,0,136060,136860,A F,0,142236,,1,0
Sprite,Foreground,Centre,"sb\d.png",0,0 M,7,136060,136860,159,245,154,288 S,7,136060,136860,0.3533439,0 P,0,136060,136860,A F,0,142236,,1,0
Sprite,Foreground,Centre,"sb\d.png",0,0 M,7,136060,136860,159,245,122,167 S,7,136060,136860,0.3533439,0 P,0,136060,136860,A F,0,142236,,1,0
Sprite,Foreground,Centre,"sb\d.png",0,0 M,7,136207,137007,124,112,102,26 S,7,136207,137007,0.3938835,0 P,0,136207,137007,A F,0,142236,,1,0
Sprite,Foreground,Centre,"sb\d.png",0,0 M,7,136207,137007,124,112,95,13 S,7,136207,137007,0.3938835,0 P,0,136207,137007,A F,0,142236,,1,0
Sprite,Foreground,Centre,"sb\d.png",0,0 M,7,136207,137007,124,112,115,46 S,7,136207,137007,0.3938835,0 P,0,136207,137007,A F,0,142236,,1,0
Sprite,Foreground,Centre,"sb\d.png",0,0 M,7,136207,137007,124,112,125,175 S,7,136207,137007,0.3938835,0 P,0,136207,137007,A F,0,142236,,1,0
Sprite,Foreground,Centre,"sb\d.png",0,0 M,7,136207,137007,124,112,39,109 S,7,136207,137007,0.3938835,0 P,0,136207,137007,A F,0,142236,,1,0
Sprite,Foreground,Centre,"sb\d.png",0,0 M,7,136207,137007,124,112,142,165 S,7,136207,137007,0.3938835,0 P,0,136207,137007,A F,0,142236,,1,0
Sprite,Foreground,Centre,"sb\d.png",0,0 M,7,136207,137007,124,112,90,23 S,7,136207,137007,0.3938835,0 P,0,136207,137007,A F,0,142236,,1,0
Sprite,Foreground,Centre,"sb\d.png",0,0 M,7,136207,137007,124,112,196,73 S,7,136207,137007,0.3938835,0 P,0,136207,137007,A F,0,142236,,1,0
Sprite,Foreground,Centre,"sb\d.png",0,0 M,7,136207,137007,124,112,38,53 S,7,136207,137007,0.3938835,0 P,0,136207,137007,A F,0,142236,,1,0
Sprite,Foreground,Centre,"sb\d.png",0,0 M,7,136207,137007,124,112,90,66 S,7,136207,137007,0.3938835,0 P,0,136207,137007,A F,0,142236,,1,0
Sprite,Foreground,Centre,"sb\d.png",0,0 M,7,136354,137154,64,273,34,338 S,7,136354,137154,0.2773249,0 P,0,136354,137154,A F,0,142236,,1,0
Sprite,Foreground,Centre,"sb\d.png",0,0 M,7,136354,137154,64,273,142,269 S,7,136354,137154,0.2773249,0 P,0,136354,137154,A F,0,142236,,1,0
Sprite,Foreground,Centre,"sb\d.png",0,0 M,7,136354,137154,64,273,53,273 S,7,136354,137154,0.2773249,0 P,0,136354,137154,A F,0,142236,,1,0
Sprite,Foreground,Centre,"sb\d.png",0,0 M,7,136354,137154,64,273,34,286 S,7,136354,137154,0.2773249,0 P,0,136354,137154,A F,0,142236,,1,0
Sprite,Foreground,Centre,"sb\d.png",0,0 M,7,136354,137154,64,273,143,366 S,7,136354,137154,0.2773249,0 P,0,136354,137154,A F,0,142236,,1,0
Sprite,Foreground,Centre,"sb\d.png",0,0 M,7,136354,137154,64,273,15,201 S,7,136354,137154,0.2773249,0 P,0,136354,137154,A F,0,142236,,1,0
Sprite,Foreground,Centre,"sb\d.png",0,0 M,7,136354,137154,64,273,123,182 S,7,136354,137154,0.2773249,0 P,0,136354,137154,A F,0,142236,,1,0
Sprite,Foreground,Centre,"sb\d.png",0,0 M,7,136354,137154,64,273,47,279 S,7,136354,137154,0.2773249,0 P,0,136354,137154,A F,0,142236,,1,0
Sprite,Foreground,Centre,"sb\d.png",0,0 M,7,136354,137154,64,273,-12,194 S,7,136354,137154,0.2773249,0 P,0,136354,137154,A F,0,142236,,1,0
Sprite,Foreground,Centre,"sb\d.png",0,0 M,7,136354,137154,64,273,21,343 S,7,136354,137154,0.2773249,0 P,0,136354,137154,A F,0,142236,,1,0
Sprite,Foreground,Centre,"sb\d.png",0,0 M,7,136648,137448,260,407,233,416 S,7,136648,137448,0.3501077,0 P,0,136648,137448,A F,0,142236,,1,0
Sprite,Foreground,Centre,"sb\d.png",0,0 M,7,136648,137448,260,407,331,381 S,7,136648,137448,0.3501077,0 P,0,136648,137448,A F,0,142236,,1,0
Sprite,Foreground,Centre,"sb\d.png",0,0 M,7,136648,137448,260,407,298,376 S,7,136648,137448,0.3501077,0 P,0,136648,137448,A F,0,142236,,1,0
Sprite,Foreground,Centre,"sb\d.png",0,0 M,7,136648,137448,260,407,194,318 S,7,136648,137448,0.3501077,0 P,0,136648,137448,A F,0,142236,,1,0
Sprite,Foreground,Centre,"sb\d.png",0,0 M,7,136648,137448,260,407,240,409 S,7,136648,137448,0.3501077,0 P,0,136648,137448,A F,0,142236,,1,0
Sprite,Foreground,Centre,"sb\d.png",0,0 M,7,136648,137448,260,407,356,474 S,7,136648,137448,0.3501077,0 P,0,136648,137448,A F,0,142236,,1,0
Sprite,Foreground,Centre,"sb\d.png",0,0 M,7,136648,137448,260,407,276,314 S,7,136648,137448,0.3501077,0 P,0,136648,137448,A F,0,142236,,1,0
Sprite,Foreground,Centre,"sb\d.png",0,0 M,7,136648,137448,260,407,209,399 S,7,136648,137448,0.3501077,0 P,0,136648,137448,A F,0,142236,,1,0
Sprite,Foreground,Centre,"sb\d.png",0,0 M,7,136648,137448,260,407,265,308 S,7,136648,137448,0.3501077,0 P,0,136648,137448,A F,0,142236,,1,0
Sprite,Foreground,Centre,"sb\d.png",0,0 M,7,136648,137448,260,407,293,338 S,7,136648,137448,0.3501077,0 P,0,136648,137448,A F,0,142236,,1,0
Sprite,Foreground,Centre,"sb\d.png",0,0 M,7,136795,137595,159,365,95,369 S,7,136795,137595,0.3000997,0 P,0,136795,137595,A F,0,142236,,1,0
Sprite,Foreground,Centre,"sb\d.png",0,0 M,7,136795,137595,159,365,126,389 S,7,136795,137595,0.3000997,0 P,0,136795,137595,A F,0,142236,,1,0
Sprite,Foreground,Centre,"sb\d.png",0,0 M,7,136795,137595,159,365,166,266 S,7,136795,137595,0.3000997,0 P,0,136795,137595,A F,0,142236,,1,0
Sprite,Foreground,Centre,"sb\d.png",0,0 M,7,136795,137595,159,365,148,419 S,7,136795,137595,0.3000997,0 P,0,136795,137595,A F,0,142236,,1,0
Sprite,Foreground,Centre,"sb\d.png",0,0 M,7,136795,137595,159,365,248,284 S,7,136795,137595,0.3000997,0 P,0,136795,137595,A F,0,142236,,1,0
Sprite,Foreground,Centre,"sb\d.png",0,0 M,7,136795,137595,159,365,68,348 S,7,136795,137595,0.3000997,0 P,0,136795,137595,A F,0,142236,,1,0
Sprite,Foreground,Centre,"sb\d.png",0,0 M,7,136795,137595,159,365,186,462 S,7,136795,137595,0.3000997,0 P,0,136795,137595,A F,0,142236,,1,0
Sprite,Foreground,Centre,"sb\d.png",0,0 M,7,136795,137595,159,365,114,272 S,7,136795,137595,0.3000997,0 P,0,136795,137595,A F,0,142236,,1,0
Sprite,Foreground,Centre,"sb\d.png",0,0 M,7,136795,137595,159,365,81,415 S,7,136795,137595,0.3000997,0 P,0,136795,137595,A F,0,142236,,1,0
Sprite,Foreground,Centre,"sb\d.png",0,0 M,7,136795,137595,159,365,90,301 S,7,136795,137595,0.3000997,0 P,0,136795,137595,A F,0,142236,,1,0
Sprite,Foreground,Centre,"sb\d.png",0,0 M,7,136942,137742,350,251,348,242 S,7,136942,137742,0.3524437,0 P,0,136942,137742,A F,0,142236,,1,0
Sprite,Foreground,Centre,"sb\d.png",0,0 M,7,136942,137742,350,251,304,212 S,7,136942,137742,0.3524437,0 P,0,136942,137742,A F,0,142236,,1,0
Sprite,Foreground,Centre,"sb\d.png",0,0 M,7,136942,137742,350,251,292,153 S,7,136942,137742,0.3524437,0 P,0,136942,137742,A F,0,142236,,1,0
Sprite,Foreground,Centre,"sb\d.png",0,0 M,7,136942,137742,350,251,283,165 S,7,136942,137742,0.3524437,0 P,0,136942,137742,A F,0,142236,,1,0
Sprite,Foreground,Centre,"sb\d.png",0,0 M,7,136942,137742,350,251,369,171 S,7,136942,137742,0.3524437,0 P,0,136942,137742,A F,0,142236,,1,0
Sprite,Foreground,Centre,"sb\d.png",0,0 M,7,136942,137742,350,251,373,290 S,7,136942,137742,0.3524437,0 P,0,136942,137742,A F,0,142236,,1,0
Sprite,Foreground,Centre,"sb\d.png",0,0 M,7,136942,137742,350,251,300,188 S,7,136942,137742,0.3524437,0 P,0,136942,137742,A F,0,142236,,1,0
Sprite,Foreground,Centre,"sb\d.png",0,0 M,7,136942,137742,350,251,254,255 S,7,136942,137742,0.3524437,0 P,0,136942,137742,A F,0,142236,,1,0
Sprite,Foreground,Centre,"sb\d.png",0,0 M,7,136942,137742,350,251,399,182 S,7,136942,137742,0.3524437,0 P,0,136942,137742,A F,0,142236,,1,0
Sprite,Foreground,Centre,"sb\d.png",0,0 M,7,136942,137742,350,251,317,295 S,7,136942,137742,0.3524437,0 P,0,136942,137742,A F,0,142236,,1,0
Sprite,Foreground,Centre,"sb\d.png",0,0 M,7,137236,138036,556,416,547,398 S,7,137236,138036,0.3067908,0 P,0,137236,138036,A F,0,142236,,1,0
Sprite,Foreground,Centre,"sb\d.png",0,0 M,7,137236,138036,556,416,643,399 S,7,137236,138036,0.3067908,0 P,0,137236,138036,A F,0,142236,,1,0
Sprite,Foreground,Centre,"sb\d.png",0,0 M,7,137236,138036,556,416,645,326 S,7,137236,138036,0.3067908,0 P,0,137236,138036,A F,0,142236,,1,0
Sprite,Foreground,Centre,"sb\d.png",0,0 M,7,137236,138036,556,416,649,401 S,7,137236,138036,0.3067908,0 P,0,137236,138036,A F,0,142236,,1,0
Sprite,Foreground,Centre,"sb\d.png",0,0 M,7,137236,138036,556,416,538,367 S,7,137236,138036,0.3067908,0 P,0,137236,138036,A F,0,142236,,1,0
Sprite,Foreground,Centre,"sb\d.png",0,0 M,7,137236,138036,556,416,557,511 S,7,137236,138036,0.3067908,0 P,0,137236,138036,A F,0,142236,,1,0
Sprite,Foreground,Centre,"sb\d.png",0,0 M,7,137236,138036,556,416,603,454 S,7,137236,138036,0.3067908,0 P,0,137236,138036,A F,0,142236,,1,0
Sprite,Foreground,Centre,"sb\d.png",0,0 M,7,137236,138036,556,416,468,328 S,7,137236,138036,0.3067908,0 P,0,137236,138036,A F,0,142236,,1,0
Sprite,Foreground,Centre,"sb\d.png",0,0 M,7,137236,138036,556,416,519,380 S,7,137236,138036,0.3067908,0 P,0,137236,138036,A F,0,142236,,1,0
Sprite,Foreground,Centre,"sb\d.png",0,0 M,7,137236,138036,556,416,655,371 S,7,137236,138036,0.3067908,0 P,0,137236,138036,A F,0,142236,,1,0
Sprite,Foreground,Centre,"sb\d.png",0,0 M,7,137383,138183,488,279,458,378 S,7,137383,138183,0.3903091,0 P,0,137383,138183,A F,0,142236,,1,0
Sprite,Foreground,Centre,"sb\d.png",0,0 M,7,137383,138183,488,279,473,322 S,7,137383,138183,0.3903091,0 P,0,137383,138183,A F,0,142236,,1,0
Sprite,Foreground,Centre,"sb\d.png",0,0 M,7,137383,138183,488,279,465,338 S,7,137383,138183,0.3903091,0 P,0,137383,138183,A F,0,142236,,1,0
Sprite,Foreground,Centre,"sb\d.png",0,0 M,7,137383,138183,488,279,439,281 S,7,137383,138183,0.3903091,0 P,0,137383,138183,A F,0,142236,,1,0
Sprite,Foreground,Centre,"sb\d.png",0,0 M,7,137383,138183,488,279,460,297 S,7,137383,138183,0.3903091,0 P,0,137383,138183,A F,0,142236,,1,0
Sprite,Foreground,Centre,"sb\d.png",0,0 M,7,137383,138183,488,279,552,270 S,7,137383,138183,0.3903091,0 P,0,137383,138183,A F,0,142236,,1,0
Sprite,Foreground,Centre,"sb\d.png",0,0 M,7,137383,138183,488,279,433,186 S,7,137383,138183,0.3903091,0 P,0,137383,138183,A F,0,142236,,1,0
Sprite,Foreground,Centre,"sb\d.png",0,0 M,7,137383,138183,488,279,396,246 S,7,137383,138183,0.3903091,0 P,0,137383,138183,A F,0,142236,,1,0
Sprite,Foreground,Centre,"sb\d.png",0,0 M,7,137383,138183,488,279,565,232 S,7,137383,138183,0.3903091,0 P,0,137383,138183,A F,0,142236,,1,0
Sprite,Foreground,Centre,"sb\d.png",0,0 M,7,137383,138183,488,279,579,219 S,7,137383,138183,0.3903091,0 P,0,137383,138183,A F,0,142236,,1,0
Sprite,Foreground,Centre,"sb\d.png",0,0 M,7,137530,138330,403,391,339,459 S,7,137530,138330,0.3791319,0 P,0,137530,138330,A F,0,142236,,1,0
Sprite,Foreground,Centre,"sb\d.png",0,0 M,7,137530,138330,403,391,325,435 S,7,137530,138330,0.3791319,0 P,0,137530,138330,A F,0,142236,,1,0
Sprite,Foreground,Centre,"sb\d.png",0,0 M,7,137530,138330,403,391,405,389 S,7,137530,138330,0.3791319,0 P,0,137530,138330,A F,0,142236,,1,0
Sprite,Foreground,Centre,"sb\d.png",0,0 M,7,137530,138330,403,391,494,382 S,7,137530,138330,0.3791319,0 P,0,137530,138330,A F,0,142236,,1,0
Sprite,Foreground,Centre,"sb\d.png",0,0 M,7,137530,138330,403,391,388,458 S,7,137530,138330,0.3791319,0 P,0,137530,138330,A F,0,142236,,1,0
Sprite,Foreground,Centre,"sb\d.png",0,0 M,7,137530,138330,403,391,370,379 S,7,137530,138330,0.3791319,0 P,0,137530,138330,A F,0,142236,,1,0
Sprite,Foreground,Centre,"sb\d.png",0,0 M,7,137530,138330,403,391,419,311 S,7,137530,138330,0.3791319,0 P,0,137530,138330,A F,0,142236,,1,0
Sprite,Foreground,Centre,"sb\d.png",0,0 M,7,137530,138330,403,391,386,392 S,7,137530,138330,0.3791319,0 P,0,137530,138330,A F,0,142236,,1,0
Sprite,Foreground,Centre,"sb\d.png",0,0 M,7,137530,138330,403,391,442,403 S,7,137530,138330,0.3791319,0 P,0,137530,138330,A F,0,142236,,1,0
Sprite,Foreground,Centre,"sb\d.png",0,0 M,7,137530,138330,403,391,353,433 S,7,137530,138330,0.3791319,0 P,0,137530,138330,A F,0,142236,,1,0
Sprite,Foreground,Centre,"sb\d.png",0,0 M,7,137824,138624,556,170,465,202 S,7,137824,138624,0.4322778,0 P,0,137824,138624,A F,0,142236,,1,0
Sprite,Foreground,Centre,"sb\d.png",0,0 M,7,137824,138624,556,170,592,173 S,7,137824,138624,0.4322778,0 P,0,137824,138624,A F,0,142236,,1,0
Sprite,Foreground,Centre,"sb\d.png",0,0 M,7,137824,138624,556,170,558,201 S,7,137824,138624,0.4322778,0 P,0,137824,138624,A F,0,142236,,1,0
Sprite,Foreground,Centre,"sb\d.png",0,0 M,7,137824,138624,556,170,460,214 S,7,137824,138624,0.4322778,0 P,0,137824,138624,A F,0,142236,,1,0
Sprite,Foreground,Centre,"sb\d.png",0,0 M,7,137824,138624,556,170,542,80 S,7,137824,138624,0.4322778,0 P,0,137824,138624,A F,0,142236,,1,0
Sprite,Foreground,Centre,"sb\d.png",0,0 M,7,137824,138624,556,170,463,85 S,7,137824,138624,0.4322778,0 P,0,137824,138624,A F,0,142236,,1,0
Sprite,Foreground,Centre,"sb\d.png",0,0 M,7,137824,138624,556,170,467,103 S,7,137824,138624,0.4322778,0 P,0,137824,138624,A F,0,142236,,1,0
Sprite,Foreground,Centre,"sb\d.png",0,0 M,7,137824,138624,556,170,486,132 S,7,137824,138624,0.4322778,0 P,0,137824,138624,A F,0,142236,,1,0
Sprite,Foreground,Centre,"sb\d.png",0,0 M,7,137824,138624,556,170,655,244 S,7,137824,138624,0.4322778,0 P,0,137824,138624,A F,0,142236,,1,0
Sprite,Foreground,Centre,"sb\d.png",0,0 M,7,137824,138624,556,170,516,129 S,7,137824,138624,0.4322778,0 P,0,137824,138624,A F,0,142236,,1,0
Sprite,Foreground,Centre,"sb\d.png",0,0 M,7,138118,138918,374,172,461,223 S,7,138118,138918,0.2613185,0 P,0,138118,138918,A F,0,142236,,1,0
Sprite,Foreground,Centre,"sb\d.png",0,0 M,7,138118,138918,374,172,370,75 S,7,138118,138918,0.2613185,0 P,0,138118,138918,A F,0,142236,,1,0
Sprite,Foreground,Centre,"sb\d.png",0,0 M,7,138118,138918,374,172,403,258 S,7,138118,138918,0.2613185,0 P,0,138118,138918,A F,0,142236,,1,0
Sprite,Foreground,Centre,"sb\d.png",0,0 M,7,138118,138918,374,172,399,238 S,7,138118,138918,0.2613185,0 P,0,138118,138918,A F,0,142236,,1,0
Sprite,Foreground,Centre,"sb\d.png",0,0 M,7,138118,138918,374,172,311,213 S,7,138118,138918,0.2613185,0 P,0,138118,138918,A F,0,142236,,1,0
Sprite,Foreground,Centre,"sb\d.png",0,0 M,7,138118,138918,374,172,415,170 S,7,138118,138918,0.2613185,0 P,0,138118,138918,A F,0,142236,,1,0
Sprite,Foreground,Centre,"sb\d.png",0,0 M,7,138118,138918,374,172,420,99 S,7,138118,138918,0.2613185,0 P,0,138118,138918,A F,0,142236,,1,0
Sprite,Foreground,Centre,"sb\d.png",0,0 M,7,138118,138918,374,172,310,157 S,7,138118,138918,0.2613185,0 P,0,138118,138918,A F,0,142236,,1,0
Sprite,Foreground,Centre,"sb\d.png",0,0 M,7,138118,138918,374,172,315,72 S,7,138118,138918,0.2613185,0 P,0,138118,138918,A F,0,142236,,1,0
Sprite,Foreground,Centre,"sb\d.png",0,0 M,7,138118,138918,374,172,441,259 S,7,138118,138918,0.2613185,0 P,0,138118,138918,A F,0,142236,,1,0
Sprite,Foreground,Centre,"sb\d.png",0,0 M,7,138265,139065,495,290,594,346 S,7,138265,139065,0.3968093,0 P,0,138265,139065,A F,0,142236,,1,0
Sprite,Foreground,Centre,"sb\d.png",0,0 M,7,138265,139065,495,290,454,263 S,7,138265,139065,0.3968093,0 P,0,138265,139065,A F,0,142236,,1,0
Sprite,Foreground,Centre,"sb\d.png",0,0 M,7,138265,139065,495,290,500,377 S,7,138265,139065,0.3968093,0 P,0,138265,139065,A F,0,142236,,1,0
Sprite,Foreground,Centre,"sb\d.png",0,0 M,7,138265,139065,495,290,447,228 S,7,138265,139065,0.3968093,0 P,0,138265,139065,A F,0,142236,,1,0
Sprite,Foreground,Centre,"sb\d.png",0,0 M,7,138265,139065,495,290,535,327 S,7,138265,139065,0.3968093,0 P,0,138265,139065,A F,0,142236,,1,0
Sprite,Foreground,Centre,"sb\d.png",0,0 M,7,138265,139065,495,290,584,273 S,7,138265,139065,0.3968093,0 P,0,138265,139065,A F,0,142236,,1,0
Sprite,Foreground,Centre,"sb\d.png",0,0 M,7,138265,139065,495,290,565,212 S,7,138265,139065,0.3968093,0 P,0,138265,139065,A F,0,142236,,1,0
Sprite,Foreground,Centre,"sb\d.png",0,0 M,7,138265,139065,495,290,575,230 S,7,138265,139065,0.3968093,0 P,0,138265,139065,A F,0,142236,,1,0
Sprite,Foreground,Centre,"sb\d.png",0,0 M,7,138265,139065,495,290,494,362 S,7,138265,139065,0.3968093,0 P,0,138265,139065,A F,0,142236,,1,0
Sprite,Foreground,Centre,"sb\d.png",0,0 M,7,138265,139065,495,290,540,269 S,7,138265,139065,0.3968093,0 P,0,138265,139065,A F,0,142236,,1,0
Sprite,Foreground,Centre,"sb\d.png",0,0 M,7,138412,139212,336,333,284,302 S,7,138412,139212,0.4287953,0 P,0,138412,139212,A F,0,142236,,1,0
Sprite,Foreground,Centre,"sb\d.png",0,0 M,7,138412,139212,336,333,302,349 S,7,138412,139212,0.4287953,0 P,0,138412,139212,A F,0,142236,,1,0
Sprite,Foreground,Centre,"sb\d.png",0,0 M,7,138412,139212,336,333,300,239 S,7,138412,139212,0.4287953,0 P,0,138412,139212,A F,0,142236,,1,0
Sprite,Foreground,Centre,"sb\d.png",0,0 M,7,138412,139212,336,333,430,410 S,7,138412,139212,0.4287953,0 P,0,138412,139212,A F,0,142236,,1,0
Sprite,Foreground,Centre,"sb\d.png",0,0 M,7,138412,139212,336,333,393,407 S,7,138412,139212,0.4287953,0 P,0,138412,139212,A F,0,142236,,1,0
Sprite,Foreground,Centre,"sb\d.png",0,0 M,7,138412,139212,336,333,329,304 S,7,138412,139212,0.4287953,0 P,0,138412,139212,A F,0,142236,,1,0
Sprite,Foreground,Centre,"sb\d.png",0,0 M,7,138412,139212,336,333,300,420 S,7,138412,139212,0.4287953,0 P,0,138412,139212,A F,0,142236,,1,0
Sprite,Foreground,Centre,"sb\d.png",0,0 M,7,138412,139212,336,333,431,269 S,7,138412,139212,0.4287953,0 P,0,138412,139212,A F,0,142236,,1,0
Sprite,Foreground,Centre,"sb\d.png",0,0 M,7,138412,139212,336,333,366,256 S,7,138412,139212,0.4287953,0 P,0,138412,139212,A F,0,142236,,1,0
Sprite,Foreground,Centre,"sb\d.png",0,0 M,7,138412,139212,336,333,434,305 S,7,138412,139212,0.4287953,0 P,0,138412,139212,A F,0,142236,,1,0
Sprite,Foreground,Centre,"sb\d.png",0,0 M,7,138707,139507,212,97,209,1 S,7,138707,139507,0.377078,0 P,0,138707,139507,A F,0,142236,,1,0
Sprite,Foreground,Centre,"sb\d.png",0,0 M,7,138707,139507,212,97,263,12 S,7,138707,139507,0.377078,0 P,0,138707,139507,A F,0,142236,,1,0
Sprite,Foreground,Centre,"sb\d.png",0,0 M,7,138707,139507,212,97,287,1 S,7,138707,139507,0.377078,0 P,0,138707,139507,A F,0,142236,,1,0
Sprite,Foreground,Centre,"sb\d.png",0,0 M,7,138707,139507,212,97,168,42 S,7,138707,139507,0.377078,0 P,0,138707,139507,A F,0,142236,,1,0
Sprite,Foreground,Centre,"sb\d.png",0,0 M,7,138707,139507,212,97,254,24 S,7,138707,139507,0.377078,0 P,0,138707,139507,A F,0,142236,,1,0
Sprite,Foreground,Centre,"sb\d.png",0,0 M,7,138707,139507,212,97,134,105 S,7,138707,139507,0.377078,0 P,0,138707,139507,A F,0,142236,,1,0
Sprite,Foreground,Centre,"sb\d.png",0,0 M,7,138707,139507,212,97,280,148 S,7,138707,139507,0.377078,0 P,0,138707,139507,A F,0,142236,,1,0
Sprite,Foreground,Centre,"sb\d.png",0,0 M,7,138707,139507,212,97,198,190 S,7,138707,139507,0.377078,0 P,0,138707,139507,A F,0,142236,,1,0
Sprite,Foreground,Centre,"sb\d.png",0,0 M,7,138707,139507,212,97,268,37 S,7,138707,139507,0.377078,0 P,0,138707,139507,A F,0,142236,,1,0
Sprite,Foreground,Centre,"sb\d.png",0,0 M,7,138707,139507,212,97,293,55 S,7,138707,139507,0.377078,0 P,0,138707,139507,A F,0,142236,,1,0
Sprite,Foreground,Centre,"sb\d.png",0,0 M,7,138854,139654,180,227,263,289 S,7,138854,139654,0.3115217,0 P,0,138854,139654,A F,0,142236,,1,0
Sprite,Foreground,Centre,"sb\d.png",0,0 M,7,138854,139654,180,227,176,138 S,7,138854,139654,0.3115217,0 P,0,138854,139654,A F,0,142236,,1,0
Sprite,Foreground,Centre,"sb\d.png",0,0 M,7,138854,139654,180,227,186,161 S,7,138854,139654,0.3115217,0 P,0,138854,139654,A F,0,142236,,1,0
Sprite,Foreground,Centre,"sb\d.png",0,0 M,7,138854,139654,180,227,264,130 S,7,138854,139654,0.3115217,0 P,0,138854,139654,A F,0,142236,,1,0
Sprite,Foreground,Centre,"sb\d.png",0,0 M,7,138854,139654,180,227,248,275 S,7,138854,139654,0.3115217,0 P,0,138854,139654,A F,0,142236,,1,0
Sprite,Foreground,Centre,"sb\d.png",0,0 M,7,138854,139654,180,227,226,133 S,7,138854,139654,0.3115217,0 P,0,138854,139654,A F,0,142236,,1,0
Sprite,Foreground,Centre,"sb\d.png",0,0 M,7,138854,139654,180,227,131,278 S,7,138854,139654,0.3115217,0 P,0,138854,139654,A F,0,142236,,1,0
Sprite,Foreground,Centre,"sb\d.png",0,0 M,7,138854,139654,180,227,145,242 S,7,138854,139654,0.3115217,0 P,0,138854,139654,A F,0,142236,,1,0
Sprite,Foreground,Centre,"sb\d.png",0,0 M,7,138854,139654,180,227,181,215 S,7,138854,139654,0.3115217,0 P,0,138854,139654,A F,0,142236,,1,0
Sprite,Foreground,Centre,"sb\d.png",0,0 M,7,138854,139654,180,227,81,264 S,7,138854,139654,0.3115217,0 P,0,138854,139654,A F,0,142236,,1,0
Sprite,Foreground,Centre,"sb\d.png",0,0 M,7,139001,139801,204,91,118,137 S,7,139001,139801,0.3821395,0 P,0,139001,139801,A F,0,142236,,1,0
Sprite,Foreground,Centre,"sb\d.png",0,0 M,7,139001,139801,204,91,174,154 S,7,139001,139801,0.3821395,0 P,0,139001,139801,A F,0,142236,,1,0
Sprite,Foreground,Centre,"sb\d.png",0,0 M,7,139001,139801,204,91,200,27 S,7,139001,139801,0.3821395,0 P,0,139001,139801,A F,0,142236,,1,0
Sprite,Foreground,Centre,"sb\d.png",0,0 M,7,139001,139801,204,91,213,34 S,7,139001,139801,0.3821395,0 P,0,139001,139801,A F,0,142236,,1,0
Sprite,Foreground,Centre,"sb\d.png",0,0 M,7,139001,139801,204,91,278,173 S,7,139001,139801,0.3821395,0 P,0,139001,139801,A F,0,142236,,1,0
Sprite,Foreground,Centre,"sb\d.png",0,0 M,7,139001,139801,204,91,120,4 S,7,139001,139801,0.3821395,0 P,0,139001,139801,A F,0,142236,,1,0
Sprite,Foreground,Centre,"sb\d.png",0,0 M,7,139001,139801,204,91,169,104 S,7,139001,139801,0.3821395,0 P,0,139001,139801,A F,0,142236,,1,0
Sprite,Foreground,Centre,"sb\d.png",0,0 M,7,139001,139801,204,91,145,46 S,7,139001,139801,0.3821395,0 P,0,139001,139801,A F,0,142236,,1,0
Sprite,Foreground,Centre,"sb\d.png",0,0 M,7,139001,139801,204,91,107,60 S,7,139001,139801,0.3821395,0 P,0,139001,139801,A F,0,142236,,1,0
Sprite,Foreground,Centre,"sb\d.png",0,0 M,7,139001,139801,204,91,274,62 S,7,139001,139801,0.3821395,0 P,0,139001,139801,A F,0,142236,,1,0
Sprite,Foreground,Centre,"sb\d.png",0,0 M,7,139148,139948,307,193,380,171 S,7,139148,139948,0.2920707,0 P,0,139148,139948,A F,0,142236,,1,0
Sprite,Foreground,Centre,"sb\d.png",0,0 M,7,139148,139948,307,193,283,194 S,7,139148,139948,0.2920707,0 P,0,139148,139948,A F,0,142236,,1,0
Sprite,Foreground,Centre,"sb\d.png",0,0 M,7,139148,139948,307,193,323,292 S,7,139148,139948,0.2920707,0 P,0,139148,139948,A F,0,142236,,1,0
Sprite,Foreground,Centre,"sb\d.png",0,0 M,7,139148,139948,307,193,228,171 S,7,139148,139948,0.2920707,0 P,0,139148,139948,A F,0,142236,,1,0
Sprite,Foreground,Centre,"sb\d.png",0,0 M,7,139148,139948,307,193,262,245 S,7,139148,139948,0.2920707,0 P,0,139148,139948,A F,0,142236,,1,0
Sprite,Foreground,Centre,"sb\d.png",0,0 M,7,139148,139948,307,193,387,213 S,7,139148,139948,0.2920707,0 P,0,139148,139948,A F,0,142236,,1,0
Sprite,Foreground,Centre,"sb\d.png",0,0 M,7,139148,139948,307,193,336,261 S,7,139148,139948,0.2920707,0 P,0,139148,139948,A F,0,142236,,1,0
Sprite,Foreground,Centre,"sb\d.png",0,0 M,7,139148,139948,307,193,222,119 S,7,139148,139948,0.2920707,0 P,0,139148,139948,A F,0,142236,,1,0
Sprite,Foreground,Centre,"sb\d.png",0,0 M,7,139148,139948,307,193,255,102 S,7,139148,139948,0.2920707,0 P,0,139148,139948,A F,0,142236,,1,0
Sprite,Foreground,Centre,"sb\d.png",0,0 M,7,139148,139948,307,193,404,168 S,7,139148,139948,0.2920707,0 P,0,139148,139948,A F,0,142236,,1,0
Sprite,Foreground,Centre,"sb\d.png",0,0 M,7,139295,140095,122,114,216,180 S,7,139295,140095,0.4093231,0 P,0,139295,140095,A F,0,142236,,1,0
Sprite,Foreground,Centre,"sb\d.png",0,0 M,7,139295,140095,122,114,151,206 S,7,139295,140095,0.4093231,0 P,0,139295,140095,A F,0,142236,,1,0
Sprite,Foreground,Centre,"sb\d.png",0,0 M,7,139295,140095,122,114,208,51 S,7,139295,140095,0.4093231,0 P,0,139295,140095,A F,0,142236,,1,0
Sprite,Foreground,Centre,"sb\d.png",0,0 M,7,139295,140095,122,114,45,73 S,7,139295,140095,0.4093231,0 P,0,139295,140095,A F,0,142236,,1,0
Sprite,Foreground,Centre,"sb\d.png",0,0 M,7,139295,140095,122,114,119,32 S,7,139295,140095,0.4093231,0 P,0,139295,140095,A F,0,142236,,1,0
Sprite,Foreground,Centre,"sb\d.png",0,0 M,7,139295,140095,122,114,52,80 S,7,139295,140095,0.4093231,0 P,0,139295,140095,A F,0,142236,,1,0
Sprite,Foreground,Centre,"sb\d.png",0,0 M,7,139295,140095,122,114,112,55 S,7,139295,140095,0.4093231,0 P,0,139295,140095,A F,0,142236,,1,0
Sprite,Foreground,Centre,"sb\d.png",0,0 M,7,139295,140095,122,114,90,208 S,7,139295,140095,0.4093231,0 P,0,139295,140095,A F,0,142236,,1,0
Sprite,Foreground,Centre,"sb\d.png",0,0 M,7,139295,140095,122,114,83,194 S,7,139295,140095,0.4093231,0 P,0,139295,140095,A F,0,142236,,1,0
Sprite,Foreground,Centre,"sb\d.png",0,0 M,7,139295,140095,122,114,59,102 S,7,139295,140095,0.4093231,0 P,0,139295,140095,A F,0,142236,,1,0
Sprite,Foreground,Centre,"sb\d.png",0,0 M,7,139589,140389,337,282,355,212 S,7,139589,140389,0.4158652,0 P,0,139589,140389,A F,0,142236,,1,0
Sprite,Foreground,Centre,"sb\d.png",0,0 M,7,139589,140389,337,282,273,275 S,7,139589,140389,0.4158652,0 P,0,139589,140389,A F,0,142236,,1,0
Sprite,Foreground,Centre,"sb\d.png",0,0 M,7,139589,140389,337,282,373,327 S,7,139589,140389,0.4158652,0 P,0,139589,140389,A F,0,142236,,1,0
Sprite,Foreground,Centre,"sb\d.png",0,0 M,7,139589,140389,337,282,262,211 S,7,139589,140389,0.4158652,0 P,0,139589,140389,A F,0,142236,,1,0
Sprite,Foreground,Centre,"sb\d.png",0,0 M,7,139589,140389,337,282,391,241 S,7,139589,140389,0.4158652,0 P,0,139589,140389,A F,0,142236,,1,0
Sprite,Foreground,Centre,"sb\d.png",0,0 M,7,139589,140389,337,282,409,378 S,7,139589,140389,0.4158652,0 P,0,139589,140389,A F,0,142236,,1,0
Sprite,Foreground,Centre,"sb\d.png",0,0 M,7,139589,140389,337,282,319,361 S,7,139589,140389,0.4158652,0 P,0,139589,140389,A F,0,142236,,1,0
Sprite,Foreground,Centre,"sb\d.png",0,0 M,7,139589,140389,337,282,349,328 S,7,139589,140389,0.4158652,0 P,0,139589,140389,A F,0,142236,,1,0
Sprite,Foreground,Centre,"sb\d.png",0,0 M,7,139589,140389,337,282,345,312 S,7,139589,140389,0.4158652,0 P,0,139589,140389,A F,0,142236,,1,0
Sprite,Foreground,Centre,"sb\d.png",0,0 M,7,139589,140389,337,282,399,379 S,7,139589,140389,0.4158652,0 P,0,139589,140389,A F,0,142236,,1,0
Sprite,Foreground,Centre,"sb\d.png",0,0 M,7,139883,140683,157,430,214,463 S,7,139883,140683,0.2680906,0 P,0,139883,140683,A F,0,142236,,1,0
Sprite,Foreground,Centre,"sb\d.png",0,0 M,7,139883,140683,157,430,206,384 S,7,139883,140683,0.2680906,0 P,0,139883,140683,A F,0,142236,,1,0
Sprite,Foreground,Centre,"sb\d.png",0,0 M,7,139883,140683,157,430,96,457 S,7,139883,140683,0.2680906,0 P,0,139883,140683,A F,0,142236,,1,0
Sprite,Foreground,Centre,"sb\d.png",0,0 M,7,139883,140683,157,430,204,361 S,7,139883,140683,0.2680906,0 P,0,139883,140683,A F,0,142236,,1,0
Sprite,Foreground,Centre,"sb\d.png",0,0 M,7,139883,140683,157,430,244,359 S,7,139883,140683,0.2680906,0 P,0,139883,140683,A F,0,142236,,1,0
Sprite,Foreground,Centre,"sb\d.png",0,0 M,7,139883,140683,157,430,217,517 S,7,139883,140683,0.2680906,0 P,0,139883,140683,A F,0,142236,,1,0
Sprite,Foreground,Centre,"sb\d.png",0,0 M,7,139883,140683,157,430,250,405 S,7,139883,140683,0.2680906,0 P,0,139883,140683,A F,0,142236,,1,0
Sprite,Foreground,Centre,"sb\d.png",0,0 M,7,139883,140683,157,430,192,423 S,7,139883,140683,0.2680906,0 P,0,139883,140683,A F,0,142236,,1,0
Sprite,Foreground,Centre,"sb\d.png",0,0 M,7,139883,140683,157,430,156,379 S,7,139883,140683,0.2680906,0 P,0,139883,140683,A F,0,142236,,1,0
Sprite,Foreground,Centre,"sb\d.png",0,0 M,7,139883,140683,157,430,148,528 S,7,139883,140683,0.2680906,0 P,0,139883,140683,A F,0,142236,,1,0
Sprite,Foreground,Centre,"sb\d.png",0,0 M,7,140177,140977,126,285,168,344 S,7,140177,140977,0.2807853,0 P,0,140177,140977,A F,0,142236,,1,0
Sprite,Foreground,Centre,"sb\d.png",0,0 M,7,140177,140977,126,285,84,254 S,7,140177,140977,0.2807853,0 P,0,140177,140977,A F,0,142236,,1,0
Sprite,Foreground,Centre,"sb\d.png",0,0 M,7,140177,140977,126,285,33,246 S,7,140177,140977,0.2807853,0 P,0,140177,140977,A F,0,142236,,1,0
Sprite,Foreground,Centre,"sb\d.png",0,0 M,7,140177,140977,126,285,181,232 S,7,140177,140977,0.2807853,0 P,0,140177,140977,A F,0,142236,,1,0
Sprite,Foreground,Centre,"sb\d.png",0,0 M,7,140177,140977,126,285,178,235 S,7,140177,140977,0.2807853,0 P,0,140177,140977,A F,0,142236,,1,0
Sprite,Foreground,Centre,"sb\d.png",0,0 M,7,140177,140977,126,285,100,275 S,7,140177,140977,0.2807853,0 P,0,140177,140977,A F,0,142236,,1,0
Sprite,Foreground,Centre,"sb\d.png",0,0 M,7,140177,140977,126,285,173,346 S,7,140177,140977,0.2807853,0 P,0,140177,140977,A F,0,142236,,1,0
Sprite,Foreground,Centre,"sb\d.png",0,0 M,7,140177,140977,126,285,122,272 S,7,140177,140977,0.2807853,0 P,0,140177,140977,A F,0,142236,,1,0
Sprite,Foreground,Centre,"sb\d.png",0,0 M,7,140177,140977,126,285,64,281 S,7,140177,140977,0.2807853,0 P,0,140177,140977,A F,0,142236,,1,0
Sprite,Foreground,Centre,"sb\d.png",0,0 M,7,140177,140977,126,285,44,263 S,7,140177,140977,0.2807853,0 P,0,140177,140977,A F,0,142236,,1,0
Sprite,Foreground,Centre,"sb\d.png",0,0 M,7,140324,141124,76,368,143,297 S,7,140324,141124,0.4473706,0 P,0,140324,141124,A F,0,142236,,1,0
Sprite,Foreground,Centre,"sb\d.png",0,0 M,7,140324,141124,76,368,-12,277 S,7,140324,141124,0.4473706,0 P,0,140324,141124,A F,0,142236,,1,0
Sprite,Foreground,Centre,"sb\d.png",0,0 M,7,140324,141124,76,368,65,371 S,7,140324,141124,0.4473706,0 P,0,140324,141124,A F,0,142236,,1,0
Sprite,Foreground,Centre,"sb\d.png",0,0 M,7,140324,141124,76,368,152,321 S,7,140324,141124,0.4473706,0 P,0,140324,141124,A F,0,142236,,1,0
Sprite,Foreground,Centre,"sb\d.png",0,0 M,7,140324,141124,76,368,-15,348 S,7,140324,141124,0.4473706,0 P,0,140324,141124,A F,0,142236,,1,0
Sprite,Foreground,Centre,"sb\d.png",0,0 M,7,140324,141124,76,368,47,466 S,7,140324,141124,0.4473706,0 P,0,140324,141124,A F,0,142236,,1,0
Sprite,Foreground,Centre,"sb\d.png",0,0 M,7,140324,141124,76,368,163,283 S,7,140324,141124,0.4473706,0 P,0,140324,141124,A F,0,142236,,1,0
Sprite,Foreground,Centre,"sb\d.png",0,0 M,7,140324,141124,76,368,150,359 S,7,140324,141124,0.4473706,0 P,0,140324,141124,A F,0,142236,,1,0
Sprite,Foreground,Centre,"sb\d.png",0,0 M,7,140324,141124,76,368,161,299 S,7,140324,141124,0.4473706,0 P,0,140324,141124,A F,0,142236,,1,0
Sprite,Foreground,Centre,"sb\d.png",0,0 M,7,140324,141124,76,368,41,459 S,7,140324,141124,0.4473706,0 P,0,140324,141124,A F,0,142236,,1,0
Sprite,Foreground,Centre,"sb\d.png",0,0 M,7,140472,141272,146,439,80,518 S,7,140472,141272,0.4339635,0 P,0,140472,141272,A F,0,142236,,1,0
Sprite,Foreground,Centre,"sb\d.png",0,0 M,7,140472,141272,146,439,132,435 S,7,140472,141272,0.4339635,0 P,0,140472,141272,A F,0,142236,,1,0
Sprite,Foreground,Centre,"sb\d.png",0,0 M,7,140472,141272,146,439,91,453 S,7,140472,141272,0.4339635,0 P,0,140472,141272,A F,0,142236,,1,0
Sprite,Foreground,Centre,"sb\d.png",0,0 M,7,140472,141272,146,439,84,344 S,7,140472,141272,0.4339635,0 P,0,140472,141272,A F,0,142236,,1,0
Sprite,Foreground,Centre,"sb\d.png",0,0 M,7,140472,141272,146,439,107,492 S,7,140472,141272,0.4339635,0 P,0,140472,141272,A F,0,142236,,1,0
Sprite,Foreground,Centre,"sb\d.png",0,0 M,7,140472,141272,146,439,118,459 S,7,140472,141272,0.4339635,0 P,0,140472,141272,A F,0,142236,,1,0
Sprite,Foreground,Centre,"sb\d.png",0,0 M,7,140472,141272,146,439,79,513 S,7,140472,141272,0.4339635,0 P,0,140472,141272,A F,0,142236,,1,0
Sprite,Foreground,Centre,"sb\d.png",0,0 M,7,140472,141272,146,439,175,384 S,7,140472,141272,0.4339635,0 P,0,140472,141272,A F,0,142236,,1,0
Sprite,Foreground,Centre,"sb\d.png",0,0 M,7,140472,141272,146,439,106,457 S,7,140472,141272,0.4339635,0 P,0,140472,141272,A F,0,142236,,1,0
Sprite,Foreground,Centre,"sb\d.png",0,0 M,7,140472,141272,146,439,203,518 S,7,140472,141272,0.4339635,0 P,0,140472,141272,A F,0,142236,,1,0
Sprite,Foreground,Centre,"sb\d.png",0,0 M,7,140766,141566,117,295,160,364 S,7,140766,141566,0.4443936,0 P,0,140766,141566,A F,0,142236,,1,0
Sprite,Foreground,Centre,"sb\d.png",0,0 M,7,140766,141566,117,295,20,287 S,7,140766,141566,0.4443936,0 P,0,140766,141566,A F,0,142236,,1,0
Sprite,Foreground,Centre,"sb\d.png",0,0 M,7,140766,141566,117,295,177,341 S,7,140766,141566,0.4443936,0 P,0,140766,141566,A F,0,142236,,1,0
Sprite,Foreground,Centre,"sb\d.png",0,0 M,7,140766,141566,117,295,139,390 S,7,140766,141566,0.4443936,0 P,0,140766,141566,A F,0,142236,,1,0
Sprite,Foreground,Centre,"sb\d.png",0,0 M,7,140766,141566,117,295,70,259 S,7,140766,141566,0.4443936,0 P,0,140766,141566,A F,0,142236,,1,0
Sprite,Foreground,Centre,"sb\d.png",0,0 M,7,140766,141566,117,295,170,281 S,7,140766,141566,0.4443936,0 P,0,140766,141566,A F,0,142236,,1,0
Sprite,Foreground,Centre,"sb\d.png",0,0 M,7,140766,141566,117,295,30,327 S,7,140766,141566,0.4443936,0 P,0,140766,141566,A F,0,142236,,1,0
Sprite,Foreground,Centre,"sb\d.png",0,0 M,7,140766,141566,117,295,67,320 S,7,140766,141566,0.4443936,0 P,0,140766,141566,A F,0,142236,,1,0
Sprite,Foreground,Centre,"sb\d.png",0,0 M,7,140766,141566,117,295,130,238 S,7,140766,141566,0.4443936,0 P,0,140766,141566,A F,0,142236,,1,0
Sprite,Foreground,Centre,"sb\d.png",0,0 M,7,140766,141566,117,295,206,332 S,7,140766,141566,0.4443936,0 P,0,140766,141566,A F,0,142236,,1,0
Sprite,Foreground,Centre,"sb\d.png",0,0 M,7,140913,141713,64,378,111,405 S,7,140913,141713,0.2975497,0 P,0,140913,141713,A F,0,142236,,1,0
Sprite,Foreground,Centre,"sb\d.png",0,0 M,7,140913,141713,64,378,162,356 S,7,140913,141713,0.2975497,0 P,0,140913,141713,A F,0,142236,,1,0
Sprite,Foreground,Centre,"sb\d.png",0,0 M,7,140913,141713,64,378,117,318 S,7,140913,141713,0.2975497,0 P,0,140913,141713,A F,0,142236,,1,0
Sprite,Foreground,Centre,"sb\d.png",0,0 M,7,140913,141713,64,378,8,323 S,7,140913,141713,0.2975497,0 P,0,140913,141713,A F,0,142236,,1,0
Sprite,Foreground,Centre,"sb\d.png",0,0 M,7,140913,141713,64,378,88,391 S,7,140913,141713,0.2975497,0 P,0,140913,141713,A F,0,142236,,1,0
Sprite,Foreground,Centre,"sb\d.png",0,0 M,7,140913,141713,64,378,71,290 S,7,140913,141713,0.2975497,0 P,0,140913,141713,A F,0,142236,,1,0
Sprite,Foreground,Centre,"sb\d.png",0,0 M,7,140913,141713,64,378,153,369 S,7,140913,141713,0.2975497,0 P,0,140913,141713,A F,0,142236,,1,0
Sprite,Foreground,Centre,"sb\d.png",0,0 M,7,140913,141713,64,378,-27,361 S,7,140913,141713,0.2975497,0 P,0,140913,141713,A F,0,142236,,1,0
Sprite,Foreground,Centre,"sb\d.png",0,0 M,7,140913,141713,64,378,-32,363 S,7,140913,141713,0.2975497,0 P,0,140913,141713,A F,0,142236,,1,0
Sprite,Foreground,Centre,"sb\d.png",0,0 M,7,140913,141713,64,378,132,394 S,7,140913,141713,0.2975497,0 P,0,140913,141713,A F,0,142236,,1,0
Sprite,Foreground,Centre,"sb\d.png",0,0 M,7,141060,141860,257,271,164,259 S,7,141060,141860,0.2600004,0 P,0,141060,141860,A F,0,142236,,1,0
Sprite,Foreground,Centre,"sb\d.png",0,0 M,7,141060,141860,257,271,276,204 S,7,141060,141860,0.2600004,0 P,0,141060,141860,A F,0,142236,,1,0
Sprite,Foreground,Centre,"sb\d.png",0,0 M,7,141060,141860,257,271,177,213 S,7,141060,141860,0.2600004,0 P,0,141060,141860,A F,0,142236,,1,0
Sprite,Foreground,Centre,"sb\d.png",0,0 M,7,141060,141860,257,271,236,290 S,7,141060,141860,0.2600004,0 P,0,141060,141860,A F,0,142236,,1,0
Sprite,Foreground,Centre,"sb\d.png",0,0 M,7,141060,141860,257,271,303,245 S,7,141060,141860,0.2600004,0 P,0,141060,141860,A F,0,142236,,1,0
Sprite,Foreground,Centre,"sb\d.png",0,0 M,7,141060,141860,257,271,325,212 S,7,141060,141860,0.2600004,0 P,0,141060,141860,A F,0,142236,,1,0
Sprite,Foreground,Centre,"sb\d.png",0,0 M,7,141060,141860,257,271,303,366 S,7,141060,141860,0.2600004,0 P,0,141060,141860,A F,0,142236,,1,0
Sprite,Foreground,Centre,"sb\d.png",0,0 M,7,141060,141860,257,271,199,175 S,7,141060,141860,0.2600004,0 P,0,141060,141860,A F,0,142236,,1,0
Sprite,Foreground,Centre,"sb\d.png",0,0 M,7,141060,141860,257,271,170,177 S,7,141060,141860,0.2600004,0 P,0,141060,141860,A F,0,142236,,1,0
Sprite,Foreground,Centre,"sb\d.png",0,0 M,7,141060,141860,257,271,262,249 S,7,141060,141860,0.2600004,0 P,0,141060,141860,A F,0,142236,,1,0
Sprite,Foreground,Centre,"sb\d.png",0,0 M,7,141501,142301,66,208,94,258 S,7,141501,142301,0.4003633,0 P,0,141501,142301,A F,0,142236,,1,0
Sprite,Foreground,Centre,"sb\d.png",0,0 M,7,141501,142301,66,208,11,182 S,7,141501,142301,0.4003633,0 P,0,141501,142301,A F,0,142236,,1,0
Sprite,Foreground,Centre,"sb\d.png",0,0 M,7,141501,142301,66,208,-11,148 S,7,141501,142301,0.4003633,0 P,0,141501,142301,A F,0,142236,,1,0
Sprite,Foreground,Centre,"sb\d.png",0,0 M,7,141501,142301,66,208,6,150 S,7,141501,142301,0.4003633,0 P,0,141501,142301,A F,0,142236,,1,0
Sprite,Foreground,Centre,"sb\d.png",0,0 M,7,141501,142301,66,208,75,266 S,7,141501,142301,0.4003633,0 P,0,141501,142301,A F,0,142236,,1,0
Sprite,Foreground,Centre,"sb\d.png",0,0 M,7,141501,142301,66,208,-13,129 S,7,141501,142301,0.4003633,0 P,0,141501,142301,A F,0,142236,,1,0
Sprite,Foreground,Centre,"sb\d.png",0,0 M,7,141501,142301,66,208,3,247 S,7,141501,142301,0.4003633,0 P,0,141501,142301,A F,0,142236,,1,0
Sprite,Foreground,Centre,"sb\d.png",0,0 M,7,141501,142301,66,208,4,186 S,7,141501,142301,0.4003633,0 P,0,141501,142301,A F,0,142236,,1,0
Sprite,Foreground,Centre,"sb\d.png",0,0 M,7,141501,142301,66,208,11,241 S,7,141501,142301,0.4003633,0 P,0,141501,142301,A F,0,142236,,1,0
Sprite,Foreground,Centre,"sb\d.png",0,0 M,7,141501,142301,66,208,164,272 S,7,141501,142301,0.4003633,0 P,0,141501,142301,A F,0,142236,,1,0
Sprite,Foreground,Centre,"sb\d.png",0,0 M,7,141648,142448,164,57,242,-4 S,7,141648,142448,0.3756161,0 P,0,141648,142448,A F,0,142236,,1,0
Sprite,Foreground,Centre,"sb\d.png",0,0 M,7,141648,142448,164,57,203,127 S,7,141648,142448,0.3756161,0 P,0,141648,142448,A F,0,142236,,1,0
Sprite,Foreground,Centre,"sb\d.png",0,0 M,7,141648,142448,164,57,106,53 S,7,141648,142448,0.3756161,0 P,0,141648,142448,A F,0,142236,,1,0
Sprite,Foreground,Centre,"sb\d.png",0,0 M,7,141648,142448,164,57,230,35 S,7,141648,142448,0.3756161,0 P,0,141648,142448,A F,0,142236,,1,0
Sprite,Foreground,Centre,"sb\d.png",0,0 M,7,141648,142448,164,57,254,35 S,7,141648,142448,0.3756161,0 P,0,141648,142448,A F,0,142236,,1,0
Sprite,Foreground,Centre,"sb\d.png",0,0 M,7,141648,142448,164,57,126,-6 S,7,141648,142448,0.3756161,0 P,0,141648,142448,A F,0,142236,,1,0
Sprite,Foreground,Centre,"sb\d.png",0,0 M,7,141648,142448,164,57,123,36 S,7,141648,142448,0.3756161,0 P,0,141648,142448,A F,0,142236,,1,0
Sprite,Foreground,Centre,"sb\d.png",0,0 M,7,141648,142448,164,57,201,30 S,7,141648,142448,0.3756161,0 P,0,141648,142448,A F,0,142236,,1,0
Sprite,Foreground,Centre,"sb\d.png",0,0 M,7,141648,142448,164,57,222,153 S,7,141648,142448,0.3756161,0 P,0,141648,142448,A F,0,142236,,1,0
Sprite,Foreground,Centre,"sb\d.png",0,0 M,7,141648,142448,164,57,65,-4 S,7,141648,142448,0.3756161,0 P,0,141648,142448,A F,0,142236,,1,0
Sprite,Foreground,Centre,"sb\d.png",0,0 M,7,141942,142742,350,260,287,276 S,7,141942,142742,0.3270856,0 P,0,141942,142742,A F,0,142236,,1,0
Sprite,Foreground,Centre,"sb\d.png",0,0 M,7,141942,142742,350,260,396,180 S,7,141942,142742,0.3270856,0 P,0,141942,142742,A F,0,142236,,1,0
Sprite,Foreground,Centre,"sb\d.png",0,0 M,7,141942,142742,350,260,359,215 S,7,141942,142742,0.3270856,0 P,0,141942,142742,A F,0,142236,,1,0
Sprite,Foreground,Centre,"sb\d.png",0,0 M,7,141942,142742,350,260,254,285 S,7,141942,142742,0.3270856,0 P,0,141942,142742,A F,0,142236,,1,0
Sprite,Foreground,Centre,"sb\d.png",0,0 M,7,141942,142742,350,260,417,232 S,7,141942,142742,0.3270856,0 P,0,141942,142742,A F,0,142236,,1,0
Sprite,Foreground,Centre,"sb\d.png",0,0 M,7,141942,142742,350,260,357,273 S,7,141942,142742,0.3270856,0 P,0,141942,142742,A F,0,142236,,1,0
Sprite,Foreground,Centre,"sb\d.png",0,0 M,7,141942,142742,350,260,274,310 S,7,141942,142742,0.3270856,0 P,0,141942,142742,A F,0,142236,,1,0
Sprite,Foreground,Centre,"sb\d.png",0,0 M,7,141942,142742,350,260,361,266 S,7,141942,142742,0.3270856,0 P,0,141942,142742,A F,0,142236,,1,0
Sprite,Foreground,Centre,"sb\d.png",0,0 M,7,141942,142742,350,260,354,341 S,7,141942,142742,0.3270856,0 P,0,141942,142742,A F,0,142236,,1,0
Sprite,Foreground,Centre,"sb\d.png",0,0 M,7,141942,142742,350,260,394,233 S,7,141942,142742,0.3270856,0 P,0,141942,142742,A F,0,142236,,1,0
Animation,Foreground,Centre,"sb\circleani\Ellipse.png",180,287,31,25,LoopOnce C,0,5765,,0,151,75 S,7,5765,6540,0,0.512
Animation,Foreground,Centre,"sb\circleani\Ellipse.png",413,394,31,25,LoopOnce C,0,9295,,0,151,75 S,7,9295,10070,0,0.512
Animation,Foreground,Centre,"sb\circleani\Ellipse.png",434,281,31,25,LoopOnce C,0,8118,,0,151,75 S,7,8118,8893,0,0.512
Animation,Foreground,Centre,"sb\circleani\Ellipse.png",90,181,31,25,LoopOnce C,0,2236,,0,151,75 S,7,2236,3011,0,0.512
Animation,Foreground,Centre,"sb\circleani\Ellipse.png",278,243,31,25,LoopOnce C,0,6942,,0,151,75 S,7,6942,7717,0,0.512
Animation,Foreground,Centre,"sb\circleani\Ellipse.png",394,225,31,25,LoopOnce C,0,3412,,0,151,75 S,7,3412,4187,0,0.512
Animation,Foreground,Centre,"sb\circleani\Ellipse.png",434,280,31,25,LoopOnce C,0,9883,,0,151,75 S,7,9883,10658,0,0.512
Animation,Foreground,Centre,"sb\circleani\Ellipse.png",277,386,31,25,LoopOnce C,0,1060,,0,151,75 S,7,1060,1835,0,0.512
Animation,Foreground,Centre,"sb\circleani\Ellipse.png",180,287,31,25,LoopOnce C,0,4589,,0,151,75 S,7,4589,5364,0,0.512
Animation,Foreground,Centre,"sb\circleani\Ellipse.png",64,384,31,25,LoopOnce C,0,5177,,0,151,75 S,7,5177,5952,0,0.512
Sprite,Foreground,Centre,"sb\ring.png",0,0 M,0,46942,,494,242 F,0,46942,,0 P,0,46942,,A F,7,46942,47942,1,0 S,7,46942,47942,0,1.8 M,0,48045,,320,2000
Sprite,Foreground,Centre,"sb\ring.png",0,0 M,0,46942,,340,408 F,0,46942,,0 P,0,47236,,A F,7,47236,48236,1,0 S,7,47236,48236,0,1.8 M,0,48045,,320,2000
Sprite,Foreground,Centre,"sb\ring.png",0,0 M,0,46942,,168,196 F,0,46942,,0 P,0,47530,,A F,7,47530,48530,1,0 S,7,47530,48530,0,1.8 M,0,48045,,320,2000
Sprite,Foreground,Centre,"sb\ring.png",0,0 M,0,46942,,64,364 F,0,46942,,0 P,0,47824,,A F,7,47824,48824,1,0 S,7,47824,48824,0,1.8 M,0,48045,,320,2000
//Storyboard Layer 4 (Overlay)
//Storyboard Sound Samples

[TimingPoints]
1060,294.117647058824,4,2,1,60,1,0
1060,-142.857142857143,4,2,1,60,0,0
1207,-142.857142857143,4,2,2,60,0,0
2236,-142.857142857143,4,2,1,60,0,0
2530,-142.857142857143,4,2,2,60,0,0
3412,-142.857142857143,4,2,1,60,0,0
3706,-142.857142857143,4,2,2,60,0,0
4589,-142.857142857143,4,2,1,60,0,0
4736,-142.857142857143,4,2,2,60,0,0
5177,-142.857142857143,4,2,1,60,0,0
5912,-142.857142857143,4,2,2,60,0,0
6942,-142.857142857143,4,2,1,60,0,0
7236,-142.857142857143,4,2,2,60,0,0
8118,-142.857142857143,4,2,1,60,0,0
8412,-142.857142857143,4,2,2,60,0,0
8707,-142.857142857143,4,2,3,60,0,0
8854,-142.857142857143,4,2,2,60,0,0
9295,-142.857142857143,4,2,1,60,0,0
9442,-142.857142857143,4,2,2,60,0,0
10471,-100,4,2,1,85,0,0
10618,-100,4,2,2,85,0,0
11648,-100,4,2,1,85,0,0
11942,-100,4,2,2,85,0,0
12824,-100,4,2,1,85,0,0
12971,-100,4,2,1,50,0,0
13118,-100,4,2,2,85,0,0
14001,-100,4,2,1,85,0,0
14148,-100,4,2,2,85,0,0
14295,-100,4,2,1,85,0,0
14442,-100,4,2,1,50,0,0
14589,-100,4,2,1,85,0,0
15030,-100,4,2,1,50,0,0
15177,-100,4,2,1,85,0,0
15324,-100,4,2,2,85,0,0
16354,-100,4,2,1,85,0,0
16648,-100,4,2,2,85,0,0
17530,-100,4,2,1,85,0,0
17677,-100,4,2,1,50,0,0
17824,-100,4,2,2,85,0,0
18707,-100,4,2,1,85,0,0
18854,-100,4,2,2,85,0,0
19148,-100,4,2,2,50,0,0
19295,-100,4,2,1,85,0,0
19589,-100,4,2,2,85,0,0
19883,-100,4,2,1,85,0,0
20030,-100,4,2,2,85,0,0
21060,-100,4,2,1,85,0,0
21354,-100,4,2,2,85,0,0
22236,-100,4,2,1,85,0,0
22383,-100,4,2,1,50,0,0
22530,-100,4,2,2,85,0,0
23412,-100,4,2,1,85,0,0
23560,-100,4,2,2,85,0,0
23707,-100,4,2,1,85,0,0
23854,-100,4,2,1,50,0,0
24001,-100,4,2,1,85,0,0
24442,-100,4,2,1,50,0,0
24589,-100,4,2,1,85,0,0
24736,-100,4,2,2,85,0,0
25765,-100,4,2,1,85,0,0
26060,-100,4,2,2,85,0,0
26942,-100,4,2,1,85,0,0
27089,-100,4,2,1,50,0,0
27236,-100,4,2,2,85,0,0
28118,-100,4,2,1,85,0,0
28265,-100,4,2,2,85,0,0
28559,-100,4,2,2,50,0,0
28707,-100,4,2,1,85,0,0
29295,-200,4,2,4,50,0,0
29589,-200,4,2,5,50,0,0
29883,-200,4,2,6,50,0,0
30471,-200,4,2,5,50,0,0
30765,-200,4,2,7,50,0,0
31059,-200,4,2,8,50,0,0
31648,-200,4,2,9,50,0,0
31942,-200,4,2,10,50,0,0
32236,-200,4,2,11,50,0,0
32824,-200,4,2,12,50,0,0
33118,-200,4,2,13,50,0,0
33412,-200,4,2,14,50,0,0
34001,-200,4,2,4,50,0,0
34295,-200,4,2,5,50,0,0
34589,-200,4,2,6,50,0,0
35177,-200,4,2,5,50,0,0
35471,-200,4,2,7,50,0,0
35765,-200,4,2,8,50,0,0
36354,-200,4,2,9,50,0,0
36648,-200,4,2,10,50,0,0
36942,-200,4,2,15,50,0,0
37236,-200,4,2,2,50,0,0
37530,-200,4,2,16,50,0,0
37677,-200,4,2,2,50,0,0
38707,-125,4,2,1,70,0,0
39001,-125,4,2,5,70,0,0
39148,-125,4,2,17,70,0,0
39442,-125,4,2,4,70,0,0
39589,-125,4,2,5,70,0,0
39883,-125,4,2,18,70,0,0
40177,-125,4,2,9,70,0,0
40324,-125,4,2,13,70,0,0
40471,-125,4,2,1,70,0,0
40618,-125,4,2,19,70,0,0
40765,-125,4,2,20,70,0,0
41354,-125,4,2,10,70,0,0
41501,-125,4,2,15,70,0,0
41795,-125,4,2,21,70,0,0
41942,-125,4,2,10,70,0,0
42089,-125,4,2,2,70,0,0
42236,-125,4,2,22,70,0,0
42530,-125,4,2,5,70,0,0
42677,-125,4,2,17,70,0,0
42971,-125,4,2,4,70,0,0
43118,-125,4,2,18,70,0,0
43265,-125,4,2,2,70,0,0
43412,-125,4,2,18,70,0,0
43706,-125,4,2,5,70,0,0
43854,-125,4,2,17,70,0,0
44001,-125,4,2,2,70,0,0
44221,-125,4,2,2,50,0,0
44295,-125,4,2,5,70,0,0
44442,-125,4,2,2,70,0,0
44589,-125,4,2,18,70,0,0
44883,-125,4,2,20,70,0,0
45030,-125,4,2,13,70,0,0
45177,-125,4,2,1,70,0,0
45324,-125,4,2,19,70,0,0
45471,-100,4,2,20,70,0,0
46059,-100,4,2,10,70,0,0
46353,-100,4,2,1,70,0,0
46648,-100,4,2,10,70,0,0
46942,-100,4,2,23,80,0,0
47089,-100,4,2,2,80,0,0
47236,-100,4,2,24,80,0,0
47383,-100,4,2,2,80,0,0
47530,-100,4,2,25,80,0,0
47677,-100,4,2,2,80,0,0
47824,-100,4,2,26,80,0,0
47971,-100,4,2,26,50,0,0
48118,-83.3333333333333,4,2,27,90,0,1
48265,-83.3333333333333,4,2,28,90,0,1
48412,-83.3333333333333,4,2,1,90,0,1
48560,-83.3333333333333,4,2,29,90,0,1
48707,-83.3333333333333,4,2,1,90,0,1
48854,-83.3333333333333,4,2,28,90,0,1
49001,-83.3333333333333,4,2,30,90,0,1
49148,-83.3333333333333,4,2,28,90,0,1
49295,-83.3333333333333,4,2,31,90,0,1
49442,-83.3333333333333,4,2,28,90,0,1
49589,-83.3333333333333,4,2,32,90,0,1
49736,-83.3333333333333,4,2,29,90,0,1
49883,-83.3333333333333,4,2,1,90,0,1
50030,-83.3333333333333,4,2,28,90,0,1
50177,-83.3333333333333,4,2,33,90,0,1
50324,-83.3333333333333,4,2,28,90,0,1
50471,-83.3333333333333,4,2,27,90,0,1
50618,-83.3333333333333,4,2,29,90,0,1
50765,-83.3333333333333,4,2,27,90,0,1
50912,-83.3333333333333,4,2,29,90,0,1
51060,-83.3333333333333,4,2,27,90,0,1
51207,-83.3333333333333,4,2,29,90,0,1
51354,-83.3333333333333,4,2,27,90,0,1
51501,-83.3333333333333,4,2,29,90,0,1
51648,-83.3333333333333,4,2,27,90,0,1
51795,-83.3333333333333,4,2,28,90,0,1
51942,-83.3333333333333,4,2,30,90,0,1
52089,-83.3333333333333,4,2,34,90,0,1
52236,-83.3333333333333,4,2,1,90,0,1
52383,-83.3333333333333,4,2,28,90,0,1
52530,-83.3333333333333,4,2,27,90,0,1
52677,-83.3333333333333,4,2,28,90,0,1
52824,-83.3333333333333,4,2,27,90,0,1
52971,-83.3333333333333,4,2,28,90,0,1
53118,-83.3333333333333,4,2,33,90,0,1
53265,-83.3333333333333,4,2,29,90,0,1
53412,-83.3333333333333,4,2,1,90,0,1
53560,-83.3333333333333,4,2,28,90,0,1
53707,-83.3333333333333,4,2,30,90,0,1
53854,-83.3333333333333,4,2,28,90,0,1
54001,-83.3333333333333,4,2,31,90,0,1
54148,-83.3333333333333,4,2,28,90,0,1
54295,-83.3333333333333,4,2,32,90,0,1
54442,-83.3333333333333,4,2,29,90,0,1
54589,-83.3333333333333,4,2,1,90,0,1
54736,-83.3333333333333,4,2,28,90,0,1
54883,-83.3333333333333,4,2,33,90,0,1
55030,-83.3333333333333,4,2,28,90,0,1
55177,-83.3333333333333,4,2,27,90,0,1
55324,-83.3333333333333,4,2,29,90,0,1
55471,-83.3333333333333,4,2,27,90,0,1
55618,-83.3333333333333,4,2,35,90,0,1
55765,-83.3333333333333,4,2,27,90,0,1
55912,-83.3333333333333,4,2,35,90,0,1
56060,-83.3333333333333,4,2,27,90,0,1
56207,-83.3333333333333,4,2,34,90,0,1
56354,-83.3333333333333,4,2,27,90,0,1
56501,-83.3333333333333,4,2,28,90,0,1
56648,-83.3333333333333,4,2,33,90,0,1
56795,-83.3333333333333,4,2,28,90,0,1
56942,-83.3333333333333,4,2,36,90,0,1
57089,-83.3333333333333,4,2,28,90,0,1
57236,-83.3333333333333,4,2,37,90,0,1
57383,-83.3333333333333,4,2,28,90,0,1
57530,-83.3333333333333,4,2,38,90,0,1
57677,-83.3333333333333,4,2,28,90,0,1
57824,-83.3333333333333,4,2,39,90,0,1
57971,-83.3333333333333,4,2,29,90,0,1
58118,-83.3333333333333,4,2,1,90,0,1
58265,-83.3333333333333,4,2,28,90,0,1
58412,-83.3333333333333,4,2,30,90,0,1
58559,-83.3333333333333,4,2,28,90,0,1
58633,-83.3333333333333,4,2,0,5,0,1
58707,-83.3333333333333,4,2,31,90,0,1
58854,-83.3333333333333,4,2,28,90,0,1
59001,-83.3333333333333,4,2,32,90,0,1
59148,-83.3333333333333,4,2,29,90,0,1
59295,-83.3333333333333,4,2,1,90,0,1
59442,-83.3333333333333,4,2,28,90,0,1
59589,-83.3333333333333,4,2,33,90,0,1
59736,-83.3333333333333,4,2,28,90,0,1
59883,-83.3333333333333,4,2,27,90,0,1
60030,-83.3333333333333,4,2,29,90,0,1
60177,-83.3333333333333,4,2,27,90,0,1
60324,-83.3333333333333,4,2,29,90,0,1
60471,-83.3333333333333,4,2,27,90,0,1
60618,-83.3333333333333,4,2,29,90,0,1
60765,-83.3333333333333,4,2,27,90,0,1
60912,-83.3333333333333,4,2,29,90,0,1
61060,-83.3333333333333,4,2,27,90,0,1
61207,-83.3333333333333,4,2,28,90,0,1
61354,-83.3333333333333,4,2,30,90,0,1
61501,-83.3333333333333,4,2,34,90,0,1
61648,-83.3333333333333,4,2,1,90,0,1
61795,-83.3333333333333,4,2,28,90,0,1
61942,-83.3333333333333,4,2,27,90,0,1
62089,-83.3333333333333,4,2,28,90,0,1
62236,-83.3333333333333,4,2,27,90,0,1
62383,-83.3333333333333,4,2,28,90,0,1
62530,-83.3333333333333,4,2,33,90,0,1
62677,-83.3333333333333,4,2,29,90,0,1
62824,-83.3333333333333,4,2,1,90,0,1
62971,-83.3333333333333,4,2,28,90,0,1
63118,-83.3333333333333,4,2,30,90,0,1
63265,-83.3333333333333,4,2,28,90,0,1
63339,-83.3333333333333,4,2,0,5,0,1
63412,-83.3333333333333,4,2,31,90,0,1
63559,-83.3333333333333,4,2,28,90,0,1
63707,-83.3333333333333,4,2,32,90,0,1
63854,-83.3333333333333,4,2,29,90,0,1
64001,-83.3333333333333,4,2,1,90,0,1
64148,-83.3333333333333,4,2,28,90,0,1
64295,-83.3333333333333,4,2,33,90,0,1
64442,-83.3333333333333,4,2,28,90,0,1
64589,-83.3333333333333,4,2,27,90,0,1
64736,-83.3333333333333,4,2,29,90,0,1
64883,-83.3333333333333,4,2,27,90,0,1
65030,-83.3333333333333,4,2,29,90,0,1
65177,-83.3333333333333,4,2,27,90,0,1
65324,-83.3333333333333,4,2,35,90,0,1
65471,-83.3333333333333,4,2,27,90,0,1
65618,-83.3333333333333,4,2,34,90,0,1
65765,-83.3333333333333,4,2,27,90,0,1
65912,-83.3333333333333,4,2,28,90,0,1
66060,-83.3333333333333,4,2,33,90,0,1
66207,-83.3333333333333,4,2,29,90,0,1
66354,-83.3333333333333,4,2,40,90,0,1
66501,-83.3333333333333,4,2,28,90,0,1
66648,-83.3333333333333,4,2,1,90,0,1
66795,-83.3333333333333,4,2,1,50,0,1
66942,-83.3333333333333,4,2,1,85,0,0
85471,-125,4,2,1,85,0,0
85618,-125,4,2,1,50,0,0
85765,-125,4,2,42,50,0,0
86060,-125,4,2,43,50,0,0
86207,-125,4,2,1,50,0,0
86354,-125,4,2,44,50,0,0
86648,-125,4,2,45,50,0,0
86942,-125,4,2,43,50,0,0
87236,-125,4,2,46,50,0,0
87530,-125,4,2,47,50,0,0
87824,-125,4,2,45,50,0,0
88118,-125,4,2,48,50,0,0
88412,-125,4,2,49,50,0,0
88559,-125,4,2,1,50,0,0
88706,-125,4,2,50,50,0,0
88854,-125,4,2,2,50,0,0
89001,-125,4,2,45,50,0,0
89148,-125,4,2,2,50,0,0
89295,-125,4,2,51,50,0,0
89589,-125,4,2,52,50,0,0
89883,-125,4,2,53,50,0,0
90177,-125,4,2,45,50,0,0
90324,-125,4,2,2,50,0,0
90471,-125,4,2,42,50,0,0
90765,-125,4,2,43,50,0,0
90912,-125,4,2,1,50,0,0
91060,-125,4,2,44,50,0,0
91354,-125,4,2,45,50,0,0
91501,-125,4,2,2,50,0,0
91648,-125,4,2,43,50,0,0
91942,-125,4,2,46,50,0,0
92236,-125,4,2,47,50,0,0
92530,-125,4,2,45,50,0,0
92824,-125,4,2,48,50,0,0
93118,-125,4,2,49,50,0,0
93412,-125,4,2,54,50,0,0
93706,-125,4,2,45,50,0,0
94001,-125,4,2,55,50,0,0
94295,-125,4,2,2,50,0,0
95177,-125,4,2,56,70,0,0
95471,-125,4,2,43,70,0,0
95618,-125,4,2,17,70,0,0
95765,-125,4,2,57,70,0,0
95912,-125,4,2,4,70,0,0
96060,-125,4,2,43,70,0,0
96207,-125,4,2,2,70,0,0
96354,-125,4,2,58,70,0,0
96648,-125,4,2,48,70,0,0
96795,-125,4,2,13,70,0,0
96942,-125,4,2,57,70,0,0
97236,-125,4,2,59,70,0,0
97824,-125,4,2,49,70,0,0
97971,-125,4,2,15,70,0,0
98118,-125,4,2,57,70,0,0
98265,-125,4,2,60,70,0,0
98412,-125,4,2,49,70,0,0
98559,-125,4,2,2,70,0,0
98707,-125,4,2,61,70,0,0
99001,-125,4,2,43,70,0,0
99148,-125,4,2,17,70,0,0
99295,-125,4,2,57,70,0,0
99442,-125,4,2,4,70,0,0
99589,-125,4,2,58,70,0,0
99736,-125,4,2,2,70,0,0
99883,-125,4,2,58,70,0,0
100177,-125,4,2,43,70,0,0
100324,-125,4,2,17,70,0,0
100471,-125,4,2,57,70,0,0
100618,-125,4,2,4,70,0,0
100765,-125,4,2,43,70,0,0
100912,-125,4,2,2,70,0,0
101060,-125,4,2,58,70,0,0
101354,-125,4,2,48,70,0,0
101501,-125,4,2,13,70,0,0
101648,-125,4,2,57,70,0,0
101795,-125,4,2,19,70,0,0
101942,-125,4,2,59,70,0,0
102162,-125,4,2,59,5,0,0
102236,-125,4,2,59,70,0,0
102530,-125,4,2,49,70,0,0
102824,-125,4,2,45,70,0,0
103118,-125,4,2,49,70,0,0
103412,-83.3333333333333,4,2,23,80,0,0
103559,-83.3333333333333,4,2,2,80,0,0
103707,-83.3333333333333,4,2,24,80,0,0
103854,-83.3333333333333,4,2,2,80,0,0
104001,-83.3333333333333,4,2,25,80,0,0
104148,-83.3333333333333,4,2,2,80,0,0
104296,-83.3333333333333,4,2,26,80,0,0
104443,-83.3333333333333,4,2,26,50,0,0
104589,-83.3333333333333,4,2,27,90,0,1
104736,-83.3333333333333,4,2,28,90,0,1
104883,-83.3333333333333,4,2,33,90,0,1
105030,-83.3333333333333,4,2,29,90,0,1
105177,-83.3333333333333,4,2,1,90,0,1
105324,-83.3333333333333,4,2,28,90,0,1
105471,-83.3333333333333,4,2,30,90,0,1
105618,-83.3333333333333,4,2,28,90,0,1
105692,-83.3333333333333,4,2,0,5,0,1
105765,-83.3333333333333,4,2,31,90,0,1
105912,-83.3333333333333,4,2,28,90,0,1
106060,-83.3333333333333,4,2,32,90,0,1
106207,-83.3333333333333,4,2,29,90,0,1
106354,-83.3333333333333,4,2,1,90,0,1
106501,-83.3333333333333,4,2,28,90,0,1
106648,-83.3333333333333,4,2,33,90,0,1
106795,-83.3333333333333,4,2,28,90,0,1
106942,-83.3333333333333,4,2,27,90,0,1
107089,-83.3333333333333,4,2,29,90,0,1
107236,-83.3333333333333,4,2,27,90,0,1
107383,-83.3333333333333,4,2,29,90,0,1
107530,-83.3333333333333,4,2,27,90,0,1
107677,-83.3333333333333,4,2,29,90,0,1
107824,-83.3333333333333,4,2,27,90,0,1
107971,-83.3333333333333,4,2,29,90,0,1
108118,-83.3333333333333,4,2,27,90,0,1
108265,-83.3333333333333,4,2,28,90,0,1
108412,-83.3333333333333,4,2,30,90,0,1
108560,-83.3333333333333,4,2,34,90,0,1
108707,-83.3333333333333,4,2,1,90,0,1
108854,-83.3333333333333,4,2,28,90,0,1
109001,-83.3333333333333,4,2,27,90,0,1
109148,-83.3333333333333,4,2,28,90,0,1
109221,-83.3333333333333,4,2,0,5,0,1
109295,-83.3333333333333,4,2,27,90,0,1
109442,-83.3333333333333,4,2,28,90,0,1
109589,-83.3333333333333,4,2,33,90,0,1
109736,-83.3333333333333,4,2,29,90,0,1
109883,-83.3333333333333,4,2,1,90,0,1
110030,-83.3333333333333,4,2,28,90,0,1
110177,-83.3333333333333,4,2,30,90,0,1
110324,-83.3333333333333,4,2,28,90,0,1
110471,-83.3333333333333,4,2,31,90,0,1
110618,-83.3333333333333,4,2,28,90,0,1
110765,-83.3333333333333,4,2,32,90,0,1
110912,-83.3333333333333,4,2,29,90,0,1
111059,-83.3333333333333,4,2,1,90,0,1
111207,-83.3333333333333,4,2,28,90,0,1
111354,-83.3333333333333,4,2,33,90,0,1
111501,-83.3333333333333,4,2,28,90,0,1
111648,-83.3333333333333,4,2,27,90,0,1
111795,-83.3333333333333,4,2,29,90,0,1
111942,-83.3333333333333,4,2,27,90,0,1
112089,-83.3333333333333,4,2,35,90,0,1
112236,-83.3333333333333,4,2,27,90,0,1
112383,-83.3333333333333,4,2,35,90,0,1
112530,-83.3333333333333,4,2,27,90,0,1
112677,-83.3333333333333,4,2,34,90,0,1
112824,-83.3333333333333,4,2,27,90,0,1
112971,-83.3333333333333,4,2,28,90,0,1
113265,-83.3333333333333,4,2,62,90,0,1
113412,-83.3333333333333,4,2,36,90,0,1
113559,-83.3333333333333,4,2,28,90,0,1
113707,-83.3333333333333,4,2,37,90,0,1
113854,-83.3333333333333,4,2,28,90,0,1
114001,-83.3333333333333,4,2,38,90,0,1
114148,-83.3333333333333,4,2,28,90,0,1
114295,-83.3333333333333,4,2,33,90,0,1
114442,-83.3333333333333,4,2,29,90,0,1
114589,-83.3333333333333,4,2,1,90,0,1
114736,-83.3333333333333,4,2,28,90,0,1
114883,-83.3333333333333,4,2,30,90,0,1
115030,-83.3333333333333,4,2,28,90,0,1
115177,-83.3333333333333,4,2,31,90,0,1
115324,-83.3333333333333,4,2,28,90,0,1
115471,-83.3333333333333,4,2,32,90,0,1
115618,-83.3333333333333,4,2,29,90,0,1
115765,-83.3333333333333,4,2,1,90,0,1
115912,-83.3333333333333,4,2,28,90,0,1
116059,-83.3333333333333,4,2,33,90,0,1
116206,-83.3333333333333,4,2,28,90,0,1
116354,-83.3333333333333,4,2,27,90,0,1
116501,-83.3333333333333,4,2,29,90,0,1
116648,-83.3333333333333,4,2,27,90,0,1
116795,-83.3333333333333,4,2,29,90,0,1
116942,-83.3333333333333,4,2,27,90,0,1
117089,-83.3333333333333,4,2,29,90,0,1
117236,-83.3333333333333,4,2,27,90,0,1
117383,-83.3333333333333,4,2,29,90,0,1
117530,-83.3333333333333,4,2,27,90,0,1
117677,-83.3333333333333,4,2,28,90,0,1
117824,-83.3333333333333,4,2,30,90,0,1
117971,-83.3333333333333,4,2,34,90,0,1
118118,-83.3333333333333,4,2,1,90,0,1
118265,-83.3333333333333,4,2,28,90,0,1
118412,-83.3333333333333,4,2,27,90,0,1
118559,-83.3333333333333,4,2,28,90,0,1
118707,-83.3333333333333,4,2,27,90,0,1
118854,-83.3333333333333,4,2,28,90,0,1
119001,-83.3333333333333,4,2,33,90,0,1
119148,-83.3333333333333,4,2,29,90,0,1
119295,-83.3333333333333,4,2,1,90,0,1
119442,-83.3333333333333,4,2,28,90,0,1
119589,-83.3333333333333,4,2,30,90,0,1
119736,-83.3333333333333,4,2,28,90,0,1
119883,-83.3333333333333,4,2,31,90,0,1
120030,-83.3333333333333,4,2,28,90,0,1
120177,-83.3333333333333,4,2,32,90,0,1
120324,-83.3333333333333,4,2,29,90,0,1
120471,-83.3333333333333,4,2,1,90,0,1
120618,-83.3333333333333,4,2,28,90,0,1
120765,-83.3333333333333,4,2,33,90,0,1
120912,-83.3333333333333,4,2,28,90,0,1
121060,-83.3333333333333,4,2,27,90,0,1
121207,-83.3333333333333,4,2,29,90,0,1
121354,-83.3333333333333,4,2,27,90,0,1
121501,-83.3333333333333,4,2,29,90,0,1
121648,-83.3333333333333,4,2,27,90,0,1
121795,-83.3333333333333,4,2,29,90,0,1
121942,-83.3333333333333,4,2,27,90,0,1
122089,-83.3333333333333,4,2,34,90,0,1
122236,-83.3333333333333,4,2,27,90,0,1
122383,-83.3333333333333,4,2,28,90,0,1
122530,-83.3333333333333,4,2,33,90,0,1
122677,-83.3333333333333,4,2,29,90,0,1
122824,-83.3333333333333,4,2,40,90,0,1
122971,-83.3333333333333,4,2,63,90,0,1
123118,-83.3333333333333,4,2,1,90,0,1
123412,-83.3333333333333,4,2,64,85,0,0
123707,-83.3333333333333,4,2,65,85,0,0
142089,-83.3333333333333,4,2,2,85,0,0
142236,-250,4,2,89,55,0,0
143412,-250,4,2,18,55,0,0
144589,-250,4,2,60,55,0,0
144883,-250,4,2,2,55,0,0
145765,-250,4,2,18,55,0,0
146059,-250,4,2,2,55,0,0
146942,-250,4,2,18,55,0,0
149295,-250,4,2,60,55,0,0
149589,-250,4,2,2,55,0,0
150471,-250,4,2,18,55,0,0
150765,-250,4,2,2,55,0,0
151648,-250,4,2,66,60,0,0
152089,-250,4,2,18,60,0,0
152530,-250,4,2,6,60,0,0
152824,-250,4,2,20,60,0,0
153266,-250,4,2,67,60,0,0
153707,-250,4,2,14,60,0,0
154001,-250,4,2,60,60,0,0
154295,-250,4,2,2,60,0,0
154883,-250,4,2,68,60,0,0
155177,-250,4,2,69,60,0,0
155324,-250,4,2,2,60,0,0
156354,-250,4,2,66,60,0,0
156795,-250,4,2,18,60,0,0
157236,-250,4,2,6,60,0,0
157530,-250,4,2,20,60,0,0
157972,-250,4,2,67,60,0,0
158413,-250,4,2,14,60,0,0
158707,-250,4,2,20,70,0,0
159001,-250,4,2,1,70,0,0
159589,-250,4,2,68,70,0,0
159883,-250,4,2,71,80,0,0
160177,-250,4,2,72,80,0,0
160471,-250,4,2,73,80,0,0
161060,-83.3333333333333,4,2,27,90,0,1
161207,-83.3333333333333,4,2,28,90,0,1
161354,-83.3333333333333,4,2,33,90,0,1
161501,-83.3333333333333,4,2,29,90,0,1
161648,-83.3333333333333,4,2,1,90,0,1
161795,-83.3333333333333,4,2,28,90,0,1
161942,-83.3333333333333,4,2,30,90,0,1
162089,-83.3333333333333,4,2,28,90,0,1
162236,-83.3333333333333,4,2,31,90,0,1
162383,-83.3333333333333,4,2,28,90,0,1
162530,-83.3333333333333,4,2,32,90,0,1
162677,-83.3333333333333,4,2,29,90,0,1
162824,-83.3333333333333,4,2,1,90,0,1
162971,-83.3333333333333,4,2,28,90,0,1
163118,-83.3333333333333,4,2,33,90,0,1
163265,-83.3333333333333,4,2,28,90,0,1
163412,-83.3333333333333,4,2,27,90,0,1
163560,-83.3333333333333,4,2,29,90,0,1
163707,-83.3333333333333,4,2,27,90,0,1
163854,-83.3333333333333,4,2,29,90,0,1
164001,-83.3333333333333,4,2,27,90,0,1
164149,-83.3333333333333,4,2,29,90,0,1
164296,-83.3333333333333,4,2,27,90,0,1
164443,-83.3333333333333,4,2,29,90,0,1
164589,-83.3333333333333,4,2,27,90,0,1
164736,-83.3333333333333,4,2,35,90,0,1
164883,-83.3333333333333,4,2,30,90,0,1
165030,-83.3333333333333,4,2,34,90,0,1
165177,-83.3333333333333,4,2,1,90,0,1
165324,-83.3333333333333,4,2,28,90,0,1
165471,-83.3333333333333,4,2,27,90,0,1
165618,-83.3333333333333,4,2,28,90,0,1
165765,-83.3333333333333,4,2,27,90,0,1
165912,-83.3333333333333,4,2,28,90,0,1
166060,-83.3333333333333,4,2,33,90,0,1
166207,-83.3333333333333,4,2,29,90,0,1
166354,-83.3333333333333,4,2,1,90,0,1
166501,-83.3333333333333,4,2,28,90,0,1
166648,-83.3333333333333,4,2,30,90,0,1
166795,-83.3333333333333,4,2,28,90,0,1
166942,-83.3333333333333,4,2,31,90,0,1
167089,-83.3333333333333,4,2,28,90,0,1
167236,-83.3333333333333,4,2,32,90,0,1
167383,-83.3333333333333,4,2,29,90,0,1
167530,-83.3333333333333,4,2,1,90,0,1
167677,-83.3333333333333,4,2,28,90,0,1
167824,-83.3333333333333,4,2,33,90,0,1
167971,-83.3333333333333,4,2,28,90,0,1
168118,-83.3333333333333,4,2,27,90,0,1
168265,-83.3333333333333,4,2,29,90,0,1
168412,-83.3333333333333,4,2,27,90,0,1
168559,-83.3333333333333,4,2,29,90,0,1
168707,-83.3333333333333,4,2,27,90,0,1
168854,-83.3333333333333,4,2,29,90,0,1
169001,-83.3333333333333,4,2,27,90,0,1
169148,-83.3333333333333,4,2,34,90,0,1
169295,-83.3333333333333,4,2,27,90,0,1
169442,-83.3333333333333,4,2,28,90,0,1
169589,-83.3333333333333,4,2,33,90,0,1
169736,-83.3333333333333,4,2,28,90,0,1
169883,-83.3333333333333,4,2,36,90,0,1
170030,-83.3333333333333,4,2,28,90,0,1
170177,-83.3333333333333,4,2,37,90,0,1
170324,-83.3333333333333,4,2,28,90,0,1
170471,-83.3333333333333,4,2,38,90,0,1
170618,-83.3333333333333,4,2,28,90,0,1
170765,-83.3333333333333,4,2,33,90,0,1
170912,-83.3333333333333,4,2,29,90,0,1
171059,-83.3333333333333,4,2,1,90,0,1
171207,-83.3333333333333,4,2,28,90,0,1
171354,-83.3333333333333,4,2,30,90,0,1
171501,-83.3333333333333,4,2,28,90,0,1
171648,-83.3333333333333,4,2,31,90,0,1
171795,-83.3333333333333,4,2,74,90,0,1
171942,-83.3333333333333,4,2,32,90,0,1
172089,-83.3333333333333,4,2,29,90,0,1
172236,-83.3333333333333,4,2,1,90,0,1
172383,-83.3333333333333,4,2,28,90,0,1
172530,-83.3333333333333,4,2,33,90,0,1
172677,-83.3333333333333,4,2,28,90,0,1
172824,-83.3333333333333,4,2,27,90,0,1
172971,-83.3333333333333,4,2,29,90,0,1
173118,-83.3333333333333,4,2,27,90,0,1
173265,-83.3333333333333,4,2,29,90,0,1
173412,-83.3333333333333,4,2,27,90,0,1
173559,-83.3333333333333,4,2,29,90,0,1
173706,-83.3333333333333,4,2,27,90,0,1
173853,-83.3333333333333,4,2,29,90,0,1
174001,-83.3333333333333,4,2,27,90,0,1
174148,-83.3333333333333,4,2,28,90,0,1
174295,-83.3333333333333,4,2,30,90,0,1
174442,-83.3333333333333,4,2,34,90,0,1
174589,-83.3333333333333,4,2,1,90,0,1
174736,-83.3333333333333,4,2,28,90,0,1
174883,-83.3333333333333,4,2,27,90,0,1
175030,-83.3333333333333,4,2,28,90,0,1
175177,-83.3333333333333,4,2,27,90,0,1
175324,-83.3333333333333,4,2,28,90,0,1
175471,-83.3333333333333,4,2,33,90,0,1
175618,-83.3333333333333,4,2,29,90,0,1
175765,-83.3333333333333,4,2,1,90,0,1
175912,-83.3333333333333,4,2,28,90,0,1
176060,-83.3333333333333,4,2,30,90,0,1
176207,-83.3333333333333,4,2,28,90,0,1
176354,-83.3333333333333,4,2,31,90,0,1
176501,-83.3333333333333,4,2,28,90,0,1
176648,-83.3333333333333,4,2,32,90,0,1
176795,-83.3333333333333,4,2,29,90,0,1
176942,-83.3333333333333,4,2,1,90,0,1
177089,-83.3333333333333,4,2,28,90,0,1
177236,-83.3333333333333,4,2,33,90,0,1
177383,-83.3333333333333,4,2,28,90,0,1
177530,-83.3333333333333,4,2,27,90,0,1
177677,-83.3333333333333,4,2,29,90,0,1
177824,-83.3333333333333,4,2,27,90,0,1
177971,-83.3333333333333,4,2,29,90,0,1
178118,-83.3333333333333,4,2,27,90,0,1
178265,-83.3333333333333,4,2,35,90,0,1
178412,-83.3333333333333,4,2,27,90,0,1
178559,-83.3333333333333,4,2,34,90,0,1
178707,-83.3333333333333,4,2,27,90,0,1
178854,-83.3333333333333,4,2,28,90,0,1
179001,-83.3333333333333,4,2,33,90,0,1
179148,-83.3333333333333,4,2,28,90,0,1
179295,-83.3333333333333,4,2,75,90,0,0
179589,-83.3333333333333,4,2,27,90,0,0
179883,-76.9230769230769,4,2,30,95,0,1
180030,-76.9230769230769,4,2,28,95,0,1
180177,-76.9230769230769,4,2,76,95,0,1
180324,-76.9230769230769,4,2,35,95,0,1
180471,-76.9230769230769,4,2,1,95,0,1
180618,-76.9230769230769,4,2,28,95,0,1
180765,-76.9230769230769,4,2,77,95,0,1
180912,-76.9230769230769,4,2,28,95,0,1
181060,-76.9230769230769,4,2,32,95,0,1
181207,-76.9230769230769,4,2,28,95,0,1
181354,-76.9230769230769,4,2,78,95,0,1
181501,-76.9230769230769,4,2,35,95,0,1
181648,-76.9230769230769,4,2,1,95,0,1
181795,-76.9230769230769,4,2,28,95,0,1
181942,-76.9230769230769,4,2,27,95,0,1
182089,-76.9230769230769,4,2,28,95,0,1
182236,-76.9230769230769,4,2,30,95,0,1
182383,-76.9230769230769,4,2,35,95,0,1
182530,-76.9230769230769,4,2,30,95,0,1
182677,-76.9230769230769,4,2,35,95,0,1
182824,-76.9230769230769,4,2,30,95,0,1
182971,-76.9230769230769,4,2,35,95,0,1
183118,-76.9230769230769,4,2,30,95,0,1
183265,-76.9230769230769,4,2,35,95,0,1
183412,-76.9230769230769,4,2,30,95,0,1
183559,-76.9230769230769,4,2,28,95,0,1
183707,-76.9230769230769,4,2,77,95,0,1
183854,-76.9230769230769,4,2,79,95,0,1
184001,-76.9230769230769,4,2,1,95,0,1
184148,-76.9230769230769,4,2,28,95,0,1
184295,-76.9230769230769,4,2,30,95,0,1
184442,-76.9230769230769,4,2,28,95,0,1
184589,-76.9230769230769,4,2,30,95,0,1
184736,-76.9230769230769,4,2,28,95,0,1
184883,-76.9230769230769,4,2,27,95,0,1
185030,-76.9230769230769,4,2,35,95,0,1
185177,-76.9230769230769,4,2,1,95,0,1
185324,-76.9230769230769,4,2,28,95,0,1
185471,-76.9230769230769,4,2,77,95,0,1
185618,-76.9230769230769,4,2,28,95,0,1
185765,-76.9230769230769,4,2,32,95,0,1
185912,-76.9230769230769,4,2,28,95,0,1
186060,-76.9230769230769,4,2,78,95,0,1
186207,-76.9230769230769,4,2,35,95,0,1
186354,-76.9230769230769,4,2,1,95,0,1
186501,-76.9230769230769,4,2,28,95,0,1
186648,-76.9230769230769,4,2,27,95,0,1
186795,-76.9230769230769,4,2,28,95,0,1
186942,-76.9230769230769,4,2,30,95,0,1
187089,-76.9230769230769,4,2,35,95,0,1
187236,-76.9230769230769,4,2,30,95,0,1
187383,-76.9230769230769,4,2,35,95,0,1
187530,-76.9230769230769,4,2,30,95,0,1
187677,-76.9230769230769,4,2,34,95,0,1
187824,-76.9230769230769,4,2,30,95,0,1
187971,-76.9230769230769,4,2,79,95,0,1
188118,-76.9230769230769,4,2,30,95,0,1
188265,-76.9230769230769,4,2,28,95,0,1
188412,-76.9230769230769,4,2,27,95,0,1
188559,-76.9230769230769,4,2,28,95,0,1
188707,-76.9230769230769,4,2,80,95,0,1
188854,-76.9230769230769,4,2,28,95,0,1
189001,-76.9230769230769,4,2,27,95,0,1
189148,-76.9230769230769,4,2,28,95,0,1
189295,-76.9230769230769,4,2,30,95,0,1
189442,-76.9230769230769,4,2,28,95,0,1
189589,-76.9230769230769,4,2,27,95,0,1
189736,-76.9230769230769,4,2,35,95,0,1
189883,-76.9230769230769,4,2,1,95,0,1
190030,-76.9230769230769,4,2,28,95,0,1
190177,-76.9230769230769,4,2,77,95,0,1
190324,-76.9230769230769,4,2,28,95,0,1
190471,-76.9230769230769,4,2,32,95,0,1
190618,-76.9230769230769,4,2,28,95,0,1
190765,-76.9230769230769,4,2,78,95,0,1
190912,-76.9230769230769,4,2,35,95,0,1
191059,-76.9230769230769,4,2,1,95,0,1
191207,-76.9230769230769,4,2,28,95,0,1
191354,-76.9230769230769,4,2,27,95,0,1
191501,-76.9230769230769,4,2,28,95,0,1
191648,-76.9230769230769,4,2,30,95,0,1
191795,-76.9230769230769,4,2,35,95,0,1
191942,-76.9230769230769,4,2,30,95,0,1
192089,-76.9230769230769,4,2,35,95,0,1
192236,-76.9230769230769,4,2,30,95,0,1
192383,-76.9230769230769,4,2,35,95,0,1
192530,-76.9230769230769,4,2,30,95,0,1
192677,-76.9230769230769,4,2,35,95,0,1
192824,-76.9230769230769,4,2,30,95,0,1
192971,-76.9230769230769,4,2,28,95,0,1
193118,-76.9230769230769,4,2,77,95,0,1
193265,-76.9230769230769,4,2,79,95,0,1
193412,-76.9230769230769,4,2,1,95,0,1
193560,-76.9230769230769,4,2,28,95,0,1
193707,-76.9230769230769,4,2,30,95,0,1
193854,-76.9230769230769,4,2,28,95,0,1
194001,-76.9230769230769,4,2,30,95,0,1
194148,-76.9230769230769,4,2,28,95,0,1
194295,-76.9230769230769,4,2,27,95,0,1
194442,-76.9230769230769,4,2,35,95,0,1
194589,-76.9230769230769,4,2,1,95,0,1
194736,-76.9230769230769,4,2,28,95,0,1
194883,-76.9230769230769,4,2,77,95,0,1
195030,-76.9230769230769,4,2,28,95,0,1
195177,-76.9230769230769,4,2,32,95,0,1
195324,-76.9230769230769,4,2,28,95,0,1
195471,-76.9230769230769,4,2,78,95,0,1
195618,-76.9230769230769,4,2,35,95,0,1
195765,-76.9230769230769,4,2,1,95,0,1
195912,-76.9230769230769,4,2,28,95,0,1
196060,-76.9230769230769,4,2,27,95,0,1
196207,-76.9230769230769,4,2,28,95,0,1
196354,-76.9230769230769,4,2,30,95,0,1
196501,-76.9230769230769,4,2,35,95,0,1
196648,-76.9230769230769,4,2,30,95,0,1
196795,-76.9230769230769,4,2,35,95,0,1
196942,-76.9230769230769,4,2,30,95,0,1
197089,-76.9230769230769,4,2,35,95,0,1
197236,-76.9230769230769,4,2,30,95,0,1
197383,-76.9230769230769,4,2,79,95,0,1
197530,-76.9230769230769,4,2,30,95,0,1
197677,-76.9230769230769,4,2,28,95,0,1
197824,-76.9230769230769,4,2,27,95,0,1
197971,-76.9230769230769,4,2,81,95,0,1
198118,-76.9230769230769,4,2,82,95,0,1
198265,-76.9230769230769,4,2,28,95,0,1
198412,-76.9230769230769,4,2,76,95,0,1
198559,-76.9230769230769,4,2,76,50,0,1
198707,-83.3333333333333,4,2,64,85,0,0
198854,-83.3333333333333,4,2,2,85,0,0
199883,-83.3333333333333,4,2,65,85,0,0
200177,-83.3333333333333,4,2,2,85,0,0
201060,-83.3333333333333,4,2,65,85,0,0
201354,-83.3333333333333,4,2,2,85,0,0
202236,-83.3333333333333,4,2,65,85,0,0
202383,-83.3333333333333,4,2,2,85,0,0
202530,-83.3333333333333,4,2,65,85,0,0
202824,-83.3333333333333,4,2,83,85,0,0
203118,-83.3333333333333,4,2,2,85,0,0
203412,-83.3333333333333,4,2,84,85,0,0
203559,-83.3333333333333,4,2,2,85,0,0
204589,-83.3333333333333,4,2,65,85,0,0
204883,-83.3333333333333,4,2,2,85,0,0
205177,-83.3333333333333,4,2,85,85,0,0
205324,-83.3333333333333,4,2,2,85,0,0
205765,-83.3333333333333,4,2,86,85,0,0
206060,-83.3333333333333,4,2,2,85,0,0
206354,-83.3333333333333,4,2,87,85,0,0
206501,-83.3333333333333,4,2,2,85,0,0
206942,-83.3333333333333,4,2,84,85,0,0
207089,-83.3333333333333,4,2,2,85,0,0
207530,-83.3333333333333,4,2,88,85,0,0
207824,-83.3333333333333,4,2,2,85,0,0
208118,-142.857142857143,4,2,89,60,0,0
208265,-142.857142857143,4,2,2,60,0,0
209295,-142.857142857143,4,2,1,60,0,0
209589,-142.857142857143,4,2,2,60,0,0
210471,-142.857142857143,4,2,1,60,0,0
210765,-142.857142857143,4,2,2,60,0,0
211648,-142.857142857143,4,2,1,60,0,0
211795,-142.857142857143,4,2,2,60,0,0
212236,-142.857142857143,4,2,1,60,0,0
212971,-142.857142857143,4,2,2,60,0,0
214001,-142.857142857143,4,2,1,60,0,0
214295,-142.857142857143,4,2,2,60,0,0
215177,-142.857142857143,4,2,1,60,0,0
215471,-142.857142857143,4,2,2,60,0,0
216354,-142.857142857143,4,2,1,60,0,0
216501,-142.857142857143,4,2,2,60,0,0
216942,-142.857142857143,4,2,3,60,0,0

[Colours]
Combo1 : 0,151,75
Combo2 : 212,212,212

[HitObjects]
213,330,1060,6,0,P|218:305|225:282,1,48.9999985046387,2|2,2:0|2:0,0:0:0:0:
300,225,1354,2,0,P|290:180|262:113,1,97.9999970092774,2|2,2:0|2:0,0:0:0:0:
187,74,1795,2,0,P|194:47|207:19,2,48.9999985046387,2|2|2,2:0|2:0|2:0,0:0:0:0:
26,125,2236,6,0,P|66:154|114:151,1,97.9999970092774,2|2,2:0|2:0,0:0:0:0:
295,36,2824,2,0,P|325:41|364:51,1,48.9999985046387,2|2,2:0|2:0,0:0:0:0:
476,87,3118,2,0,P|446:92|407:102,1,48.9999985046387,2|2,2:0|2:0,0:0:0:0:
330,169,3412,6,0,P|349:211|359:266,1,97.9999970092774,2|2,2:0|2:0,0:0:0:0:
220,330,4001,2,0,P|216:351|214:385,2,48.9999985046387,2|2|2,2:0|2:0|2:0,0:0:0:0:
116,231,4589,2,0,P|114:206|109:182,2,48.9999985046387,2|2|2,2:0|2:0|2:0,0:0:0:0:
0,328,5177,1,2,2:0:0:0:
116,231,5765,6,0,P|114:206|109:182,1,48.9999985046387,2|2,2:0|2:0,0:0:0:0:
29,130,6060,2,0,P|37:82|57:33,1,97.9999970092774,2|2,2:0|2:0,0:0:0:0:
156,5,6501,2,0,P|183:8|210:21,2,48.9999985046387,2|2|2,2:0|2:0|2:0,0:0:0:0:
214,187,6942,6,0,P|261:187|296:152,1,97.9999970092774,2|2,2:0|2:0,0:0:0:0:
331,20,7530,2,0,P|357:9|390:6,1,48.9999985046387,2|2,2:0|2:0,0:0:0:0:
512,83,7824,2,0,P|487:78|465:68,1,48.9999985046387,2|2,2:0|2:0,0:0:0:0:
370,225,8118,6,0,P|376:169|382:111,1,97.9999970092774,2|2,2:0|2:0,0:0:0:0:
512,267,8707,2,0,P|486:259|456:251,2,48.9999985046387,2|2|2,2:0|2:0|2:0,0:0:0:0:
349,338,9295,2,0,P|375:330|405:322,2,48.9999985046387,2|2|2,2:0|2:0|2:0,0:0:0:0:
370,224,9883,1,2,2:0:0:0:
129,118,10471,6,0,P|123:77|110:41,1,70,6|2,3:2|2:0,0:0:0:0:
0,246,10765,2,0,P|33:209|118:212,1,140,2|2,1:2|3:2,0:0:0:0:
175,330,11207,1,2,2:0:0:0:
268,241,11354,1,2,1:2:0:0:
336,349,11501,1,2,3:2:0:0:
417,247,11648,6,0,L|431:162,1,70,2|0,2:0|3:0,0:0:0:0:
307,7,11942,2,0,L|329:158,1,140,2|2,1:2|3:2,0:0:0:0:
213,76,12383,1,2,2:0:0:0:
154,186,12530,1,2,1:2:0:0:
59,111,12677,1,2,2:0:0:0:
9,217,12824,6,0,L|22:310,1,70,2|0,3:2|0:0,0:0:0:0:
207,362,13118,2,0,P|166:324|90:346,1,140,2|2,1:2|3:2,0:0:0:0:
229,231,13560,1,2,2:0:0:0:
334,349,13707,2,0,L|347:275,1,70,2|0,1:2|3:0,0:0:0:0:
477,248,14001,5,2,3:2:0:0:
361,184,14148,1,2,3:2:0:0:
450,85,14295,2,0,L|462:158,1,70,2|0,1:2|0:0,0:0:0:0:
263,64,14589,2,0,P|301:17|372:31,1,140,2|0,3:2|1:0,0:0:0:0:
372,31,15030,1,0,0:0:0:0:
154,43,15177,6,0,L|167:121,1,70,2|2,3:2|2:0,0:0:0:0:
20,161,15471,2,0,L|3:304,1,140,2|2,1:2|3:2,0:0:0:0:
111,235,15912,1,2,2:0:0:0:
159,341,16060,1,2,1:2:0:0:
259,278,16207,1,2,3:2:0:0:
325,384,16354,6,0,L|410:362,1,70,2|0,2:0|3:0,0:0:0:0:
512,240,16648,2,0,P|491:200|406:201,1,140,2|2,1:2|3:2,0:0:0:0:
348,92,17089,1,2,2:0:0:0:
255,168,17236,1,2,1:2:0:0:
207,64,17383,1,2,2:0:0:0:
114,143,17530,6,0,L|99:225,1,70,2|0,3:2|0:0,0:0:0:0:
0,350,17824,2,0,P|50:300|118:318,1,140,2|2,1:2|3:2,0:0:0:0:
6,181,18265,1,2,2:0:0:0:
126,74,18412,2,0,L|111:156,1,70,2|0,1:2|3:0,0:0:0:0:
202,308,18707,5,2,3:2:0:0:
324,238,18854,1,2,3:2:0:0:
223,146,19001,2,0,L|239:234,1,70,2|0,1:2|0:0,0:0:0:0:
424,384,19295,2,0,P|444:327|406:255,1,140,2|2,3:2|1:2,0:0:0:0:
315,149,19736,1,2,2:0:0:0:
467,74,19883,6,0,L|450:170,1,70,2|2,3:2|2:0,0:0:0:0:
294,10,20177,2,0,L|316:157,1,140,2|2,1:2|3:2,0:0:0:0:
204,87,20618,1,2,2:0:0:0:
157,194,20765,1,2,1:2:0:0:
57,131,20912,1,2,3:2:0:0:
0,281,21060,6,0,L|87:261,1,70,2|0,2:0|3:0,0:0:0:0:
237,384,21354,2,0,P|192:334|124:349,1,140,2|2,1:2|3:2,0:0:0:0:
278,257,21795,1,2,2:0:0:0:
157,194,21942,1,2,1:2:0:0:
276,119,22089,1,2,2:0:0:0:
152,29,22236,6,0,L|168:108,1,70,2|0,3:2|0:0,0:0:0:0:
342,196,22530,2,0,L|321:335,1,140,2|2,1:2|3:2,0:0:0:0:
206,257,22971,1,2,2:0:0:0:
109,383,23118,2,0,L|193:364,1,70,2|0,1:2|3:0,0:0:0:0:
0,245,23412,5,2,3:2:0:0:
144,186,23560,1,2,3:2:0:0:
46,77,23707,2,0,L|69:166,1,70,2|0,1:2|0:0,0:0:0:0:
254,0,24001,2,0,L|231:161,1,140,2|0,3:2|1:0,0:0:0:0:
381,91,24442,1,0,0:0:0:0:
481,246,24589,6,0,P|446:240|405:233,1,70,2|2,3:2|2:0,0:0:0:0:
233,340,24883,2,0,P|250:295|335:297,1,140,2|2,1:2|3:2,0:0:0:0:
259,179,25324,1,2,2:0:0:0:
166,269,25471,1,2,1:2:0:0:
101,158,25618,1,2,3:2:0:0:
12,269,25765,6,0,L|-2:193,1,70,2|0,2:0|3:0,0:0:0:0:
126,20,26060,2,0,L|98:171,1,140,2|2,1:2|3:2,0:0:0:0:
219,104,26501,1,2,2:0:0:0:
248,221,26648,1,2,1:2:0:0:
355,156,26795,1,2,2:0:0:0:
359,287,26942,6,0,L|370:357,1,70,2|0,3:2|0:0,0:0:0:0:
512,146,27236,2,0,L|491:284,1,140,2|2,1:2|3:2,0:0:0:0:
355,156,27677,1,2,2:0:0:0:
290,300,27824,2,0,L|377:283,1,70,2|0,1:2|3:0,0:0:0:0:
159,88,28118,5,2,3:2:0:0:
127,243,28265,1,2,3:2:0:0:
270,209,28412,2,0,L|178:190,1,70,2|0,1:2|0:0,0:0:0:0:
60,367,28707,2,0,L|145:345,1,70,2|0,3:2|3:0,0:0:0:0:
60,172,29001,1,0,1:0:0:0:
60,172,29295,6,0,L|49:98,2,70,2|2|2,2:0|2:0|2:0,0:0:0:0:
195,69,30471,2,0,L|206:-5,2,70,2|2|2,2:0|2:0|2:0,0:0:0:0:
150,308,31648,5,2,2:0:0:0:
228,334,31942,1,2,2:0:0:0:
284,271,32236,1,2,2:0:0:0:
459,314,32824,6,0,L|477:387,2,70,2|2|2,2:0|2:0|2:0,0:0:0:0:
512,122,34001,5,2,2:0:0:0:
434,148,34295,1,2,2:0:0:0:
378,85,34589,1,2,2:0:0:0:
157,284,35177,5,2,2:0:0:0:
235,310,35471,1,2,2:0:0:0:
291,247,35765,1,2,2:0:0:0:
86,28,36354,6,0,P|120:50|137:82,1,70,2|2,2:0|2:0,0:0:0:0:
38,177,36942,2,0,P|40:136|59:105,1,70,2|2,2:0|2:0,0:0:0:0:
189,145,37530,2,0,P|169:157|145:162,2,35,6|2|2,2:0|2:0|2:0,0:0:0:0:
369,38,38707,6,0,L|353:150,1,112,2|2,3:2|2:0,0:0:0:0:
487,249,39148,2,0,P|438:265|384:234,1,112,2|2,2:0|2:0,0:0:0:0:
286,351,39589,2,0,P|317:331|359:327,1,56,2|0,2:0|0:0,0:0:0:0:
275,195,39883,5,2,3:2:0:0:
275,195,40177,2,0,P|261:165|243:139,1,56,2|2,2:0|2:0,0:0:0:0:
152,95,40471,2,0,P|164:55|176:34,1,56,0|2,3:0|2:0,0:0:0:0:
46,144,40765,1,2,2:0:0:0:
110,247,41060,6,0,L|-6:267,1,112,2|2,3:2|2:0,0:0:0:0:
173,184,41501,2,0,P|202:237|189:289,1,112,2|2,2:0|2:0,0:0:0:0:
100,355,41942,2,0,L|176:366,2,56,2|2|2,2:0|2:0|3:2,0:0:0:0:
311,207,42530,5,2,2:0:0:0:
311,207,42677,2,0,L|292:329,1,112,2|2,2:0|2:0,0:0:0:0:
391,148,43118,2,0,L|376:74,1,56,2|2,3:2|2:0,0:0:0:0:
508,237,43412,6,0,P|458:224|405:259,1,112,2|2,3:2|2:0,0:0:0:0:
293,116,43854,1,2,2:0:0:0:
293,116,44001,2,0,L|206:100,1,84,2|0,3:2|0:0,0:0:0:0:
190,97,44295,2,0,L|204:161,1,56,2|2,2:0|2:0,0:0:0:0:
30,285,44589,6,0,L|58:157,1,112,2|2,3:2|2:0,0:0:0:0:
208,359,45030,1,2,2:0:0:0:
208,359,45177,2,0,P|182:377|148:378,1,56,0|2,3:0|2:0,0:0:0:0:
144,240,45471,1,2,2:0:0:0:
275,253,45765,6,0,L|249:98,2,140,2|2|2,3:2|2:0|3:2,0:0:0:0:
275,253,46648,1,2,2:0:0:0:
430,186,46942,6,0,L|351:201,1,70,2|2,3:2|2:0,0:0:0:0:
276,352,47236,2,0,L|184:337,1,70,2|2,3:2|2:0,0:0:0:0:
104,140,47530,2,0,L|178:156,1,70,2|2,3:2|2:0,0:0:0:0:
0,308,47824,2,0,L|90:284,1,70,2|0,3:2|0:0,0:0:0:0:
258,79,48118,6,0,P|284:126|282:170,1,83.9999974365235,6|2,3:2|2:0,0:0:0:0:
126,228,48412,1,0,1:0:0:0:
276,352,48560,2,0,L|260:266,1,83.9999974365235,2|0,2:0|3:0,0:0:0:0:
425,190,48854,1,2,2:0:0:0:
382,382,49001,2,0,L|366:296,1,83.9999974365235,2|2,1:2|2:0,0:0:0:0:
449,98,49295,6,0,P|403:96|367:117,1,83.9999974365235,2|2,3:2|2:0,0:0:0:0:
260,269,49589,1,2,1:2:0:0:
95,107,49736,2,0,L|193:90,1,83.9999974365235,2|0,2:0|3:0,0:0:0:0:
0,207,50030,1,2,2:0:0:0:
39,27,50177,2,0,L|137:10,1,83.9999974365235,2|2,1:2|2:0,0:0:0:0:
292,122,50471,5,2,3:2:0:0:
124,200,50618,1,2,2:0:0:0:
260,269,50765,2,0,L|271:357,1,83.9999974365235,2|2,1:2|2:0,0:0:0:0:
50,268,51060,5,2,3:2:0:0:
218,190,51207,1,2,2:0:0:0:
182,384,51354,2,0,L|171:300,1,83.9999974365235,2|2,1:2|2:0,0:0:0:0:
370,353,51648,6,0,P|331:377|290:371,1,83.9999974365235,2|2,3:2|2:0,0:0:0:0:
352,206,51942,1,2,1:2:0:0:
504,261,52089,2,0,P|461:253|418:275,1,83.9999974365235,2|0,2:0|3:0,0:0:0:0:
282,143,52383,1,2,2:0:0:0:
455,52,52530,2,0,L|438:143,1,83.9999974365235,2|2,1:2|2:0,0:0:0:0:
274,21,52824,6,0,P|325:18|356:40,1,83.9999974365235,2|2,3:2|2:0,0:0:0:0:
273,228,53118,1,2,1:2:0:0:
106,162,53265,2,0,L|202:142,1,83.9999974365235,2|0,2:0|3:0,0:0:0:0:
65,38,53560,1,2,2:0:0:0:
25,220,53707,2,0,P|1:188|1:145,1,83.9999974365235,2|2,1:2|2:0,0:0:0:0:
183,261,54001,6,0,P|129:267|104:296,1,83.9999974365235,2|2,3:2|2:0,0:0:0:0:
276,384,54295,1,2,1:2:0:0:
305,181,54442,2,0,L|288:285,1,83.9999974365235,2|0,2:0|3:0,0:0:0:0:
463,347,54736,1,2,2:0:0:0:
406,156,54883,2,0,L|389:260,1,83.9999974365235,2|2,1:2|2:0,0:0:0:0:
184,368,55177,5,2,3:2:0:0:
355,323,55324,1,2,2:0:0:0:
193,191,55471,2,0,L|210:289,1,83.9999974365235,2|2,1:2|2:0,0:0:0:0:
23,148,55765,5,2,3:2:0:0:
194,103,55912,1,2,2:0:0:0:
121,289,56060,2,0,L|106:206,1,83.9999974365235,2|2,1:2|2:0,0:0:0:0:
307,65,56354,6,0,L|284:185,1,83.9999974365235,2|2,3:2|2:0,0:0:0:0:
411,41,56648,2,0,L|388:161,1,83.9999974365235,2|2,1:2|2:0,0:0:0:0:
512,255,56942,2,0,L|399:234,1,83.9999974365235,2|2,3:2|2:0,0:0:0:0:
455,341,57236,2,0,L|342:320,1,83.9999974365235,2|2,1:2|2:0,0:0:0:0:
221,223,57530,6,0,L|238:326,1,83.9999974365235,6|2,3:2|2:0,0:0:0:0:
62,384,57824,1,2,1:2:0:0:
115,203,57971,2,0,L|132:306,1,83.9999974365235,2|0,2:0|3:0,0:0:0:0:
0,125,58265,1,2,2:0:0:0:
154,36,58412,2,0,P|121:10|75:5,1,83.9999974365235,2|2,1:2|2:0,0:0:0:0:
236,140,58707,6,0,L|220:228,1,83.9999974365235,2|2,3:2|2:0,0:0:0:0:
392,322,59001,1,2,1:2:0:0:
333,120,59148,2,0,L|317:208,1,83.9999974365235,2|0,2:0|3:0,0:0:0:0:
468,71,59442,1,2,2:0:0:0:
512,255,59589,2,0,P|469:261|433:243,1,83.9999974365235,2|2,1:2|2:0,0:0:0:0:
297,384,59883,5,2,3:2:0:0:
381,321,60030,1,2,2:0:0:0:
202,227,60177,2,0,L|219:319,1,83.9999974365235,2|2,1:2|2:0,0:0:0:0:
84,218,60471,5,2,3:2:0:0:
0,155,60618,1,2,2:0:0:0:
179,61,60765,2,0,L|162:153,1,83.9999974365235,2|2,1:2|2:0,0:0:0:0:
312,276,61060,6,0,L|296:193,1,83.9999974365235,2|2,3:2|2:0,0:0:0:0:
405,54,61354,1,2,1:2:0:0:
509,189,61501,2,0,P|474:170|429:175,1,83.9999974365235,2|0,2:0|3:0,0:0:0:0:
412,367,61795,1,2,2:0:0:0:
229,291,61942,2,0,L|312:275,1,83.9999974365235,2|2,1:2|2:0,0:0:0:0:
272,72,62236,6,0,L|288:155,1,83.9999974365235,2|2,3:2|2:0,0:0:0:0:
109,249,62530,1,2,1:2:0:0:
172,48,62677,2,0,L|188:131,1,83.9999974365235,2|0,2:0|3:0,0:0:0:0:
0,149,62971,1,2,2:0:0:0:
95,332,63118,2,0,L|112:233,1,83.9999974365235,2|2,1:2|2:0,0:0:0:0:
288,374,63412,6,0,P|249:382|209:363,1,83.9999974365235,2|2,3:2|2:0,0:0:0:0:
246,168,63707,1,2,1:2:0:0:
423,236,63854,2,0,L|320:258,1,83.9999974365235,2|0,2:0|3:0,0:0:0:0:
248,77,64148,1,2,2:0:0:0:
438,137,64295,2,0,L|335:159,1,83.9999974365235,2|2,1:2|2:0,0:0:0:0:
208,275,64589,5,2,3:2:0:0:
132,117,64736,1,2,2:0:0:0:
38,257,64883,2,0,L|134:235,1,83.9999974365235,2|2,1:2|2:0,0:0:0:0:
195,375,65177,5,2,3:2:0:0:
271,217,65324,1,2,2:0:0:0:
365,357,65471,2,0,L|269:335,1,83.9999974365235,2|2,1:2|2:0,0:0:0:0:
212,106,65765,6,0,L|191:200,1,83.9999974365235,2|2,3:2|2:0,0:0:0:0:
393,117,66060,1,2,1:2:0:0:
316,12,66207,1,2,2:0:0:0:
271,217,66354,2,0,L|353:201,1,83.9999974365235,2|2,3:2|2:0,0:0:0:0:
512,322,66648,2,0,L|430:306,1,83.9999974365235,0|0,1:0|0:0,0:0:0:0:
393,117,66942,5,6,3:2:0:0:
181,309,85471,6,0,L|166:245,1,56,0|0,1:0|0:0,0:0:0:0:
88,194,85765,5,6,3:2:0:0:
240,87,86060,2,0,L|252:30,2,56,2|0|2,2:0|3:0|1:2,0:0:0:0:
175,149,86648,2,0,P|218:179|274:170,1,112,2|2,3:2|2:0,0:0:0:0:
428,116,87236,2,0,P|385:86|329:95,1,112,2|2,3:2|1:2,0:0:0:0:
348,293,87824,6,0,L|364:182,1,112,2|2,2:0|3:2,0:0:0:0:
237,268,88412,2,0,L|225:205,2,56,2|0|2,2:0|3:0|1:2,0:0:0:0:
129,361,88854,1,2,2:0:0:0:
129,361,89001,2,0,L|137:300,1,56,2|2,3:2|2:0,0:0:0:0:
29,144,89295,6,0,L|50:281,2,112,2|2|2,2:0|3:2|1:2,0:0:0:0:
116,52,90177,2,0,P|90:37|59:30,1,56,2|2,2:0|2:0,0:0:0:0:
146,169,90471,6,0,P|204:164|258:137,1,112,2|2,3:2|2:0,0:0:0:0:
252,141,90912,1,0,3:0:0:0:
252,141,91060,1,2,1:2:0:0:
223,0,91354,2,0,L|208:72,1,56,2|2,3:2|2:0,0:0:0:0:
355,151,91648,6,0,L|335:37,2,112,2|2|2,2:0|3:2|1:2,0:0:0:0:
355,151,92530,1,2,2:0:0:0:
512,288,92824,6,0,P|482:253|420:260,1,112,2|2,3:2|2:0,0:0:0:0:
274,384,93412,2,0,P|312:345|365:355,1,112,2|2,1:2|3:2,0:0:0:0:
252,141,94001,6,0,L|271:251,1,112,6|2,3:2|1:2,0:0:0:0:
271,251,94442,1,2,2:0:0:0:
158,348,94883,1,0,1:0:0:0:
158,348,95030,1,2,1:2:0:0:
15,271,95177,6,0,P|41:239|110:243,1,112,2|2,3:2|2:0,0:0:0:0:
189,157,95618,1,2,2:0:0:0:
189,157,95765,2,0,L|180:93,1,56,2|2,1:2|2:0,0:0:0:0:
275,233,96060,2,0,L|266:289,2,56,2|2|2,2:0|2:0|3:2,0:0:0:0:
396,96,96648,6,0,P|368:98|342:112,1,56,2|2,2:0|2:0,0:0:0:0:
495,192,96942,2,0,L|515:68,2,112,2|2|2,1:2|2:0|3:2,0:0:0:0:
512,353,97824,6,0,L|441:342,1,56,2|2,2:0|2:0,0:0:0:0:
266,288,98118,1,2,1:2:0:0:
266,288,98265,2,0,L|343:271,2,56,2|2|2,2:0|2:0|2:0,0:0:0:0:
174,212,98707,6,0,P|145:258|151:316,1,112,2|2,3:2|2:0,0:0:0:0:
150,314,99148,1,2,2:0:0:0:
28,187,99295,2,0,P|14:158|-6:133,1,56,2|2,1:2|2:0,0:0:0:0:
171,96,99589,2,0,P|140:109|109:130,1,56,2|2,3:2|2:0,0:0:0:0:
268,155,99883,6,0,P|291:105|276:46,1,112,2|2,3:2|2:0,0:0:0:0:
434,143,100324,1,2,2:0:0:0:
434,143,100471,2,0,P|407:149|358:165,1,56,2|2,1:2|2:0,0:0:0:0:
497,282,100765,2,0,P|505:255|515:205,1,56,2|2,2:0|2:0,0:0:0:0:
344,328,101060,6,0,P|394:322|435:365,1,112,2|2,3:2|2:0,0:0:0:0:
247,309,101501,1,2,2:0:0:0:
247,309,101648,2,0,L|256:380,1,56,2|2,1:2|2:0,0:0:0:0:
82,301,101942,1,2,2:0:0:0:
151,152,102236,6,0,P|103:124|42:138,2,112,2|2|2,3:2|2:0|1:2,0:0:0:0:
151,152,103118,1,2,2:0:0:0:
343,45,103412,6,0,P|297:36|240:25,1,83.9999974365235,2|2,1:2|2:0,0:0:0:0:
445,116,103707,2,0,P|468:83|468:36,1,83.9999974365235,2|2,3:2|1:2,0:0:0:0:
400,254,104001,6,0,P|446:245|503:234,1,83.9999974365235,2|2,3:2|2:0,0:0:0:0:
298,325,104296,2,0,P|275:292|275:245,1,83.9999974365235,2|0,3:2|0:0,0:0:0:0:
445,116,104589,6,0,P|403:123|354:135,1,83.9999974365235,6|2,3:2|2:0,0:0:0:0:
245,0,104883,1,2,1:2:0:0:
445,21,105030,2,0,L|346:44,1,83.9999974365235,2|0,2:0|3:0,0:0:0:0:
279,219,105324,1,2,2:0:0:0:
141,100,105471,2,0,L|261:119,1,83.9999974365235,2|2,1:2|2:0,0:0:0:0:
59,37,105765,6,0,P|35:77|42:124,1,83.9999974365235,2|2,3:2|2:0,0:0:0:0:
187,277,106060,1,2,1:2:0:0:
21,384,106207,2,0,L|46:281,1,83.9999974365235,2|0,2:0|3:0,0:0:0:0:
266,337,106501,1,2,2:0:0:0:
156,188,106648,2,0,L|174:284,1,83.9999974365235,2|2,1:2|2:0,0:0:0:0:
312,84,106942,5,2,3:2:0:0:
268,251,107089,1,2,2:0:0:0:
429,214,107236,2,0,L|339:194,1,83.9999974365235,2|2,1:2|2:0,0:0:0:0:
222,0,107530,5,2,3:2:0:0:
266,167,107677,1,2,2:0:0:0:
105,130,107824,2,0,L|195:110,1,83.9999974365235,2|2,1:2|2:0,0:0:0:0:
0,71,108118,6,0,P|-3:120|14:149,1,83.9999974365235,2|2,3:2|2:0,0:0:0:0:
189,221,108412,1,2,1:2:0:0:
104,372,108560,2,0,L|86:284,1,83.9999974365235,2|0,2:0|3:0,0:0:0:0:
272,178,108854,1,2,2:0:0:0:
223,384,109001,2,0,L|205:296,1,83.9999974365235,2|2,1:2|2:0,0:0:0:0:
488,272,109295,6,0,L|377:296,1,83.9999974365235,2|2,3:2|2:0,0:0:0:0:
330,110,109589,1,2,1:2:0:0:
512,170,109736,2,0,L|410:193,1,83.9999974365235,2|0,2:0|3:0,0:0:0:0:
247,86,110030,1,2,2:0:0:0:
321,290,110177,2,0,L|339:202,1,83.9999974365235,2|2,1:2|2:0,0:0:0:0:
168,61,110471,6,0,P|167:107|186:141,1,83.9999974365235,2|2,3:2|2:0,0:0:0:0:
8,223,110765,1,2,1:2:0:0:
123,347,110912,2,0,L|105:249,1,83.9999974365235,2|0,2:0|3:0,0:0:0:0:
17,109,111207,1,2,2:0:0:0:
200,149,111354,2,0,P|156:145|120:165,1,83.9999974365235,2|2,1:2|2:0,0:0:0:0:
274,27,111648,5,2,3:2:0:0:
441,84,111795,1,2,2:0:0:0:
307,190,111942,2,0,L|328:80,1,83.9999974365235,2|2,1:2|2:0,0:0:0:0:
509,221,112236,5,2,3:2:0:0:
342,278,112383,1,2,2:0:0:0:
476,384,112530,2,0,L|455:274,1,83.9999974365235,2|2,1:2|2:0,0:0:0:0:
228,363,112824,5,2,3:2:0:0:
228,363,112971,2,0,P|253:316|355:331,1,167.999994873047,2|2,2:0|2:0,0:0:0:0:
222,153,113412,2,0,L|207:252,1,83.9999974365235,2|2,3:2|2:0,0:0:0:0:
108,374,113707,2,0,L|89:290,1,83.9999974365235,2|2,1:2|2:0,0:0:0:0:
6,143,114001,6,0,P|44:118|84:119,1,83.9999974365235,6|2,3:2|2:0,0:0:0:0:
209,236,114295,1,2,1:2:0:0:
110,25,114442,2,0,P|150:45|169:80,1,83.9999974365235,2|0,2:0|3:0,0:0:0:0:
209,236,114736,1,2,2:0:0:0:
395,127,114883,2,0,P|351:116|314:131,1,83.9999974365235,2|2,1:2|2:0,0:0:0:0:
345,336,115177,6,0,L|359:240,1,83.9999974365235,2|2,3:2|2:0,0:0:0:0:
156,355,115471,1,2,1:2:0:0:
192,153,115618,2,0,L|212:251,1,83.9999974365235,2|0,2:0|3:0,0:0:0:0:
50,333,115912,1,2,2:0:0:0:
86,131,116059,2,0,L|106:229,1,83.9999974365235,2|2,1:2|2:0,0:0:0:0:
0,30,116354,5,2,3:2:0:0:
157,67,116501,1,2,2:0:0:0:
94,226,116648,2,0,L|78:144,1,83.9999974365235,2|2,1:2|2:0,0:0:0:0:
349,116,116942,5,2,3:2:0:0:
192,153,117089,1,2,2:0:0:0:
255,312,117236,2,0,L|271:230,1,83.9999974365235,2|2,1:2|2:0,0:0:0:0:
458,327,117530,6,0,L|376:311,1,83.9999974365235,2|2,3:2|2:0,0:0:0:0:
339,106,117824,1,2,1:2:0:0:
512,222,117971,2,0,L|430:206,1,83.9999974365235,2|0,2:0|3:0,0:0:0:0:
314,22,118265,1,2,2:0:0:0:
511,88,118412,2,0,P|470:88|433:113,1,83.9999974365235,2|2,1:2|2:0,0:0:0:0:
257,200,118707,6,0,P|297:195|337:215,1,83.9999974365235,2|2,3:2|2:0,0:0:0:0:
458,327,119001,1,2,1:2:0:0:
267,384,119148,2,0,L|280:297,1,83.9999974365235,2|0,2:0|3:0,0:0:0:0:
135,212,119442,1,2,2:0:0:0:
27,357,119589,2,0,L|117:342,1,83.9999974365235,2|2,1:2|2:0,0:0:0:0:
59,127,119883,6,0,P|29:161|21:198,1,83.9999974365235,2|2,3:2|2:0,0:0:0:0:
257,200,120177,1,2,1:2:0:0:
136,36,120324,2,0,P|146:81|158:134,1,83.9999974365235,2|0,2:0|3:0,0:0:0:0:
358,155,120618,1,2,2:0:0:0:
231,0,120765,2,0,P|241:45|253:98,1,83.9999974365235,2|2,1:2|2:0,0:0:0:0:
59,269,121060,5,2,3:2:0:0:
229,300,121207,1,2,2:0:0:0:
154,117,121354,2,0,L|141:200,1,83.9999974365235,2|2,1:2|2:0,0:0:0:0:
383,172,121648,5,2,3:2:0:0:
215,221,121795,1,2,2:0:0:0:
357,348,121942,2,0,L|339:245,1,83.9999974365235,2|2,1:2|2:0,0:0:0:0:
493,129,122236,6,0,L|473:219,1,83.9999974365235,2|2,3:2|2:0,0:0:0:0:
290,162,122530,1,2,1:2:0:0:
373,0,122677,2,0,L|392:101,1,83.9999974365235,2|2,2:0|3:2,0:0:0:0:
196,176,122971,2,0,P|198:132|218:96,2,83.9999974365235,2|2|2,2:0|1:2|2:0,0:0:0:0:
359,356,123412,6,0,L|268:370,1,83.9999974365235,6|0,3:2|0:0,0:0:0:0:
110,244,123707,2,0,L|215:264,1,83.9999974365235,2|0,1:2|2:0,0:0:0:0:
368,206,124001,1,2,3:2:0:0:
283,316,124148,1,2,2:0:0:0:
452,384,124295,2,0,P|455:347|438:304,1,83.9999974365235,2|2,1:2|3:2,0:0:0:0:
245,181,124589,5,2,2:0:0:0:
346,87,124736,1,2,3:2:0:0:
236,187,124883,1,2,1:2:0:0:
376,220,125030,1,2,2:0:0:0:
244,82,125177,2,0,P|255:37|281:9,1,83.9999974365235,2|0,3:2|0:0,0:0:0:0:
143,181,125471,2,0,L|240:195,1,83.9999974365235,2|0,1:2|0:0,0:0:0:0:
61,125,125765,6,0,P|39:166|45:206,1,83.9999974365235,2|0,3:2|0:0,0:0:0:0:
223,307,126060,1,2,1:2:0:0:
112,352,126207,1,2,2:0:0:0:
310,324,126354,1,2,3:2:0:0:
223,217,126501,1,2,2:0:0:0:
318,335,126648,1,0,1:2:0:0:
362,204,126795,1,2,3:2:0:0:
481,314,126942,6,0,P|439:303|392:290,1,83.9999974365235,2|2,3:2|3:2,0:0:0:0:
425,101,127236,1,2,1:2:0:0:
512,194,127383,1,2,2:0:0:0:
299,252,127530,2,0,P|305:202|324:175,1,83.9999974365235,2|0,3:2|3:0,0:0:0:0:
155,200,127824,5,2,1:2:0:0:
93,57,127971,1,2,2:0:0:0:
0,175,128118,2,0,L|86:160,1,83.9999974365235,2|0,3:2|0:0,0:0:0:0:
220,332,128412,2,0,L|134:317,1,83.9999974365235,2|0,1:2|2:0,0:0:0:0:
89,152,128707,1,2,3:2:0:0:
214,252,128854,1,2,2:0:0:0:
46,335,129001,2,0,P|50:285|77:247,1,83.9999974365235,2|2,1:2|3:2,0:0:0:0:
254,152,129295,5,2,2:0:0:0:
136,84,129442,1,2,3:2:0:0:
263,158,129589,1,2,1:2:0:0:
140,230,129736,1,2,2:0:0:0:
238,69,129883,2,0,L|253:151,1,83.9999974365235,2|0,3:2|0:0,0:0:0:0:
418,254,130177,2,0,L|433:172,1,83.9999974365235,2|0,1:2|0:0,0:0:0:0:
322,374,130471,6,0,L|428:355,1,83.9999974365235,2|0,3:2|0:0,0:0:0:0:
291,229,130765,1,2,1:2:0:0:
241,312,130912,1,2,2:0:0:0:
311,383,131060,6,0,L|418:364,1,83.9999974365235,2|0,3:2|0:0,0:0:0:0:
282,239,131354,1,2,1:2:0:0:
229,322,131501,1,2,3:2:0:0:
449,282,131648,6,0,L|467:183,2,83.9999974365235,2|2|0,3:2|3:2|1:0,0:0:0:0:
348,124,132089,1,2,2:0:0:0:
273,249,132236,2,0,L|376:231,1,83.9999974365235,2|2,3:2|3:2,0:0:0:0:
477,376,132530,2,0,L|374:358,1,83.9999974365235,2|2,1:2|2:0,0:0:0:0:
181,217,132824,6,0,L|197:312,1,83.9999974365235,2|0,3:2|0:0,0:0:0:0:
16,374,133118,2,0,L|29:291,1,83.9999974365235,2|0,1:2|2:0,0:0:0:0:
0,152,133412,1,2,3:2:0:0:
98,238,133560,1,2,2:0:0:0:
164,116,133707,2,0,P|203:96|243:101,1,83.9999974365235,2|2,1:2|3:2,0:0:0:0:
307,285,134001,5,2,2:0:0:0:
357,162,134148,1,2,3:2:0:0:
301,293,134295,1,2,1:2:0:0:
218,183,134442,1,2,2:0:0:0:
397,261,134589,2,0,L|302:279,1,83.9999974365235,2|0,3:2|0:0,0:0:0:0:
159,384,134883,2,0,P|144:345|152:303,1,83.9999974365235,2|0,1:2|0:0,0:0:0:0:
348,171,135177,6,0,L|366:75,1,83.9999974365235,2|0,3:2|0:0,0:0:0:0:
200,0,135471,1,2,1:2:0:0:
269,107,135618,1,2,2:0:0:0:
102,181,135765,1,2,3:2:0:0:
187,83,135912,1,2,2:0:0:0:
95,189,136060,1,0,1:2:0:0:
60,56,136207,1,2,3:2:0:0:
0,217,136354,6,0,L|105:198,1,83.9999974365235,2|2,3:2|3:2,0:0:0:0:
196,351,136648,1,2,1:2:0:0:
95,309,136795,1,2,2:0:0:0:
286,195,136942,2,0,L|272:283,1,83.9999974365235,2|0,3:2|3:0,0:0:0:0:
492,360,137236,5,2,1:2:0:0:
424,223,137383,1,2,2:0:0:0:
339,335,137530,2,0,L|421:317,1,83.9999974365235,2|0,3:2|0:0,0:0:0:0:
492,114,137824,2,0,P|512:155|509:196,1,83.9999974365235,2|0,1:2|2:0,0:0:0:0:
310,116,138118,1,2,3:2:0:0:
431,234,138265,1,2,2:0:0:0:
272,277,138412,2,0,P|285:233|312:204,1,83.9999974365235,2|2,1:2|3:2,0:0:0:0:
148,41,138707,5,2,2:0:0:0:
116,171,138854,1,2,3:2:0:0:
140,35,139001,1,2,1:2:0:0:
243,137,139148,1,2,2:0:0:0:
58,58,139295,2,0,P|93:31|138:32,1,83.9999974365235,2|0,3:2|0:0,0:0:0:0:
273,226,139589,2,0,P|226:231|189:211,1,83.9999974365235,2|0,1:2|0:0,0:0:0:0:
93,374,139883,6,0,L|175:359,1,83.9999974365235,2|0,3:2|0:0,0:0:0:0:
62,229,140177,1,2,1:2:0:0:
12,312,140324,1,2,2:0:0:0:
82,383,140472,6,0,L|164:368,1,83.9999974365235,2|0,3:2|0:0,0:0:0:0:
53,239,140766,1,2,1:2:0:0:
0,322,140913,1,2,3:2:0:0:
193,215,141060,6,0,P|191:175|162:132,2,83.9999974365235,2|2|0,3:2|3:2|1:0,0:0:0:0:
2,152,141501,1,2,2:0:0:0:
100,1,141648,2,0,L|83:99,1,83.9999974365235,2|2,3:2|3:2,0:0:0:0:
286,204,141942,2,0,L|266:112,1,83.9999974365235,2|2,1:2|2:0,0:0:0:0:
135,275,142236,5,6,2:0:0:0:
135,275,143412,5,2,2:0:0:0:
135,275,144589,6,0,L|197:285,1,56,2|2,2:0|2:0,0:0:0:0:
175,193,145177,6,0,L|237:203,1,56,2|2,2:0|2:0,0:0:0:0:
215,111,145765,6,0,L|277:121,1,56,2|2,2:0|2:0,0:0:0:0:
291,124,146207,1,2,2:0:0:0:
512,215,146648,5,2,2:0:0:0:
512,215,146942,1,2,2:0:0:0:
512,215,148118,5,2,2:0:0:0:
512,215,149295,6,0,L|450:225,1,56,2|2,2:0|2:0,0:0:0:0:
472,133,149883,6,0,L|410:143,1,56,2|2,2:0|2:0,0:0:0:0:
432,51,150471,6,0,L|370:61,1,56,2|2,2:0|2:0,0:0:0:0:
356,64,150913,1,2,2:0:0:0:
60,168,151354,5,2,2:0:0:0:
60,168,151648,1,2,2:0:0:0:
143,199,152089,1,2,2:0:0:0:
210,141,152530,1,2,2:0:0:0:
375,253,152824,5,2,2:0:0:0:
292,284,153266,1,2,2:0:0:0:
225,226,153707,1,2,2:0:0:0:
306,199,154001,6,0,L|317:136,3,56,2|2|2|2,2:0|2:0|2:0|2:0,0:0:0:0:
395,98,155177,2,0,L|403:38,1,56,2|2,2:0|2:0,0:0:0:0:
406,22,155618,1,2,2:0:0:0:
512,197,156060,5,2,2:0:0:0:
512,197,156354,1,2,2:0:0:0:
429,228,156795,1,2,2:0:0:0:
362,170,157236,1,2,2:0:0:0:
197,282,157530,5,2,2:0:0:0:
280,313,157972,1,2,2:0:0:0:
347,255,158413,1,2,2:0:0:0:
267,232,158707,6,0,P|263:201|251:178,1,56,2|2,2:0|2:0,0:0:0:0:
123,217,159295,2,0,P|151:228|177:230,1,56,2|2,2:0|2:0,0:0:0:0:
209,100,159883,2,0,P|184:118|170:140,2,56,2|2|6,2:0|2:0|2:0,0:0:0:0:
312,36,161060,6,0,L|297:134,1,83.9999974365235,6|2,3:2|2:0,0:0:0:0:
481,191,161354,1,2,1:2:0:0:
419,0,161501,2,0,L|405:98,1,83.9999974365235,2|0,2:0|3:0,0:0:0:0:
512,269,161795,1,2,2:0:0:0:
306,223,161942,2,0,P|344:195|382:184,1,83.9999974365235,2|2,1:2|2:0,0:0:0:0:
487,363,162236,6,0,P|444:357|408:335,1,83.9999974365235,2|2,3:2|2:0,0:0:0:0:
385,172,162530,1,2,1:2:0:0:
292,382,162677,2,0,P|282:343|293:294,1,83.9999974365235,2|0,2:0|3:0,0:0:0:0:
391,160,162971,1,2,2:0:0:0:
198,192,163118,2,0,L|280:207,1,83.9999974365235,2|2,1:2|2:0,0:0:0:0:
77,367,163412,5,2,3:2:0:0:
237,316,163560,1,2,2:0:0:0:
102,198,163707,2,0,L|117:288,1,83.9999974365235,2|2,1:2|2:0,0:0:0:0:
286,169,164001,5,2,3:2:0:0:
126,118,164149,1,2,2:0:0:0:
261,0,164296,2,0,L|246:90,1,83.9999974365235,2|2,1:2|2:0,0:0:0:0:
376,272,164589,5,2,3:2:0:0:
435,77,164736,1,2,2:0:0:0:
260,166,164883,1,2,1:2:0:0:
470,248,165030,2,0,P|502:216|513:170,1,83.9999974365235,2|0,2:0|3:0,0:0:0:0:
303,228,165324,1,2,2:0:0:0:
426,371,165471,2,0,P|468:383|513:371,1,83.9999974365235,2|2,1:2|2:0,0:0:0:0:
260,166,165765,6,0,L|276:278,1,83.9999974365235,2|2,3:2|2:0,0:0:0:0:
90,342,166060,1,2,1:2:0:0:
152,140,166207,2,0,L|168:252,1,83.9999974365235,2|0,2:0|3:0,0:0:0:0:
0,147,166501,1,2,2:0:0:0:
98,0,166648,2,0,L|79:87,1,83.9999974365235,2|2,1:2|2:0,0:0:0:0:
290,91,166942,6,0,L|194:70,1,83.9999974365235,2|2,3:2|2:0,0:0:0:0:
390,0,167236,1,2,1:2:0:0:
448,178,167383,2,0,P|473:141|473:101,1,83.9999974365235,2|0,2:0|3:0,0:0:0:0:
272,168,167677,1,2,2:0:0:0:
429,265,167824,2,0,P|474:269|508:248,1,83.9999974365235,2|2,1:2|2:0,0:0:0:0:
314,349,168118,5,2,3:2:0:0:
259,179,168265,1,2,2:0:0:0:
152,311,168412,2,0,L|242:292,1,83.9999974365235,2|2,1:2|2:0,0:0:0:0:
0,249,168707,5,2,3:2:0:0:
55,79,168854,1,2,2:0:0:0:
162,211,169001,2,0,L|72:192,1,83.9999974365235,2|2,1:2|2:0,0:0:0:0:
209,13,169295,6,0,P|187:50|189:95,1,83.9999974365235,2|2,3:2|2:0,0:0:0:0:
372,91,169589,2,0,L|279:74,1,83.9999974365235,2|2,1:2|2:0,0:0:0:0:
505,240,169883,2,0,P|513:197|495:156,1,83.9999974365235,2|2,3:2|2:0,0:0:0:0:
322,225,170177,2,0,L|414:210,1,83.9999974365235,2|2,1:2|2:0,0:0:0:0:
236,368,170471,6,0,L|254:272,1,83.9999974365235,6|2,3:2|2:0,0:0:0:0:
81,182,170765,1,2,1:2:0:0:
133,384,170912,2,0,L|151:288,1,83.9999974365235,2|0,2:0|3:0,0:0:0:0:
0,208,171207,1,2,2:0:0:0:
78,9,171354,2,0,L|98:106,1,83.9999974365235,2|2,1:2|2:0,0:0:0:0:
306,163,171648,5,2,3:2:0:0:
111,105,171795,1,2,2:0:0:0:
286,21,171942,1,2,1:2:0:0:
193,198,172089,2,0,L|210:114,1,83.9999974365235,2|0,2:0|3:0,0:0:0:0:
408,91,172383,1,2,2:0:0:0:
295,261,172530,2,0,L|312:177,1,83.9999974365235,2|2,1:2|2:0,0:0:0:0:
512,338,172824,5,2,3:2:0:0:
352,375,172971,1,2,2:0:0:0:
412,209,173118,2,0,L|429:304,1,83.9999974365235,2|2,1:2|2:0,0:0:0:0:
170,252,173412,5,2,3:2:0:0:
330,289,173559,1,2,2:0:0:0:
270,123,173706,2,0,L|253:218,1,83.9999974365235,2|2,1:2|2:0,0:0:0:0:
412,82,174001,6,0,L|395:-9,1,83.9999974365235,2|2,3:2|2:0,0:0:0:0:
191,32,174295,1,2,1:2:0:0:
264,218,174442,2,0,L|278:135,1,83.9999974365235,2|0,2:0|3:0,0:0:0:0:
84,46,174736,1,2,2:0:0:0:
157,232,174883,2,0,L|171:149,1,83.9999974365235,2|2,1:2|2:0,0:0:0:0:
0,311,175177,6,0,L|110:332,1,83.9999974365235,2|2,3:2|2:0,0:0:0:0:
231,371,175471,1,2,1:2:0:0:
179,161,175618,2,0,L|165:244,1,83.9999974365235,2|0,2:0|3:0,0:0:0:0:
0,171,175912,1,2,2:0:0:0:
81,2,176060,2,0,L|94:93,1,83.9999974365235,2|2,1:2|2:0,0:0:0:0:
277,145,176354,6,0,P|262:101|226:71,1,83.9999974365235,2|2,3:2|2:0,0:0:0:0:
191,311,176648,1,2,1:2:0:0:
344,226,176795,2,0,P|374:191|380:144,1,83.9999974365235,2|0,2:0|3:0,0:0:0:0:
174,195,177089,1,2,2:0:0:0:
309,326,177236,2,0,P|351:334|395:318,1,83.9999974365235,2|2,1:2|2:0,0:0:0:0:
277,145,177530,5,2,3:2:0:0:
462,195,177677,1,2,2:0:0:0:
265,134,177824,1,2,1:2:0:0:
443,64,177971,1,2,2:0:0:0:
357,242,178118,2,0,P|363:192|377:154,1,83.9999974365235,2|2,3:2|2:0,0:0:0:0:
512,367,178412,2,0,P|508:329|495:282,1,83.9999974365235,2|2,1:2|2:0,0:0:0:0:
293,360,178707,6,0,P|342:375|381:371,1,83.9999974365235,2|2,3:2|2:0,0:0:0:0:
186,249,179001,2,0,P|221:226|262:218,1,83.9999974365235,2|2,1:2|2:0,0:0:0:0:
144,384,179295,6,0,P|127:332|28:337,1,167.999994873047,2|2,3:2|1:2,0:0:0:0:
53,124,179883,6,0,L|67:224,1,90.9999958343508,6|2,3:2|2:0,0:0:0:0:
267,231,180177,1,2,1:2:0:0:
152,50,180324,2,0,L|166:150,1,90.9999958343508,2|0,2:0|3:0,0:0:0:0:
319,301,180618,1,2,2:0:0:0:
109,282,180765,2,0,P|142:247|186:233,1,90.9999958343508,2|2,1:2|2:0,0:0:0:0:
333,62,181060,6,0,L|318:167,1,90.9999958343508,2|2,3:2|2:0,0:0:0:0:
512,231,181354,1,2,1:2:0:0:
452,22,181501,2,0,L|437:127,1,90.9999958343508,2|0,2:0|3:0,0:0:0:0:
267,231,181795,1,2,2:0:0:0:
467,309,181942,2,0,P|442:270|397:249,1,90.9999958343508,2|2,1:2|2:0,0:0:0:0:
193,280,182236,5,2,3:2:0:0:
352,321,182383,1,2,2:0:0:0:
183,269,182530,5,2,1:2:0:0:
314,163,182677,1,2,2:0:0:0:
269,356,182824,5,2,3:2:0:0:
224,189,182971,1,2,2:0:0:0:
119,327,183118,5,2,1:2:0:0:
286,282,183265,1,2,2:0:0:0:
127,182,183412,6,0,L|113:84,1,90.9999958343508,2|2,3:2|2:0,0:0:0:0:
327,175,183707,1,2,1:2:0:0:
221,0,183854,2,0,L|233:90,1,90.9999958343508,2|0,2:0|3:0,0:0:0:0:
427,164,184148,1,2,2:0:0:0:
325,355,184295,2,0,L|341:260,1,90.9999958343508,2|2,1:2|2:0,0:0:0:0:
91,264,184589,6,0,P|142:265|179:287,1,90.9999958343508,2|2,3:2|2:0,0:0:0:0:
0,349,184883,1,2,1:2:0:0:
29,173,185030,2,0,P|55:129|92:108,1,90.9999958343508,2|0,2:0|3:0,0:0:0:0:
269,200,185324,1,2,2:0:0:0:
185,17,185471,2,0,P|194:67|203:114,1,90.9999958343508,2|2,1:2|2:0,0:0:0:0:
442,131,185765,6,0,P|433:175|425:220,1,90.9999958343508,2|2,3:2|2:0,0:0:0:0:
218,262,186060,1,2,1:2:0:0:
349,65,186207,2,0,P|340:109|332:154,1,90.9999958343508,2|0,2:0|3:0,0:0:0:0:
126,198,186501,1,2,2:0:0:0:
248,361,186648,2,0,L|229:255,1,90.9999958343508,2|2,1:2|2:0,0:0:0:0:
69,88,186942,5,2,3:2:0:0:
205,187,187089,1,2,2:0:0:0:
58,79,187236,5,2,1:2:0:0:
62,249,187383,1,2,2:0:0:0:
202,91,187530,5,2,3:2:0:0:
51,165,187677,1,2,2:0:0:0:
199,290,187824,5,2,1:2:0:0:
129,143,187971,1,2,2:0:0:0:
315,182,188118,6,0,L|221:205,1,90.9999958343508,2|2,3:2|2:0,0:0:0:0:
337,2,188412,2,0,L|311:89,1,90.9999958343508,2|2,1:2|2:0,0:0:0:0:
459,196,188707,2,0,L|396:130,1,90.9999958343508,2|2,3:2|2:0,0:0:0:0:
226,203,189001,2,0,L|315:182,1,90.9999958343508,2|2,1:2|2:0,0:0:0:0:
147,361,189295,6,0,P|138:321|119:273,1,90.9999958343508,6|2,3:2|2:0,0:0:0:0:
220,117,189589,1,2,1:2:0:0:
21,168,189736,2,0,L|117:185,1,90.9999958343508,2|0,2:0|3:0,0:0:0:0:
203,12,190030,1,2,2:0:0:0:
0,59,190177,2,0,L|96:76,1,90.9999958343508,2|2,1:2|2:0,0:0:0:0:
373,92,190471,5,2,3:2:0:0:
220,210,190618,1,2,2:0:0:0:
408,231,190765,1,2,1:2:0:0:
271,80,190912,2,0,L|293:182,1,90.9999958343508,2|0,2:0|3:0,0:0:0:0:
490,253,191207,1,2,2:0:0:0:
342,380,191354,2,0,L|358:272,1,90.9999958343508,2|2,1:2|2:0,0:0:0:0:
467,120,191648,5,2,3:2:0:0:
308,172,191795,1,2,2:0:0:0:
476,111,191942,5,2,1:2:0:0:
332,18,192089,1,2,2:0:0:0:
396,221,192236,5,2,3:2:0:0:
413,49,192383,1,2,2:0:0:0:
225,125,192530,5,2,1:2:0:0:
397,142,192677,1,2,2:0:0:0:
220,19,192824,6,0,B|238:131,1,90.9999958343508,2|2,3:2|2:0,0:0:0:0:
55,193,193118,1,2,1:2:0:0:
107,0,193265,2,0,B|125:112,1,90.9999958343508,2|0,2:0|3:0,0:0:0:0:
0,265,193560,1,2,2:0:0:0:
206,226,193707,2,0,P|180:189|136:172,1,90.9999958343508,2|2,1:2|2:0,0:0:0:0:
280,281,194001,6,0,P|299:239|291:193,1,90.9999958343508,2|2,3:2|2:0,0:0:0:0:
121,281,194295,1,2,1:2:0:0:
273,373,194442,2,0,P|318:368|354:339,1,90.9999958343508,2|0,2:0|3:0,0:0:0:0:
206,226,194736,1,2,2:0:0:0:
389,88,194883,2,0,L|369:196,1,90.9999958343508,2|2,1:2|2:0,0:0:0:0:
512,343,195177,6,0,P|511:299|485:250,1,90.9999958343508,2|2,3:2|2:0,0:0:0:0:
286,293,195471,1,2,1:2:0:0:
406,81,195618,2,0,L|386:189,1,90.9999958343508,2|0,2:0|3:0,0:0:0:0:
190,213,195912,1,2,2:0:0:0:
303,31,196060,2,0,L|283:139,1,90.9999958343508,2|2,1:2|2:0,0:0:0:0:
53,56,196354,5,2,3:2:0:0:
207,131,196501,1,2,2:0:0:0:
42,47,196648,5,2,1:2:0:0:
65,215,196795,1,2,2:0:0:0:
151,49,196942,5,2,3:2:0:0:
6,141,197089,1,2,2:0:0:0:
240,214,197236,5,2,1:2:0:0:
95,122,197383,1,2,2:0:0:0:
134,309,197530,6,0,L|157:207,1,90.9999958343508,2|2,3:2|2:0,0:0:0:0:
355,228,197824,1,2,1:2:0:0:
226,384,197971,2,0,L|249:282,1,90.9999958343508,2|2,2:0|3:2,0:0:0:0:
442,314,198265,1,2,2:0:0:0:
332,129,198412,2,0,L|348:237,1,90.9999958343508,2|0,1:2|0:0,0:0:0:0:
126,296,198707,6,0,L|148:198,1,83.9999974365235,6|2,3:2|2:0,0:0:0:0:
0,370,199001,2,0,P|50:315|132:346,1,167.999994873047,2|2,1:2|3:2,0:0:0:0:
0,214,199442,1,2,2:0:0:0:
108,67,199589,2,0,L|91:154,1,83.9999974365235,2|2,1:2|3:2,0:0:0:0:
249,214,199883,6,0,P|209:220|156:229,1,83.9999974365235,2|0,2:0|3:0,0:0:0:0:
352,320,200177,2,0,B|298:239|381:250|330:160,1,167.999994873047,2|2,1:2|3:2,0:0:0:0:
330,161,200618,1,2,2:0:0:0:
512,253,200765,2,0,P|471:260|418:270,1,83.9999974365235,2|2,1:2|2:0,0:0:0:0:
317,70,201060,6,0,P|358:77|399:84,1,83.9999974365235,2|0,3:2|0:0,0:0:0:0:
235,12,201354,2,0,B|203:53|218:100|222:94|227:88|240:133|216:172,1,167.999994873047,2|2,1:2|3:2,0:0:0:0:
216,172,201795,1,2,2:0:0:0:
43,144,201942,2,0,L|145:121,1,83.9999974365235,2|0,1:2|3:0,0:0:0:0:
261,327,202236,5,2,3:2:0:0:
115,301,202383,1,2,3:2:0:0:
216,172,202530,2,0,L|195:278,1,83.9999974365235,2|0,1:2|2:0,0:0:0:0:
391,329,202824,2,0,P|383:257|281:253,1,167.999994873047,2|0,3:2|1:2,0:0:0:0:
301,239,203265,1,2,2:0:0:0:
488,119,203412,6,0,P|486:160|471:212,1,83.9999974365235,2|2,3:2|2:0,0:0:0:0:
331,11,203707,2,0,P|364:48|462:13,1,167.999994873047,2|2,1:2|3:2,0:0:0:0:
382,149,204148,1,2,2:0:0:0:
239,50,204295,2,0,L|255:152,1,83.9999974365235,2|2,1:2|3:2,0:0:0:0:
85,224,204589,6,0,L|98:141,1,83.9999974365235,2|0,2:0|3:0,0:0:0:0:
165,336,204883,2,0,P|120:279|29:302,1,167.999994873047,2|2,1:2|3:2,0:0:0:0:
97,141,205324,1,2,2:0:0:0:
287,220,205471,2,0,L|193:243,1,83.9999974365235,2|2,1:2|2:0,0:0:0:0:
401,172,205765,6,0,L|385:292,1,83.9999974365235,2|0,3:2|0:0,0:0:0:0:
261,331,206060,2,0,B|305:312|337:340|340:343|343:345|375:370|423:349,1,167.999994873047,2|2,1:2|3:2,0:0:0:0:
421,349,206501,1,2,2:0:0:0:
299,208,206648,2,0,L|311:125,1,83.9999974365235,2|0,1:2|3:0,0:0:0:0:
57,147,206942,5,2,3:2:0:0:
212,189,207089,1,2,3:2:0:0:
167,344,207236,2,0,L|155:261,1,83.9999974365235,2|0,1:2|2:0,0:0:0:0:
276,23,207530,5,2,3:2:0:0:
141,143,207677,1,0,3:0:0:0:
318,120,207824,5,2,1:2:0:0:
157,39,207971,1,2,2:0:0:0:
239,191,208118,6,0,P|246:218|248:247,1,48.9999985046387,6|2,2:0|2:0,0:0:0:0:
191,359,208412,2,0,P|219:338|280:327,1,97.9999970092774,2|2,2:0|2:0,0:0:0:0:
389,384,208854,2,0,P|382:357|373:325,2,48.9999985046387,2|2|2,2:0|2:0|2:0,0:0:0:0:
493,212,209295,6,0,P|446:202|403:225,1,97.9999970092774,2|2,2:0|2:0,0:0:0:0:
187,230,209883,2,0,P|222:236|252:245,1,48.9999985046387,2|2,2:0|2:0,0:0:0:0:
369,140,210177,2,0,P|334:146|304:155,1,48.9999985046387,2|2,2:0|2:0,0:0:0:0:
211,44,210471,6,0,P|223:95|234:144,1,97.9999970092774,2|2,2:0|2:0,0:0:0:0:
57,238,211060,2,0,P|60:213|64:189,2,48.9999985046387,2|2|2,2:0|2:0|2:0,0:0:0:0:
200,336,211648,2,0,P|204:360|207:384,2,48.9999985046387,2|2|2,2:0|2:0|2:0,0:0:0:0:
323,227,212236,1,2,2:0:0:0:
434,347,212824,6,0,P|427:317|414:287,1,48.9999985046387,2|2,2:0|2:0,0:0:0:0:
315,220,213118,2,0,P|321:172|341:115,1,97.9999970092774,2|2,2:0|2:0,0:0:0:0:
429,52,213560,2,0,P|423:27|409:-3,2,48.9999985046387,2|2|2,2:0|2:0|2:0,0:0:0:0:
204,78,214001,6,0,P|244:50|295:55,1,97.9999970092774,2|2,2:0|2:0,0:0:0:0:
206,220,214589,2,0,P|181:216|149:206,1,48.9999985046387,2|2,2:0|2:0,0:0:0:0:
25,301,214883,2,0,P|49:297|72:290,1,48.9999985046387,2|2,2:0|2:0,0:0:0:0:
88,97,215177,6,0,P|73:151|65:201,1,97.9999970092774,2|2,2:0|2:0,0:0:0:0:
233,47,215765,2,0,P|229:22|223:0,2,48.9999985046387,2|2|2,2:0|2:0|2:0,0:0:0:0:
388,123,216354,2,0,L|383:174,2,48.9999985046387,2|2|2,2:0|2:0|2:0,0:0:0:0:
512,0,216942,5,4,2:0:0:0:
