osu file format v14

[General]
AudioFilename: audio.mp3
AudioLeadIn: 0
PreviewTime: -1
Countdown: 0
SampleSet: Normal
StackLeniency: 0.7
Mode: 0
LetterboxInBreaks: 0
WidescreenStoryboard: 1

[Editor]
Bookmarks: 16601
DistanceSpacing: 0.8
BeatDivisor: 4
GridSize: 4
TimelineZoom: 1

[Metadata]
Title:PTTP
TitleUnicode:PTTP
Artist:umm.. Cookiezi?????
ArtistUnicode:umm.. Cookiezi?????
Creator:Mikojel
Version:Squere P P Squere
Source:
Tags:ppap meme pp ap pen tablet no keyboard streams jumps
BeatmapID:1823017
BeatmapSetID:872341

[Difficulty]
HPDrainRate:6
CircleSize:5
OverallDifficulty:8
ApproachRate:9
SliderMultiplier:2.4
SliderTickRate:1

[Events]
//Background and Video events
0,0,"OMG A Cookietaro.png",0,0
//Break Periods
//Storyboard Layer 0 (Background)
//Storyboard Layer 1 (Fail)
//Storyboard Layer 2 (Pass)
//Storyboard Layer 3 (Foreground)
//Storyboard Sound Samples

[TimingPoints]
4249,441.176470588235,4,1,0,60,1,0
6013,441.176470588235,4,1,0,60,1,0
17924,300,4,1,0,60,1,1
17924,-86.2068965517241,4,1,0,60,0,1

[HitObjects]
256,192,4248,12,0,5131,0:0:0:0:
151,297,6013,5,0,0:0:0:0:
151,86,6233,1,0,0:0:0:0:
361,87,6454,1,8,0:0:0:0:
361,297,6674,1,0,0:0:0:0:
107,192,6895,5,0,0:0:0:0:
256,43,7115,1,0,0:0:0:0:
404,192,7336,1,8,0:0:0:0:
256,340,7556,1,0,0:0:0:0:
151,86,7777,5,0,0:0:0:0:
361,86,7997,1,0,0:0:0:0:
361,297,8218,1,8,0:0:0:0:
151,297,8438,1,0,0:0:0:0:
424,192,8880,5,0,0:0:0:0:
88,192,9101,5,0,0:0:0:0:
424,192,9321,5,0,0:0:0:0:
88,192,9542,5,0,0:0:0:0:
256,359,9762,1,0,0:0:0:0:
423,192,9983,1,8,0:0:0:0:
256,24,10203,1,0,0:0:0:0:
137,310,10424,5,0,0:0:0:0:
374,310,10644,1,0,0:0:0:0:
374,73,10865,1,8,0:0:0:0:
137,73,11085,1,0,0:0:0:0:
256,359,11307,5,0,0:0:0:0:
423,192,11527,1,0,0:0:0:0:
256,24,11748,1,8,0:0:0:0:
88,192,11968,1,0,0:0:0:0:
151,297,13071,5,0,0:0:0:0:
151,86,13291,1,0,0:0:0:0:
361,87,13512,1,8,0:0:0:0:
361,297,13732,1,0,0:0:0:0:
107,192,13953,5,0,0:0:0:0:
256,43,14173,1,0,0:0:0:0:
404,192,14394,1,8,0:0:0:0:
256,340,14614,1,0,0:0:0:0:
151,86,14835,5,0,0:0:0:0:
361,86,15055,1,0,0:0:0:0:
361,297,15276,1,8,0:0:0:0:
151,297,15496,1,0,0:0:0:0:
256,43,15718,5,0,0:0:0:0:
404,192,15938,1,0,0:0:0:0:
256,340,16159,1,8,0:0:0:0:
107,192,16379,1,0,0:0:0:0:
361,87,16601,5,0,0:0:0:0:
361,297,16821,1,0,0:0:0:0:
151,296,17042,1,8,0:0:0:0:
151,87,17262,1,0,0:0:0:0:
404,192,17483,5,0,0:0:0:0:
151,87,17924,5,0,0:0:0:0:
220,87,17999,1,0,0:0:0:0:
290,87,18074,1,0,0:0:0:0:
359,87,18149,1,0,0:0:0:0:
359,156,18224,1,0,0:0:0:0:
359,226,18299,1,0,0:0:0:0:
361,297,18374,5,0,0:0:0:0:
291,297,18449,1,0,0:0:0:0:
221,297,18524,1,0,0:0:0:0:
152,297,18599,5,0,0:0:0:0:
153,228,18674,1,0,0:0:0:0:
153,158,18749,1,0,0:0:0:0:
151,87,18824,5,0,0:0:0:0:
220,87,18899,1,0,0:0:0:0:
290,87,18974,1,0,0:0:0:0:
359,87,19049,1,0,0:0:0:0:
359,156,19124,1,0,0:0:0:0:
359,226,19199,1,0,0:0:0:0:
361,297,19274,5,0,0:0:0:0:
291,297,19349,1,0,0:0:0:0:
221,297,19424,1,0,0:0:0:0:
152,297,19499,5,0,0:0:0:0:
153,228,19574,1,0,0:0:0:0:
153,158,19649,1,0,0:0:0:0:
151,87,19724,5,0,0:0:0:0:
220,87,19799,1,0,0:0:0:0:
290,87,19874,1,0,0:0:0:0:
359,87,19949,1,0,0:0:0:0:
359,156,20024,1,0,0:0:0:0:
359,226,20099,1,0,0:0:0:0:
361,297,20174,5,0,0:0:0:0:
291,297,20249,1,0,0:0:0:0:
221,297,20324,1,0,0:0:0:0:
152,297,20399,5,0,0:0:0:0:
153,228,20474,1,0,0:0:0:0:
153,158,20549,1,0,0:0:0:0:
151,87,20624,5,0,0:0:0:0:
220,87,20699,1,0,0:0:0:0:
290,87,20774,1,0,0:0:0:0:
359,87,20849,1,0,0:0:0:0:
359,156,20924,1,0,0:0:0:0:
359,226,20999,1,0,0:0:0:0:
361,297,21074,5,0,0:0:0:0:
291,297,21149,1,0,0:0:0:0:
221,297,21224,1,0,0:0:0:0:
152,297,21299,5,0,0:0:0:0:
153,228,21374,1,0,0:0:0:0:
153,158,21449,1,0,0:0:0:0:
151,87,21524,5,0,0:0:0:0:
220,87,21599,1,0,0:0:0:0:
290,87,21674,1,0,0:0:0:0:
359,87,21749,1,0,0:0:0:0:
359,156,21824,1,0,0:0:0:0:
359,226,21899,1,0,0:0:0:0:
361,297,21974,5,0,0:0:0:0:
291,297,22049,1,0,0:0:0:0:
221,297,22124,1,0,0:0:0:0:
152,297,22199,5,0,0:0:0:0:
153,228,22274,1,0,0:0:0:0:
153,158,22349,1,0,0:0:0:0:
151,87,22424,5,0,0:0:0:0:
220,87,22499,1,0,0:0:0:0:
290,87,22574,1,0,0:0:0:0:
359,87,22649,1,0,0:0:0:0:
359,156,22724,1,0,0:0:0:0:
359,226,22799,1,0,0:0:0:0:
361,297,22874,5,0,0:0:0:0:
291,297,22949,1,0,0:0:0:0:
221,297,23024,1,0,0:0:0:0:
152,297,23099,5,0,0:0:0:0:
153,228,23174,1,0,0:0:0:0:
153,158,23249,1,0,0:0:0:0:
151,87,23324,5,0,0:0:0:0:
220,87,23399,1,0,0:0:0:0:
290,87,23474,1,0,0:0:0:0:
359,87,23549,1,0,0:0:0:0:
359,156,23624,1,0,0:0:0:0:
359,226,23699,1,0,0:0:0:0:
361,297,23774,5,0,0:0:0:0:
291,297,23849,1,0,0:0:0:0:
221,297,23924,1,0,0:0:0:0:
152,297,23999,5,0,0:0:0:0:
153,228,24074,1,0,0:0:0:0:
153,158,24149,1,0,0:0:0:0:
151,87,24224,5,0,0:0:0:0:
220,87,24299,1,0,0:0:0:0:
290,87,24374,1,0,0:0:0:0:
359,87,24449,1,0,0:0:0:0:
359,156,24524,1,0,0:0:0:0:
359,226,24599,1,0,0:0:0:0:
361,297,24674,5,0,0:0:0:0:
291,297,24749,1,0,0:0:0:0:
221,297,24824,1,0,0:0:0:0:
152,297,24899,5,0,0:0:0:0:
153,228,24974,1,0,0:0:0:0:
153,158,25049,1,0,0:0:0:0:
151,87,25124,5,0,0:0:0:0:
220,87,25199,1,0,0:0:0:0:
290,87,25274,1,0,0:0:0:0:
359,87,25349,1,0,0:0:0:0:
359,156,25424,1,0,0:0:0:0:
359,226,25499,1,0,0:0:0:0:
361,297,25574,5,0,0:0:0:0:
291,297,25649,1,0,0:0:0:0:
221,297,25724,1,0,0:0:0:0:
152,297,25799,5,0,0:0:0:0:
153,228,25874,1,0,0:0:0:0:
153,158,25949,1,0,0:0:0:0:
