osu file format v14

[General]
AudioFilename: audio.mp3
AudioLeadIn: 0
PreviewTime: -1
Countdown: 0
SampleSet: Normal
StackLeniency: 0.7
Mode: 0
LetterboxInBreaks: 0
WidescreenStoryboard: 1

[Editor]
Bookmarks: 16601
DistanceSpacing: 0.8
BeatDivisor: 4
GridSize: 16
TimelineZoom: 1

[Metadata]
Title:PTTP
TitleUnicode:PTTP
Artist:umm.. Cookiezi?????
ArtistUnicode:umm.. Cookiezi?????
Creator:Mikojel
Version:Squere 1-2-3-4
Source:
Tags:ppap meme pp ap pen tablet no keyboard streams jumps
BeatmapID:1823016
BeatmapSetID:872341

[Difficulty]
HPDrainRate:6
CircleSize:5
OverallDifficulty:8
ApproachRate:9
SliderMultiplier:2.4
SliderTickRate:1

[Events]
//Background and Video events
0,0,"OMG A Cookietaro.png",0,0
//Break Periods
//Storyboard Layer 0 (Background)
//Storyboard Layer 1 (Fail)
//Storyboard Layer 2 (Pass)
//Storyboard Layer 3 (Foreground)
//Storyboard Sound Samples

[TimingPoints]
4249,441.176470588235,4,1,0,60,1,0
6013,441.176470588235,4,1,0,60,1,0
17924,300,4,1,0,60,1,1

[HitObjects]
256,192,4248,12,0,5131,0:0:0:0:
151,297,6013,5,0,0:0:0:0:
151,86,6233,1,0,0:0:0:0:
361,87,6454,1,8,0:0:0:0:
361,297,6674,1,0,0:0:0:0:
107,192,6895,5,0,0:0:0:0:
256,43,7115,1,0,0:0:0:0:
404,192,7336,1,8,0:0:0:0:
256,340,7556,1,0,0:0:0:0:
151,86,7777,5,0,0:0:0:0:
361,86,7997,1,0,0:0:0:0:
361,297,8218,1,8,0:0:0:0:
151,297,8438,1,0,0:0:0:0:
424,192,8880,5,0,0:0:0:0:
88,192,9101,5,0,0:0:0:0:
424,192,9321,5,0,0:0:0:0:
88,192,9542,5,0,0:0:0:0:
256,359,9762,1,0,0:0:0:0:
423,192,9983,1,8,0:0:0:0:
256,24,10203,1,0,0:0:0:0:
137,310,10424,5,0,0:0:0:0:
374,310,10644,1,0,0:0:0:0:
374,73,10865,1,8,0:0:0:0:
137,73,11085,1,0,0:0:0:0:
256,359,11307,5,0,0:0:0:0:
423,192,11527,1,0,0:0:0:0:
256,24,11748,1,8,0:0:0:0:
88,192,11968,1,0,0:0:0:0:
151,297,13071,5,0,0:0:0:0:
151,86,13291,1,0,0:0:0:0:
361,87,13512,1,8,0:0:0:0:
361,297,13732,1,0,0:0:0:0:
107,192,13953,5,0,0:0:0:0:
256,43,14173,1,0,0:0:0:0:
404,192,14394,1,8,0:0:0:0:
256,340,14614,1,0,0:0:0:0:
151,86,14835,5,0,0:0:0:0:
361,86,15055,1,0,0:0:0:0:
361,297,15276,1,8,0:0:0:0:
151,297,15496,1,0,0:0:0:0:
256,43,15718,5,0,0:0:0:0:
404,192,15938,1,0,0:0:0:0:
256,340,16159,1,8,0:0:0:0:
107,192,16379,1,0,0:0:0:0:
361,87,16601,5,0,0:0:0:0:
361,297,16821,1,0,0:0:0:0:
151,296,17042,1,8,0:0:0:0:
151,87,17262,1,0,0:0:0:0:
404,192,17483,5,0,0:0:0:0:
240,176,17924,5,0,0:0:0:0:
272,176,17999,1,0,0:0:0:0:
272,208,18074,1,0,0:0:0:0:
240,208,18149,1,0,0:0:0:0:
240,176,18224,5,0,0:0:0:0:
272,176,18299,1,0,0:0:0:0:
272,208,18374,1,0,0:0:0:0:
240,208,18449,1,0,0:0:0:0:
240,176,18524,5,0,0:0:0:0:
272,176,18599,1,0,0:0:0:0:
272,208,18674,1,0,0:0:0:0:
240,208,18749,1,0,0:0:0:0:
240,176,18824,5,0,0:0:0:0:
272,176,18899,1,0,0:0:0:0:
272,208,18974,1,0,0:0:0:0:
240,208,19049,1,0,0:0:0:0:
240,176,19124,5,0,0:0:0:0:
272,176,19199,1,0,0:0:0:0:
272,208,19274,1,0,0:0:0:0:
240,208,19349,1,0,0:0:0:0:
240,176,19424,5,0,0:0:0:0:
272,176,19499,1,0,0:0:0:0:
272,208,19574,1,0,0:0:0:0:
240,208,19649,1,0,0:0:0:0:
240,176,19724,5,0,0:0:0:0:
272,176,19799,1,0,0:0:0:0:
272,208,19874,1,0,0:0:0:0:
240,208,19949,1,0,0:0:0:0:
240,176,20024,5,0,0:0:0:0:
272,176,20099,1,0,0:0:0:0:
272,208,20174,1,0,0:0:0:0:
240,208,20249,1,0,0:0:0:0:
240,176,20324,5,0,0:0:0:0:
272,176,20399,1,0,0:0:0:0:
272,208,20474,1,0,0:0:0:0:
240,208,20549,1,0,0:0:0:0:
240,176,20624,5,0,0:0:0:0:
272,176,20699,1,0,0:0:0:0:
272,208,20774,1,0,0:0:0:0:
240,208,20849,1,0,0:0:0:0:
240,176,20924,5,0,0:0:0:0:
272,176,20999,1,0,0:0:0:0:
272,208,21074,1,0,0:0:0:0:
240,208,21149,1,0,0:0:0:0:
240,176,21224,5,0,0:0:0:0:
272,176,21299,1,0,0:0:0:0:
272,208,21374,1,0,0:0:0:0:
240,208,21449,1,0,0:0:0:0:
240,176,21524,5,0,0:0:0:0:
272,176,21599,1,0,0:0:0:0:
272,208,21674,1,0,0:0:0:0:
240,208,21749,1,0,0:0:0:0:
240,176,21824,5,0,0:0:0:0:
272,176,21899,1,0,0:0:0:0:
272,208,21974,1,0,0:0:0:0:
240,208,22049,1,0,0:0:0:0:
240,176,22124,5,0,0:0:0:0:
272,176,22199,1,0,0:0:0:0:
272,208,22274,1,0,0:0:0:0:
240,208,22349,1,0,0:0:0:0:
240,176,22424,5,0,0:0:0:0:
272,176,22499,1,0,0:0:0:0:
272,208,22574,1,0,0:0:0:0:
240,208,22649,1,0,0:0:0:0:
240,176,22724,5,0,0:0:0:0:
272,176,22799,1,0,0:0:0:0:
272,208,22874,1,0,0:0:0:0:
240,208,22949,1,0,0:0:0:0:
240,176,23024,5,0,0:0:0:0:
272,176,23099,1,0,0:0:0:0:
272,208,23174,1,0,0:0:0:0:
240,208,23249,1,0,0:0:0:0:
240,176,23324,5,0,0:0:0:0:
272,176,23399,1,0,0:0:0:0:
272,208,23474,1,0,0:0:0:0:
240,208,23549,1,0,0:0:0:0:
240,176,23624,5,0,0:0:0:0:
272,176,23699,1,0,0:0:0:0:
272,208,23774,1,0,0:0:0:0:
240,208,23849,1,0,0:0:0:0:
240,176,23924,5,0,0:0:0:0:
272,176,23999,1,0,0:0:0:0:
272,208,24074,1,0,0:0:0:0:
240,208,24149,1,0,0:0:0:0:
240,176,24224,5,0,0:0:0:0:
272,176,24299,1,0,0:0:0:0:
272,208,24374,1,0,0:0:0:0:
240,208,24449,1,0,0:0:0:0:
240,176,24524,5,0,0:0:0:0:
272,176,24599,1,0,0:0:0:0:
272,208,24674,1,0,0:0:0:0:
240,208,24749,1,0,0:0:0:0:
240,176,24824,5,0,0:0:0:0:
272,176,24899,1,0,0:0:0:0:
272,208,24974,1,0,0:0:0:0:
240,208,25049,1,0,0:0:0:0:
240,176,25124,5,0,0:0:0:0:
272,176,25199,1,0,0:0:0:0:
272,208,25274,1,0,0:0:0:0:
240,208,25349,1,0,0:0:0:0:
240,176,25424,5,0,0:0:0:0:
272,176,25499,1,0,0:0:0:0:
272,208,25574,1,0,0:0:0:0:
240,208,25649,1,0,0:0:0:0:
240,176,25724,5,0,0:0:0:0:
272,176,25799,1,0,0:0:0:0:
272,208,25874,1,0,0:0:0:0:
240,208,25949,1,0,0:0:0:0:
