osu file format v14

[General]
AudioFilename: audio.mp3
AudioLeadIn: 0
PreviewTime: -1
Countdown: 0
SampleSet: Normal
StackLeniency: 0.7
Mode: 0
LetterboxInBreaks: 0
WidescreenStoryboard: 1

[Editor]
DistanceSpacing: 0.8
BeatDivisor: 4
GridSize: 4
TimelineZoom: 1

[Metadata]
Title:PTTP
TitleUnicode:PTTP
Artist:umm.. Cookiezi?????
ArtistUnicode:umm.. Cookiezi?????
Creator:Mikojel
Version:P 1-2 1-2 P
Source:
Tags:ppap meme pp ap pen tablet no keyboard streams jumps
BeatmapID:1823015
BeatmapSetID:872341

[Difficulty]
HPDrainRate:6
CircleSize:5
OverallDifficulty:8
ApproachRate:9
SliderMultiplier:2.4
SliderTickRate:1

[Events]
//Background and Video events
0,0,"OMG A Cookietaro.png",0,0
//Break Periods
//Storyboard Layer 0 (Background)
//Storyboard Layer 1 (Fail)
//Storyboard Layer 2 (Pass)
//Storyboard Layer 3 (Foreground)
//Storyboard Sound Samples

[TimingPoints]
4249,441.176470588235,4,1,0,60,1,0
6013,441.176470588235,4,1,0,60,1,0
17924,300,4,1,0,60,1,1

[HitObjects]
256,192,4249,12,0,5131,0:0:0:0:
101,313,6013,5,0,0:0:0:0:
427,47,6233,1,0,0:0:0:0:
364,272,6454,5,0,0:0:0:0:
168,85,6674,1,0,0:0:0:0:
214,357,6895,5,0,0:0:0:0:
316,28,7115,1,0,0:0:0:0:
458,244,7336,5,0,0:0:0:0:
132,187,7557,1,0,0:0:0:0:
373,360,7777,5,0,0:0:0:0:
155,71,7998,1,0,0:0:0:0:
226,371,8218,5,0,0:0:0:0:
250,24,8439,1,0,0:0:0:0:
10,184,8880,5,0,0:0:0:0:
104,275,9101,5,0,0:0:0:0:
287,189,9321,5,0,0:0:0:0:
75,40,9542,5,0,0:0:0:0:
185,335,9763,1,0,0:0:0:0:
206,62,9983,5,0,0:0:0:0:
49,320,10204,1,0,0:0:0:0:
36,104,10424,5,0,0:0:0:0:
281,329,10645,1,0,0:0:0:0:
275,17,10865,5,0,0:0:0:0:
176,348,11086,1,0,0:0:0:0:
211,19,11307,5,0,0:0:0:0:
416,344,11527,1,0,0:0:0:0:
509,23,11748,5,0,0:0:0:0:
87,215,11968,1,0,0:0:0:0:
101,32,13071,5,0,0:0:0:0:
125,352,13292,1,0,0:0:0:0:
287,33,13513,5,0,0:0:0:0:
69,210,13733,1,0,0:0:0:0:
265,320,13954,5,0,0:0:0:0:
166,79,14174,1,0,0:0:0:0:
150,300,14395,5,0,0:0:0:0:
368,123,14615,1,0,0:0:0:0:
420,331,14836,5,0,0:0:0:0:
209,86,15057,1,0,0:0:0:0:
123,331,15277,5,0,0:0:0:0:
350,52,15498,1,0,0:0:0:0:
311,317,15718,5,0,0:0:0:0:
140,47,15939,1,0,0:0:0:0:
185,339,16160,5,0,0:0:0:0:
238,58,16380,1,0,0:0:0:0:
321,315,16601,5,0,0:0:0:0:
172,64,16821,1,0,0:0:0:0:
227,352,17042,5,0,0:0:0:0:
340,36,17263,1,0,0:0:0:0:
352,247,17483,5,0,0:0:0:0:
8,209,17924,5,0,0:0:0:0:
8,173,17999,1,0,0:0:0:0:
17,209,18074,5,0,0:0:0:0:
17,173,18149,1,0,0:0:0:0:
27,209,18224,5,0,0:0:0:0:
27,173,18299,1,0,0:0:0:0:
36,209,18374,5,0,0:0:0:0:
36,173,18449,1,0,0:0:0:0:
46,209,18524,5,0,0:0:0:0:
46,173,18599,1,0,0:0:0:0:
55,209,18674,5,0,0:0:0:0:
55,173,18749,1,0,0:0:0:0:
63,209,18824,5,0,0:0:0:0:
63,173,18899,1,0,0:0:0:0:
73,209,18974,5,0,0:0:0:0:
73,173,19049,1,0,0:0:0:0:
82,209,19124,5,0,0:0:0:0:
82,173,19199,1,0,0:0:0:0:
92,209,19274,5,0,0:0:0:0:
92,173,19349,1,0,0:0:0:0:
101,209,19424,5,0,0:0:0:0:
101,173,19499,1,0,0:0:0:0:
110,209,19574,5,0,0:0:0:0:
110,173,19649,1,0,0:0:0:0:
120,209,19724,5,0,0:0:0:0:
120,173,19799,1,0,0:0:0:0:
129,209,19874,5,0,0:0:0:0:
129,173,19949,1,0,0:0:0:0:
139,209,20024,5,0,0:0:0:0:
139,173,20099,1,0,0:0:0:0:
148,209,20174,5,0,0:0:0:0:
148,173,20249,1,0,0:0:0:0:
157,209,20324,5,0,0:0:0:0:
157,173,20399,1,0,0:0:0:0:
167,209,20474,5,0,0:0:0:0:
167,173,20549,1,0,0:0:0:0:
176,209,20624,5,0,0:0:0:0:
176,173,20699,1,0,0:0:0:0:
186,209,20774,5,0,0:0:0:0:
186,173,20849,1,0,0:0:0:0:
194,209,20924,5,0,0:0:0:0:
194,173,20999,1,0,0:0:0:0:
203,209,21074,5,0,0:0:0:0:
203,173,21149,1,0,0:0:0:0:
213,209,21224,5,0,0:0:0:0:
213,173,21299,1,0,0:0:0:0:
222,209,21374,5,0,0:0:0:0:
222,173,21449,1,0,0:0:0:0:
231,209,21524,5,0,0:0:0:0:
231,173,21599,1,0,0:0:0:0:
241,209,21674,5,0,0:0:0:0:
241,173,21749,1,0,0:0:0:0:
250,209,21824,5,0,0:0:0:0:
250,173,21899,1,0,0:0:0:0:
260,209,21974,5,0,0:0:0:0:
260,173,22049,1,0,0:0:0:0:
269,209,22124,5,0,0:0:0:0:
269,173,22199,1,0,0:0:0:0:
278,209,22274,5,0,0:0:0:0:
278,173,22349,1,0,0:0:0:0:
288,209,22424,5,0,0:0:0:0:
288,173,22499,1,0,0:0:0:0:
297,209,22574,5,0,0:0:0:0:
297,173,22649,1,0,0:0:0:0:
307,209,22724,5,0,0:0:0:0:
307,173,22799,1,0,0:0:0:0:
316,209,22874,5,0,0:0:0:0:
316,173,22949,1,0,0:0:0:0:
324,209,23024,5,0,0:0:0:0:
324,173,23099,1,0,0:0:0:0:
334,209,23174,5,0,0:0:0:0:
334,173,23249,1,0,0:0:0:0:
343,209,23324,5,0,0:0:0:0:
343,173,23399,1,0,0:0:0:0:
353,209,23474,5,0,0:0:0:0:
353,173,23549,1,0,0:0:0:0:
362,209,23624,5,0,0:0:0:0:
362,173,23699,1,0,0:0:0:0:
371,209,23774,5,0,0:0:0:0:
371,173,23849,1,0,0:0:0:0:
381,209,23924,5,0,0:0:0:0:
381,173,23999,1,0,0:0:0:0:
390,209,24074,5,0,0:0:0:0:
390,173,24149,1,0,0:0:0:0:
400,209,24224,5,0,0:0:0:0:
400,173,24299,1,0,0:0:0:0:
409,209,24374,5,0,0:0:0:0:
409,173,24449,1,0,0:0:0:0:
418,209,24524,5,0,0:0:0:0:
418,173,24599,1,0,0:0:0:0:
428,209,24674,5,0,0:0:0:0:
428,173,24749,1,0,0:0:0:0:
437,209,24824,5,0,0:0:0:0:
437,173,24899,1,0,0:0:0:0:
447,209,24974,5,0,0:0:0:0:
447,173,25049,1,0,0:0:0:0:
455,209,25124,5,0,0:0:0:0:
455,173,25199,1,0,0:0:0:0:
464,209,25274,5,0,0:0:0:0:
464,173,25349,1,0,0:0:0:0:
474,209,25424,5,0,0:0:0:0:
474,173,25499,1,0,0:0:0:0:
483,209,25574,5,0,0:0:0:0:
483,173,25649,1,0,0:0:0:0:
492,209,25724,5,0,0:0:0:0:
492,173,25799,1,0,0:0:0:0:
502,209,25874,5,0,0:0:0:0:
502,173,25949,1,0,0:0:0:0:
