osu file format v14

[General]
AudioFilename: audio.mp3
AudioLeadIn: 0
PreviewTime: -1
Countdown: 0
SampleSet: Normal
StackLeniency: 0.7
Mode: 0
LetterboxInBreaks: 0
WidescreenStoryboard: 0

[Editor]
DistanceSpacing: 0.8
BeatDivisor: 4
GridSize: 4
TimelineZoom: 1

[Metadata]
Title:PTTP
TitleUnicode:PTTP
Artist:umm.. Cookiezi?????
ArtistUnicode:umm.. Cookiezi?????
Creator:Mikojel
Version:727
Source:
Tags:ppap meme pp ap pen tablet no keyboard streams jumps
BeatmapID:1823014
BeatmapSetID:872341

[Difficulty]
HPDrainRate:6
CircleSize:5
OverallDifficulty:8
ApproachRate:9
SliderMultiplier:2.4
SliderTickRate:1

[Events]
//Background and Video events
0,0,"OMG A Cookietaro.png",0,0
//Break Periods
//Storyboard Layer 0 (Background)
//Storyboard Layer 1 (Fail)
//Storyboard Layer 2 (Pass)
//Storyboard Layer 3 (Foreground)
//Storyboard Sound Samples

[TimingPoints]
4249,441.176470588235,4,1,0,60,1,0
6013,441.176470588235,4,1,0,60,1,0
13954,-86.9565217391304,4,1,0,60,0,0
15718,-25,4,1,0,60,0,0
16160,-66.6666666666667,4,1,0,60,0,0
17483,-50,4,1,0,60,0,0
17924,300,4,1,0,60,1,1
19424,-200,4,1,0,60,0,1
20624,-133.333333333333,4,1,0,60,0,1
21224,-100,4,1,0,60,0,1
21524,-86.9565217391304,4,1,0,60,0,1
21824,-83.3333333333333,4,1,0,60,0,1
22274,-95.2380952380952,4,1,0,60,0,1
23470,-105.263157894737,4,1,0,60,0,1
23774,-133.333333333333,4,1,0,60,0,1
24374,-100,4,1,0,60,0,1
25274,-200,4,1,0,60,0,1

[HitObjects]
256,192,4249,12,0,5131,0:0:0:0:
101,313,6013,5,0,0:0:0:0:
427,47,6233,1,0,0:0:0:0:
364,272,6454,5,0,0:0:0:0:
168,85,6674,1,0,0:0:0:0:
214,357,6895,5,0,0:0:0:0:
316,28,7115,1,0,0:0:0:0:
458,244,7336,5,0,0:0:0:0:
132,187,7557,1,0,0:0:0:0:
373,360,7777,5,0,0:0:0:0:
155,71,7998,1,0,0:0:0:0:
226,371,8218,5,0,0:0:0:0:
250,24,8439,1,0,0:0:0:0:
10,184,8880,5,0,0:0:0:0:
104,275,9101,5,0,0:0:0:0:
287,189,9321,5,0,0:0:0:0:
75,40,9542,5,0,0:0:0:0:
185,335,9763,1,0,0:0:0:0:
206,62,9983,5,0,0:0:0:0:
49,320,10204,1,0,0:0:0:0:
36,104,10424,5,0,0:0:0:0:
281,329,10645,1,0,0:0:0:0:
275,17,10865,5,0,0:0:0:0:
176,348,11086,1,0,0:0:0:0:
211,19,11307,5,0,0:0:0:0:
416,344,11527,1,0,0:0:0:0:
509,23,11748,5,0,0:0:0:0:
9,370,11968,1,0,0:0:0:0:
101,32,13071,5,0,0:0:0:0:
125,352,13292,1,0,0:0:0:0:
287,33,13513,1,0,0:0:0:0:
69,210,13733,1,0,0:0:0:0:
384,88,13954,2,0,B|333:144|283:212|283:212|274:210|261:220|258:223|258:223|261:220|268:205|264:197|264:197|320:134|365:72|365:72|371:77|371:77|394:49|394:49|400:54|400:54|377:82|377:82|384:88|384:88|371:103|371:103|383:113|383:113|368:126|356:147|356:147|365:129|383:113|383:113,1,552.000010528565
184,336,15057,5,0,0:0:0:0:
76,100,15277,1,0,0:0:0:0:
384,264,15498,1,0,0:0:0:0:
128,96,15718,2,0,B|97:187|59:275|59:275|195:323|328:378|328:378|358:287|396:199|396:199|261:151|128:96,1,960
36,328,16601,5,0,0:0:0:0:
384,92,16821,1,0,0:0:0:0:
448,304,17042,5,0,0:0:0:0:
80,112,17263,1,0,0:0:0:0:
331,39,17483,5,0,0:0:0:0:
169,243,17924,5,0,0:0:0:0:
113,264,17999,1,0,0:0:0:0:
55,254,18074,1,0,0:0:0:0:
10,215,18149,1,0,0:0:0:0:
0,158,18224,1,0,0:0:0:0:
6,101,18299,1,0,0:0:0:0:
48,59,18374,1,0,0:0:0:0:
105,44,18449,1,0,0:0:0:0:
161,62,18524,5,0,0:0:0:0:
206,100,18599,1,0,0:0:0:0:
214,158,18674,1,0,0:0:0:0:
232,214,18749,1,0,0:0:0:0:
274,257,18824,1,0,0:0:0:0:
331,275,18899,1,0,0:0:0:0:
389,267,18974,5,0,0:0:0:0:
438,233,19049,1,0,0:0:0:0:
466,181,19124,1,0,0:0:0:0:
468,121,19199,1,0,0:0:0:0:
443,67,19274,1,0,0:0:0:0:
396,30,19349,1,0,0:0:0:0:
338,19,19424,5,0,0:0:0:0:
339,49,19499,1,0,0:0:0:0:
340,79,19574,1,0,0:0:0:0:
341,109,19649,1,0,0:0:0:0:
287,106,19724,5,0,0:0:0:0:
290,135,19799,1,0,0:0:0:0:
294,165,19874,1,0,0:0:0:0:
297,195,19949,1,0,0:0:0:0:
268,222,20024,5,0,0:0:0:0:
277,250,20099,1,0,0:0:0:0:
297,272,20174,1,0,0:0:0:0:
323,285,20249,1,0,0:0:0:0:
353,287,20324,1,0,0:0:0:0:
381,276,20399,1,0,0:0:0:0:
403,256,20474,1,0,0:0:0:0:
415,229,20549,1,0,0:0:0:0:
415,199,20624,5,0,0:0:0:0:
370,201,20699,1,0,0:0:0:0:
334,227,20774,1,0,0:0:0:0:
316,267,20849,1,0,0:0:0:0:
321,312,20924,1,0,0:0:0:0:
349,346,20999,1,0,0:0:0:0:
391,362,21074,1,0,0:0:0:0:
434,353,21149,1,0,0:0:0:0:
467,323,21224,5,0,0:0:0:0:
468,264,21299,1,0,0:0:0:0:
440,211,21374,1,0,0:0:0:0:
392,177,21449,1,0,0:0:0:0:
333,170,21524,5,0,0:0:0:0:
335,238,21599,1,0,0:0:0:0:
293,291,21674,1,0,0:0:0:0:
227,305,21749,1,0,0:0:0:0:
168,273,21824,5,0,0:0:0:0:
155,203,21899,1,0,0:0:0:0:
182,137,21974,1,0,0:0:0:0:
239,95,22049,1,0,0:0:0:0:
310,90,22124,5,0,0:0:0:0:
373,124,22199,1,0,0:0:0:0:
407,185,22274,5,0,0:0:0:0:
345,177,22349,1,0,0:0:0:0:
286,198,22424,1,0,0:0:0:0:
243,243,22499,1,0,0:0:0:0:
227,305,22574,1,0,0:0:0:0:
189,353,22649,1,0,0:0:0:0:
128,365,22724,1,0,0:0:0:0:
75,333,22799,1,0,0:0:0:0:
56,275,22874,5,0,0:0:0:0:
103,234,22949,1,0,0:0:0:0:
117,174,23024,1,0,0:0:0:0:
92,117,23099,1,0,0:0:0:0:
39,85,23174,5,0,0:0:0:0:
100,68,23249,1,0,0:0:0:0:
161,51,23324,1,0,0:0:0:0:
221,33,23399,1,0,0:0:0:0:
219,98,23474,5,0,0:0:0:0:
275,98,23549,1,0,0:0:0:0:
332,98,23624,1,0,0:0:0:0:
389,99,23699,1,0,0:0:0:0:
369,161,23774,5,0,0:0:0:0:
403,189,23849,1,0,0:0:0:0:
438,218,23924,1,0,0:0:0:0:
472,247,23999,1,0,0:0:0:0:
507,276,24074,5,0,0:0:0:0:
512,319,24149,1,0,0:0:0:0:
496,359,24224,1,0,0:0:0:0:
456,378,24299,1,0,0:0:0:0:
413,369,24374,1,0,0:0:0:0:
382,318,24449,1,0,0:0:0:0:
329,291,24524,1,0,0:0:0:0:
270,293,24599,1,0,0:0:0:0:
220,325,24674,5,0,0:0:0:0:
162,334,24749,1,0,0:0:0:0:
109,308,24824,1,0,0:0:0:0:
82,256,24899,1,0,0:0:0:0:
95,197,24974,1,0,0:0:0:0:
146,170,25049,5,0,0:0:0:0:
163,114,25124,1,0,0:0:0:0:
134,63,25199,1,0,0:0:0:0:
77,49,25274,1,0,0:0:0:0:
80,79,25349,1,0,0:0:0:0:
83,109,25424,1,0,0:0:0:0:
86,139,25499,1,0,0:0:0:0:
88,169,25574,2,0,L|91:199,4,30
