osu file format v14

[General]
AudioFilename: audio.mp3
AudioLeadIn: 0
PreviewTime: 47733
Countdown: 0
SampleSet: Soft
StackLeniency: 0.7
Mode: 3
LetterboxInBreaks: 0
SpecialStyle: 0
WidescreenStoryboard: 1

[Editor]
DistanceSpacing: 0.8
BeatDivisor: 4
GridSize: 8
TimelineZoom: 1.7

[Metadata]
Title:Tricolor Diary
TitleUnicode:トリコロール・ダイアリー
Artist:umecha
ArtistUnicode:梅干茶漬け
Creator:MapleSyrup-
Version:New Palette
Source:SOUND VOLTEX III GRAVITY WARS
Tags:
BeatmapID:3068922
BeatmapSetID:872808

[Difficulty]
HPDrainRate:7
CircleSize:7
OverallDifficulty:7
ApproachRate:5
SliderMultiplier:1.4
SliderTickRate:1

[Events]
//Background and Video events
0,0,"zenbgboi.jpg",0,0
//Break Periods
//Storyboard Layer 0 (Background)
//Storyboard Layer 1 (Fail)
//Storyboard Layer 2 (Pass)
//Storyboard Layer 3 (Foreground)
//Storyboard Layer 4 (Overlay)
//Storyboard Sound Samples

[TimingPoints]
-821,346.820809248555,4,2,0,15,1,0
566,-100,4,2,0,15,0,0
652,-111.111111111111,4,2,0,15,0,0
739,-125,4,2,0,15,0,0
826,-142.857142857143,4,2,0,15,0,0
913,-166.666666666667,4,2,0,15,0,0
999,-200,4,2,0,15,0,0
4728,-250,4,2,0,15,0,0
5074,-333.333333333333,4,2,0,15,0,0
5421,-500,4,2,0,15,0,0
5768,-1000,4,2,0,15,0,0
6115,-66.6666666666667,4,2,0,15,0,0
6202,-200,4,2,0,15,0,0
6288,-100,4,2,0,15,0,0
7502,-37.037037037037,4,2,0,15,0,0
7589,-1000,4,2,0,15,0,0
7762,-37.037037037037,4,2,0,15,0,0
7849,-1000,4,2,0,15,0,0
8022,-57.1428571428571,4,2,0,15,0,0
8109,-400,4,2,0,15,0,0
8196,-81.9672131147541,4,2,0,15,0,0
8239,-108.359133110161,4,2,0,15,0,0
8283,-148.936170307832,4,2,0,15,0,0
8326,-214.723926248636,4,2,0,15,0,0
8369,-327.102803432614,4,2,0,15,0,0
8413,-522.388060871018,4,2,0,15,0,0
8456,-813.953487425635,4,2,0,15,0,0
8499,-1000,4,2,0,15,0,0
8543,-76.9230769230769,4,2,0,15,0,0
8629,-1000,4,2,0,15,0,0
8803,-40,4,2,0,15,0,0
8889,-66.6666666666667,4,2,0,15,0,0
8976,-200,4,2,0,15,0,0
9063,-66.6666666666667,4,2,0,15,0,0
9150,-200,4,2,0,15,0,0
9236,-66.6666666666667,4,2,0,15,0,0
9323,-200,4,2,0,15,0,0
9410,-66.6666666666667,4,2,0,15,0,0
9497,-200,4,2,0,15,0,0
9583,-66.6666666666667,4,2,0,15,0,0
9670,-200,4,2,0,15,0,0
9757,-66.6666666666667,4,2,0,15,0,0
9844,-200,4,2,0,15,0,0
9930,-66.6666666666667,4,2,0,15,0,0
10017,-200,4,2,0,15,0,0
10103,-66.6666666666667,4,2,0,15,0,0
10190,-200,4,2,0,15,0,0
10277,-54.054054054054,4,2,0,15,0,0
10320,-400,4,2,0,15,0,0
10363,-54.054054054054,4,2,0,15,0,0
10406,-400,4,2,0,15,0,0
10450,-54.054054054054,4,2,0,15,0,0
10493,-400,4,2,0,15,0,0
10537,-54.054054054054,4,2,0,15,0,0
10580,-400,4,2,0,15,0,0
10624,-54.054054054054,4,2,0,15,0,0
10667,-400,4,2,0,15,0,0
10710,-54.054054054054,4,2,0,15,0,0
10753,-400,4,2,0,15,0,0
10797,-54.054054054054,4,2,0,15,0,0
10840,-400,4,2,0,15,0,0
10884,-54.054054054054,4,2,0,15,0,0
10927,-400,4,2,0,15,0,0
10970,-200,4,2,0,15,0,0
11664,-400,4,2,0,15,0,0
14092,-1000,4,2,0,15,0,0
14381,-27.027027027027,4,2,0,15,0,0
14439,-39.1280044673977,4,2,0,15,0,0
14482,-87.609511922757,4,2,0,15,0,0
14525,-341.463414467579,4,2,0,15,0,0
14569,-10000,4,2,0,15,0,0
14612,-100,4,2,0,15,0,0
16173,-200,4,2,0,15,0,0
16520,-100,4,2,0,15,0,0
16866,-200,4,2,0,15,0,0
17213,-39.1280044673977,4,2,0,15,0,0
17256,-87.609511922757,4,2,0,15,0,0
17299,-341.463414467579,4,2,0,15,0,0
17343,-10000,4,2,0,15,0,0
17386,-100,4,2,0,15,0,0
18947,-200,4,2,0,15,0,0
19294,-100,4,2,0,15,0,0
19640,-200,4,2,0,15,0,0
19988,-100,4,2,0,15,0,0
20595,-151.515151515152,4,2,0,15,0,0
20855,-100,4,2,0,15,0,0
21982,-151.515151515152,4,2,0,15,0,0
22242,-100,4,2,0,15,0,0
22762,-120.481927710843,4,2,0,15,0,0
23109,-149.253731343284,4,2,0,15,0,0
23456,-200,4,2,0,15,0,0
23803,-200,4,2,0,15,0,0
23889,-133.333333333333,4,2,0,15,0,0
23976,-100,4,2,0,15,0,0
24063,-80,4,2,0,15,0,0
24150,-37.037037037037,4,2,0,15,0,0
24237,-1000,4,2,0,15,0,0
24410,-37.037037037037,4,2,0,15,0,0
24497,-1000,4,2,0,15,0,0
24670,-57.1428571428571,4,2,0,15,0,0
24713,-400,4,2,0,15,0,0
24757,-57.1428571428571,4,2,0,15,0,0
24800,-400,4,2,0,15,0,0
24843,-81.9672131147541,4,2,0,15,0,0
24886,-108.359133110161,4,2,0,15,0,0
24930,-148.936170307832,4,2,0,15,0,0
24973,-214.723926248636,4,2,0,15,0,0
25016,-327.102803432614,4,2,0,15,0,0
25060,-522.388060871018,4,2,0,15,0,0
25103,-813.953487425635,4,2,0,15,0,0
25146,-1000,4,2,0,15,0,0
25190,-76.9230769230769,4,2,0,15,0,0
25276,-1000,4,2,0,15,0,0
25450,-40,4,2,0,15,0,0
25537,-39.1280044673977,4,2,0,15,0,0
25580,-87.609511922757,4,2,0,15,0,0
25623,-341.463414467579,4,2,0,15,0,0
25667,-10000,4,2,0,15,0,0
25710,-100,4,2,0,15,0,0
27271,-200,4,2,0,15,0,0
27618,-100,4,2,0,15,0,0
27964,-200,4,2,0,15,0,0
28311,-39.1280044673977,4,2,0,15,0,0
28354,-87.609511922757,4,2,0,15,0,0
28397,-341.463414467579,4,2,0,15,0,0
28441,-10000,4,2,0,15,0,0
28484,-100,4,2,0,15,0,0
30045,-200,4,2,0,15,0,0
30392,-100,4,2,0,15,0,0
30738,-200,4,2,0,15,0,0
31086,-100,4,2,0,15,0,0
31693,-151.515151515152,4,2,0,15,0,0
31953,-100,4,2,0,15,0,0
33080,-151.515151515152,4,2,0,15,0,0
33340,-100,4,2,0,15,0,0
33860,-120.481927710843,4,2,0,15,0,0
34207,-149.253731343284,4,2,0,15,0,0
34554,-200,4,2,0,15,0,0
34901,-200,4,2,0,15,0,0
34987,-133.333333333333,4,2,0,15,0,0
35074,-100,4,2,0,15,0,0
35161,-80,4,2,0,15,0,0
35248,-37.037037037037,4,2,0,15,0,0
35335,-1000,4,2,0,15,0,0
35508,-37.037037037037,4,2,0,15,0,0
35595,-1000,4,2,0,15,0,0
35768,-57.1428571428571,4,2,0,15,0,0
35855,-400,4,2,0,15,0,0
35941,-81.9672131147541,4,2,0,15,0,0
35984,-108.359133110161,4,2,0,15,0,0
36028,-148.936170307832,4,2,0,15,0,0
36071,-214.723926248636,4,2,0,15,0,0
36114,-327.102803432614,4,2,0,15,0,0
36158,-522.388060871018,4,2,0,15,0,0
36201,-813.953487425635,4,2,0,15,0,0
36244,-1000,4,2,0,15,0,0
36288,-100,4,2,0,15,0,0
36635,-39.1459074663441,4,2,0,15,0,0
36679,-59.8476604972879,4,2,0,15,0,0
36722,-101.663585914357,4,2,0,15,0,0
36765,-202.95202940796,4,2,0,15,0,0
36809,-504.587156426227,4,2,0,15,0,0
36852,-1000,4,2,0,15,0,0
36895,-100,4,2,0,15,0,0
37155,-66.6666666666667,4,2,0,15,0,0
37329,-39.1459074663441,4,2,0,15,0,0
37373,-59.8476604972879,4,2,0,15,0,0
37416,-101.663585914357,4,2,0,15,0,0
37459,-202.95202940796,4,2,0,15,0,0
37503,-504.587156426227,4,2,0,15,0,0
37546,-1000,4,2,0,15,0,0
37589,-100,4,2,0,15,0,0
37849,-66.6666666666667,4,2,0,15,0,0
38022,-39.1459074663441,4,2,0,15,0,0
38066,-59.8476604972879,4,2,0,15,0,0
38109,-101.663585914357,4,2,0,15,0,0
38152,-202.95202940796,4,2,0,15,0,0
38196,-504.587156426227,4,2,0,15,0,0
38239,-1000,4,2,0,15,0,0
38282,-100,4,2,0,15,0,0
38542,-66.6666666666667,4,2,0,15,0,0
38716,-200,4,2,0,15,0,0
38889,-100,4,2,0,15,0,0
39063,-30.3030303030303,4,2,0,15,0,0
39106,-1000,4,2,0,15,0,0
39410,-39.1459074663441,4,2,0,15,0,0
39454,-59.8476604972879,4,2,0,15,0,0
39497,-101.663585914357,4,2,0,15,0,0
39540,-202.95202940796,4,2,0,15,0,0
39584,-504.587156426227,4,2,0,15,0,0
39627,-1000,4,2,0,15,0,0
39670,-100,4,2,0,15,0,0
39930,-66.6666666666667,4,2,0,15,0,0
40104,-39.1459074663441,4,2,0,15,0,0
40148,-59.8476604972879,4,2,0,15,0,0
40191,-101.663585914357,4,2,0,15,0,0
40234,-202.95202940796,4,2,0,15,0,0
40278,-504.587156426227,4,2,0,15,0,0
40321,-1000,4,2,0,15,0,0
40364,-100,4,2,0,15,0,0
40624,-66.6666666666667,4,2,0,15,0,0
40797,-39.1459074663441,4,2,0,15,0,0
40841,-59.8476604972879,4,2,0,15,0,0
40884,-101.663585914357,4,2,0,15,0,0
40927,-202.95202940796,4,2,0,15,0,0
40971,-504.587156426227,4,2,0,15,0,0
41014,-1000,4,2,0,15,0,0
41057,-100,4,2,0,15,0,0
41317,-66.6666666666667,4,2,0,15,0,0
41491,-200,4,2,0,15,0,0
41664,-100,4,2,0,15,0,0
41838,-30.3030303030303,4,2,0,15,0,0
41881,-1000,4,2,0,15,0,0
42184,-39.1459074663441,4,2,0,15,0,0
42228,-59.8476604972879,4,2,0,15,0,0
42271,-101.663585914357,4,2,0,15,0,0
42314,-202.95202940796,4,2,0,15,0,0
42358,-504.587156426227,4,2,0,15,0,0
42401,-1000,4,2,0,15,0,0
42444,-100,4,2,0,15,0,0
42704,-66.6666666666667,4,2,0,15,0,0
42878,-39.1459074663441,4,2,0,15,0,0
42922,-59.8476604972879,4,2,0,15,0,0
42965,-101.663585914357,4,2,0,15,0,0
43008,-202.95202940796,4,2,0,15,0,0
43052,-504.587156426227,4,2,0,15,0,0
43095,-1000,4,2,0,15,0,0
43138,-100,4,2,0,15,0,0
43398,-66.6666666666667,4,2,0,15,0,0
43571,-39.1459074663441,4,2,0,15,0,0
43615,-59.8476604972879,4,2,0,15,0,0
43658,-101.663585914357,4,2,0,15,0,0
43701,-202.95202940796,4,2,0,15,0,0
43745,-504.587156426227,4,2,0,15,0,0
43788,-1000,4,2,0,15,0,0
43831,-100,4,2,0,15,0,0
44091,-66.6666666666667,4,2,0,15,0,0
44265,-200,4,2,0,15,0,0
44438,-100,4,2,0,15,0,0
44612,-30.3030303030303,4,2,0,15,0,0
44655,-1000,4,2,0,15,0,0
44959,-10,4,2,0,15,0,0
45045,-10000,4,2,0,15,0,0
47387,-78.7401574803149,4,2,0,15,0,0
47430,-175.438596491228,4,2,0,15,0,0
47473,-666.666666666667,4,2,0,15,0,0
47517,-10000,4,2,0,15,0,0
47733,-39.1459074663441,4,2,0,15,0,0
47777,-59.8476604972879,4,2,0,15,0,0
47820,-101.663585914357,4,2,0,15,0,0
47863,-202.95202940796,4,2,0,15,0,0
47907,-504.587156426227,4,2,0,15,0,0
47950,-1000,4,2,0,15,0,0
47993,-100,4,2,0,15,0,0
48253,-66.6666666666667,4,2,0,15,0,0
48427,-39.1459074663441,4,2,0,15,0,0
48471,-59.8476604972879,4,2,0,15,0,0
48514,-101.663585914357,4,2,0,15,0,0
48557,-202.95202940796,4,2,0,15,0,0
48601,-504.587156426227,4,2,0,15,0,0
48644,-1000,4,2,0,15,0,0
48687,-100,4,2,0,15,0,0
48947,-66.6666666666667,4,2,0,15,0,0
49120,-39.1459074663441,4,2,0,15,0,0
49164,-59.8476604972879,4,2,0,15,0,0
49207,-101.663585914357,4,2,0,15,0,0
49250,-202.95202940796,4,2,0,15,0,0
49294,-504.587156426227,4,2,0,15,0,0
49337,-1000,4,2,0,15,0,0
49380,-100,4,2,0,15,0,0
49640,-66.6666666666667,4,2,0,15,0,0
49814,-200,4,2,0,15,0,0
49987,-100,4,2,0,15,0,0
50161,-30.3030303030303,4,2,0,15,0,0
50204,-1000,4,2,0,15,0,0
50508,-39.1459074663441,4,2,0,15,0,0
50552,-59.8476604972879,4,2,0,15,0,0
50595,-101.663585914357,4,2,0,15,0,0
50638,-202.95202940796,4,2,0,15,0,0
50682,-504.587156426227,4,2,0,15,0,0
50725,-1000,4,2,0,15,0,0
50768,-100,4,2,0,15,0,0
51028,-66.6666666666667,4,2,0,15,0,0
51202,-39.1459074663441,4,2,0,15,0,0
51246,-59.8476604972879,4,2,0,15,0,0
51289,-101.663585914357,4,2,0,15,0,0
51332,-202.95202940796,4,2,0,15,0,0
51376,-504.587156426227,4,2,0,15,0,0
51419,-1000,4,2,0,15,0,0
51462,-100,4,2,0,15,0,0
51722,-66.6666666666667,4,2,0,15,0,0
51895,-39.1459074663441,4,2,0,15,0,0
51939,-59.8476604972879,4,2,0,15,0,0
51982,-101.663585914357,4,2,0,15,0,0
52025,-202.95202940796,4,2,0,15,0,0
52069,-504.587156426227,4,2,0,15,0,0
52112,-1000,4,2,0,15,0,0
52155,-100,4,2,0,15,0,0
52415,-66.6666666666667,4,2,0,15,0,0
52589,-200,4,2,0,15,0,0
52762,-100,4,2,0,15,0,0
52936,-30.3030303030303,4,2,0,15,0,0
52979,-1000,4,2,0,15,0,0
53282,-39.1459074663441,4,2,0,15,0,0
53326,-59.8476604972879,4,2,0,15,0,0
53369,-101.663585914357,4,2,0,15,0,0
53412,-202.95202940796,4,2,0,15,0,0
53456,-504.587156426227,4,2,0,15,0,0
53499,-1000,4,2,0,15,0,0
53542,-100,4,2,0,15,0,0
53802,-66.6666666666667,4,2,0,15,0,0
53976,-39.1459074663441,4,2,0,15,0,0
54020,-59.8476604972879,4,2,0,15,0,0
54063,-101.663585914357,4,2,0,15,0,0
54106,-202.95202940796,4,2,0,15,0,0
54150,-504.587156426227,4,2,0,15,0,0
54193,-1000,4,2,0,15,0,0
54236,-100,4,2,0,15,0,0
54496,-66.6666666666667,4,2,0,15,0,0
54669,-39.1459074663441,4,2,0,15,0,0
54713,-59.8476604972879,4,2,0,15,0,0
54756,-101.663585914357,4,2,0,15,0,0
54799,-202.95202940796,4,2,0,15,0,0
54843,-504.587156426227,4,2,0,15,0,0
54886,-1000,4,2,0,15,0,0
54929,-100,4,2,0,15,0,0
55189,-66.6666666666667,4,2,0,15,0,0
55363,-200,4,2,0,15,0,0
55536,-100,4,2,0,15,0,0
55710,-30.3030303030303,4,2,0,15,0,0
55753,-1000,4,2,0,15,0,0
56057,-200,4,2,0,15,0,0
57444,-25,4,2,0,15,0,0
57466,-133.333333333333,4,2,0,15,0,0
57791,-25,4,2,0,15,0,0
57813,-100,4,2,0,15,0,0
58138,-25,4,2,0,15,0,0
58160,-80,4,2,0,15,0,0
58485,-1000,4,2,0,15,0,0
58774,-27.027027027027,4,2,0,15,0,0
58832,-200,4,2,0,15,0,0
59179,-100,4,2,0,15,0,0
59525,-200,4,2,0,15,0,0
59872,-100,4,2,0,15,0,0
61606,-200,4,2,0,15,0,0
61953,-100,4,2,0,15,0,0
62300,-200,4,2,0,15,0,0
62647,-100,4,2,0,15,0,0
62994,-74.0740740740741,4,2,0,15,0,0
63080,-153.846153846154,4,2,0,15,0,0
63167,-74.0740740740741,4,2,0,15,0,0
63253,-153.846153846154,4,2,0,15,0,0
63340,-74.0740740740741,4,2,0,15,0,0
63426,-153.846153846154,4,2,0,15,0,0
63514,-74.0740740740741,4,2,0,15,0,0
63600,-153.846153846154,4,2,0,15,0,0
63687,-74.0740740740741,4,2,0,15,0,0
63773,-153.846153846154,4,2,0,15,0,0
63861,-74.0740740740741,4,2,0,15,0,0
63947,-153.846153846154,4,2,0,15,0,0
64034,-74.0740740740741,4,2,0,15,0,0
64120,-153.846153846154,4,2,0,15,0,0
64207,-74.0740740740741,4,2,0,15,0,0
64293,-153.846153846154,4,2,0,15,0,0
64381,-200,4,2,0,15,0,0
64728,-100,4,2,0,15,0,0
65768,-200,4,2,0,15,0,0
66115,-100,4,2,0,15,0,0
67155,-200,4,2,0,15,0,0
67502,-100,4,2,0,15,0,0
67849,-200,4,2,0,15,0,0
68196,-100,4,2,0,15,0,0
69236,-74.0740740740741,4,2,0,15,0,0
69323,-153.846153846154,4,2,0,15,0,0
69410,-74.0740740740741,4,2,0,15,0,0
69453,-153.846153846154,4,2,0,15,0,0
69496,-74.0740740740741,4,2,0,15,0,0
69539,-153.846153846154,4,2,0,15,0,0
69583,-74.0740740740741,4,2,0,15,0,0
69670,-153.846153846154,4,2,0,15,0,0
69757,-74.0740740740741,4,2,0,15,0,0
69844,-153.846153846154,4,2,0,15,0,0
69930,-200,4,2,0,15,0,0
70277,-100,4,2,0,15,0,0
70624,-200,4,2,0,15,0,0
70971,-100,4,2,0,15,0,0
72705,-200,4,2,0,15,0,0
73052,-100,4,2,0,15,0,0
74092,-10000,4,2,0,15,0,0
74179,-341.463414467579,4,2,0,15,0,0
74265,-87.609511922757,4,2,0,15,0,0
74352,-39.1280044673977,4,2,0,15,0,0
74439,-10000,4,2,0,15,0,0
74526,-341.463414467579,4,2,0,15,0,0
74612,-87.609511922757,4,2,0,15,0,0
74699,-39.1280044673977,4,2,0,15,0,0
74785,-74.0740740740741,4,2,0,15,0,0
74872,-153.846153846154,4,2,0,15,0,0
74959,-74.0740740740741,4,2,0,15,0,0
75046,-153.846153846154,4,2,0,15,0,0
75132,-74.0740740740741,4,2,0,15,0,0
75219,-153.846153846154,4,2,0,15,0,0
75306,-74.0740740740741,4,2,0,15,0,0
75393,-153.846153846154,4,2,0,15,0,0
75479,-200,4,2,0,15,0,0
75826,-100,4,2,0,15,0,0
76173,-200,4,2,0,15,0,0
76520,-100,4,2,0,15,0,0
76866,-200,4,2,0,15,0,0
77213,-100,4,2,0,15,0,0
77560,-200,4,2,0,15,0,0
77907,-100,4,2,0,15,0,0
78254,-74.0740740740741,4,2,0,15,0,0
78341,-153.846153846154,4,2,0,15,0,0
78427,-74.0740740740741,4,2,0,15,0,0
78514,-153.846153846154,4,2,0,15,0,0
78600,-80,4,2,0,15,0,0
78687,-400,4,2,0,15,0,0
78947,-74.0740740740741,4,2,0,15,0,0
79034,-153.846153846154,4,2,0,15,0,0
79121,-74.0740740740741,4,2,0,15,0,0
79208,-153.846153846154,4,2,0,15,0,0
79294,-74.0740740740741,4,2,0,15,0,0
79381,-153.846153846154,4,2,0,15,0,0
79468,-74.0740740740741,4,2,0,15,0,0
79511,-153.846153846154,4,2,0,15,0,0
79554,-74.0740740740741,4,2,0,15,0,0
79597,-153.846153846154,4,2,0,15,0,0
79641,-74.0740740740741,4,2,0,15,0,0
79728,-153.846153846154,4,2,0,15,0,0
79814,-74.0740740740741,4,2,0,15,0,0
79901,-153.846153846154,4,2,0,15,0,0
79988,-74.0740740740741,4,2,0,15,0,0
80075,-153.846153846154,4,2,0,15,0,0
80161,-74.0740740740741,4,2,0,15,0,0
80204,-153.846153846154,4,2,0,15,0,0
80247,-74.0740740740741,4,2,0,15,0,0
80290,-153.846153846154,4,2,0,15,0,0
80335,-74.0740740740741,4,2,0,15,0,0
80378,-153.846153846154,4,2,0,15,0,0
80421,-74.0740740740741,4,2,0,15,0,0
80464,-153.846153846154,4,2,0,15,0,0
80508,-74.0740740740741,4,2,0,15,0,0
80551,-153.846153846154,4,2,0,15,0,0
80594,-74.0740740740741,4,2,0,15,0,0
80637,-153.846153846154,4,2,0,15,0,0
80681,-74.0740740740741,4,2,0,15,0,0
80724,-153.846153846154,4,2,0,15,0,0
80767,-74.0740740740741,4,2,0,15,0,0
80810,-153.846153846154,4,2,0,15,0,0
80855,-74.0740740740741,4,2,0,15,0,0
80898,-153.846153846154,4,2,0,15,0,0
80941,-74.0740740740741,4,2,0,15,0,0
80984,-153.846153846154,4,2,0,15,0,0
81028,-200,4,2,0,15,0,0
81722,-400,4,2,0,15,0,0
83456,-1000,4,2,0,15,0,0
83745,-27.027027027027,4,2,0,15,0,0
83803,-100,4,2,0,15,0,0
85190,-67.2268907563025,4,2,0,15,0,0
85219,-470.588235294118,4,2,0,15,0,0
85248,-67.2268907563025,4,2,0,15,0,0
85277,-470.588235294118,4,2,0,15,0,0
85306,-67.2268907563025,4,2,0,15,0,0
85335,-470.588235294118,4,2,0,15,0,0
85363,-67.2268907563025,4,2,0,15,0,0
85392,-470.588235294118,4,2,0,15,0,0
85421,-67.2268907563025,4,2,0,15,0,0
85450,-470.588235294118,4,2,0,15,0,0
85479,-67.2268907563025,4,2,0,15,0,0
85508,-470.588235294118,4,2,0,15,0,0
85537,-67.2268907563025,4,2,0,15,0,0
85566,-470.588235294118,4,2,0,15,0,0
85595,-67.2268907563025,4,2,0,15,0,0
85624,-470.588235294118,4,2,0,15,0,0
85652,-67.2268907563025,4,2,0,15,0,0
85681,-470.588235294118,4,2,0,15,0,0
85710,-100,4,2,0,15,0,0
87965,-67.2268907563025,4,2,0,15,0,0
87994,-470.588235294118,4,2,0,15,0,0
88022,-67.2268907563025,4,2,0,15,0,0
88051,-470.588235294118,4,2,0,15,0,0
88080,-67.2268907563025,4,2,0,15,0,0
88109,-470.588235294118,4,2,0,15,0,0
88138,-67.2268907563025,4,2,0,15,0,0
88167,-470.588235294118,4,2,0,15,0,0
88196,-67.2268907563025,4,2,0,15,0,0
88225,-470.588235294118,4,2,0,15,0,0
88254,-67.2268907563025,4,2,0,15,0,0
88283,-470.588235294118,4,2,0,15,0,0
88311,-67.2268907563025,4,2,0,15,0,0
88340,-470.588235294118,4,2,0,15,0,0
88369,-67.2268907563025,4,2,0,15,0,0
88398,-470.588235294118,4,2,0,15,0,0
88427,-67.2268907563025,4,2,0,15,0,0
88456,-470.588235294118,4,2,0,15,0,0
88485,-100,4,2,0,15,0,0
89352,-71.4285714285714,4,2,0,15,0,0
89374,-500,4,2,0,15,0,0
89395,-71.4285714285714,4,2,0,15,0,0
89417,-500,4,2,0,15,0,0
89439,-71.4285714285714,4,2,0,15,0,0
89461,-500,4,2,0,15,0,0
89482,-71.4285714285714,4,2,0,15,0,0
89504,-500,4,2,0,15,0,0
89525,-71.4285714285714,4,2,0,15,0,0
89547,-500,4,2,0,15,0,0
89569,-71.4285714285714,4,2,0,15,0,0
89591,-500,4,2,0,15,0,0
89612,-71.4285714285714,4,2,0,15,0,0
89634,-500,4,2,0,15,0,0
89655,-71.4285714285714,4,2,0,15,0,0
89677,-500,4,2,0,15,0,0
89699,-71.4285714285714,4,2,0,15,0,0
89721,-500,4,2,0,15,0,0
89742,-71.4285714285714,4,2,0,15,0,0
89764,-500,4,2,0,15,0,0
89785,-71.4285714285714,4,2,0,15,0,0
89807,-500,4,2,0,15,0,0
89829,-71.4285714285714,4,2,0,15,0,0
89851,-500,4,2,0,15,0,0
89872,-71.4285714285714,4,2,0,15,0,0
89894,-500,4,2,0,15,0,0
89915,-71.4285714285714,4,2,0,15,0,0
89937,-500,4,2,0,15,0,0
89959,-71.4285714285714,4,2,0,15,0,0
89981,-500,4,2,0,15,0,0
90002,-71.4285714285714,4,2,0,15,0,0
90024,-500,4,2,0,15,0,0
90046,-76.1904761904762,4,2,0,15,0,0
90068,-500,4,2,0,15,0,0
90089,-71.4285714285714,4,2,0,15,0,0
90111,-500,4,2,0,15,0,0
90132,-71.4285714285714,4,2,0,15,0,0
90154,-500,4,2,0,15,0,0
90176,-71.4285714285714,4,2,0,15,0,0
90198,-500,4,2,0,15,0,0
90219,-71.4285714285714,4,2,0,15,0,0
90241,-500,4,2,0,15,0,0
90262,-71.4285714285714,4,2,0,15,0,0
90284,-500,4,2,0,15,0,0
90306,-71.4285714285714,4,2,0,15,0,0
90328,-500,4,2,0,15,0,0
90349,-71.4285714285714,4,2,0,15,0,0
90371,-500,4,2,0,15,0,0
90392,-71.4285714285714,4,2,0,15,0,0
90414,-500,4,2,0,15,0,0
90436,-71.4285714285714,4,2,0,15,0,0
90458,-500,4,2,0,15,0,0
90479,-71.4285714285714,4,2,0,15,0,0
90501,-500,4,2,0,15,0,0
90522,-71.4285714285714,4,2,0,15,0,0
90544,-500,4,2,0,15,0,0
90566,-71.4285714285714,4,2,0,15,0,0
90588,-500,4,2,0,15,0,0
90609,-71.4285714285714,4,2,0,15,0,0
90631,-500,4,2,0,15,0,0
90652,-71.4285714285714,4,2,0,15,0,0
90674,-500,4,2,0,15,0,0
90696,-71.4285714285714,4,2,0,15,0,0
90718,-500,4,2,0,15,0,0
90739,-100,4,2,0,15,0,0
92387,-151.515151515152,4,2,0,15,0,0
92647,-100,4,2,0,15,0,0
93080,-151.515151515152,4,2,0,15,0,0
93340,-100,4,2,0,15,0,0
93774,-151.515151515152,4,2,0,15,0,0
94034,-100,4,2,0,15,0,0
94207,-57.1428571428571,4,2,0,15,0,0
94294,-400,4,2,0,15,0,0
94381,-57.1428571428571,4,2,0,15,0,0
94468,-400,4,2,0,15,0,0
94554,-57.1428571428571,4,2,0,15,0,0
94641,-400,4,2,0,15,0,0
94728,-57.1428571428571,4,2,0,15,0,0
94815,-400,4,2,0,15,0,0
94901,-67.2268907563025,4,2,0,15,0,0
94930,-470.588235294118,4,2,0,15,0,0
94958,-67.2268907563025,4,2,0,15,0,0
94987,-470.588235294118,4,2,0,15,0,0
95016,-67.2268907563025,4,2,0,15,0,0
95045,-470.588235294118,4,2,0,15,0,0
95074,-67.2268907563025,4,2,0,15,0,0
95103,-470.588235294118,4,2,0,15,0,0
95132,-67.2268907563025,4,2,0,15,0,0
95161,-470.588235294118,4,2,0,15,0,0
95190,-67.2268907563025,4,2,0,15,0,0
95219,-470.588235294118,4,2,0,15,0,0
95248,-71.4285714285714,4,2,0,15,0,0
95270,-500,4,2,0,15,0,0
95291,-71.4285714285714,4,2,0,15,0,0
95313,-500,4,2,0,15,0,0
95335,-71.4285714285714,4,2,0,15,0,0
95357,-500,4,2,0,15,0,0
95378,-71.4285714285714,4,2,0,15,0,0
95400,-500,4,2,0,15,0,0
95421,-71.4285714285714,4,2,0,15,0,0
95443,-500,4,2,0,15,0,0
95465,-71.4285714285714,4,2,0,15,0,0
95487,-500,4,2,0,15,0,0
95508,-71.4285714285714,4,2,0,15,0,0
95530,-500,4,2,0,15,0,0
95551,-71.4285714285714,4,2,0,15,0,0
95573,-500,4,2,0,15,0,0
95595,-67.2268907563025,4,2,0,15,0,0
95624,-470.588235294118,4,2,0,15,0,0
95652,-67.2268907563025,4,2,0,15,0,0
95681,-470.588235294118,4,2,0,15,0,0
95710,-67.2268907563025,4,2,0,15,0,0
95739,-470.588235294118,4,2,0,15,0,0
95768,-67.2268907563025,4,2,0,15,0,0
95797,-470.588235294118,4,2,0,15,0,0
95826,-67.2268907563025,4,2,0,15,0,0
95855,-470.588235294118,4,2,0,15,0,0
95884,-67.2268907563025,4,2,0,15,0,0
95913,-470.588235294118,4,2,0,15,0,0
95942,-71.4285714285714,4,2,0,15,0,0
95964,-500,4,2,0,15,0,0
95985,-71.4285714285714,4,2,0,15,0,0
96007,-500,4,2,0,15,0,0
96029,-71.4285714285714,4,2,0,15,0,0
96051,-500,4,2,0,15,0,0
96072,-71.4285714285714,4,2,0,15,0,0
96094,-500,4,2,0,15,0,0
96115,-71.4285714285714,4,2,0,15,0,0
96137,-500,4,2,0,15,0,0
96159,-71.4285714285714,4,2,0,15,0,0
96181,-500,4,2,0,15,0,0
96202,-71.4285714285714,4,2,0,15,0,0
96224,-500,4,2,0,15,0,0
96245,-71.4285714285714,4,2,0,15,0,0
96267,-500,4,2,0,15,0,0
96288,-100,4,2,0,15,0,0
97676,-67.2268907563025,4,2,0,15,0,0
97705,-470.588235294118,4,2,0,15,0,0
97733,-67.2268907563025,4,2,0,15,0,0
97762,-470.588235294118,4,2,0,15,0,0
97791,-67.2268907563025,4,2,0,15,0,0
97820,-470.588235294118,4,2,0,15,0,0
97849,-67.2268907563025,4,2,0,15,0,0
97878,-470.588235294118,4,2,0,15,0,0
97907,-67.2268907563025,4,2,0,15,0,0
97936,-470.588235294118,4,2,0,15,0,0
97965,-67.2268907563025,4,2,0,15,0,0
97994,-470.588235294118,4,2,0,15,0,0
98023,-71.4285714285714,4,2,0,15,0,0
98045,-500,4,2,0,15,0,0
98066,-71.4285714285714,4,2,0,15,0,0
98088,-500,4,2,0,15,0,0
98110,-71.4285714285714,4,2,0,15,0,0
98132,-500,4,2,0,15,0,0
98153,-71.4285714285714,4,2,0,15,0,0
98175,-500,4,2,0,15,0,0
98196,-71.4285714285714,4,2,0,15,0,0
98218,-500,4,2,0,15,0,0
98240,-71.4285714285714,4,2,0,15,0,0
98262,-500,4,2,0,15,0,0
98283,-71.4285714285714,4,2,0,15,0,0
98305,-500,4,2,0,15,0,0
98326,-71.4285714285714,4,2,0,15,0,0
98348,-500,4,2,0,15,0,0
98369,-67.2268907563025,4,2,0,15,0,0
98398,-470.588235294118,4,2,0,15,0,0
98426,-67.2268907563025,4,2,0,15,0,0
98455,-470.588235294118,4,2,0,15,0,0
98484,-67.2268907563025,4,2,0,15,0,0
98513,-470.588235294118,4,2,0,15,0,0
98542,-67.2268907563025,4,2,0,15,0,0
98571,-470.588235294118,4,2,0,15,0,0
98600,-67.2268907563025,4,2,0,15,0,0
98629,-470.588235294118,4,2,0,15,0,0
98658,-67.2268907563025,4,2,0,15,0,0
98687,-470.588235294118,4,2,0,15,0,0
98716,-71.4285714285714,4,2,0,15,0,0
98738,-500,4,2,0,15,0,0
98759,-71.4285714285714,4,2,0,15,0,0
98781,-500,4,2,0,15,0,0
98803,-71.4285714285714,4,2,0,15,0,0
98825,-500,4,2,0,15,0,0
98846,-71.4285714285714,4,2,0,15,0,0
98868,-500,4,2,0,15,0,0
98889,-71.4285714285714,4,2,0,15,0,0
98911,-500,4,2,0,15,0,0
98933,-71.4285714285714,4,2,0,15,0,0
98955,-500,4,2,0,15,0,0
98976,-71.4285714285714,4,2,0,15,0,0
98998,-500,4,2,0,15,0,0
99019,-71.4285714285714,4,2,0,15,0,0
99041,-500,4,2,0,15,0,0
99063,-100,4,2,0,15,0,0
100450,-71.4285714285714,4,2,0,15,0,0
100472,-500,4,2,0,15,0,0
100493,-71.4285714285714,4,2,0,15,0,0
100515,-500,4,2,0,15,0,0
100537,-71.4285714285714,4,2,0,15,0,0
100559,-500,4,2,0,15,0,0
100580,-71.4285714285714,4,2,0,15,0,0
100602,-500,4,2,0,15,0,0
100623,-71.4285714285714,4,2,0,15,0,0
100645,-500,4,2,0,15,0,0
100667,-71.4285714285714,4,2,0,15,0,0
100689,-500,4,2,0,15,0,0
100710,-71.4285714285714,4,2,0,15,0,0
100732,-500,4,2,0,15,0,0
100753,-71.4285714285714,4,2,0,15,0,0
100775,-500,4,2,0,15,0,0
100797,-71.4285714285714,4,2,0,15,0,0
100819,-500,4,2,0,15,0,0
100840,-71.4285714285714,4,2,0,15,0,0
100862,-500,4,2,0,15,0,0
100883,-71.4285714285714,4,2,0,15,0,0
100905,-500,4,2,0,15,0,0
100927,-71.4285714285714,4,2,0,15,0,0
100949,-500,4,2,0,15,0,0
100970,-71.4285714285714,4,2,0,15,0,0
100992,-500,4,2,0,15,0,0
101013,-71.4285714285714,4,2,0,15,0,0
101035,-500,4,2,0,15,0,0
101057,-71.4285714285714,4,2,0,15,0,0
101079,-500,4,2,0,15,0,0
101100,-71.4285714285714,4,2,0,15,0,0
101122,-500,4,2,0,15,0,0
101144,-71.4285714285714,4,2,0,15,0,0
101166,-500,4,2,0,15,0,0
101187,-71.4285714285714,4,2,0,15,0,0
101209,-500,4,2,0,15,0,0
101231,-71.4285714285714,4,2,0,15,0,0
101253,-500,4,2,0,15,0,0
101274,-71.4285714285714,4,2,0,15,0,0
101296,-500,4,2,0,15,0,0
101317,-71.4285714285714,4,2,0,15,0,0
101339,-500,4,2,0,15,0,0
101361,-71.4285714285714,4,2,0,15,0,0
101383,-500,4,2,0,15,0,0
101404,-71.4285714285714,4,2,0,15,0,0
101426,-500,4,2,0,15,0,0
101447,-71.4285714285714,4,2,0,15,0,0
101469,-500,4,2,0,15,0,0
101491,-71.4285714285714,4,2,0,15,0,0
101513,-500,4,2,0,15,0,0
101534,-71.4285714285714,4,2,0,15,0,0
101556,-500,4,2,0,15,0,0
101577,-71.4285714285714,4,2,0,15,0,0
101599,-500,4,2,0,15,0,0
101621,-71.4285714285714,4,2,0,15,0,0
101643,-500,4,2,0,15,0,0
101664,-71.4285714285714,4,2,0,15,0,0
101686,-500,4,2,0,15,0,0
101707,-71.4285714285714,4,2,0,15,0,0
101729,-500,4,2,0,15,0,0
101751,-71.4285714285714,4,2,0,15,0,0
101773,-500,4,2,0,15,0,0
101794,-71.4285714285714,4,2,0,15,0,0
101816,-500,4,2,0,15,0,0
101837,-100,4,2,0,15,0,0
103485,-151.515151515152,4,2,0,15,0,0
103745,-100,4,2,0,15,0,0
104178,-151.515151515152,4,2,0,15,0,0
104438,-100,4,2,0,15,0,0
104872,-151.515151515152,4,2,0,15,0,0
105132,-100,4,2,0,15,0,0
105305,-57.1428571428571,4,2,0,15,0,0
105392,-400,4,2,0,15,0,0
105479,-57.1428571428571,4,2,0,15,0,0
105566,-400,4,2,0,15,0,0
105652,-57.1428571428571,4,2,0,15,0,0
105739,-400,4,2,0,15,0,0
105826,-57.1428571428571,4,2,0,15,0,0
105913,-400,4,2,0,15,0,0
105999,-10000,4,2,0,15,0,0
106021,-1502.14591307631,4,2,0,15,0,0
106043,-423.216445493611,4,2,0,15,0,0
106064,-192.625206437156,4,2,0,15,0,0
106086,-109.272556994891,4,2,0,15,0,0
106108,-70.2106319097714,4,2,0,15,0,0
106129,-48.8622085615952,4,2,0,15,0,0
106151,-35.9453630481668,4,2,0,15,0,0
106173,-36.90036900369,4,2,0,15,0,0
106194,-49.8930862508757,4,2,0,15,0,0
106216,-71.0659898549306,4,2,0,15,0,0
106238,-108.864696683267,4,2,0,15,0,0
106259,-185.676392425191,4,2,0,15,0,0
106281,-374.331551002316,4,2,0,15,0,0
106303,-958.904112216176,4,2,0,15,0,0
106324,-2000,4,2,0,15,0,0
106346,-10000,4,2,0,15,0,0
106368,-1502.14591307631,4,2,0,15,0,0
106390,-423.216445493611,4,2,0,15,0,0
106411,-192.625206437156,4,2,0,15,0,0
106433,-109.272556994891,4,2,0,15,0,0
106455,-70.2106319097714,4,2,0,15,0,0
106476,-48.8622085615952,4,2,0,15,0,0
106498,-35.9453630481668,4,2,0,15,0,0
106520,-36.90036900369,4,2,0,15,0,0
106541,-49.8930862508757,4,2,0,15,0,0
106563,-71.0659898549306,4,2,0,15,0,0
106585,-108.864696683267,4,2,0,15,0,0
106606,-185.676392425191,4,2,0,15,0,0
106628,-374.331551002316,4,2,0,15,0,0
106650,-958.904112216176,4,2,0,15,0,0
106671,-2000,4,2,0,15,0,0
106693,-10000,4,2,0,15,0,0
106715,-1502.14591307631,4,2,0,15,0,0
106737,-423.216445493611,4,2,0,15,0,0
106758,-192.625206437156,4,2,0,15,0,0
106780,-109.272556994891,4,2,0,15,0,0
106802,-70.2106319097714,4,2,0,15,0,0
106823,-48.8622085615952,4,2,0,15,0,0
106845,-35.9453630481668,4,2,0,15,0,0
106867,-36.90036900369,4,2,0,15,0,0
106888,-49.8930862508757,4,2,0,15,0,0
106910,-71.0659898549306,4,2,0,15,0,0
106932,-108.864696683267,4,2,0,15,0,0
106953,-185.676392425191,4,2,0,15,0,0
106975,-374.331551002316,4,2,0,15,0,0
106997,-958.904112216176,4,2,0,15,0,0
107018,-2000,4,2,0,15,0,0
107040,-10000,4,2,0,15,0,0
107062,-1502.14591307631,4,2,0,15,0,0
107084,-423.216445493611,4,2,0,15,0,0
107105,-192.625206437156,4,2,0,15,0,0
107127,-109.272556994891,4,2,0,15,0,0
107149,-70.2106319097714,4,2,0,15,0,0
107170,-48.8622085615952,4,2,0,15,0,0
107192,-35.9453630481668,4,2,0,15,0,0
107214,-36.90036900369,4,2,0,15,0,0
107235,-49.8930862508757,4,2,0,15,0,0
107257,-71.0659898549306,4,2,0,15,0,0
107279,-108.864696683267,4,2,0,15,0,0
107300,-185.676392425191,4,2,0,15,0,0
107322,-374.331551002316,4,2,0,15,0,0
107344,-958.904112216176,4,2,0,15,0,0
107365,-2000,4,2,0,15,0,0
107387,-10000,4,2,0,15,0,0
107409,-1502.14591307631,4,2,0,15,0,0
107431,-423.216445493611,4,2,0,15,0,0
107452,-192.625206437156,4,2,0,15,0,0
107474,-109.272556994891,4,2,0,15,0,0
107496,-70.2106319097714,4,2,0,15,0,0
107517,-48.8622085615952,4,2,0,15,0,0
107539,-35.9453630481668,4,2,0,15,0,0
107561,-36.90036900369,4,2,0,15,0,0
107582,-49.8930862508757,4,2,0,15,0,0
107604,-71.0659898549306,4,2,0,15,0,0
107626,-108.864696683267,4,2,0,15,0,0
107647,-185.676392425191,4,2,0,15,0,0
107669,-374.331551002316,4,2,0,15,0,0
107691,-958.904112216176,4,2,0,15,0,0
107712,-2000,4,2,0,15,0,0
107733,-10000,4,2,0,15,0,0
107755,-1502.14591307631,4,2,0,15,0,0
107777,-423.216445493611,4,2,0,15,0,0
107798,-192.625206437156,4,2,0,15,0,0
107820,-109.272556994891,4,2,0,15,0,0
107842,-70.2106319097714,4,2,0,15,0,0
107863,-48.8622085615952,4,2,0,15,0,0
107885,-35.9453630481668,4,2,0,15,0,0
107907,-36.90036900369,4,2,0,15,0,0
107928,-49.8930862508757,4,2,0,15,0,0
107950,-71.0659898549306,4,2,0,15,0,0
107972,-108.864696683267,4,2,0,15,0,0
107993,-185.676392425191,4,2,0,15,0,0
108015,-374.331551002316,4,2,0,15,0,0
108037,-958.904112216176,4,2,0,15,0,0
108058,-2000,4,2,0,15,0,0
108080,-10000,4,2,0,15,0,0
108102,-1502.14591307631,4,2,0,15,0,0
108124,-423.216445493611,4,2,0,15,0,0
108145,-192.625206437156,4,2,0,15,0,0
108167,-109.272556994891,4,2,0,15,0,0
108189,-70.2106319097714,4,2,0,15,0,0
108210,-48.8622085615952,4,2,0,15,0,0
108232,-35.9453630481668,4,2,0,15,0,0
108254,-36.90036900369,4,2,0,15,0,0
108275,-49.8930862508757,4,2,0,15,0,0
108297,-71.0659898549306,4,2,0,15,0,0
108319,-108.864696683267,4,2,0,15,0,0
108340,-185.676392425191,4,2,0,15,0,0
108362,-374.331551002316,4,2,0,15,0,0
108384,-958.904112216176,4,2,0,15,0,0
108405,-2000,4,2,0,15,0,0
108427,-10000,4,2,0,15,0,0
108449,-1502.14591307631,4,2,0,15,0,0
108471,-423.216445493611,4,2,0,15,0,0
108492,-192.625206437156,4,2,0,15,0,0
108514,-109.272556994891,4,2,0,15,0,0
108536,-70.2106319097714,4,2,0,15,0,0
108557,-48.8622085615952,4,2,0,15,0,0
108579,-35.9453630481668,4,2,0,15,0,0
108601,-36.90036900369,4,2,0,15,0,0
108622,-49.8930862508757,4,2,0,15,0,0
108644,-71.0659898549306,4,2,0,15,0,0
108666,-108.864696683267,4,2,0,15,0,0
108687,-185.676392425191,4,2,0,15,0,0
108709,-374.331551002316,4,2,0,15,0,0
108731,-958.904112216176,4,2,0,15,0,0
108752,-2000,4,2,0,15,0,0
108774,-10000,4,2,0,15,0,0
108796,-1502.14591307631,4,2,0,15,0,0
108818,-423.216445493611,4,2,0,15,0,0
108839,-192.625206437156,4,2,0,15,0,0
108861,-109.272556994891,4,2,0,15,0,0
108883,-70.2106319097714,4,2,0,15,0,0
108904,-48.8622085615952,4,2,0,15,0,0
108926,-35.9453630481668,4,2,0,15,0,0
108948,-36.90036900369,4,2,0,15,0,0
108969,-49.8930862508757,4,2,0,15,0,0
108991,-71.0659898549306,4,2,0,15,0,0
109013,-108.864696683267,4,2,0,15,0,0
109034,-185.676392425191,4,2,0,15,0,0
109056,-374.331551002316,4,2,0,15,0,0
109078,-958.904112216176,4,2,0,15,0,0
109099,-2000,4,2,0,15,0,0
109121,-10000,4,2,0,15,0,0
109143,-1502.14591307631,4,2,0,15,0,0
109165,-423.216445493611,4,2,0,15,0,0
109186,-192.625206437156,4,2,0,15,0,0
109208,-109.272556994891,4,2,0,15,0,0
109230,-70.2106319097714,4,2,0,15,0,0
109251,-48.8622085615952,4,2,0,15,0,0
109273,-35.9453630481668,4,2,0,15,0,0
109295,-36.90036900369,4,2,0,15,0,0
109316,-49.8930862508757,4,2,0,15,0,0
109338,-71.0659898549306,4,2,0,15,0,0
109360,-108.864696683267,4,2,0,15,0,0
109381,-185.676392425191,4,2,0,15,0,0
109403,-374.331551002316,4,2,0,15,0,0
109425,-958.904112216176,4,2,0,15,0,0
109446,-2000,4,2,0,15,0,0
109468,-10000,4,2,0,15,0,0
109490,-1502.14591307631,4,2,0,15,0,0
109512,-423.216445493611,4,2,0,15,0,0
109533,-192.625206437156,4,2,0,15,0,0
109555,-109.272556994891,4,2,0,15,0,0
109577,-70.2106319097714,4,2,0,15,0,0
109598,-48.8622085615952,4,2,0,15,0,0
109620,-35.9453630481668,4,2,0,15,0,0
109642,-36.90036900369,4,2,0,15,0,0
109663,-49.8930862508757,4,2,0,15,0,0
109685,-71.0659898549306,4,2,0,15,0,0
109707,-108.864696683267,4,2,0,15,0,0
109728,-185.676392425191,4,2,0,15,0,0
109750,-374.331551002316,4,2,0,15,0,0
109772,-958.904112216176,4,2,0,15,0,0
109793,-2000,4,2,0,15,0,0
109814,-10000,4,2,0,15,0,0
109836,-1502.14591307631,4,2,0,15,0,0
109858,-423.216445493611,4,2,0,15,0,0
109879,-192.625206437156,4,2,0,15,0,0
109901,-109.272556994891,4,2,0,15,0,0
109923,-70.2106319097714,4,2,0,15,0,0
109944,-48.8622085615952,4,2,0,15,0,0
109966,-35.9453630481668,4,2,0,15,0,0
109988,-36.90036900369,4,2,0,15,0,0
110009,-49.8930862508757,4,2,0,15,0,0
110031,-71.0659898549306,4,2,0,15,0,0
110053,-108.864696683267,4,2,0,15,0,0
110074,-185.676392425191,4,2,0,15,0,0
110096,-374.331551002316,4,2,0,15,0,0
110118,-958.904112216176,4,2,0,15,0,0
110139,-2000,4,2,0,15,0,0
110161,-10000,4,2,0,15,0,0
110183,-1502.14591307631,4,2,0,15,0,0
110205,-423.216445493611,4,2,0,15,0,0
110226,-192.625206437156,4,2,0,15,0,0
110248,-109.272556994891,4,2,0,15,0,0
110270,-70.2106319097714,4,2,0,15,0,0
110291,-48.8622085615952,4,2,0,15,0,0
110313,-35.9453630481668,4,2,0,15,0,0
110335,-36.90036900369,4,2,0,15,0,0
110356,-49.8930862508757,4,2,0,15,0,0
110378,-71.0659898549306,4,2,0,15,0,0
110400,-108.864696683267,4,2,0,15,0,0
110421,-185.676392425191,4,2,0,15,0,0
110443,-374.331551002316,4,2,0,15,0,0
110465,-958.904112216176,4,2,0,15,0,0
110486,-2000,4,2,0,15,0,0
110508,-10000,4,2,0,15,0,0
110530,-1502.14591307631,4,2,0,15,0,0
110552,-423.216445493611,4,2,0,15,0,0
110573,-192.625206437156,4,2,0,15,0,0
110595,-109.272556994891,4,2,0,15,0,0
110617,-70.2106319097714,4,2,0,15,0,0
110638,-48.8622085615952,4,2,0,15,0,0
110660,-35.9453630481668,4,2,0,15,0,0
110682,-36.90036900369,4,2,0,15,0,0
110703,-49.8930862508757,4,2,0,15,0,0
110725,-71.0659898549306,4,2,0,15,0,0
110747,-108.864696683267,4,2,0,15,0,0
110768,-185.676392425191,4,2,0,15,0,0
110790,-374.331551002316,4,2,0,15,0,0
110812,-958.904112216176,4,2,0,15,0,0
110833,-2000,4,2,0,15,0,0
110855,-10000,4,2,0,15,0,0
110877,-1502.14591307631,4,2,0,15,0,0
110899,-423.216445493611,4,2,0,15,0,0
110920,-192.625206437156,4,2,0,15,0,0
110942,-109.272556994891,4,2,0,15,0,0
110964,-70.2106319097714,4,2,0,15,0,0
110985,-48.8622085615952,4,2,0,15,0,0
111007,-35.9453630481668,4,2,0,15,0,0
111029,-36.90036900369,4,2,0,15,0,0
111050,-49.8930862508757,4,2,0,15,0,0
111072,-71.0659898549306,4,2,0,15,0,0
111094,-108.864696683267,4,2,0,15,0,0
111115,-185.676392425191,4,2,0,15,0,0
111137,-374.331551002316,4,2,0,15,0,0
111159,-958.904112216176,4,2,0,15,0,0
111180,-2000,4,2,0,15,0,0
111202,-10000,4,2,0,15,0,0
111224,-1502.14591307631,4,2,0,15,0,0
111246,-423.216445493611,4,2,0,15,0,0
111267,-192.625206437156,4,2,0,15,0,0
111289,-109.272556994891,4,2,0,15,0,0
111311,-70.2106319097714,4,2,0,15,0,0
111332,-48.8622085615952,4,2,0,15,0,0
111354,-35.9453630481668,4,2,0,15,0,0
111376,-36.90036900369,4,2,0,15,0,0
111397,-49.8930862508757,4,2,0,15,0,0
111419,-71.0659898549306,4,2,0,15,0,0
111441,-108.864696683267,4,2,0,15,0,0
111462,-185.676392425191,4,2,0,15,0,0
111484,-374.331551002316,4,2,0,15,0,0
111506,-958.904112216176,4,2,0,15,0,0
111527,-2000,4,2,0,15,0,0
111548,-200,4,2,0,15,0,0
114323,-400,4,2,0,15,0,0
117098,-1000,4,2,0,15,0,0

[HitObjects]
402,192,566,128,0,1086:0:0:0:0:
256,192,1086,1,0,0:0:0:0:
109,192,1173,1,0,0:0:0:0:
36,192,1259,128,0,1433:0:0:0:0:
182,192,1433,128,0,1606:0:0:0:0:
329,192,1606,128,0,1780:0:0:0:0:
475,192,1780,128,0,1953:0:0:0:0:
256,192,1953,128,0,2300:0:0:0:0:
109,192,2647,128,0,2994:0:0:0:0:
256,192,2994,128,0,3340:0:0:0:0:
402,192,3340,128,0,3687:0:0:0:0:
182,192,3861,1,0,0:0:0:0:
36,192,4034,128,0,4381:0:0:0:0:
475,192,4728,128,0,5074:0:0:0:0:
329,192,5074,128,0,5421:0:0:0:0:
182,192,5421,128,0,5768:0:0:0:0:
36,192,5768,128,0,6115:0:0:0:0:
109,192,6115,1,0,0:0:0:0:
475,192,6115,1,0,0:0:0:0:
329,192,6288,1,0,0:0:0:0:
182,192,6462,1,0,0:0:0:0:
402,192,6635,1,0,0:0:0:0:
109,192,6809,1,0,0:0:0:0:
256,192,6982,1,0,0:0:0:0:
36,192,7155,1,0,0:0:0:0:
182,192,7329,1,0,0:0:0:0:
329,192,7329,1,0,0:0:0:0:
402,192,7502,1,0,0:0:0:0:
475,192,7502,1,0,0:0:0:0:
256,192,7502,1,0,0:0:0:0:
109,192,7762,1,0,0:0:0:0:
36,192,7762,1,0,0:0:0:0:
256,192,7762,1,0,0:0:0:0:
329,192,8022,1,0,0:0:0:0:
475,192,8022,1,0,0:0:0:0:
402,192,8022,1,0,0:0:0:0:
182,192,8196,1,0,0:0:0:0:
36,192,8196,1,0,0:0:0:0:
109,192,8196,1,0,0:0:0:0:
109,192,8543,1,0,0:0:0:0:
402,192,8543,1,0,0:0:0:0:
256,192,8543,1,0,0:0:0:0:
475,192,8889,1,0,0:0:0:0:
256,192,8889,1,0,0:0:0:0:
329,192,9063,1,0,0:0:0:0:
475,192,9236,1,0,0:0:0:0:
329,192,9410,1,0,0:0:0:0:
36,192,9583,1,0,0:0:0:0:
402,192,9583,1,0,0:0:0:0:
182,192,9757,1,0,0:0:0:0:
36,192,9930,1,0,0:0:0:0:
182,192,10103,1,0,0:0:0:0:
475,192,10277,1,0,0:0:0:0:
109,192,10277,1,0,0:0:0:0:
402,192,10363,1,0,0:0:0:0:
329,192,10450,1,0,0:0:0:0:
256,192,10537,1,0,0:0:0:0:
182,192,10624,1,0,0:0:0:0:
475,192,10710,1,0,0:0:0:0:
402,192,10797,1,0,0:0:0:0:
329,192,10884,1,0,0:0:0:0:
256,192,10970,128,0,11664:0:0:0:0:
109,192,10970,1,0,0:0:0:0:
36,192,11664,128,0,14439:0:0:0:0:
182,192,11664,1,0,0:0:0:0:
329,192,12878,1,0,0:0:0:0:
475,192,13051,1,0,0:0:0:0:
475,192,13311,1,0,0:0:0:0:
329,192,13572,1,0,0:0:0:0:
475,192,13745,1,0,0:0:0:0:
329,192,13918,1,0,0:0:0:0:
475,192,14092,1,0,0:0:0:0:
182,192,14092,1,0,0:0:0:0:
329,192,14439,1,0,0:0:0:0:
109,192,14439,1,0,0:0:0:0:
256,192,14439,1,0,0:0:0:0:
402,192,14612,1,0,0:0:0:0:
402,192,14785,1,0,0:0:0:0:
182,192,14959,1,0,0:0:0:0:
256,192,15046,1,0,0:0:0:0:
329,192,15132,1,0,0:0:0:0:
402,192,15306,1,0,0:0:0:0:
329,192,15479,1,0,0:0:0:0:
256,192,15652,1,0,0:0:0:0:
109,192,15826,1,0,0:0:0:0:
36,192,15826,1,0,0:0:0:0:
182,192,15913,1,0,0:0:0:0:
256,192,15999,1,0,0:0:0:0:
329,192,16086,1,0,0:0:0:0:
402,192,16173,1,0,0:0:0:0:
475,192,16173,1,0,0:0:0:0:
182,192,16346,1,0,0:0:0:0:
36,192,16520,1,0,0:0:0:0:
402,192,16520,1,0,0:0:0:0:
109,192,16606,1,0,0:0:0:0:
182,192,16693,1,0,0:0:0:0:
256,192,16780,1,0,0:0:0:0:
475,192,16866,1,0,0:0:0:0:
329,192,16866,1,0,0:0:0:0:
182,192,17040,1,0,0:0:0:0:
402,192,17213,1,0,0:0:0:0:
475,192,17213,1,0,0:0:0:0:
36,192,17213,1,0,0:0:0:0:
109,192,17387,1,0,0:0:0:0:
109,192,17560,1,0,0:0:0:0:
329,192,17733,1,0,0:0:0:0:
256,192,17820,1,0,0:0:0:0:
182,192,17907,1,0,0:0:0:0:
109,192,18080,1,0,0:0:0:0:
182,192,18254,1,0,0:0:0:0:
256,192,18427,1,0,0:0:0:0:
402,192,18600,1,0,0:0:0:0:
475,192,18600,1,0,0:0:0:0:
329,192,18687,1,0,0:0:0:0:
256,192,18774,1,0,0:0:0:0:
182,192,18861,1,0,0:0:0:0:
109,192,18947,1,0,0:0:0:0:
36,192,18947,1,0,0:0:0:0:
329,192,19121,1,0,0:0:0:0:
475,192,19294,1,0,0:0:0:0:
109,192,19294,1,0,0:0:0:0:
402,192,19381,1,0,0:0:0:0:
329,192,19468,1,0,0:0:0:0:
256,192,19554,1,0,0:0:0:0:
182,192,19641,1,0,0:0:0:0:
36,192,19641,1,0,0:0:0:0:
256,192,19814,1,0,0:0:0:0:
475,192,19988,1,0,0:0:0:0:
36,192,19988,1,0,0:0:0:0:
402,192,19988,1,0,0:0:0:0:
109,192,20074,1,0,0:0:0:0:
182,192,20161,1,0,0:0:0:0:
256,192,20248,1,0,0:0:0:0:
329,192,20335,128,0,20508:0:0:0:0:
402,192,20508,1,0,0:0:0:0:
109,192,20595,128,0,20855:0:0:0:0:
475,192,20855,128,0,21028:0:0:0:0:
329,192,21028,128,0,21202:0:0:0:0:
182,192,21202,128,0,21375:0:0:0:0:
109,192,21375,1,0,0:0:0:0:
182,192,21462,1,0,0:0:0:0:
256,192,21548,1,0,0:0:0:0:
329,192,21635,1,0,0:0:0:0:
402,192,21722,128,0,21895:0:0:0:0:
475,192,21895,1,0,0:0:0:0:
182,192,21982,128,0,22242:0:0:0:0:
329,192,22242,128,0,22415:0:0:0:0:
182,192,22415,128,0,22589:0:0:0:0:
36,192,22589,128,0,22762:0:0:0:0:
475,192,22762,1,0,0:0:0:0:
402,192,22849,1,0,0:0:0:0:
329,192,22936,1,0,0:0:0:0:
256,192,23022,1,0,0:0:0:0:
402,192,23109,1,0,0:0:0:0:
329,192,23196,1,0,0:0:0:0:
256,192,23283,1,0,0:0:0:0:
182,192,23369,1,0,0:0:0:0:
36,192,23456,1,0,0:0:0:0:
109,192,23543,1,0,0:0:0:0:
182,192,23629,1,0,0:0:0:0:
256,192,23716,1,0,0:0:0:0:
475,192,23803,1,0,0:0:0:0:
402,192,23889,1,0,0:0:0:0:
329,192,23976,128,0,24150:0:0:0:0:
109,192,24150,1,0,0:0:0:0:
36,192,24150,1,0,0:0:0:0:
256,192,24150,1,0,0:0:0:0:
36,192,24410,1,0,0:0:0:0:
182,192,24410,1,0,0:0:0:0:
329,192,24410,1,0,0:0:0:0:
402,192,24670,1,0,0:0:0:0:
475,192,24670,1,0,0:0:0:0:
256,192,24670,1,0,0:0:0:0:
329,192,24757,1,0,0:0:0:0:
182,192,24843,1,0,0:0:0:0:
109,192,24843,1,0,0:0:0:0:
36,192,24843,1,0,0:0:0:0:
329,192,25190,1,0,0:0:0:0:
475,192,25190,1,0,0:0:0:0:
402,192,25190,1,0,0:0:0:0:
109,192,25537,1,0,0:0:0:0:
36,192,25537,1,0,0:0:0:0:
256,192,25537,1,0,0:0:0:0:
475,192,25710,1,0,0:0:0:0:
475,192,25884,1,0,0:0:0:0:
109,192,26057,1,0,0:0:0:0:
256,192,26144,1,0,0:0:0:0:
402,192,26231,1,0,0:0:0:0:
329,192,26404,1,0,0:0:0:0:
182,192,26577,1,0,0:0:0:0:
109,192,26751,1,0,0:0:0:0:
36,192,26924,1,0,0:0:0:0:
402,192,26924,1,0,0:0:0:0:
109,192,27011,1,0,0:0:0:0:
182,192,27098,1,0,0:0:0:0:
256,192,27184,1,0,0:0:0:0:
329,192,27271,1,0,0:0:0:0:
402,192,27271,1,0,0:0:0:0:
256,192,27444,1,0,0:0:0:0:
109,192,27618,1,0,0:0:0:0:
475,192,27618,1,0,0:0:0:0:
182,192,27705,1,0,0:0:0:0:
256,192,27791,1,0,0:0:0:0:
329,192,27878,1,0,0:0:0:0:
402,192,27965,1,0,0:0:0:0:
475,192,27965,1,0,0:0:0:0:
182,192,28138,1,0,0:0:0:0:
402,192,28311,1,0,0:0:0:0:
475,192,28311,1,0,0:0:0:0:
109,192,28311,1,0,0:0:0:0:
36,192,28485,1,0,0:0:0:0:
36,192,28658,1,0,0:0:0:0:
402,192,28832,1,0,0:0:0:0:
256,192,28918,1,0,0:0:0:0:
109,192,29005,1,0,0:0:0:0:
182,192,29179,1,0,0:0:0:0:
329,192,29352,1,0,0:0:0:0:
402,192,29525,1,0,0:0:0:0:
475,192,29699,1,0,0:0:0:0:
109,192,29699,1,0,0:0:0:0:
402,192,29785,1,0,0:0:0:0:
329,192,29872,1,0,0:0:0:0:
256,192,29959,1,0,0:0:0:0:
182,192,30046,1,0,0:0:0:0:
109,192,30046,1,0,0:0:0:0:
256,192,30219,1,0,0:0:0:0:
402,192,30392,1,0,0:0:0:0:
36,192,30392,1,0,0:0:0:0:
329,192,30479,1,0,0:0:0:0:
256,192,30566,1,0,0:0:0:0:
182,192,30652,1,0,0:0:0:0:
109,192,30739,1,0,0:0:0:0:
36,192,30739,1,0,0:0:0:0:
329,192,30913,1,0,0:0:0:0:
36,192,31086,1,0,0:0:0:0:
475,192,31086,1,0,0:0:0:0:
182,192,31086,1,0,0:0:0:0:
402,192,31173,1,0,0:0:0:0:
329,192,31259,1,0,0:0:0:0:
256,192,31346,1,0,0:0:0:0:
182,192,31433,128,0,31606:0:0:0:0:
109,192,31606,1,0,0:0:0:0:
402,192,31693,128,0,31953:0:0:0:0:
36,192,31953,128,0,32126:0:0:0:0:
182,192,32126,128,0,32300:0:0:0:0:
329,192,32300,128,0,32473:0:0:0:0:
402,192,32473,1,0,0:0:0:0:
329,192,32560,1,0,0:0:0:0:
256,192,32647,1,0,0:0:0:0:
182,192,32733,1,0,0:0:0:0:
109,192,32820,128,0,32994:0:0:0:0:
36,192,32994,1,0,0:0:0:0:
329,192,33080,128,0,33340:0:0:0:0:
182,192,33340,128,0,33514:0:0:0:0:
329,192,33514,128,0,33687:0:0:0:0:
475,192,33687,128,0,33861:0:0:0:0:
36,192,33861,1,0,0:0:0:0:
109,192,33947,1,0,0:0:0:0:
182,192,34034,1,0,0:0:0:0:
256,192,34121,1,0,0:0:0:0:
109,192,34207,1,0,0:0:0:0:
182,192,34294,1,0,0:0:0:0:
256,192,34381,1,0,0:0:0:0:
329,192,34468,1,0,0:0:0:0:
475,192,34554,1,0,0:0:0:0:
402,192,34641,1,0,0:0:0:0:
329,192,34728,1,0,0:0:0:0:
256,192,34814,1,0,0:0:0:0:
36,192,34901,1,0,0:0:0:0:
109,192,34988,1,0,0:0:0:0:
182,192,35074,128,0,35248:0:0:0:0:
402,192,35248,1,0,0:0:0:0:
475,192,35248,1,0,0:0:0:0:
256,192,35248,1,0,0:0:0:0:
475,192,35508,1,0,0:0:0:0:
329,192,35508,1,0,0:0:0:0:
182,192,35508,1,0,0:0:0:0:
109,192,35768,1,0,0:0:0:0:
36,192,35768,1,0,0:0:0:0:
256,192,35768,1,0,0:0:0:0:
329,192,35942,1,0,0:0:0:0:
475,192,35942,1,0,0:0:0:0:
182,192,35942,1,0,0:0:0:0:
475,192,36288,1,0,0:0:0:0:
402,192,36375,1,0,0:0:0:0:
329,192,36462,1,0,0:0:0:0:
256,192,36548,1,0,0:0:0:0:
109,192,36635,128,0,36895:0:0:0:0:
36,192,36635,128,0,36895:0:0:0:0:
329,192,36895,1,0,0:0:0:0:
182,192,37155,1,0,0:0:0:0:
109,192,37155,1,0,0:0:0:0:
182,192,37329,128,0,37589:0:0:0:0:
109,192,37329,128,0,37589:0:0:0:0:
402,192,37589,1,0,0:0:0:0:
256,192,37849,1,0,0:0:0:0:
182,192,37849,1,0,0:0:0:0:
182,192,38022,128,0,38283:0:0:0:0:
256,192,38022,128,0,38283:0:0:0:0:
475,192,38283,1,0,0:0:0:0:
329,192,38543,1,0,0:0:0:0:
256,192,38543,1,0,0:0:0:0:
182,192,38716,1,0,0:0:0:0:
36,192,38716,1,0,0:0:0:0:
475,192,38889,1,0,0:0:0:0:
329,192,38976,1,0,0:0:0:0:
109,192,39063,1,0,0:0:0:0:
36,192,39063,1,0,0:0:0:0:
402,192,39410,128,0,39670:0:0:0:0:
475,192,39410,128,0,39670:0:0:0:0:
182,192,39670,1,0,0:0:0:0:
329,192,39930,1,0,0:0:0:0:
402,192,39930,1,0,0:0:0:0:
402,192,40103,128,0,40363:0:0:0:0:
329,192,40103,128,0,40363:0:0:0:0:
109,192,40363,1,0,0:0:0:0:
256,192,40624,1,0,0:0:0:0:
329,192,40624,1,0,0:0:0:0:
329,192,40797,128,0,41057:0:0:0:0:
256,192,40797,128,0,41057:0:0:0:0:
36,192,41057,1,0,0:0:0:0:
182,192,41317,1,0,0:0:0:0:
256,192,41317,1,0,0:0:0:0:
402,192,41491,1,0,0:0:0:0:
475,192,41491,1,0,0:0:0:0:
109,192,41664,1,0,0:0:0:0:
36,192,41664,1,0,0:0:0:0:
256,192,41751,1,0,0:0:0:0:
475,192,41837,1,0,0:0:0:0:
329,192,41837,1,0,0:0:0:0:
182,192,42184,128,0,42444:0:0:0:0:
36,192,42184,128,0,42444:0:0:0:0:
329,192,42444,1,0,0:0:0:0:
256,192,42705,1,0,0:0:0:0:
109,192,42705,1,0,0:0:0:0:
256,192,42878,128,0,43138:0:0:0:0:
109,192,42878,128,0,43138:0:0:0:0:
402,192,43138,1,0,0:0:0:0:
329,192,43398,1,0,0:0:0:0:
182,192,43398,1,0,0:0:0:0:
329,192,43572,128,0,43832:0:0:0:0:
182,192,43572,128,0,43832:0:0:0:0:
475,192,43832,1,0,0:0:0:0:
256,192,44092,1,0,0:0:0:0:
402,192,44092,1,0,0:0:0:0:
329,192,44265,1,0,0:0:0:0:
182,192,44265,1,0,0:0:0:0:
109,192,44439,1,0,0:0:0:0:
36,192,44439,1,0,0:0:0:0:
329,192,44525,1,0,0:0:0:0:
475,192,44525,1,0,0:0:0:0:
182,192,44612,1,0,0:0:0:0:
36,192,44612,1,0,0:0:0:0:
402,192,44959,1,0,0:0:0:0:
256,192,44959,1,0,0:0:0:0:
109,192,44959,1,0,0:0:0:0:
256,192,47387,128,0,47733:0:0:0:0:
182,192,47733,128,0,47994:0:0:0:0:
36,192,47733,128,0,47994:0:0:0:0:
329,192,47994,1,0,0:0:0:0:
109,192,48254,1,0,0:0:0:0:
256,192,48254,1,0,0:0:0:0:
256,192,48427,128,0,48687:0:0:0:0:
109,192,48427,128,0,48687:0:0:0:0:
402,192,48687,1,0,0:0:0:0:
182,192,48947,1,0,0:0:0:0:
329,192,48947,1,0,0:0:0:0:
329,192,49121,128,0,49381:0:0:0:0:
182,192,49121,128,0,49381:0:0:0:0:
475,192,49381,1,0,0:0:0:0:
402,192,49641,1,0,0:0:0:0:
256,192,49641,1,0,0:0:0:0:
182,192,49814,1,0,0:0:0:0:
36,192,49814,1,0,0:0:0:0:
475,192,49988,1,0,0:0:0:0:
329,192,50074,1,0,0:0:0:0:
109,192,50161,1,0,0:0:0:0:
36,192,50161,1,0,0:0:0:0:
329,192,50508,128,0,50768:0:0:0:0:
475,192,50508,128,0,50768:0:0:0:0:
182,192,50768,1,0,0:0:0:0:
256,192,51028,1,0,0:0:0:0:
402,192,51028,1,0,0:0:0:0:
402,192,51202,128,0,51462:0:0:0:0:
256,192,51202,128,0,51462:0:0:0:0:
109,192,51462,1,0,0:0:0:0:
182,192,51722,1,0,0:0:0:0:
329,192,51722,1,0,0:0:0:0:
329,192,51895,128,0,52155:0:0:0:0:
182,192,51895,128,0,52155:0:0:0:0:
36,192,52155,1,0,0:0:0:0:
109,192,52415,1,0,0:0:0:0:
256,192,52415,1,0,0:0:0:0:
182,192,52589,1,0,0:0:0:0:
329,192,52589,1,0,0:0:0:0:
109,192,52762,1,0,0:0:0:0:
36,192,52762,1,0,0:0:0:0:
256,192,52849,1,0,0:0:0:0:
402,192,52936,1,0,0:0:0:0:
475,192,52936,1,0,0:0:0:0:
109,192,53283,128,0,53543:0:0:0:0:
36,192,53283,128,0,53543:0:0:0:0:
182,192,53543,1,0,0:0:0:0:
402,192,53803,1,0,0:0:0:0:
475,192,53803,1,0,0:0:0:0:
402,192,53976,128,0,54236:0:0:0:0:
475,192,53976,128,0,54236:0:0:0:0:
329,192,54236,1,0,0:0:0:0:
182,192,54496,1,0,0:0:0:0:
36,192,54496,1,0,0:0:0:0:
182,192,54670,128,0,54930:0:0:0:0:
36,192,54670,128,0,54930:0:0:0:0:
256,192,54930,1,0,0:0:0:0:
475,192,55190,1,0,0:0:0:0:
329,192,55190,1,0,0:0:0:0:
36,192,55363,1,0,0:0:0:0:
182,192,55363,1,0,0:0:0:0:
475,192,55537,1,0,0:0:0:0:
402,192,55537,1,0,0:0:0:0:
109,192,55624,1,0,0:0:0:0:
36,192,55624,1,0,0:0:0:0:
329,192,55710,1,0,0:0:0:0:
475,192,55710,1,0,0:0:0:0:
36,192,56057,1,0,0:0:0:0:
182,192,56231,1,0,0:0:0:0:
109,192,56404,1,0,0:0:0:0:
256,192,56577,1,0,0:0:0:0:
182,192,56751,1,0,0:0:0:0:
36,192,56924,1,0,0:0:0:0:
329,192,57098,1,0,0:0:0:0:
475,192,57271,1,0,0:0:0:0:
256,192,57444,1,0,0:0:0:0:
109,192,57444,1,0,0:0:0:0:
402,192,57618,1,0,0:0:0:0:
182,192,57791,1,0,0:0:0:0:
36,192,57791,1,0,0:0:0:0:
329,192,57965,1,0,0:0:0:0:
256,192,58138,1,0,0:0:0:0:
475,192,58138,1,0,0:0:0:0:
109,192,58311,1,0,0:0:0:0:
182,192,58485,1,0,0:0:0:0:
329,192,58485,1,0,0:0:0:0:
402,192,58485,1,0,0:0:0:0:
36,192,58832,1,0,0:0:0:0:
256,192,58832,1,0,0:0:0:0:
475,192,58832,128,0,59352:0:0:0:0:
329,192,59179,1,0,0:0:0:0:
182,192,59179,1,0,0:0:0:0:
36,192,59352,128,0,59525:0:0:0:0:
475,192,59525,128,0,60046:0:0:0:0:
329,192,59872,1,0,0:0:0:0:
182,192,59872,1,0,0:0:0:0:
36,192,60046,128,0,60219:0:0:0:0:
475,192,60219,128,0,60566:0:0:0:0:
256,192,60219,1,0,0:0:0:0:
329,192,60566,128,0,60913:0:0:0:0:
36,192,60566,1,0,0:0:0:0:
256,192,60913,128,0,61259:0:0:0:0:
109,192,60913,1,0,0:0:0:0:
182,192,61259,128,0,61606:0:0:0:0:
475,192,61259,1,0,0:0:0:0:
36,192,61606,128,0,62300:0:0:0:0:
402,192,61606,1,0,0:0:0:0:
256,192,61953,1,0,0:0:0:0:
109,192,61953,1,0,0:0:0:0:
329,192,62126,1,0,0:0:0:0:
402,192,62213,1,0,0:0:0:0:
475,192,62300,128,0,64381:0:0:0:0:
182,192,62300,1,0,0:0:0:0:
256,192,62647,1,0,0:0:0:0:
402,192,62647,1,0,0:0:0:0:
109,192,62994,1,0,0:0:0:0:
182,192,63167,1,0,0:0:0:0:
256,192,63340,1,0,0:0:0:0:
36,192,63340,1,0,0:0:0:0:
109,192,63514,1,0,0:0:0:0:
182,192,63687,1,0,0:0:0:0:
402,192,63687,1,0,0:0:0:0:
329,192,63861,1,0,0:0:0:0:
256,192,64034,1,0,0:0:0:0:
36,192,64034,1,0,0:0:0:0:
329,192,64207,1,0,0:0:0:0:
109,192,64207,1,0,0:0:0:0:
402,192,64381,1,0,0:0:0:0:
182,192,64381,128,0,65421:0:0:0:0:
475,192,64728,1,0,0:0:0:0:
36,192,64728,1,0,0:0:0:0:
256,192,65074,1,0,0:0:0:0:
329,192,65421,128,0,65768:0:0:0:0:
475,192,65421,1,0,0:0:0:0:
256,192,65768,128,0,66288:0:0:0:0:
109,192,65768,1,0,0:0:0:0:
182,192,66115,1,0,0:0:0:0:
36,192,66115,1,0,0:0:0:0:
329,192,66288,1,0,0:0:0:0:
402,192,66375,1,0,0:0:0:0:
109,192,66462,1,0,0:0:0:0:
475,192,66462,128,0,66635:0:0:0:0:
182,192,66635,128,0,66809:0:0:0:0:
329,192,66809,128,0,66982:0:0:0:0:
475,192,66809,1,0,0:0:0:0:
36,192,66982,128,0,67155:0:0:0:0:
402,192,67155,1,0,0:0:0:0:
256,192,67155,128,0,67676:0:0:0:0:
182,192,67502,1,0,0:0:0:0:
36,192,67502,1,0,0:0:0:0:
402,192,67676,128,0,67849:0:0:0:0:
256,192,67849,1,0,0:0:0:0:
109,192,67849,128,0,69236:0:0:0:0:
475,192,68196,1,0,0:0:0:0:
402,192,68196,1,0,0:0:0:0:
182,192,68543,1,0,0:0:0:0:
329,192,68889,1,0,0:0:0:0:
402,192,68889,1,0,0:0:0:0:
329,192,69236,1,0,0:0:0:0:
475,192,69236,1,0,0:0:0:0:
36,192,69410,1,0,0:0:0:0:
109,192,69496,1,0,0:0:0:0:
182,192,69583,1,0,0:0:0:0:
329,192,69583,1,0,0:0:0:0:
329,192,69757,1,0,0:0:0:0:
182,192,69757,1,0,0:0:0:0:
36,192,69930,128,0,70450:0:0:0:0:
402,192,69930,1,0,0:0:0:0:
475,192,69930,1,0,0:0:0:0:
256,192,70277,1,0,0:0:0:0:
109,192,70277,1,0,0:0:0:0:
329,192,70450,1,0,0:0:0:0:
402,192,70537,1,0,0:0:0:0:
475,192,70624,128,0,71144:0:0:0:0:
182,192,70624,1,0,0:0:0:0:
256,192,70970,1,0,0:0:0:0:
402,192,70970,1,0,0:0:0:0:
182,192,71144,1,0,0:0:0:0:
109,192,71231,1,0,0:0:0:0:
36,192,71317,128,0,71491:0:0:0:0:
475,192,71317,1,0,0:0:0:0:
329,192,71491,128,0,71664:0:0:0:0:
182,192,71664,128,0,71837:0:0:0:0:
402,192,71664,1,0,0:0:0:0:
475,192,71837,128,0,72011:0:0:0:0:
109,192,72011,128,0,72184:0:0:0:0:
256,192,72011,1,0,0:0:0:0:
402,192,72184,128,0,72358:0:0:0:0:
182,192,72358,128,0,72531:0:0:0:0:
109,192,72358,1,0,0:0:0:0:
329,192,72531,128,0,72705:0:0:0:0:
36,192,72705,128,0,73225:0:0:0:0:
475,192,72705,1,0,0:0:0:0:
256,192,73051,1,0,0:0:0:0:
109,192,73051,1,0,0:0:0:0:
475,192,73225,1,0,0:0:0:0:
402,192,73311,1,0,0:0:0:0:
329,192,73398,128,0,73572:0:0:0:0:
36,192,73398,1,0,0:0:0:0:
182,192,73572,128,0,73745:0:0:0:0:
402,192,73745,128,0,73918:0:0:0:0:
256,192,73745,1,0,0:0:0:0:
109,192,73918,128,0,74092:0:0:0:0:
475,192,74092,128,0,74439:0:0:0:0:
329,192,74092,1,0,0:0:0:0:
36,192,74439,128,0,74785:0:0:0:0:
182,192,74439,1,0,0:0:0:0:
329,192,74785,1,0,0:0:0:0:
475,192,74785,1,0,0:0:0:0:
329,192,74959,1,0,0:0:0:0:
475,192,74959,1,0,0:0:0:0:
182,192,75132,1,0,0:0:0:0:
36,192,75132,1,0,0:0:0:0:
36,192,75306,1,0,0:0:0:0:
182,192,75306,1,0,0:0:0:0:
256,192,75479,128,0,75999:0:0:0:0:
402,192,75479,1,0,0:0:0:0:
329,192,75826,1,0,0:0:0:0:
475,192,75826,1,0,0:0:0:0:
109,192,75999,128,0,76173:0:0:0:0:
402,192,76173,128,0,76520:0:0:0:0:
256,192,76173,1,0,0:0:0:0:
182,192,76520,128,0,76866:0:0:0:0:
36,192,76520,1,0,0:0:0:0:
329,192,76866,128,0,77387:0:0:0:0:
475,192,76866,1,0,0:0:0:0:
402,192,77213,1,0,0:0:0:0:
475,192,77213,1,0,0:0:0:0:
182,192,77387,1,0,0:0:0:0:
109,192,77473,1,0,0:0:0:0:
36,192,77560,128,0,78254:0:0:0:0:
329,192,77560,1,0,0:0:0:0:
256,192,77907,1,0,0:0:0:0:
402,192,77907,1,0,0:0:0:0:
475,192,78254,1,0,0:0:0:0:
329,192,78254,1,0,0:0:0:0:
475,192,78427,1,0,0:0:0:0:
329,192,78427,1,0,0:0:0:0:
182,192,78600,1,0,0:0:0:0:
256,192,78600,1,0,0:0:0:0:
109,192,78600,1,0,0:0:0:0:
182,192,78947,1,0,0:0:0:0:
36,192,78947,1,0,0:0:0:0:
36,192,79121,1,0,0:0:0:0:
182,192,79121,1,0,0:0:0:0:
256,192,79294,1,0,0:0:0:0:
329,192,79294,1,0,0:0:0:0:
402,192,79294,1,0,0:0:0:0:
36,192,79468,1,0,0:0:0:0:
109,192,79554,1,0,0:0:0:0:
182,192,79641,1,0,0:0:0:0:
329,192,79641,1,0,0:0:0:0:
329,192,79814,1,0,0:0:0:0:
182,192,79814,1,0,0:0:0:0:
256,192,79988,1,0,0:0:0:0:
36,192,79988,1,0,0:0:0:0:
475,192,79988,1,0,0:0:0:0:
475,192,80161,1,0,0:0:0:0:
36,192,80161,1,0,0:0:0:0:
402,192,80248,1,0,0:0:0:0:
182,192,80335,1,0,0:0:0:0:
329,192,80335,1,0,0:0:0:0:
109,192,80421,1,0,0:0:0:0:
36,192,80508,1,0,0:0:0:0:
475,192,80595,1,0,0:0:0:0:
402,192,80681,1,0,0:0:0:0:
329,192,80768,1,0,0:0:0:0:
256,192,80855,1,0,0:0:0:0:
182,192,80942,1,0,0:0:0:0:
109,192,81028,1,0,0:0:0:0:
402,192,81028,1,0,0:0:0:0:
475,192,81028,128,0,81722:0:0:0:0:
36,192,81028,128,0,81722:0:0:0:0:
256,192,81722,128,0,82415:0:0:0:0:
109,192,82415,1,0,0:0:0:0:
109,192,82762,1,0,0:0:0:0:
109,192,83022,1,0,0:0:0:0:
402,192,83109,1,0,0:0:0:0:
402,192,83283,1,0,0:0:0:0:
329,192,83456,1,0,0:0:0:0:
182,192,83456,1,0,0:0:0:0:
36,192,83456,1,0,0:0:0:0:
182,192,83803,1,0,0:0:0:0:
329,192,83803,1,0,0:0:0:0:
475,192,83803,128,0,84063:0:0:0:0:
36,192,84063,128,0,84323:0:0:0:0:
256,192,84150,1,0,0:0:0:0:
109,192,84150,1,0,0:0:0:0:
329,192,84323,128,0,84496:0:0:0:0:
182,192,84496,128,0,84670:0:0:0:0:
475,192,84496,1,0,0:0:0:0:
402,192,84670,128,0,84843:0:0:0:0:
109,192,84843,128,0,85017:0:0:0:0:
36,192,84843,1,0,0:0:0:0:
256,192,85017,128,0,85190:0:0:0:0:
475,192,85190,128,0,85710:0:0:0:0:
329,192,85190,1,0,0:0:0:0:
402,192,85537,1,0,0:0:0:0:
256,192,85537,1,0,0:0:0:0:
36,192,85710,1,0,0:0:0:0:
109,192,85797,1,0,0:0:0:0:
182,192,85884,128,0,86231:0:0:0:0:
329,192,85884,1,0,0:0:0:0:
475,192,86057,1,0,0:0:0:0:
402,192,86115,1,0,0:0:0:0:
329,192,86173,1,0,0:0:0:0:
256,192,86231,1,0,0:0:0:0:
36,192,86231,128,0,86404:0:0:0:0:
475,192,86404,128,0,86577:0:0:0:0:
109,192,86577,128,0,86751:0:0:0:0:
329,192,86577,1,0,0:0:0:0:
256,192,86751,1,0,0:0:0:0:
402,192,86837,128,0,87098:0:0:0:0:
182,192,86924,1,0,0:0:0:0:
36,192,86924,1,0,0:0:0:0:
329,192,87098,128,0,87271:0:0:0:0:
182,192,87271,128,0,87444:0:0:0:0:
36,192,87271,1,0,0:0:0:0:
475,192,87444,1,0,0:0:0:0:
402,192,87531,1,0,0:0:0:0:
329,192,87618,1,0,0:0:0:0:
182,192,87618,1,0,0:0:0:0:
109,192,87705,1,0,0:0:0:0:
36,192,87791,1,0,0:0:0:0:
256,192,87878,1,0,0:0:0:0:
402,192,87965,1,0,0:0:0:0:
475,192,87965,128,0,88485:0:0:0:0:
329,192,88311,1,0,0:0:0:0:
182,192,88311,1,0,0:0:0:0:
256,192,88485,1,0,0:0:0:0:
109,192,88572,1,0,0:0:0:0:
36,192,88658,128,0,89005:0:0:0:0:
475,192,88658,1,0,0:0:0:0:
402,192,89005,1,0,0:0:0:0:
109,192,89005,1,0,0:0:0:0:
109,192,89179,1,0,0:0:0:0:
402,192,89179,1,0,0:0:0:0:
182,192,89352,128,0,90046:0:0:0:0:
329,192,89352,1,0,0:0:0:0:
402,192,89699,1,0,0:0:0:0:
475,192,89699,1,0,0:0:0:0:
329,192,90046,128,0,90392:0:0:0:0:
36,192,90046,1,0,0:0:0:0:
109,192,90392,128,0,90739:0:0:0:0:
475,192,90392,1,0,0:0:0:0:
402,192,90739,128,0,91086:0:0:0:0:
256,192,90739,1,0,0:0:0:0:
36,192,91086,128,0,91433:0:0:0:0:
182,192,91086,1,0,0:0:0:0:
329,192,91433,128,0,91606:0:0:0:0:
475,192,91433,1,0,0:0:0:0:
182,192,91606,128,0,91780:0:0:0:0:
475,192,91780,128,0,92126:0:0:0:0:
256,192,91780,1,0,0:0:0:0:
36,192,92126,128,0,92300:0:0:0:0:
256,192,92126,1,0,0:0:0:0:
329,192,92300,1,0,0:0:0:0:
182,192,92387,128,0,92647:0:0:0:0:
402,192,92473,1,0,0:0:0:0:
475,192,92473,1,0,0:0:0:0:
109,192,92647,128,0,92820:0:0:0:0:
475,192,92820,128,0,92994:0:0:0:0:
256,192,92820,1,0,0:0:0:0:
182,192,92994,1,0,0:0:0:0:
329,192,93080,128,0,93340:0:0:0:0:
109,192,93167,1,0,0:0:0:0:
36,192,93167,1,0,0:0:0:0:
402,192,93340,128,0,93514:0:0:0:0:
36,192,93514,128,0,93687:0:0:0:0:
256,192,93514,1,0,0:0:0:0:
329,192,93687,1,0,0:0:0:0:
182,192,93774,128,0,94034:0:0:0:0:
402,192,93861,1,0,0:0:0:0:
475,192,93861,1,0,0:0:0:0:
109,192,94034,128,0,94207:0:0:0:0:
475,192,94207,1,0,0:0:0:0:
329,192,94207,1,0,0:0:0:0:
402,192,94381,1,0,0:0:0:0:
256,192,94381,1,0,0:0:0:0:
329,192,94554,1,0,0:0:0:0:
182,192,94554,1,0,0:0:0:0:
256,192,94728,1,0,0:0:0:0:
109,192,94728,1,0,0:0:0:0:
182,192,94901,1,0,0:0:0:0:
475,192,94901,1,0,0:0:0:0:
36,192,94901,128,0,95595:0:0:0:0:
182,192,95248,128,0,95595:0:0:0:0:
402,192,95248,1,0,0:0:0:0:
329,192,95595,1,0,0:0:0:0:
475,192,95595,128,0,96288:0:0:0:0:
329,192,95942,128,0,96288:0:0:0:0:
109,192,95942,1,0,0:0:0:0:
182,192,96288,128,0,96462:0:0:0:0:
36,192,96288,1,0,0:0:0:0:
109,192,96462,128,0,96635:0:0:0:0:
329,192,96635,128,0,96809:0:0:0:0:
475,192,96635,1,0,0:0:0:0:
402,192,96809,128,0,96982:0:0:0:0:
109,192,96982,128,0,97155:0:0:0:0:
36,192,96982,1,0,0:0:0:0:
182,192,97155,128,0,97329:0:0:0:0:
475,192,97329,1,0,0:0:0:0:
402,192,97329,128,0,97502:0:0:0:0:
329,192,97502,128,0,97676:0:0:0:0:
182,192,97676,128,0,98369:0:0:0:0:
36,192,97676,1,0,0:0:0:0:
36,192,98022,128,0,98369:0:0:0:0:
256,192,98022,1,0,0:0:0:0:
329,192,98369,128,0,99063:0:0:0:0:
475,192,98369,1,0,0:0:0:0:
475,192,98716,128,0,99063:0:0:0:0:
256,192,98716,1,0,0:0:0:0:
36,192,99063,128,0,99236:0:0:0:0:
109,192,99063,1,0,0:0:0:0:
182,192,99236,128,0,99410:0:0:0:0:
402,192,99410,1,0,0:0:0:0:
475,192,99410,128,0,99583:0:0:0:0:
329,192,99583,128,0,99757:0:0:0:0:
109,192,99757,128,0,99930:0:0:0:0:
256,192,99930,1,0,0:0:0:0:
329,192,100017,1,0,0:0:0:0:
402,192,100103,1,0,0:0:0:0:
475,192,100103,1,0,0:0:0:0:
109,192,100277,1,0,0:0:0:0:
36,192,100277,1,0,0:0:0:0:
329,192,100450,128,0,101837:0:0:0:0:
475,192,100450,128,0,101837:0:0:0:0:
256,192,100450,1,0,0:0:0:0:
182,192,100797,1,0,0:0:0:0:
36,192,100797,1,0,0:0:0:0:
109,192,101144,128,0,101491:0:0:0:0:
256,192,101144,1,0,0:0:0:0:
182,192,101491,128,0,101837:0:0:0:0:
256,192,101491,1,0,0:0:0:0:
36,192,101837,128,0,102184:0:0:0:0:
402,192,101837,1,0,0:0:0:0:
402,192,102184,1,0,0:0:0:0:
182,192,102184,128,0,102531:0:0:0:0:
109,192,102531,1,0,0:0:0:0:
475,192,102531,128,0,102878:0:0:0:0:
329,192,102878,128,0,103225:0:0:0:0:
109,192,102878,1,0,0:0:0:0:
475,192,103225,128,0,103398:0:0:0:0:
256,192,103225,1,0,0:0:0:0:
182,192,103398,1,0,0:0:0:0:
329,192,103485,128,0,103745:0:0:0:0:
36,192,103572,1,0,0:0:0:0:
109,192,103572,1,0,0:0:0:0:
402,192,103745,128,0,103918:0:0:0:0:
256,192,103918,1,0,0:0:0:0:
36,192,103918,128,0,104092:0:0:0:0:
329,192,104092,1,0,0:0:0:0:
182,192,104179,128,0,104439:0:0:0:0:
475,192,104265,1,0,0:0:0:0:
402,192,104265,1,0,0:0:0:0:
109,192,104439,128,0,104612:0:0:0:0:
256,192,104612,1,0,0:0:0:0:
475,192,104612,128,0,104785:0:0:0:0:
182,192,104785,1,0,0:0:0:0:
329,192,104872,128,0,105132:0:0:0:0:
36,192,104959,1,0,0:0:0:0:
109,192,104959,1,0,0:0:0:0:
402,192,105132,128,0,105306:0:0:0:0:
182,192,105306,1,0,0:0:0:0:
36,192,105306,1,0,0:0:0:0:
256,192,105479,1,0,0:0:0:0:
109,192,105479,1,0,0:0:0:0:
182,192,105652,1,0,0:0:0:0:
329,192,105652,1,0,0:0:0:0:
256,192,105826,1,0,0:0:0:0:
402,192,105826,1,0,0:0:0:0:
475,192,105999,128,0,106346:0:0:0:0:
36,192,105999,1,0,0:0:0:0:
182,192,105999,1,0,0:0:0:0:
329,192,106173,128,0,106346:0:0:0:0:
36,192,106346,128,0,106693:0:0:0:0:
182,192,106520,128,0,106693:0:0:0:0:
475,192,106693,128,0,107040:0:0:0:0:
329,192,106866,128,0,107040:0:0:0:0:
36,192,107040,128,0,107387:0:0:0:0:
182,192,107213,128,0,107387:0:0:0:0:
402,192,107387,128,0,107733:0:0:0:0:
329,192,107560,128,0,107733:0:0:0:0:
109,192,107733,128,0,108080:0:0:0:0:
182,192,107907,128,0,108080:0:0:0:0:
402,192,108080,128,0,108427:0:0:0:0:
329,192,108254,128,0,108427:0:0:0:0:
109,192,108427,128,0,108774:0:0:0:0:
182,192,108600,128,0,108774:0:0:0:0:
329,192,108774,128,0,109121:0:0:0:0:
475,192,108947,128,0,109121:0:0:0:0:
182,192,109121,128,0,109468:0:0:0:0:
36,192,109294,128,0,109468:0:0:0:0:
329,192,109468,128,0,109814:0:0:0:0:
475,192,109641,128,0,109814:0:0:0:0:
182,192,109814,128,0,110161:0:0:0:0:
36,192,109988,128,0,110161:0:0:0:0:
329,192,110161,128,0,110508:0:0:0:0:
402,192,110335,128,0,110508:0:0:0:0:
182,192,110508,128,0,110855:0:0:0:0:
109,192,110681,128,0,110855:0:0:0:0:
329,192,110855,128,0,111202:0:0:0:0:
402,192,111028,128,0,111202:0:0:0:0:
182,192,111202,128,0,111548:0:0:0:0:
109,192,111375,128,0,111548:0:0:0:0:
475,192,111548,128,0,111722:0:0:0:0:
256,192,111548,1,0,0:0:0:0:
36,192,111548,1,0,0:0:0:0:
329,192,111722,128,0,111895:0:0:0:0:
109,192,111895,128,0,112069:0:0:0:0:
402,192,112069,128,0,112242:0:0:0:0:
475,192,112242,128,0,112415:0:0:0:0:
329,192,112415,128,0,112589:0:0:0:0:
109,192,112589,128,0,112762:0:0:0:0:
402,192,112762,128,0,112936:0:0:0:0:
36,192,112936,128,0,113109:0:0:0:0:
182,192,113109,128,0,113283:0:0:0:0:
402,192,113283,128,0,113456:0:0:0:0:
109,192,113456,128,0,113629:0:0:0:0:
36,192,113629,128,0,113803:0:0:0:0:
402,192,113803,1,0,0:0:0:0:
329,192,113889,1,0,0:0:0:0:
182,192,113976,128,0,114150:0:0:0:0:
109,192,114150,128,0,114323:0:0:0:0:
36,192,114323,1,0,0:0:0:0:
182,192,114496,1,0,0:0:0:0:
475,192,114670,1,0,0:0:0:0:
329,192,114843,1,0,0:0:0:0:
36,192,115017,1,0,0:0:0:0:
182,192,115190,1,0,0:0:0:0:
475,192,115363,1,0,0:0:0:0:
329,192,115537,1,0,0:0:0:0:
36,192,115710,1,0,0:0:0:0:
182,192,115884,1,0,0:0:0:0:
475,192,116057,1,0,0:0:0:0:
329,192,116231,1,0,0:0:0:0:
109,192,116404,1,0,0:0:0:0:
402,192,116577,1,0,0:0:0:0:
329,192,116664,1,0,0:0:0:0:
182,192,116751,1,0,0:0:0:0:
329,192,116924,1,0,0:0:0:0:
402,192,117098,128,0,118138:0:0:0:0:
