osu file format v14

[General]
AudioFilename: audio.mp3
AudioLeadIn: 0
PreviewTime: 47733
Countdown: 0
SampleSet: Soft
StackLeniency: 0.7
Mode: 3
LetterboxInBreaks: 0
SpecialStyle: 0
WidescreenStoryboard: 1

[Editor]
DistanceSpacing: 0.8
BeatDivisor: 4
GridSize: 8
TimelineZoom: 2.1

[Metadata]
Title:Tricolor Diary
TitleUnicode:トリコロール・ダイアリー
Artist:umecha
ArtistUnicode:梅干茶漬け
Creator:MapleSyrup-
Version:4k owo)!!!
Source:SOUND VOLTEX III GRAVITY WARS
Tags:
BeatmapID:2074774
BeatmapSetID:872808

[Difficulty]
HPDrainRate:8
CircleSize:4
OverallDifficulty:8
ApproachRate:5
SliderMultiplier:1.4
SliderTickRate:1

[Events]
//Background and Video events
0,0,"zenbgboi.jpg",0,0
//Break Periods
//Storyboard Layer 0 (Background)
//Storyboard Layer 1 (Fail)
//Storyboard Layer 2 (Pass)
//Storyboard Layer 3 (Foreground)
//Storyboard Sound Samples

[TimingPoints]
-821,346.820809248555,4,2,0,5,1,0
566,-200,4,2,0,5,0,0
4728,-250,4,2,0,5,0,0
5074,-333.333333333333,4,2,0,5,0,0
5421,-500,4,2,0,5,0,0
5768,-1000,4,2,0,5,0,0
6115,-52.6315789473684,4,2,0,5,0,0
6158,-1000,4,2,0,5,0,0
6202,-100,4,2,0,5,0,0
7502,-12.5,4,2,0,5,0,0
7524,-400,4,2,0,5,0,0
7741,-25,4,2,0,5,0,0
7762,-12.5,4,2,0,5,0,0
7784,-400,4,2,0,5,0,0
8022,-13.6986301369863,4,2,0,5,0,0
8044,-1000,4,2,0,5,0,0
8196,-10,4,2,0,5,0,0
8239,-400,4,2,0,5,0,0
8543,-10,4,2,0,5,0,0
8565,-1000,4,2,0,5,0,0
8868,-25,4,2,0,5,0,0
8890,-100,4,2,0,5,0,0
10277,-57.1428571428571,4,2,0,5,0,0
10320,-400,4,2,0,5,0,0
10363,-57.1428571428571,4,2,0,5,0,0
10406,-400,4,2,0,5,0,0
10450,-57.1428571428571,4,2,0,5,0,0
10493,-400,4,2,0,5,0,0
10537,-57.1428571428571,4,2,0,5,0,0
10580,-400,4,2,0,5,0,0
10624,-57.1428571428571,4,2,0,5,0,0
10667,-400,4,2,0,5,0,0
10710,-57.1428571428571,4,2,0,5,0,0
10753,-400,4,2,0,5,0,0
10797,-57.1428571428571,4,2,0,5,0,0
10840,-400,4,2,0,5,0,0
10884,-57.1428571428571,4,2,0,5,0,0
10927,-400,4,2,0,5,0,0
10970,-200,4,2,0,5,0,0
11664,-400,4,2,0,5,0,0
14092,-10,4,2,0,5,0,0
14113,-1000,4,2,0,5,0,0
14417,-10,4,2,0,5,0,0
14439,-57.1428571428571,4,2,0,5,0,0
14482,-400,4,2,0,5,0,0
14525,-100,4,2,0,5,0,0
16173,-200,4,2,0,5,0,0
16520,-100,4,2,0,5,0,0
16866,-200,4,2,0,5,0,0
17040,-100,4,2,0,5,0,0
17213,-57.1428571428571,4,2,0,5,0,0
17256,-400,4,2,0,5,0,0
17299,-100,4,2,0,5,0,0
18947,-200,4,2,0,5,0,0
19294,-100,4,2,0,5,0,0
19641,-200,4,2,0,5,0,0
19814,-100,4,2,0,5,0,0
19988,-57.1428571428571,4,2,0,5,0,0
20031,-400,4,2,0,5,0,0
20074,-100,4,2,0,5,0,0
20595,-400,4,2,0,5,0,0
20855,-100,4,2,0,5,0,0
21982,-400,4,2,0,5,0,0
22242,-100,4,2,0,5,0,0
22762,-83.3333333333333,4,2,0,5,0,0
22936,-100,4,2,0,5,0,0
23109,-133.333333333333,4,2,0,5,0,0
23283,-200,4,2,0,5,0,0
23456,-400,4,2,0,5,0,0
23629,-200,4,2,0,5,0,0
23803,-133.333333333333,4,2,0,5,0,0
23976,-100,4,2,0,5,0,0
24150,-12.5,4,2,0,5,0,0
24171,-400,4,2,0,5,0,0
24388,-25,4,2,0,5,0,0
24410,-12.5,4,2,0,5,0,0
24431,-400,4,2,0,5,0,0
24648,-25,4,2,0,5,0,0
24670,-100,4,2,0,5,0,0
24843,-12.5,4,2,0,5,0,0
24865,-400,4,2,0,5,0,0
25190,-22.2222222222222,4,2,0,5,0,0
25212,-400,4,2,0,5,0,0
25515,-12.5,4,2,0,5,0,0
25537,-57.1428571428571,4,2,0,5,0,0
25580,-400,4,2,0,5,0,0
25623,-100,4,2,0,5,0,0
27271,-200,4,2,0,5,0,0
27618,-100,4,2,0,5,0,0
27964,-200,4,2,0,5,0,0
28138,-100,4,2,0,5,0,0
28311,-57.1428571428571,4,2,0,5,0,0
28354,-400,4,2,0,5,0,0
28397,-100,4,2,0,5,0,0
30045,-200,4,2,0,5,0,0
30392,-100,4,2,0,5,0,0
30739,-200,4,2,0,5,0,0
30913,-100,4,2,0,5,0,0
31086,-57.1428571428571,4,2,0,5,0,0
31129,-400,4,2,0,5,0,0
31172,-100,4,2,0,5,0,0
31693,-400,4,2,0,5,0,0
31953,-100,4,2,0,5,0,0
33080,-400,4,2,0,5,0,0
33340,-100,4,2,0,5,0,0
33861,-83.3333333333333,4,2,0,5,0,0
34035,-100,4,2,0,5,0,0
34208,-133.333333333333,4,2,0,5,0,0
34382,-200,4,2,0,5,0,0
34555,-400,4,2,0,5,0,0
34728,-200,4,2,0,5,0,0
34902,-133.333333333333,4,2,0,5,0,0
35075,-100,4,2,0,5,0,0
35248,-12.5,4,2,0,5,0,0
35270,-400,4,2,0,5,0,0
35486,-25,4,2,0,5,0,0
35508,-12.5,4,2,0,5,0,0
35530,-400,4,2,0,5,0,0
35746,-25,4,2,0,5,0,0
35768,-30.7692307692308,4,2,0,5,0,0
35811,-400,4,2,0,5,0,0
35942,-12.5,4,2,0,5,0,0
35985,-400,4,2,0,5,0,0
36288,-100,4,2,0,5,0,0
36635,10.8381502890173,4,2,0,5,1,0
36640.5,1E+39,4,2,0,5,1,0
36896,10.8381502890173,4,2,0,5,1,0
36901.5,1E+39,4,2,0,5,1,0
37156,7.22543352601156,4,2,0,5,1,0
37161.5,1E+39,4,2,0,5,1,0
37329,10.8381502890173,4,2,0,5,1,0
37334.5,1E+39,4,2,0,5,1,0
37589,10.8381502890173,4,2,0,5,1,0
37594.5,1E+39,4,2,0,5,1,0
37849,7.22543352601156,4,2,0,5,1,0
37854.5,1E+39,4,2,0,5,1,0
38023,10.8381502890173,4,2,0,5,1,0
38028.5,1E+39,4,2,0,5,1,0
38283,10.8381502890173,4,2,0,5,1,0
38288.5,1E+39,4,2,0,5,1,0
38543,7.22543352601156,4,2,0,5,1,0
38548.5,1E+39,4,2,0,5,1,0
38716,10.8381502890173,4,2,0,5,1,0
38721.5,1E+39,4,2,0,5,1,0
38889,346.820809248555,4,2,0,5,1,0
39062,1387.28323699422,4,2,0,5,1,0
39410,10.8381502890173,4,2,0,5,1,0
39415.5,1E+39,4,2,0,5,1,0
39671,10.8381502890173,4,2,0,5,1,0
39676.5,1E+39,4,2,0,5,1,0
39931,7.22543352601156,4,2,0,5,1,0
39936.5,1E+39,4,2,0,5,1,0
40104,10.8381502890173,4,2,0,5,1,0
40109.5,1E+39,4,2,0,5,1,0
40364,10.8381502890173,4,2,0,5,1,0
40369.5,1E+39,4,2,0,5,1,0
40624,7.22543352601156,4,2,0,5,1,0
40629.5,1E+39,4,2,0,5,1,0
40798,10.8381502890173,4,2,0,5,1,0
40803.5,1E+39,4,2,0,5,1,0
41058,10.8381502890173,4,2,0,5,1,0
41063.5,1E+39,4,2,0,5,1,0
41318,7.22543352601156,4,2,0,5,1,0
41323.5,1E+39,4,2,0,5,1,0
41491,10.8381502890173,4,2,0,5,1,0
41496.5,1E+39,4,2,0,5,1,0
41664,346.820809248555,4,2,0,5,1,0
41837,1387.28323699422,4,2,0,5,1,0
42184,10.8381502890173,4,2,0,5,1,0
42189.5,1E+39,4,2,0,5,1,0
42445,10.8381502890173,4,2,0,5,1,0
42450.5,1E+39,4,2,0,5,1,0
42705,7.22543352601156,4,2,0,5,1,0
42710.5,1E+39,4,2,0,5,1,0
42878,10.8381502890173,4,2,0,5,1,0
42883.5,1E+39,4,2,0,5,1,0
43138,10.8381502890173,4,2,0,5,1,0
43143.5,1E+39,4,2,0,5,1,0
43398,7.22543352601156,4,2,0,5,1,0
43403.5,1E+39,4,2,0,5,1,0
43572,10.8381502890173,4,2,0,5,1,0
43577.5,1E+39,4,2,0,5,1,0
43832,10.8381502890173,4,2,0,5,1,0
43837.5,1E+39,4,2,0,5,1,0
44092,7.22543352601156,4,2,0,5,1,0
44097.5,1E+39,4,2,0,5,1,0
44265,10.8381502890173,4,2,0,5,1,0
44270.5,1E+39,4,2,0,5,1,0
44438,346.820809248555,4,2,0,5,1,0
44611,1387.28323699422,4,2,0,5,1,0
44959,1,4,2,0,5,1,0
44960,1E+39,4,2,0,5,1,0
47387,346.820809248555,4,2,0,5,1,0
47733,10.8381502890173,4,2,0,5,1,0
47738.5,1E+39,4,2,0,5,1,0
47994,10.8381502890173,4,2,0,5,1,0
47999.5,1E+39,4,2,0,5,1,0
48254,7.22543352601156,4,2,0,5,1,0
48259.5,1E+39,4,2,0,5,1,0
48427,10.8381502890173,4,2,0,5,1,0
48432.5,1E+39,4,2,0,5,1,0
48687,10.8381502890173,4,2,0,5,1,0
48692.5,1E+39,4,2,0,5,1,0
48947,7.22543352601156,4,2,0,5,1,0
48952.5,1E+39,4,2,0,5,1,0
49121,10.8381502890173,4,2,0,5,1,0
49126.5,1E+39,4,2,0,5,1,0
49381,10.8381502890173,4,2,0,5,1,0
49386.5,1E+39,4,2,0,5,1,0
49641,7.22543352601156,4,2,0,5,1,0
49646.5,1E+39,4,2,0,5,1,0
49814,10.8381502890173,4,2,0,5,1,0
49819.5,1E+39,4,2,0,5,1,0
49987,346.820809248555,4,2,0,5,1,0
50160,1387.28323699422,4,2,0,5,1,0
50508,10.8381502890173,4,2,0,5,1,0
50513.5,1E+39,4,2,0,5,1,0
50768,10.8381502890173,4,2,0,5,1,0
50773.5,1E+39,4,2,0,5,1,0
51028,7.22543352601156,4,2,0,5,1,0
51033.5,1E+39,4,2,0,5,1,0
51202,10.8381502890173,4,2,0,5,1,0
51207.5,1E+39,4,2,0,5,1,0
51462,10.8381502890173,4,2,0,5,1,0
51467.5,1E+39,4,2,0,5,1,0
51722,7.22543352601156,4,2,0,5,1,0
51727.5,1E+39,4,2,0,5,1,0
51895,10.8381502890173,4,2,0,5,1,0
51900.5,1E+39,4,2,0,5,1,0
52155,10.8381502890173,4,2,0,5,1,0
52160.5,1E+39,4,2,0,5,1,0
52415,7.22543352601156,4,2,0,5,1,0
52420.5,1E+39,4,2,0,5,1,0
52589,10.8381502890173,4,2,0,5,1,0
52594.5,1E+39,4,2,0,5,1,0
52762,346.820809248555,4,2,0,5,1,0
52935,1387.28323699422,4,2,0,5,1,0
53283,10.8381502890173,4,2,0,5,1,0
53288.5,1E+39,4,2,0,5,1,0
53543,10.8381502890173,4,2,0,5,1,0
53548.5,1E+39,4,2,0,5,1,0
53803,7.22543352601156,4,2,0,5,1,0
53808.5,1E+39,4,2,0,5,1,0
53977,10.8381502890173,4,2,0,5,1,0
53982.5,1E+39,4,2,0,5,1,0
54237,10.8381502890173,4,2,0,5,1,0
54242.5,1E+39,4,2,0,5,1,0
54497,7.22543352601156,4,2,0,5,1,0
54502.5,1E+39,4,2,0,5,1,0
54670,10.8381502890173,4,2,0,5,1,0
54675.5,1E+39,4,2,0,5,1,0
54930,10.8381502890173,4,2,0,5,1,0
54935.5,1E+39,4,2,0,5,1,0
55190,7.22543352601156,4,2,0,5,1,0
55195.5,1E+39,4,2,0,5,1,0
55364,10.8381502890173,4,2,0,5,1,0
55369.5,1E+39,4,2,0,5,1,0
55537,346.820809248555,4,2,0,5,1,0
55710,1387.28323699422,4,2,0,5,1,0
56057,346.820809248555,4,2,0,5,1,0
56057,-200,4,2,0,5,0,0
57444,2,4,2,0,5,1,0
57445,346.820809248555,4,2,0,5,1,0
57791,2,4,2,0,5,1,0
57792,346.820809248555,4,2,0,5,1,0
58138,2,4,2,0,5,1,0
58139,346.820809248555,4,2,0,5,1,0
58485,2,4,2,0,5,1,0
58490.5,346.820809248555,4,2,0,5,1,0
58572,-400,4,2,0,5,0,0
58745,-50,4,2,0,5,0,0
58832,346.820809248555,4,2,0,5,1,0
59178,-40,4,2,0,5,0,0
59222,-100,4,2,0,5,0,0
59872,-40,4,2,0,5,0,0
59916,-100,4,2,0,5,0,0
60566,-20,4,2,0,5,0,0
60610,-100,4,2,0,5,0,0
61259,-20,4,2,0,5,0,0
61303,-100,4,2,0,5,0,0
61953,-40,4,2,0,5,0,0
61996,-100,4,2,0,5,0,0
62126,-100,4,2,0,5,0,0
62647,-40,4,2,0,5,0,0
62690,-100,4,2,0,5,0,0
62993,-66.6666666666667,4,2,0,5,0,0
63037,-100,4,2,0,5,0,0
63167,-66.6666666666667,4,2,0,5,0,0
63211,-100,4,2,0,5,0,0
63340,-66.6666666666667,4,2,0,5,0,0
63384,-100,4,2,0,5,0,0
63514,-66.6666666666667,4,2,0,5,0,0
63558,-100,4,2,0,5,0,0
63687,-66.6666666666667,4,2,0,5,0,0
63731,-100,4,2,0,5,0,0
63888,-66.6666666666667,4,2,0,5,0,0
63932,-100,4,2,0,5,0,0
64034,-66.6666666666667,4,2,0,5,0,0
64078,-100,4,2,0,5,0,0
64207,-66.6666666666667,4,2,0,5,0,0
64251,-100,4,2,0,5,0,0
64728,-20,4,2,0,5,0,0
64771,-100,4,2,0,5,0,0
65421,-20,4,2,0,5,0,0
65465,-100,4,2,0,5,0,0
66115,-40,4,2,0,5,0,0
66158,-100,4,2,0,5,0,0
66809,-40,4,2,0,5,0,0
66852,-100,4,2,0,5,0,0
67502,-25,4,2,0,5,0,0
67545,-100,4,2,0,5,0,0
68196,-25,4,2,0,5,0,0
68240,-100,4,2,0,5,0,0
68889,-20,4,2,0,5,0,0
68933,-100,4,2,0,5,0,0
69236,-66.6666666666667,4,2,0,5,0,0
69323,-200,4,2,0,5,0,0
69410,-66.6666666666667,4,2,0,5,0,0
69453,-200,4,2,0,5,0,0
69496,-66.6666666666667,4,2,0,5,0,0
69539,-200,4,2,0,5,0,0
69583,-66.6666666666667,4,2,0,5,0,0
69670,-200,4,2,0,5,0,0
69757,-66.6666666666667,4,2,0,5,0,0
69844,-200,4,2,0,5,0,0
69930,-100,4,2,0,5,0,0
70277,-40,4,2,0,5,0,0
70320,-100,4,2,0,5,0,0
70970,-40,4,2,0,5,0,0
71013,-100,4,2,0,5,0,0
71664,-40,4,2,0,5,0,0
71707,-100,4,2,0,5,0,0
72358,-40,4,2,0,5,0,0
72401,-100,4,2,0,5,0,0
73051,-40,4,2,0,5,0,0
73094,-100,4,2,0,5,0,0
73745,-40,4,2,0,5,0,0
73788,-100,4,2,0,5,0,0
74439,-20,4,2,0,5,0,0
74482,-100,4,2,0,5,0,0
74785,-66.6666666666667,4,2,0,5,0,0
74872,-200,4,2,0,5,0,0
74959,-66.6666666666667,4,2,0,5,0,0
75046,-200,4,2,0,5,0,0
75132,-66.6666666666667,4,2,0,5,0,0
75219,-200,4,2,0,5,0,0
75306,-66.6666666666667,4,2,0,5,0,0
75393,-200,4,2,0,5,0,0
75479,-100,4,2,0,5,0,0
75826,-40,4,2,0,5,0,0
75869,-100,4,2,0,5,0,0
76520,-20,4,2,0,5,0,0
76564,-100,4,2,0,5,0,0
77213,-40,4,2,0,5,0,0
77256,-100,4,2,0,5,0,0
77907,-40,4,2,0,5,0,0
77950,-100,4,2,0,5,0,0
78254,-66.6666666666667,4,2,0,5,0,0
78341,-200,4,2,0,5,0,0
78427,-66.6666666666667,4,2,0,5,0,0
78514,-200,4,2,0,5,0,0
78600,-20,4,2,0,5,0,0
78643,-100,4,2,0,5,0,0
78947,-66.6666666666667,4,2,0,5,0,0
79034,-200,4,2,0,5,0,0
79121,-66.6666666666667,4,2,0,5,0,0
79208,-200,4,2,0,5,0,0
79294,-66.6666666666667,4,2,0,5,0,0
79381,-200,4,2,0,5,0,0
79468,-66.6666666666667,4,2,0,5,0,0
79511,-200,4,2,0,5,0,0
79554,-66.6666666666667,4,2,0,5,0,0
79597,-200,4,2,0,5,0,0
79641,-66.6666666666667,4,2,0,5,0,0
79728,-200,4,2,0,5,0,0
79814,-66.6666666666667,4,2,0,5,0,0
79901,-200,4,2,0,5,0,0
79988,-66.6666666666667,4,2,0,5,0,0
80075,-200,4,2,0,5,0,0
80161,-100,4,2,0,5,0,0
80335,-66.6666666666667,4,2,0,5,0,0
80378,-200,4,2,0,5,0,0
80421,-66.6666666666667,4,2,0,5,0,0
80464,-200,4,2,0,5,0,0
80508,-66.6666666666667,4,2,0,5,0,0
80551,-200,4,2,0,5,0,0
80595,-66.6666666666667,4,2,0,5,0,0
80638,-200,4,2,0,5,0,0
80681,-66.6666666666667,4,2,0,5,0,0
80724,-200,4,2,0,5,0,0
80768,-66.6666666666667,4,2,0,5,0,0
80811,-200,4,2,0,5,0,0
80855,-66.6666666666667,4,2,0,5,0,0
80898,-200,4,2,0,5,0,0
80942,-66.6666666666667,4,2,0,5,0,0
80985,-200,4,2,0,5,0,0
81028,-200,4,2,0,5,0,0
81722,-400,4,2,0,5,0,0
83456,-10,4,2,0,5,0,0
83478,-1000,4,2,0,5,0,0
83781,-20,4,2,0,5,0,0
83803,-100,4,2,0,5,0,0
85190,-57.1428571428571,4,2,0,5,0,0
85212,-400,4,2,0,5,0,0
85233,-57.1428571428571,4,2,0,5,0,0
85255,-400,4,2,0,5,0,0
85277,-57.1428571428571,4,2,0,5,0,0
85299,-400,4,2,0,5,0,0
85320,-57.1428571428571,4,2,0,5,0,0
85342,-400,4,2,0,5,0,0
85363,-57.1428571428571,4,2,0,5,0,0
85385,-400,4,2,0,5,0,0
85407,-57.1428571428571,4,2,0,5,0,0
85429,-400,4,2,0,5,0,0
85450,-57.1428571428571,4,2,0,5,0,0
85472,-400,4,2,0,5,0,0
85493,-57.1428571428571,4,2,0,5,0,0
85515,-400,4,2,0,5,0,0
85537,-57.1428571428571,4,2,0,5,0,0
85559,-400,4,2,0,5,0,0
85580,-57.1428571428571,4,2,0,5,0,0
85602,-400,4,2,0,5,0,0
85624,-57.1428571428571,4,2,0,5,0,0
85646,-400,4,2,0,5,0,0
85667,-57.1428571428571,4,2,0,5,0,0
85689,-400,4,2,0,5,0,0
85710,-100,4,2,0,5,0,0
87531,-89.2857142857143,4,2,0,5,0,0
87618,-87.719298245614,4,2,0,5,0,0
87704,-86.2068965517241,4,2,0,5,0,0
87791,-85.4700854700855,4,2,0,5,0,0
87878,-83.3333333333333,4,2,0,5,0,0
87964,-57.1428571428571,4,2,0,5,0,0
87986,-400,4,2,0,5,0,0
88007,-57.1428571428571,4,2,0,5,0,0
88029,-400,4,2,0,5,0,0
88051,-57.1428571428571,4,2,0,5,0,0
88073,-400,4,2,0,5,0,0
88094,-57.1428571428571,4,2,0,5,0,0
88116,-400,4,2,0,5,0,0
88137,-57.1428571428571,4,2,0,5,0,0
88159,-400,4,2,0,5,0,0
88181,-57.1428571428571,4,2,0,5,0,0
88203,-400,4,2,0,5,0,0
88224,-57.1428571428571,4,2,0,5,0,0
88246,-400,4,2,0,5,0,0
88267,-57.1428571428571,4,2,0,5,0,0
88289,-400,4,2,0,5,0,0
88311,-57.1428571428571,4,2,0,5,0,0
88333,-400,4,2,0,5,0,0
88354,-57.1428571428571,4,2,0,5,0,0
88376,-400,4,2,0,5,0,0
88398,-57.1428571428571,4,2,0,5,0,0
88420,-400,4,2,0,5,0,0
88441,-57.1428571428571,4,2,0,5,0,0
88463,-400,4,2,0,5,0,0
88484,-100,4,2,0,5,0,0
89005,-66.6666666666667,4,2,0,5,0,0
89092,-200,4,2,0,5,0,0
89178,-66.6666666666667,4,2,0,5,0,0
89265,-200,4,2,0,5,0,0
89352,-57.1428571428571,4,2,0,5,0,0
89374,-400,4,2,0,5,0,0
89395,-57.1428571428571,4,2,0,5,0,0
89417,-400,4,2,0,5,0,0
89439,-57.1428571428571,4,2,0,5,0,0
89461,-400,4,2,0,5,0,0
89482,-57.1428571428571,4,2,0,5,0,0
89504,-400,4,2,0,5,0,0
89525,-57.1428571428571,4,2,0,5,0,0
89547,-400,4,2,0,5,0,0
89569,-57.1428571428571,4,2,0,5,0,0
89591,-400,4,2,0,5,0,0
89612,-57.1428571428571,4,2,0,5,0,0
89634,-400,4,2,0,5,0,0
89655,-57.1428571428571,4,2,0,5,0,0
89677,-400,4,2,0,5,0,0
89699,-57.1428571428571,4,2,0,5,0,0
89721,-400,4,2,0,5,0,0
89742,-57.1428571428571,4,2,0,5,0,0
89764,-400,4,2,0,5,0,0
89786,-57.1428571428571,4,2,0,5,0,0
89808,-400,4,2,0,5,0,0
89829,-57.1428571428571,4,2,0,5,0,0
89851,-400,4,2,0,5,0,0
89872,-57.1428571428571,4,2,0,5,0,0
89894,-400,4,2,0,5,0,0
89916,-57.1428571428571,4,2,0,5,0,0
89938,-400,4,2,0,5,0,0
89959,-57.1428571428571,4,2,0,5,0,0
89981,-400,4,2,0,5,0,0
90002,-57.1428571428571,4,2,0,5,0,0
90024,-400,4,2,0,5,0,0
90045,-57.1428571428571,4,2,0,5,0,0
90067,-400,4,2,0,5,0,0
90089,-57.1428571428571,4,2,0,5,0,0
90111,-400,4,2,0,5,0,0
90132,-57.1428571428571,4,2,0,5,0,0
90154,-400,4,2,0,5,0,0
90175,-57.1428571428571,4,2,0,5,0,0
90197,-400,4,2,0,5,0,0
90219,-57.1428571428571,4,2,0,5,0,0
90241,-400,4,2,0,5,0,0
90263,-57.1428571428571,4,2,0,5,0,0
90285,-400,4,2,0,5,0,0
90306,-57.1428571428571,4,2,0,5,0,0
90328,-400,4,2,0,5,0,0
90349,-57.1428571428571,4,2,0,5,0,0
90371,-400,4,2,0,5,0,0
90392,-57.1428571428571,4,2,0,5,0,0
90414,-400,4,2,0,5,0,0
90436,-57.1428571428571,4,2,0,5,0,0
90458,-400,4,2,0,5,0,0
90479,-57.1428571428571,4,2,0,5,0,0
90501,-400,4,2,0,5,0,0
90522,-57.1428571428571,4,2,0,5,0,0
90544,-400,4,2,0,5,0,0
90566,-100,4,2,0,5,0,0
92386,-149.99999925,4,2,0,5,0,0
92647,-133.333333333333,4,2,0,5,0,0
92819,-100,4,2,0,5,0,0
93080,-149.99925000375,4,2,0,5,0,0
93340,-133.333333333333,4,2,0,5,0,0
93513,-100,4,2,0,5,0,0
93774,-149.99925000375,4,2,0,5,0,0
94034,-133.333333333333,4,2,0,5,0,0
94207,-57.1428571428571,4,2,0,5,0,0
94265,-400,4,2,0,5,0,0
94323,-100,4,2,0,5,0,0
94381,-57.1428571428571,4,2,0,5,0,0
94439,-400,4,2,0,5,0,0
94497,-100,4,2,0,5,0,0
94554,-57.1428571428571,4,2,0,5,0,0
94612,-400,4,2,0,5,0,0
94670,-100,4,2,0,5,0,0
94728,-57.1428571428571,4,2,0,5,0,0
94786,-400,4,2,0,5,0,0
94844,-100,4,2,0,5,0,0
95248,-80,4,2,0,5,0,0
95270,-400,4,2,0,5,0,0
95291,-80,4,2,0,5,0,0
95313,-400,4,2,0,5,0,0
95335,-80,4,2,0,5,0,0
95357,-400,4,2,0,5,0,0
95378,-80,4,2,0,5,0,0
95400,-400,4,2,0,5,0,0
95421,-80,4,2,0,5,0,0
95443,-400,4,2,0,5,0,0
95465,-80,4,2,0,5,0,0
95487,-400,4,2,0,5,0,0
95508,-80,4,2,0,5,0,0
95530,-400,4,2,0,5,0,0
95551,-80,4,2,0,5,0,0
95573,-400,4,2,0,5,0,0
95595,-100,4,2,0,5,0,0
95942,-80,4,2,0,5,0,0
95964,-400,4,2,0,5,0,0
95985,-80,4,2,0,5,0,0
96007,-400,4,2,0,5,0,0
96029,-80,4,2,0,5,0,0
96051,-400,4,2,0,5,0,0
96072,-80,4,2,0,5,0,0
96094,-400,4,2,0,5,0,0
96115,-80,4,2,0,5,0,0
96137,-400,4,2,0,5,0,0
96159,-80,4,2,0,5,0,0
96181,-400,4,2,0,5,0,0
96202,-80,4,2,0,5,0,0
96224,-400,4,2,0,5,0,0
96245,-80,4,2,0,5,0,0
96267,-400,4,2,0,5,0,0
96289,-100,4,2,0,5,0,0
98022,-80,4,2,0,5,0,0
98044,-400,4,2,0,5,0,0
98065,-80,4,2,0,5,0,0
98087,-400,4,2,0,5,0,0
98109,-80,4,2,0,5,0,0
98131,-400,4,2,0,5,0,0
98152,-80,4,2,0,5,0,0
98174,-400,4,2,0,5,0,0
98195,-80,4,2,0,5,0,0
98217,-400,4,2,0,5,0,0
98239,-80,4,2,0,5,0,0
98261,-400,4,2,0,5,0,0
98282,-80,4,2,0,5,0,0
98304,-400,4,2,0,5,0,0
98325,-80,4,2,0,5,0,0
98347,-400,4,2,0,5,0,0
98369,-100,4,2,0,5,0,0
98716,-80,4,2,0,5,0,0
98738,-400,4,2,0,5,0,0
98759,-80,4,2,0,5,0,0
98781,-400,4,2,0,5,0,0
98803,-80,4,2,0,5,0,0
98825,-400,4,2,0,5,0,0
98846,-80,4,2,0,5,0,0
98868,-400,4,2,0,5,0,0
98889,-80,4,2,0,5,0,0
98911,-400,4,2,0,5,0,0
98933,-80,4,2,0,5,0,0
98955,-400,4,2,0,5,0,0
98976,-80,4,2,0,5,0,0
98998,-400,4,2,0,5,0,0
99019,-80,4,2,0,5,0,0
99041,-400,4,2,0,5,0,0
99063,-100,4,2,0,5,0,0
100797,-57.1428571428571,4,2,0,5,0,0
100819,-400,4,2,0,5,0,0
100840,-57.1428571428571,4,2,0,5,0,0
100862,-400,4,2,0,5,0,0
100884,-57.1428571428571,4,2,0,5,0,0
100906,-400,4,2,0,5,0,0
100927,-57.1428571428571,4,2,0,5,0,0
100949,-400,4,2,0,5,0,0
100970,-57.1428571428571,4,2,0,5,0,0
100992,-400,4,2,0,5,0,0
101014,-57.1428571428571,4,2,0,5,0,0
101036,-400,4,2,0,5,0,0
101057,-57.1428571428571,4,2,0,5,0,0
101079,-400,4,2,0,5,0,0
101100,-57.1428571428571,4,2,0,5,0,0
101122,-400,4,2,0,5,0,0
101144,-57.1428571428571,4,2,0,5,0,0
101166,-400,4,2,0,5,0,0
101187,-57.1428571428571,4,2,0,5,0,0
101209,-400,4,2,0,5,0,0
101231,-57.1428571428571,4,2,0,5,0,0
101253,-400,4,2,0,5,0,0
101274,-57.1428571428571,4,2,0,5,0,0
101296,-400,4,2,0,5,0,0
101317,-57.1428571428571,4,2,0,5,0,0
101339,-400,4,2,0,5,0,0
101361,-57.1428571428571,4,2,0,5,0,0
101383,-400,4,2,0,5,0,0
101404,-57.1428571428571,4,2,0,5,0,0
101426,-400,4,2,0,5,0,0
101447,-57.1428571428571,4,2,0,5,0,0
101469,-400,4,2,0,5,0,0
101490,-57.1428571428571,4,2,0,5,0,0
101512,-400,4,2,0,5,0,0
101534,-57.1428571428571,4,2,0,5,0,0
101556,-400,4,2,0,5,0,0
101577,-57.1428571428571,4,2,0,5,0,0
101599,-400,4,2,0,5,0,0
101620,-57.1428571428571,4,2,0,5,0,0
101642,-400,4,2,0,5,0,0
101664,-100,4,2,0,5,0,0
103485,-149.99999925,4,2,0,5,0,0
103746,-133.333333333333,4,2,0,5,0,0
103918,-100,4,2,0,5,0,0
104179,-149.99925000375,4,2,0,5,0,0
104439,-133.333333333333,4,2,0,5,0,0
104612,-100,4,2,0,5,0,0
104873,-149.99925000375,4,2,0,5,0,0
105133,-133.333333333333,4,2,0,5,0,0
105306,-30.7692307692308,4,2,0,5,0,0
105349,-400,4,2,0,5,0,0
105479,-30.7692307692308,4,2,0,5,0,0
105522,-400,4,2,0,5,0,0
105652,-30.7692307692308,4,2,0,5,0,0
105695,-400,4,2,0,5,0,0
105826,-30.7692307692308,4,2,0,5,0,0
105869,-400,4,2,0,5,0,0
105999,10.8381502890173,4,2,0,5,1,0
106005,1E+49,4,2,0,5,1,0
106173,10.8381502890173,4,2,0,5,1,0
106179,1E+49,4,2,0,5,1,0
106346,10.8381502890173,4,2,0,5,1,0
106352,1E+49,4,2,0,5,1,0
106520,10.8381502890173,4,2,0,5,1,0
106526,1E+49,4,2,0,5,1,0
106693,10.8381502890173,4,2,0,5,1,0
106699,1E+49,4,2,0,5,1,0
106866,10.8381502890173,4,2,0,5,1,0
106872,1E+49,4,2,0,5,1,0
107040,10.8381502890173,4,2,0,5,1,0
107046,1E+49,4,2,0,5,1,0
107213,10.8381502890173,4,2,0,5,1,0
107219,1E+49,4,2,0,5,1,0
107387,10.8381502890173,4,2,0,5,1,0
107393,1E+49,4,2,0,5,1,0
107560,10.8381502890173,4,2,0,5,1,0
107566,1E+49,4,2,0,5,1,0
107733,10.8381502890173,4,2,0,5,1,0
107739,1E+49,4,2,0,5,1,0
107907,10.8381502890173,4,2,0,5,1,0
107913,1E+49,4,2,0,5,1,0
108080,10.8381502890173,4,2,0,5,1,0
108086,1E+49,4,2,0,5,1,0
108254,10.8381502890173,4,2,0,5,1,0
108260,1E+49,4,2,0,5,1,0
108427,10.8381502890173,4,2,0,5,1,0
108433,1E+49,4,2,0,5,1,0
108600,10.8381502890173,4,2,0,5,1,0
108606,1E+49,4,2,0,5,1,0
108774,10.8381502890173,4,2,0,5,1,0
108780,1E+49,4,2,0,5,1,0
108947,10.8381502890173,4,2,0,5,1,0
108953,1E+49,4,2,0,5,1,0
109121,10.8381502890173,4,2,0,5,1,0
109127,1E+49,4,2,0,5,1,0
109294,10.8381502890173,4,2,0,5,1,0
109300,1E+49,4,2,0,5,1,0
109468,10.8381502890173,4,2,0,5,1,0
109474,1E+49,4,2,0,5,1,0
109641,10.8381502890173,4,2,0,5,1,0
109647,1E+49,4,2,0,5,1,0
109814,10.8381502890173,4,2,0,5,1,0
109820,1E+49,4,2,0,5,1,0
109988,10.8381502890173,4,2,0,5,1,0
109994,1E+49,4,2,0,5,1,0
110161,10.8381502890173,4,2,0,5,1,0
110167,1E+49,4,2,0,5,1,0
110335,10.8381502890173,4,2,0,5,1,0
110341,1E+49,4,2,0,5,1,0
110508,10.8381502890173,4,2,0,5,1,0
110514,1E+49,4,2,0,5,1,0
110681,10.8381502890173,4,2,0,5,1,0
110687,1E+49,4,2,0,5,1,0
110855,10.8381502890173,4,2,0,5,1,0
110861,1E+49,4,2,0,5,1,0
111028,10.8381502890173,4,2,0,5,1,0
111034,1E+49,4,2,0,5,1,0
111202,10.8381502890173,4,2,0,5,1,0
111208,1E+49,4,2,0,5,1,0
111375,10.8381502890173,4,2,0,5,1,0
111381,1E+49,4,2,0,5,1,0
111548,346.820809248555,4,2,0,5,1,0
111548,-200,4,2,0,5,0,0
114323,-400,4,2,0,5,0,0
117098,-800,4,2,0,5,0,0

[HitObjects]
64,192,566,128,0,1086:0:0:0:0:
192,192,1086,1,0,0:0:0:0:
448,192,1173,1,0,0:0:0:0:
320,192,1259,128,0,1433:0:0:0:0:
64,192,1433,128,0,1606:0:0:0:0:
320,192,1606,128,0,1780:0:0:0:0:
192,192,1780,128,0,1953:0:0:0:0:
448,192,1953,128,0,2300:0:0:0:0:
64,192,2647,128,0,2994:0:0:0:0:
320,192,2994,128,0,3340:0:0:0:0:
448,192,3340,128,0,3687:0:0:0:0:
192,192,3861,1,0,0:0:0:0:
192,192,4034,128,0,4381:0:0:0:0:
448,192,4728,128,0,5074:0:0:0:0:
320,192,5074,128,0,5421:0:0:0:0:
192,192,5421,128,0,5768:0:0:0:0:
64,192,5768,128,0,6115:0:0:0:0:
448,192,6115,1,0,0:0:0:0:
320,192,6115,1,0,0:0:0:0:
192,192,6288,1,0,0:0:0:0:
448,192,6462,1,0,0:0:0:0:
320,192,6635,1,0,0:0:0:0:
64,192,6809,1,0,0:0:0:0:
192,192,6982,1,0,0:0:0:0:
64,192,7155,1,0,0:0:0:0:
320,192,7329,1,0,0:0:0:0:
192,192,7329,1,0,0:0:0:0:
320,192,7502,1,0,0:0:0:0:
448,192,7502,1,0,0:0:0:0:
64,192,7762,1,0,0:0:0:0:
448,192,7762,1,0,0:0:0:0:
192,192,8022,1,0,0:0:0:0:
448,192,8022,1,0,0:0:0:0:
64,192,8196,1,0,0:0:0:0:
320,192,8196,1,0,0:0:0:0:
192,192,8543,1,0,0:0:0:0:
448,192,8543,1,0,0:0:0:0:
64,192,8889,1,0,0:0:0:0:
448,192,8889,1,0,0:0:0:0:
320,192,9063,1,0,0:0:0:0:
448,192,9236,1,0,0:0:0:0:
320,192,9410,1,0,0:0:0:0:
448,192,9583,1,0,0:0:0:0:
64,192,9583,1,0,0:0:0:0:
192,192,9757,1,0,0:0:0:0:
64,192,9930,1,0,0:0:0:0:
192,192,10103,1,0,0:0:0:0:
448,192,10277,1,0,0:0:0:0:
320,192,10363,1,0,0:0:0:0:
192,192,10450,1,0,0:0:0:0:
64,192,10537,1,0,0:0:0:0:
448,192,10624,1,0,0:0:0:0:
64,192,10710,1,0,0:0:0:0:
320,192,10797,1,0,0:0:0:0:
192,192,10884,1,0,0:0:0:0:
320,192,10970,1,0,0:0:0:0:
448,192,10970,128,0,11664:0:0:0:0:
192,192,11664,1,0,0:0:0:0:
64,192,11664,128,0,14439:0:0:0:0:
320,192,12878,1,0,0:0:0:0:
448,192,13051,1,0,0:0:0:0:
448,192,13311,1,0,0:0:0:0:
320,192,13572,1,0,0:0:0:0:
448,192,13745,1,0,0:0:0:0:
320,192,13918,1,0,0:0:0:0:
448,192,14092,1,0,0:0:0:0:
192,192,14092,1,0,0:0:0:0:
320,192,14439,1,0,0:0:0:0:
192,192,14439,1,0,0:0:0:0:
448,192,14612,1,0,0:0:0:0:
448,192,14785,1,0,0:0:0:0:
448,192,14959,1,0,0:0:0:0:
320,192,15046,1,0,0:0:0:0:
192,192,15132,1,0,0:0:0:0:
64,192,15306,1,0,0:0:0:0:
448,192,15479,1,0,0:0:0:0:
320,192,15652,1,0,0:0:0:0:
192,192,15826,1,0,0:0:0:0:
64,192,15826,1,0,0:0:0:0:
320,192,15913,1,0,0:0:0:0:
64,192,15999,1,0,0:0:0:0:
192,192,16086,1,0,0:0:0:0:
320,192,16173,1,0,0:0:0:0:
448,192,16173,1,0,0:0:0:0:
64,192,16346,1,0,0:0:0:0:
192,192,16520,1,0,0:0:0:0:
320,192,16520,1,0,0:0:0:0:
448,192,16606,1,0,0:0:0:0:
192,192,16693,1,0,0:0:0:0:
320,192,16780,1,0,0:0:0:0:
448,192,16866,1,0,0:0:0:0:
64,192,16866,1,0,0:0:0:0:
192,192,17040,1,0,0:0:0:0:
320,192,17126,1,0,0:0:0:0:
192,192,17213,1,0,0:0:0:0:
448,192,17213,1,0,0:0:0:0:
64,192,17387,1,0,0:0:0:0:
64,192,17560,1,0,0:0:0:0:
64,192,17733,1,0,0:0:0:0:
192,192,17820,1,0,0:0:0:0:
320,192,17907,1,0,0:0:0:0:
448,192,18080,1,0,0:0:0:0:
64,192,18254,1,0,0:0:0:0:
192,192,18427,1,0,0:0:0:0:
320,192,18600,1,0,0:0:0:0:
448,192,18600,1,0,0:0:0:0:
192,192,18687,1,0,0:0:0:0:
448,192,18774,1,0,0:0:0:0:
320,192,18861,1,0,0:0:0:0:
192,192,18947,1,0,0:0:0:0:
64,192,18947,1,0,0:0:0:0:
448,192,19121,1,0,0:0:0:0:
320,192,19294,1,0,0:0:0:0:
192,192,19294,1,0,0:0:0:0:
64,192,19381,1,0,0:0:0:0:
320,192,19468,1,0,0:0:0:0:
192,192,19554,1,0,0:0:0:0:
64,192,19641,1,0,0:0:0:0:
448,192,19641,1,0,0:0:0:0:
320,192,19814,1,0,0:0:0:0:
192,192,19901,1,0,0:0:0:0:
64,192,19988,1,0,0:0:0:0:
448,192,19988,1,0,0:0:0:0:
320,192,20074,1,0,0:0:0:0:
448,192,20161,1,0,0:0:0:0:
64,192,20248,1,0,0:0:0:0:
192,192,20335,128,0,20508:0:0:0:0:
320,192,20508,1,0,0:0:0:0:
448,192,20595,128,0,20855:0:0:0:0:
320,192,20855,128,0,21028:0:0:0:0:
192,192,21028,128,0,21202:0:0:0:0:
64,192,21202,128,0,21375:0:0:0:0:
448,192,21375,1,0,0:0:0:0:
320,192,21462,1,0,0:0:0:0:
192,192,21548,1,0,0:0:0:0:
320,192,21635,1,0,0:0:0:0:
448,192,21722,128,0,21895:0:0:0:0:
64,192,21895,1,0,0:0:0:0:
192,192,21982,128,0,22242:0:0:0:0:
448,192,22242,128,0,22415:0:0:0:0:
320,192,22415,128,0,22589:0:0:0:0:
64,192,22589,128,0,22762:0:0:0:0:
448,192,22762,1,0,0:0:0:0:
192,192,22849,1,0,0:0:0:0:
448,192,22936,1,0,0:0:0:0:
192,192,23022,1,0,0:0:0:0:
320,192,23109,1,0,0:0:0:0:
192,192,23196,1,0,0:0:0:0:
320,192,23283,1,0,0:0:0:0:
192,192,23369,1,0,0:0:0:0:
320,192,23456,1,0,0:0:0:0:
64,192,23543,1,0,0:0:0:0:
320,192,23629,1,0,0:0:0:0:
64,192,23716,1,0,0:0:0:0:
192,192,23803,1,0,0:0:0:0:
320,192,23889,1,0,0:0:0:0:
448,192,23976,128,0,24150:0:0:0:0:
192,192,24150,1,0,0:0:0:0:
64,192,24150,1,0,0:0:0:0:
64,192,24410,1,0,0:0:0:0:
320,192,24410,1,0,0:0:0:0:
64,192,24670,1,0,0:0:0:0:
448,192,24670,1,0,0:0:0:0:
320,192,24757,1,0,0:0:0:0:
448,192,24843,1,0,0:0:0:0:
192,192,24843,1,0,0:0:0:0:
320,192,25190,1,0,0:0:0:0:
192,192,25190,1,0,0:0:0:0:
64,192,25537,1,0,0:0:0:0:
320,192,25537,1,0,0:0:0:0:
448,192,25710,1,0,0:0:0:0:
448,192,25884,1,0,0:0:0:0:
448,192,26057,1,0,0:0:0:0:
192,192,26144,1,0,0:0:0:0:
320,192,26231,1,0,0:0:0:0:
64,192,26404,1,0,0:0:0:0:
320,192,26577,1,0,0:0:0:0:
192,192,26751,1,0,0:0:0:0:
64,192,26924,1,0,0:0:0:0:
448,192,26924,1,0,0:0:0:0:
320,192,27011,1,0,0:0:0:0:
192,192,27098,1,0,0:0:0:0:
448,192,27184,1,0,0:0:0:0:
320,192,27271,1,0,0:0:0:0:
64,192,27271,1,0,0:0:0:0:
192,192,27444,1,0,0:0:0:0:
64,192,27618,1,0,0:0:0:0:
448,192,27618,1,0,0:0:0:0:
192,192,27705,1,0,0:0:0:0:
320,192,27791,1,0,0:0:0:0:
64,192,27878,1,0,0:0:0:0:
192,192,27965,1,0,0:0:0:0:
448,192,27965,1,0,0:0:0:0:
320,192,28138,1,0,0:0:0:0:
64,192,28225,1,0,0:0:0:0:
192,192,28311,1,0,0:0:0:0:
448,192,28311,1,0,0:0:0:0:
64,192,28485,1,0,0:0:0:0:
64,192,28658,1,0,0:0:0:0:
64,192,28832,1,0,0:0:0:0:
320,192,28918,1,0,0:0:0:0:
192,192,29005,1,0,0:0:0:0:
448,192,29179,1,0,0:0:0:0:
192,192,29352,1,0,0:0:0:0:
320,192,29525,1,0,0:0:0:0:
64,192,29699,1,0,0:0:0:0:
448,192,29699,1,0,0:0:0:0:
192,192,29785,1,0,0:0:0:0:
320,192,29872,1,0,0:0:0:0:
64,192,29959,1,0,0:0:0:0:
192,192,30046,1,0,0:0:0:0:
448,192,30046,1,0,0:0:0:0:
320,192,30219,1,0,0:0:0:0:
64,192,30392,1,0,0:0:0:0:
448,192,30392,1,0,0:0:0:0:
320,192,30479,1,0,0:0:0:0:
192,192,30566,1,0,0:0:0:0:
448,192,30652,1,0,0:0:0:0:
64,192,30739,1,0,0:0:0:0:
320,192,30739,1,0,0:0:0:0:
192,192,30913,1,0,0:0:0:0:
448,192,30999,1,0,0:0:0:0:
320,192,31086,1,0,0:0:0:0:
64,192,31086,1,0,0:0:0:0:
192,192,31173,1,0,0:0:0:0:
64,192,31259,1,0,0:0:0:0:
448,192,31346,1,0,0:0:0:0:
320,192,31433,128,0,31606:0:0:0:0:
192,192,31606,1,0,0:0:0:0:
448,192,31693,128,0,31953:0:0:0:0:
320,192,31953,128,0,32126:0:0:0:0:
192,192,32126,128,0,32300:0:0:0:0:
64,192,32300,128,0,32473:0:0:0:0:
448,192,32473,1,0,0:0:0:0:
192,192,32560,1,0,0:0:0:0:
320,192,32647,1,0,0:0:0:0:
64,192,32733,1,0,0:0:0:0:
192,192,32820,128,0,32994:0:0:0:0:
320,192,32994,1,0,0:0:0:0:
448,192,33080,128,0,33340:0:0:0:0:
320,192,33340,128,0,33514:0:0:0:0:
192,192,33514,128,0,33687:0:0:0:0:
64,192,33687,128,0,33861:0:0:0:0:
448,192,33861,1,0,0:0:0:0:
320,192,33947,1,0,0:0:0:0:
448,192,34034,1,0,0:0:0:0:
320,192,34121,1,0,0:0:0:0:
448,192,34207,1,0,0:0:0:0:
192,192,34294,1,0,0:0:0:0:
448,192,34381,1,0,0:0:0:0:
192,192,34468,1,0,0:0:0:0:
320,192,34554,1,0,0:0:0:0:
192,192,34641,1,0,0:0:0:0:
320,192,34728,1,0,0:0:0:0:
192,192,34814,1,0,0:0:0:0:
320,192,34901,1,0,0:0:0:0:
448,192,34988,1,0,0:0:0:0:
64,192,35074,128,0,35248:0:0:0:0:
192,192,35248,1,0,0:0:0:0:
448,192,35248,1,0,0:0:0:0:
320,192,35508,1,0,0:0:0:0:
448,192,35508,1,0,0:0:0:0:
192,192,35768,1,0,0:0:0:0:
320,192,35768,1,0,0:0:0:0:
448,192,35942,1,0,0:0:0:0:
64,192,35942,1,0,0:0:0:0:
448,192,36288,1,0,0:0:0:0:
320,192,36375,1,0,0:0:0:0:
192,192,36462,1,0,0:0:0:0:
64,192,36548,1,0,0:0:0:0:
448,192,36635,1,0,0:0:0:0:
448,192,36895,128,0,37155:0:0:0:0:
192,192,37155,1,0,0:0:0:0:
320,192,37329,1,0,0:0:0:0:
320,192,37589,128,0,37849:0:0:0:0:
64,192,37849,1,0,0:0:0:0:
192,192,38022,1,0,0:0:0:0:
192,192,38283,128,0,38543:0:0:0:0:
448,192,38543,1,0,0:0:0:0:
64,192,38716,1,0,0:0:0:0:
320,192,38889,1,0,0:0:0:0:
192,192,38976,1,0,0:0:0:0:
320,192,39063,1,0,0:0:0:0:
448,192,39063,1,0,0:0:0:0:
320,192,39410,1,0,0:0:0:0:
320,192,39670,128,0,39930:0:0:0:0:
64,192,39930,1,0,0:0:0:0:
192,192,40103,1,0,0:0:0:0:
192,192,40363,128,0,40624:0:0:0:0:
448,192,40624,1,0,0:0:0:0:
64,192,40797,1,0,0:0:0:0:
64,192,41057,128,0,41317:0:0:0:0:
320,192,41317,1,0,0:0:0:0:
448,192,41491,1,0,0:0:0:0:
192,192,41664,1,0,0:0:0:0:
64,192,41664,1,0,0:0:0:0:
320,192,41751,1,0,0:0:0:0:
192,192,41837,1,0,0:0:0:0:
64,192,41837,1,0,0:0:0:0:
192,192,42184,1,0,0:0:0:0:
192,192,42444,128,0,42705:0:0:0:0:
448,192,42705,1,0,0:0:0:0:
64,192,42878,1,0,0:0:0:0:
64,192,43138,128,0,43398:0:0:0:0:
320,192,43398,1,0,0:0:0:0:
448,192,43572,1,0,0:0:0:0:
448,192,43832,128,0,44092:0:0:0:0:
192,192,44092,1,0,0:0:0:0:
320,192,44265,1,0,0:0:0:0:
448,192,44439,1,0,0:0:0:0:
64,192,44439,1,0,0:0:0:0:
192,192,44525,1,0,0:0:0:0:
320,192,44525,1,0,0:0:0:0:
64,192,44612,1,0,0:0:0:0:
448,192,44612,1,0,0:0:0:0:
192,192,44959,1,0,0:0:0:0:
320,192,44959,1,0,0:0:0:0:
448,192,47387,128,0,47733:0:0:0:0:
64,192,47733,1,0,0:0:0:0:
64,192,47994,128,0,48254:0:0:0:0:
320,192,48254,1,0,0:0:0:0:
192,192,48427,1,0,0:0:0:0:
192,192,48687,128,0,48947:0:0:0:0:
448,192,48947,1,0,0:0:0:0:
320,192,49121,1,0,0:0:0:0:
320,192,49381,128,0,49641:0:0:0:0:
64,192,49641,1,0,0:0:0:0:
448,192,49814,1,0,0:0:0:0:
192,192,49988,1,0,0:0:0:0:
320,192,50074,1,0,0:0:0:0:
192,192,50161,1,0,0:0:0:0:
64,192,50161,1,0,0:0:0:0:
192,192,50508,1,0,0:0:0:0:
192,192,50768,128,0,51028:0:0:0:0:
448,192,51028,1,0,0:0:0:0:
320,192,51202,1,0,0:0:0:0:
320,192,51462,128,0,51722:0:0:0:0:
64,192,51722,1,0,0:0:0:0:
448,192,51895,1,0,0:0:0:0:
448,192,52155,128,0,52415:0:0:0:0:
192,192,52415,1,0,0:0:0:0:
64,192,52589,1,0,0:0:0:0:
320,192,52762,1,0,0:0:0:0:
448,192,52762,1,0,0:0:0:0:
192,192,52849,1,0,0:0:0:0:
320,192,52936,1,0,0:0:0:0:
448,192,52936,1,0,0:0:0:0:
320,192,53283,1,0,0:0:0:0:
320,192,53543,128,0,53803:0:0:0:0:
64,192,53803,1,0,0:0:0:0:
448,192,53976,1,0,0:0:0:0:
448,192,54236,128,0,54496:0:0:0:0:
192,192,54496,1,0,0:0:0:0:
64,192,54670,1,0,0:0:0:0:
64,192,54930,128,0,55190:0:0:0:0:
320,192,55190,1,0,0:0:0:0:
192,192,55363,1,0,0:0:0:0:
64,192,55537,1,0,0:0:0:0:
448,192,55537,1,0,0:0:0:0:
320,192,55624,1,0,0:0:0:0:
192,192,55624,1,0,0:0:0:0:
448,192,55710,1,0,0:0:0:0:
64,192,55710,1,0,0:0:0:0:
448,192,56057,1,0,0:0:0:0:
320,192,56231,1,0,0:0:0:0:
448,192,56404,1,0,0:0:0:0:
192,192,56577,1,0,0:0:0:0:
320,192,56751,1,0,0:0:0:0:
64,192,56924,1,0,0:0:0:0:
448,192,57098,1,0,0:0:0:0:
320,192,57271,1,0,0:0:0:0:
192,192,57444,1,0,0:0:0:0:
64,192,57444,1,0,0:0:0:0:
448,192,57618,1,0,0:0:0:0:
320,192,57791,1,0,0:0:0:0:
192,192,57791,1,0,0:0:0:0:
64,192,57965,1,0,0:0:0:0:
320,192,58138,1,0,0:0:0:0:
448,192,58138,1,0,0:0:0:0:
192,192,58311,1,0,0:0:0:0:
64,192,58485,1,0,0:0:0:0:
448,192,58485,1,0,0:0:0:0:
64,192,58832,128,0,59352:0:0:0:0:
320,192,58832,1,0,0:0:0:0:
448,192,59178,1,0,0:0:0:0:
192,192,59352,128,0,59525:0:0:0:0:
64,192,59525,128,0,60046:0:0:0:0:
320,192,59872,1,0,0:0:0:0:
192,192,60046,128,0,60219:0:0:0:0:
64,192,60219,128,0,60566:0:0:0:0:
192,192,60566,128,0,60913:0:0:0:0:
448,192,60566,1,0,0:0:0:0:
64,192,60913,128,0,61259:0:0:0:0:
320,192,61259,128,0,61606:0:0:0:0:
192,192,61259,1,0,0:0:0:0:
448,192,61606,128,0,62126:0:0:0:0:
192,192,61953,1,0,0:0:0:0:
320,192,62126,1,0,0:0:0:0:
192,192,62213,1,0,0:0:0:0:
64,192,62300,128,0,64381:0:0:0:0:
448,192,62647,1,0,0:0:0:0:
192,192,62994,1,0,0:0:0:0:
320,192,63167,1,0,0:0:0:0:
448,192,63340,1,0,0:0:0:0:
320,192,63514,1,0,0:0:0:0:
192,192,63687,1,0,0:0:0:0:
320,192,63861,1,0,0:0:0:0:
448,192,64034,1,0,0:0:0:0:
448,192,64207,1,0,0:0:0:0:
320,192,64381,128,0,65421:0:0:0:0:
192,192,64727,1,0,0:0:0:0:
448,192,65074,1,0,0:0:0:0:
192,192,65421,128,0,65768:0:0:0:0:
64,192,65421,1,0,0:0:0:0:
448,192,65768,128,0,66288:0:0:0:0:
64,192,66115,1,0,0:0:0:0:
192,192,66288,1,0,0:0:0:0:
320,192,66375,1,0,0:0:0:0:
64,192,66462,128,0,66635:0:0:0:0:
320,192,66635,128,0,66809:0:0:0:0:
192,192,66809,128,0,66982:0:0:0:0:
448,192,66809,1,0,0:0:0:0:
320,192,66982,128,0,67155:0:0:0:0:
448,192,67155,128,0,67676:0:0:0:0:
64,192,67502,1,0,0:0:0:0:
192,192,67676,128,0,67849:0:0:0:0:
64,192,67849,128,0,69236:0:0:0:0:
320,192,68196,1,0,0:0:0:0:
192,192,68543,1,0,0:0:0:0:
448,192,68889,1,0,0:0:0:0:
320,192,69236,128,0,69583:0:0:0:0:
192,192,69236,1,0,0:0:0:0:
64,192,69410,1,0,0:0:0:0:
192,192,69496,1,0,0:0:0:0:
448,192,69583,128,0,69930:0:0:0:0:
64,192,69583,1,0,0:0:0:0:
192,192,69757,1,0,0:0:0:0:
192,192,69930,128,0,70450:0:0:0:0:
320,192,69930,1,0,0:0:0:0:
448,192,70277,1,0,0:0:0:0:
320,192,70450,1,0,0:0:0:0:
448,192,70537,1,0,0:0:0:0:
64,192,70624,128,0,71144:0:0:0:0:
192,192,70970,1,0,0:0:0:0:
320,192,71144,1,0,0:0:0:0:
448,192,71231,1,0,0:0:0:0:
192,192,71317,128,0,71491:0:0:0:0:
64,192,71491,128,0,71664:0:0:0:0:
320,192,71664,128,0,71837:0:0:0:0:
448,192,71664,1,0,0:0:0:0:
192,192,71837,128,0,72011:0:0:0:0:
320,192,72011,128,0,72184:0:0:0:0:
448,192,72184,128,0,72358:0:0:0:0:
192,192,72358,128,0,72531:0:0:0:0:
64,192,72358,1,0,0:0:0:0:
320,192,72531,128,0,72705:0:0:0:0:
64,192,72705,128,0,73225:0:0:0:0:
448,192,73051,1,0,0:0:0:0:
192,192,73225,1,0,0:0:0:0:
320,192,73311,1,0,0:0:0:0:
448,192,73398,128,0,73572:0:0:0:0:
320,192,73572,128,0,73745:0:0:0:0:
192,192,73745,128,0,73918:0:0:0:0:
448,192,73745,1,0,0:0:0:0:
64,192,73918,128,0,74092:0:0:0:0:
448,192,74092,128,0,74439:0:0:0:0:
192,192,74439,128,0,74785:0:0:0:0:
64,192,74439,1,0,0:0:0:0:
320,192,74785,1,0,0:0:0:0:
448,192,74785,128,0,75132:0:0:0:0:
320,192,74959,1,0,0:0:0:0:
64,192,75132,128,0,75479:0:0:0:0:
192,192,75132,1,0,0:0:0:0:
192,192,75306,1,0,0:0:0:0:
320,192,75479,128,0,75999:0:0:0:0:
448,192,75826,1,0,0:0:0:0:
192,192,75999,128,0,76173:0:0:0:0:
320,192,76173,128,0,76520:0:0:0:0:
448,192,76520,128,0,76866:0:0:0:0:
64,192,76520,1,0,0:0:0:0:
192,192,76866,128,0,77387:0:0:0:0:
64,192,77213,1,0,0:0:0:0:
448,192,77387,1,0,0:0:0:0:
320,192,77473,1,0,0:0:0:0:
64,192,77560,128,0,78254:0:0:0:0:
320,192,77907,1,0,0:0:0:0:
448,192,78254,128,0,78600:0:0:0:0:
192,192,78254,1,0,0:0:0:0:
192,192,78427,1,0,0:0:0:0:
320,192,78600,128,0,78947:0:0:0:0:
64,192,78600,1,0,0:0:0:0:
192,192,78947,128,0,79294:0:0:0:0:
448,192,78947,1,0,0:0:0:0:
448,192,79121,1,0,0:0:0:0:
64,192,79294,128,0,79641:0:0:0:0:
320,192,79294,1,0,0:0:0:0:
192,192,79468,1,0,0:0:0:0:
320,192,79554,1,0,0:0:0:0:
448,192,79641,128,0,80335:0:0:0:0:
192,192,79641,1,0,0:0:0:0:
192,192,79814,1,0,0:0:0:0:
64,192,79988,1,0,0:0:0:0:
64,192,80161,1,0,0:0:0:0:
64,192,80335,128,0,81028:0:0:0:0:
320,192,80335,1,0,0:0:0:0:
192,192,80421,1,0,0:0:0:0:
448,192,80508,1,0,0:0:0:0:
320,192,80595,1,0,0:0:0:0:
192,192,80681,1,0,0:0:0:0:
448,192,80768,1,0,0:0:0:0:
320,192,80855,1,0,0:0:0:0:
192,192,80942,1,0,0:0:0:0:
448,192,81028,128,0,81722:0:0:0:0:
320,192,81722,128,0,82415:0:0:0:0:
64,192,82415,1,0,0:0:0:0:
64,192,82762,1,0,0:0:0:0:
64,192,83022,1,0,0:0:0:0:
64,192,83109,1,0,0:0:0:0:
64,192,83283,1,0,0:0:0:0:
192,192,83456,1,0,0:0:0:0:
448,192,83456,1,0,0:0:0:0:
320,192,83803,1,0,0:0:0:0:
448,192,83803,128,0,84063:0:0:0:0:
64,192,84063,128,0,84323:0:0:0:0:
320,192,84150,1,0,0:0:0:0:
192,192,84323,128,0,84496:0:0:0:0:
320,192,84496,128,0,84670:0:0:0:0:
448,192,84670,128,0,84843:0:0:0:0:
192,192,84843,128,0,85017:0:0:0:0:
320,192,84843,1,0,0:0:0:0:
64,192,85016,128,0,85190:0:0:0:0:
448,192,85190,128,0,85710:0:0:0:0:
64,192,85537,1,0,0:0:0:0:
320,192,85710,1,0,0:0:0:0:
192,192,85797,1,0,0:0:0:0:
448,192,85884,128,0,86057:0:0:0:0:
320,192,86057,1,0,0:0:0:0:
192,192,86115,1,0,0:0:0:0:
64,192,86173,1,0,0:0:0:0:
448,192,86231,128,0,86404:0:0:0:0:
320,192,86404,128,0,86577:0:0:0:0:
64,192,86577,128,0,86751:0:0:0:0:
320,192,86751,1,0,0:0:0:0:
192,192,86837,128,0,87098:0:0:0:0:
448,192,86924,1,0,0:0:0:0:
320,192,87098,128,0,87271:0:0:0:0:
448,192,87271,128,0,87444:0:0:0:0:
192,192,87444,1,0,0:0:0:0:
64,192,87531,1,0,0:0:0:0:
320,192,87618,1,0,0:0:0:0:
192,192,87705,1,0,0:0:0:0:
448,192,87791,1,0,0:0:0:0:
320,192,87878,1,0,0:0:0:0:
64,192,87965,128,0,88485:0:0:0:0:
448,192,88311,1,0,0:0:0:0:
192,192,88485,1,0,0:0:0:0:
320,192,88572,1,0,0:0:0:0:
448,192,88658,128,0,89005:0:0:0:0:
64,192,89005,128,0,89352:0:0:0:0:
320,192,89005,1,0,0:0:0:0:
320,192,89179,1,0,0:0:0:0:
448,192,89352,128,0,90046:0:0:0:0:
192,192,89699,1,0,0:0:0:0:
64,192,90046,128,0,90392:0:0:0:0:
192,192,90392,128,0,90739:0:0:0:0:
320,192,90392,1,0,0:0:0:0:
448,192,90739,128,0,91086:0:0:0:0:
320,192,91086,128,0,91433:0:0:0:0:
192,192,91086,1,0,0:0:0:0:
64,192,91433,128,0,91606:0:0:0:0:
448,192,91606,128,0,91779:0:0:0:0:
192,192,91780,128,0,92126:0:0:0:0:
320,192,91780,1,0,0:0:0:0:
448,192,92126,128,0,92300:0:0:0:0:
320,192,92300,1,0,0:0:0:0:
192,192,92387,128,0,92647:0:0:0:0:
448,192,92473,1,0,0:0:0:0:
64,192,92647,128,0,92820:0:0:0:0:
448,192,92820,128,0,92994:0:0:0:0:
320,192,92994,1,0,0:0:0:0:
192,192,93080,128,0,93340:0:0:0:0:
448,192,93167,1,0,0:0:0:0:
64,192,93340,128,0,93514:0:0:0:0:
320,192,93514,128,0,93687:0:0:0:0:
448,192,93687,1,0,0:0:0:0:
64,192,93774,128,0,94034:0:0:0:0:
320,192,93861,1,0,0:0:0:0:
192,192,94034,128,0,94207:0:0:0:0:
64,192,94207,128,0,94381:0:0:0:0:
192,192,94381,128,0,94554:0:0:0:0:
320,192,94554,128,0,94728:0:0:0:0:
448,192,94728,128,0,94901:0:0:0:0:
64,192,94901,128,0,95595:0:0:0:0:
192,192,95248,128,0,95595:0:0:0:0:
320,192,95248,1,0,0:0:0:0:
448,192,95595,128,0,96288:0:0:0:0:
192,192,95942,1,0,0:0:0:0:
320,192,95942,128,0,96288:0:0:0:0:
64,192,96288,128,0,96462:0:0:0:0:
192,192,96462,128,0,96635:0:0:0:0:
64,192,96635,128,0,96809:0:0:0:0:
448,192,96635,1,0,0:0:0:0:
320,192,96809,128,0,96982:0:0:0:0:
448,192,96982,128,0,97155:0:0:0:0:
192,192,97155,128,0,97329:0:0:0:0:
448,192,97329,128,0,97502:0:0:0:0:
64,192,97329,1,0,0:0:0:0:
320,192,97502,128,0,97676:0:0:0:0:
192,192,97676,128,0,98369:0:0:0:0:
64,192,98022,128,0,98369:0:0:0:0:
448,192,98022,1,0,0:0:0:0:
320,192,98369,128,0,99063:0:0:0:0:
448,192,98716,128,0,99063:0:0:0:0:
64,192,98716,1,0,0:0:0:0:
192,192,99063,128,0,99236:0:0:0:0:
64,192,99236,128,0,99410:0:0:0:0:
192,192,99410,128,0,99583:0:0:0:0:
320,192,99410,1,0,0:0:0:0:
448,192,99583,128,0,99757:0:0:0:0:
320,192,99757,128,0,99930:0:0:0:0:
64,192,99930,1,0,0:0:0:0:
192,192,99988,1,0,0:0:0:0:
448,192,100046,1,0,0:0:0:0:
320,192,100103,128,0,100277:0:0:0:0:
192,192,100277,128,0,100450:0:0:0:0:
64,192,100450,128,0,101837:0:0:0:0:
448,192,100797,1,0,0:0:0:0:
192,192,101144,128,0,101491:0:0:0:0:
320,192,101491,128,0,101837:0:0:0:0:
448,192,101491,1,0,0:0:0:0:
448,192,101837,128,0,102184:0:0:0:0:
192,192,102184,128,0,102531:0:0:0:0:
64,192,102184,1,0,0:0:0:0:
448,192,102531,128,0,102878:0:0:0:0:
320,192,102878,128,0,103225:0:0:0:0:
192,192,102878,1,0,0:0:0:0:
64,192,103225,128,0,103398:0:0:0:0:
192,192,103398,1,0,0:0:0:0:
320,192,103485,128,0,103745:0:0:0:0:
64,192,103572,1,0,0:0:0:0:
448,192,103745,128,0,103918:0:0:0:0:
64,192,103918,128,0,104092:0:0:0:0:
192,192,104092,1,0,0:0:0:0:
320,192,104179,128,0,104439:0:0:0:0:
64,192,104265,1,0,0:0:0:0:
448,192,104439,128,0,104612:0:0:0:0:
192,192,104612,128,0,104785:0:0:0:0:
320,192,104785,1,0,0:0:0:0:
64,192,104872,128,0,105132:0:0:0:0:
192,192,104959,1,0,0:0:0:0:
320,192,105132,128,0,105306:0:0:0:0:
448,192,105306,128,0,105479:0:0:0:0:
320,192,105479,128,0,105652:0:0:0:0:
192,192,105652,128,0,105826:0:0:0:0:
64,192,105826,128,0,105999:0:0:0:0:
448,192,105999,128,0,106346:0:0:0:0:
320,192,106173,128,0,106346:0:0:0:0:
64,192,106346,128,0,106693:0:0:0:0:
192,192,106520,128,0,106693:0:0:0:0:
448,192,106693,128,0,107040:0:0:0:0:
320,192,106866,128,0,107040:0:0:0:0:
64,192,107040,128,0,107387:0:0:0:0:
192,192,107213,128,0,107387:0:0:0:0:
448,192,107387,128,0,107733:0:0:0:0:
192,192,107560,128,0,107733:0:0:0:0:
64,192,107733,128,0,108080:0:0:0:0:
320,192,107907,128,0,108080:0:0:0:0:
448,192,108080,128,0,108427:0:0:0:0:
192,192,108254,128,0,108427:0:0:0:0:
64,192,108427,128,0,108774:0:0:0:0:
320,192,108600,128,0,108774:0:0:0:0:
192,192,108774,128,0,109121:0:0:0:0:
64,192,108947,128,0,109121:0:0:0:0:
320,192,109121,128,0,109468:0:0:0:0:
448,192,109294,128,0,109468:0:0:0:0:
192,192,109468,128,0,109814:0:0:0:0:
64,192,109641,128,0,109814:0:0:0:0:
320,192,109814,128,0,110161:0:0:0:0:
448,192,109988,128,0,110161:0:0:0:0:
192,192,110161,128,0,110508:0:0:0:0:
448,192,110335,128,0,110508:0:0:0:0:
320,192,110508,128,0,110855:0:0:0:0:
64,192,110681,128,0,110855:0:0:0:0:
192,192,110855,128,0,111202:0:0:0:0:
448,192,111028,128,0,111202:0:0:0:0:
320,192,111202,128,0,111548:0:0:0:0:
64,192,111375,128,0,111548:0:0:0:0:
448,192,111548,1,0,0:0:0:0:
192,192,111548,128,0,111722:0:0:0:0:
320,192,111722,128,0,111895:0:0:0:0:
448,192,111895,128,0,112069:0:0:0:0:
64,192,112069,128,0,112242:0:0:0:0:
192,192,112242,128,0,112415:0:0:0:0:
320,192,112415,128,0,112589:0:0:0:0:
448,192,112589,128,0,112762:0:0:0:0:
64,192,112762,128,0,112936:0:0:0:0:
320,192,112936,128,0,113109:0:0:0:0:
192,192,113109,128,0,113283:0:0:0:0:
64,192,113283,128,0,113456:0:0:0:0:
448,192,113456,128,0,113629:0:0:0:0:
320,192,113629,128,0,113803:0:0:0:0:
192,192,113803,1,0,0:0:0:0:
64,192,113889,1,0,0:0:0:0:
320,192,113976,128,0,114150:0:0:0:0:
448,192,114150,128,0,114323:0:0:0:0:
64,192,114323,1,0,0:0:0:0:
192,192,114496,1,0,0:0:0:0:
448,192,114670,1,0,0:0:0:0:
320,192,114843,1,0,0:0:0:0:
64,192,115017,1,0,0:0:0:0:
192,192,115190,1,0,0:0:0:0:
448,192,115363,1,0,0:0:0:0:
320,192,115537,1,0,0:0:0:0:
64,192,115710,1,0,0:0:0:0:
192,192,115884,1,0,0:0:0:0:
448,192,116057,1,0,0:0:0:0:
320,192,116231,1,0,0:0:0:0:
448,192,116404,1,0,0:0:0:0:
448,192,116577,1,0,0:0:0:0:
192,192,116664,1,0,0:0:0:0:
64,192,116751,1,0,0:0:0:0:
320,192,116924,1,0,0:0:0:0:
448,192,117098,128,0,118138:0:0:0:0:
