osu file format v14

[General]
AudioFilename: audio.mp3
AudioLeadIn: 0
PreviewTime: 13228
Countdown: 1
SampleSet: None
StackLeniency: 0.7
Mode: 3
LetterboxInBreaks: 0
SpecialStyle: 0
WidescreenStoryboard: 1

[Editor]
DistanceSpacing: 0.5
BeatDivisor: 1
GridSize: 4
TimelineZoom: 1.2

[Metadata]
Title:Kill me Sweets
TitleUnicode:Kill me Sweets
Artist:uma x Morimori Atsushi
ArtistUnicode:uma×モリモリあつし
Creator:Ortlinde
Version:Basic
Source:
Tags:
BeatmapID:1474476
BeatmapSetID:695969

[Difficulty]
HPDrainRate:7
CircleSize:4
OverallDifficulty:6
ApproachRate:5
SliderMultiplier:1.4
SliderTickRate:1

[Events]
//Background and Video events
//Break Periods
//Storyboard Layer 0 (Background)
//Storyboard Layer 1 (Fail)
//Storyboard Layer 2 (Pass)
//Storyboard Layer 3 (Foreground)
//Storyboard Sound Samples

[TimingPoints]
-1541,461.538461538462,4,2,0,20,1,0
0,-74.0740740740741,4,2,0,20,0,0
13228,-74.0740740740741,4,2,0,20,0,1
26151,-74.0740740740741,4,2,0,20,0,0
37228,300,4,2,0,20,1,0
76828,-100,4,2,0,20,0,1
96028,-100,4,2,0,20,0,0
105628,-100,4,2,0,20,0,1
115528,-100,4,2,0,20,0,0

[HitObjects]
448,192,305,128,0,2151:0:0:0:0:
192,192,305,1,0,0:0:0:0:
64,192,2151,128,0,3997:0:0:0:0:
320,192,3997,128,0,5843:0:0:0:0:
192,192,5843,128,0,7689:0:0:0:0:
64,192,7689,128,0,9535:0:0:0:0:
320,192,7689,1,0,0:0:0:0:
192,192,9535,1,0,0:0:0:0:
448,192,9535,128,0,11382:0:0:0:0:
64,192,11382,1,0,0:0:0:0:
320,192,12305,1,0,0:0:0:0:
192,192,12766,1,0,0:0:0:0:
64,192,13228,1,0,0:0:0:0:
448,192,13228,1,0,0:0:0:0:
320,192,13689,1,0,0:0:0:0:
320,192,14612,1,0,0:0:0:0:
192,192,15074,1,0,0:0:0:0:
448,192,15535,1,0,0:0:0:0:
448,192,16459,1,0,0:0:0:0:
64,192,16920,1,0,0:0:0:0:
320,192,17382,1,0,0:0:0:0:
320,192,18305,1,0,0:0:0:0:
448,192,18766,128,0,19689:0:0:0:0:
64,192,19689,128,0,20612:0:0:0:0:
448,192,20612,1,0,0:0:0:0:
192,192,21074,1,0,0:0:0:0:
192,192,21997,1,0,0:0:0:0:
320,192,22459,1,0,0:0:0:0:
64,192,22920,1,0,0:0:0:0:
64,192,23843,1,0,0:0:0:0:
448,192,24305,1,0,0:0:0:0:
192,192,24766,1,0,0:0:0:0:
192,192,25689,1,0,0:0:0:0:
64,192,26151,128,0,27997:0:0:0:0:
320,192,27074,1,0,0:0:0:0:
192,192,27997,128,0,29843:0:0:0:0:
448,192,28920,1,0,0:0:0:0:
320,192,29843,128,0,31689:0:0:0:0:
64,192,30766,1,0,0:0:0:0:
448,192,31689,128,0,32612:0:0:0:0:
192,192,32612,1,0,0:0:0:0:
64,192,33535,128,0,34459:0:0:0:0:
192,192,34459,128,0,35382:0:0:0:0:
320,192,35382,128,0,36305:0:0:0:0:
448,192,36305,128,0,37228:0:0:0:0:
64,192,39628,1,0,0:0:0:0:
64,192,40078,1,0,0:0:0:0:
448,192,40828,1,0,0:0:0:0:
448,192,41278,1,0,0:0:0:0:
192,192,42028,128,0,43228:0:0:0:0:
320,192,43228,128,0,44428:0:0:0:0:
64,192,44428,1,0,0:0:0:0:
192,192,45028,1,0,0:0:0:0:
320,192,45628,1,0,0:0:0:0:
448,192,46228,1,0,0:0:0:0:
64,192,46828,128,0,47428:0:0:0:0:
448,192,47428,128,0,48028:0:0:0:0:
320,192,48028,128,0,48928:0:0:0:0:
192,192,48928,1,0,0:0:0:0:
64,192,49228,128,0,49828:0:0:0:0:
448,192,49828,1,0,0:0:0:0:
192,192,50128,1,0,0:0:0:0:
320,192,50428,128,0,51028:0:0:0:0:
64,192,51028,1,0,0:0:0:0:
448,192,51328,1,0,0:0:0:0:
192,192,51628,128,0,52228:0:0:0:0:
320,192,52228,128,0,52828:0:0:0:0:
448,192,52828,128,0,53728:0:0:0:0:
64,192,53728,1,0,0:0:0:0:
320,192,54028,1,0,0:0:0:0:
64,192,54328,1,0,0:0:0:0:
192,192,54628,1,0,0:0:0:0:
320,192,54928,1,0,0:0:0:0:
448,192,55228,1,0,0:0:0:0:
320,192,55528,1,0,0:0:0:0:
192,192,55828,1,0,0:0:0:0:
64,192,56128,1,0,0:0:0:0:
192,192,56728,1,0,0:0:0:0:
448,192,57028,128,0,57628:0:0:0:0:
320,192,57628,128,0,58528:0:0:0:0:
448,192,58528,1,0,0:0:0:0:
192,192,58828,128,0,59428:0:0:0:0:
64,192,59428,1,0,0:0:0:0:
320,192,59728,1,0,0:0:0:0:
448,192,60028,128,0,60628:0:0:0:0:
192,192,60628,1,0,0:0:0:0:
320,192,60928,1,0,0:0:0:0:
64,192,61228,128,0,61828:0:0:0:0:
192,192,61828,128,0,62428:0:0:0:0:
448,192,62428,128,0,63328:0:0:0:0:
64,192,63328,1,0,0:0:0:0:
192,192,63628,1,0,0:0:0:0:
320,192,63928,1,0,0:0:0:0:
448,192,64228,1,0,0:0:0:0:
320,192,64528,1,0,0:0:0:0:
192,192,64828,1,0,0:0:0:0:
64,192,65128,1,0,0:0:0:0:
192,192,65428,1,0,0:0:0:0:
320,192,65728,1,0,0:0:0:0:
448,192,66028,128,0,66928:0:0:0:0:
320,192,66928,1,0,0:0:0:0:
64,192,67228,128,0,68128:0:0:0:0:
192,192,68128,1,0,0:0:0:0:
320,192,68428,128,0,69328:0:0:0:0:
64,192,69328,1,0,0:0:0:0:
192,192,69628,128,0,70528:0:0:0:0:
448,192,70528,1,0,0:0:0:0:
64,192,70828,128,0,71428:0:0:0:0:
192,192,71428,128,0,72028:0:0:0:0:
320,192,72028,128,0,72628:0:0:0:0:
448,192,72628,128,0,73228:0:0:0:0:
64,192,73228,1,0,0:0:0:0:
192,192,73528,1,0,0:0:0:0:
320,192,73828,1,0,0:0:0:0:
448,192,74128,1,0,0:0:0:0:
64,192,74428,128,0,75628:0:0:0:0:
192,192,76828,1,0,0:0:0:0:
448,192,76828,128,0,77428:0:0:0:0:
320,192,77428,128,0,78028:0:0:0:0:
192,192,78028,128,0,78628:0:0:0:0:
64,192,78628,128,0,79228:0:0:0:0:
320,192,79228,128,0,79828:0:0:0:0:
192,192,79828,128,0,80428:0:0:0:0:
320,192,80428,128,0,81028:0:0:0:0:
64,192,81028,1,0,0:0:0:0:
192,192,81328,1,0,0:0:0:0:
448,192,81628,128,0,82228:0:0:0:0:
64,192,82228,128,0,82828:0:0:0:0:
320,192,82828,128,0,83428:0:0:0:0:
192,192,83428,128,0,84028:0:0:0:0:
64,192,84028,128,0,84628:0:0:0:0:
320,192,84628,128,0,85228:0:0:0:0:
448,192,85228,128,0,85828:0:0:0:0:
192,192,85828,1,0,0:0:0:0:
320,192,86128,1,0,0:0:0:0:
448,192,86428,1,0,0:0:0:0:
320,192,86728,1,0,0:0:0:0:
192,192,87028,1,0,0:0:0:0:
64,192,87328,1,0,0:0:0:0:
448,192,87628,1,0,0:0:0:0:
320,192,87928,1,0,0:0:0:0:
192,192,88228,1,0,0:0:0:0:
64,192,88528,1,0,0:0:0:0:
320,192,88828,1,0,0:0:0:0:
448,192,89128,1,0,0:0:0:0:
192,192,89428,1,0,0:0:0:0:
64,192,89728,1,0,0:0:0:0:
320,192,90028,1,0,0:0:0:0:
448,192,90328,1,0,0:0:0:0:
192,192,90628,1,0,0:0:0:0:
64,192,90928,1,0,0:0:0:0:
448,192,91228,1,0,0:0:0:0:
320,192,91528,1,0,0:0:0:0:
64,192,91828,1,0,0:0:0:0:
192,192,92128,1,0,0:0:0:0:
448,192,92428,1,0,0:0:0:0:
320,192,92728,1,0,0:0:0:0:
64,192,93028,1,0,0:0:0:0:
192,192,93328,1,0,0:0:0:0:
448,192,93628,1,0,0:0:0:0:
320,192,93928,1,0,0:0:0:0:
192,192,94228,1,0,0:0:0:0:
64,192,94528,1,0,0:0:0:0:
192,192,94828,128,0,95428:0:0:0:0:
320,192,95428,128,0,96028:0:0:0:0:
448,192,96028,128,0,98428:0:0:0:0:
64,192,98428,1,0,0:0:0:0:
320,192,98728,1,0,0:0:0:0:
192,192,99328,1,0,0:0:0:0:
320,192,99928,1,0,0:0:0:0:
192,192,100528,1,0,0:0:0:0:
64,192,100828,128,0,103228:0:0:0:0:
192,192,103528,1,0,0:0:0:0:
320,192,104128,1,0,0:0:0:0:
192,192,104728,1,0,0:0:0:0:
320,192,105328,1,0,0:0:0:0:
64,192,105628,1,0,0:0:0:0:
192,192,105928,1,0,0:0:0:0:
320,192,106228,1,0,0:0:0:0:
448,192,106528,1,0,0:0:0:0:
64,192,106828,1,0,0:0:0:0:
192,192,107128,1,0,0:0:0:0:
320,192,107428,1,0,0:0:0:0:
448,192,107728,1,0,0:0:0:0:
64,192,108028,1,0,0:0:0:0:
320,192,108328,1,0,0:0:0:0:
448,192,108628,1,0,0:0:0:0:
192,192,108928,1,0,0:0:0:0:
64,192,109228,1,0,0:0:0:0:
320,192,109528,1,0,0:0:0:0:
448,192,109828,1,0,0:0:0:0:
192,192,110128,1,0,0:0:0:0:
64,192,110428,1,0,0:0:0:0:
320,192,110728,1,0,0:0:0:0:
192,192,111028,1,0,0:0:0:0:
448,192,111328,1,0,0:0:0:0:
64,192,111628,128,0,112228:0:0:0:0:
192,192,112228,128,0,112828:0:0:0:0:
448,192,112828,1,0,0:0:0:0:
320,192,113128,1,0,0:0:0:0:
192,192,113428,1,0,0:0:0:0:
64,192,113728,1,0,0:0:0:0:
448,192,114028,128,0,114628:0:0:0:0:
320,192,114628,128,0,115228:0:0:0:0:
448,192,115528,1,0,0:0:0:0:
64,192,115528,128,0,117628:0:0:0:0:
448,192,117628,1,0,0:0:0:0:
