osu file format v14

[General]
AudioFilename: audio.mp3
AudioLeadIn: 0
PreviewTime: 13228
Countdown: 1
SampleSet: None
StackLeniency: 0.7
Mode: 3
LetterboxInBreaks: 0
SpecialStyle: 0
WidescreenStoryboard: 1

[Editor]
DistanceSpacing: 0.5
BeatDivisor: 4
GridSize: 4
TimelineZoom: 1.699999

[Metadata]
Title:Kill me Sweets
TitleUnicode:Kill me Sweets
Artist:uma x Morimori Atsushi
ArtistUnicode:uma×モリモリあつし
Creator:Ortlinde
Version:Advanced
Source:
Tags:
BeatmapID:1474475
BeatmapSetID:695969

[Difficulty]
HPDrainRate:7
CircleSize:4
OverallDifficulty:7
ApproachRate:5
SliderMultiplier:1.4
SliderTickRate:1

[Events]
//Background and Video events
//Break Periods
//Storyboard Layer 0 (Background)
//Storyboard Layer 1 (Fail)
//Storyboard Layer 2 (Pass)
//Storyboard Layer 3 (Foreground)
//Storyboard Sound Samples

[TimingPoints]
-1541,461.538461538462,4,2,0,20,1,0
0,-74.0740740740741,4,2,0,20,0,0
13228,-74.0740740740741,4,2,0,20,0,1
26151,-74.0740740740741,4,2,0,20,0,0
37228,300,4,2,0,20,1,0
76828,-100,4,2,0,20,0,1
96028,-100,4,2,0,20,0,0
105628,-100,4,2,0,20,0,1
115528,-100,4,2,0,20,0,0

[HitObjects]
64,192,305,5,0,0:0:0:0:
448,192,305,128,0,2151:0:0:0:0:
320,192,535,1,0,0:0:0:0:
192,192,651,1,0,0:0:0:0:
320,192,766,1,0,0:0:0:0:
64,192,997,1,0,0:0:0:0:
192,192,1112,1,0,0:0:0:0:
320,192,1228,1,0,0:0:0:0:
64,192,1574,1,0,0:0:0:0:
192,192,1920,1,0,0:0:0:0:
64,192,2151,128,0,3997:0:0:0:0:
320,192,2382,1,0,0:0:0:0:
448,192,2497,1,0,0:0:0:0:
320,192,2612,1,0,0:0:0:0:
192,192,2843,1,0,0:0:0:0:
320,192,2959,1,0,0:0:0:0:
448,192,3074,1,0,0:0:0:0:
320,192,3420,1,0,0:0:0:0:
192,192,3766,1,0,0:0:0:0:
320,192,3997,128,0,5843:0:0:0:0:
192,192,4228,1,0,0:0:0:0:
448,192,4343,1,0,0:0:0:0:
192,192,4459,1,0,0:0:0:0:
64,192,4689,1,0,0:0:0:0:
192,192,4805,1,0,0:0:0:0:
448,192,4920,1,0,0:0:0:0:
192,192,5266,1,0,0:0:0:0:
64,192,5612,1,0,0:0:0:0:
448,192,5843,128,0,6305:0:0:0:0:
192,192,5843,1,0,0:0:0:0:
320,192,6305,128,0,6766:0:0:0:0:
64,192,6305,1,0,0:0:0:0:
192,192,6766,128,0,7228:0:0:0:0:
448,192,6766,1,0,0:0:0:0:
64,192,7228,128,0,7689:0:0:0:0:
320,192,7228,1,0,0:0:0:0:
448,192,7689,128,0,9305:0:0:0:0:
320,192,7689,1,0,0:0:0:0:
192,192,7920,1,0,0:0:0:0:
64,192,8035,1,0,0:0:0:0:
320,192,8151,1,0,0:0:0:0:
64,192,8382,1,0,0:0:0:0:
192,192,8497,1,0,0:0:0:0:
320,192,8612,1,0,0:0:0:0:
64,192,8959,1,0,0:0:0:0:
192,192,9305,1,0,0:0:0:0:
320,192,9305,1,0,0:0:0:0:
448,192,9535,1,0,0:0:0:0:
64,192,9535,128,0,11382:0:0:0:0:
320,192,9766,1,0,0:0:0:0:
192,192,9882,1,0,0:0:0:0:
320,192,9997,1,0,0:0:0:0:
448,192,10228,1,0,0:0:0:0:
320,192,10343,1,0,0:0:0:0:
192,192,10459,1,0,0:0:0:0:
320,192,10805,1,0,0:0:0:0:
448,192,11151,1,0,0:0:0:0:
320,192,11612,1,0,0:0:0:0:
192,192,11728,1,0,0:0:0:0:
320,192,11843,1,0,0:0:0:0:
64,192,12074,1,0,0:0:0:0:
192,192,12189,1,0,0:0:0:0:
320,192,12305,1,0,0:0:0:0:
448,192,12651,1,0,0:0:0:0:
320,192,12997,1,0,0:0:0:0:
64,192,13228,1,0,0:0:0:0:
192,192,13228,1,0,0:0:0:0:
448,192,13459,1,0,0:0:0:0:
320,192,13574,1,0,0:0:0:0:
448,192,13689,1,0,0:0:0:0:
192,192,13689,1,0,0:0:0:0:
320,192,13920,1,0,0:0:0:0:
448,192,14035,1,0,0:0:0:0:
320,192,14151,1,0,0:0:0:0:
64,192,14151,1,0,0:0:0:0:
64,192,14382,1,0,0:0:0:0:
448,192,14497,1,0,0:0:0:0:
192,192,14612,1,0,0:0:0:0:
320,192,14843,1,0,0:0:0:0:
448,192,15074,1,0,0:0:0:0:
64,192,15305,1,0,0:0:0:0:
192,192,15420,1,0,0:0:0:0:
320,192,15535,1,0,0:0:0:0:
64,192,15535,1,0,0:0:0:0:
192,192,15766,1,0,0:0:0:0:
64,192,15882,1,0,0:0:0:0:
448,192,15997,1,0,0:0:0:0:
192,192,15997,1,0,0:0:0:0:
448,192,16228,1,0,0:0:0:0:
64,192,16343,1,0,0:0:0:0:
320,192,16459,1,0,0:0:0:0:
192,192,16689,1,0,0:0:0:0:
64,192,16920,1,0,0:0:0:0:
448,192,17151,1,0,0:0:0:0:
320,192,17266,1,0,0:0:0:0:
192,192,17382,1,0,0:0:0:0:
448,192,17382,1,0,0:0:0:0:
320,192,17612,1,0,0:0:0:0:
448,192,17728,1,0,0:0:0:0:
64,192,17843,1,0,0:0:0:0:
320,192,17843,1,0,0:0:0:0:
64,192,18074,1,0,0:0:0:0:
448,192,18189,1,0,0:0:0:0:
192,192,18305,1,0,0:0:0:0:
320,192,18535,1,0,0:0:0:0:
192,192,18766,1,0,0:0:0:0:
448,192,18766,128,0,19228:0:0:0:0:
64,192,19228,1,0,0:0:0:0:
320,192,19228,128,0,19689:0:0:0:0:
448,192,19689,1,0,0:0:0:0:
192,192,19689,128,0,20151:0:0:0:0:
64,192,20151,128,0,20612:0:0:0:0:
320,192,20151,1,0,0:0:0:0:
192,192,20612,1,0,0:0:0:0:
448,192,20612,1,0,0:0:0:0:
320,192,20843,1,0,0:0:0:0:
64,192,20959,1,0,0:0:0:0:
192,192,21074,1,0,0:0:0:0:
320,192,21074,1,0,0:0:0:0:
64,192,21305,1,0,0:0:0:0:
320,192,21420,1,0,0:0:0:0:
448,192,21535,1,0,0:0:0:0:
64,192,21535,1,0,0:0:0:0:
448,192,21766,1,0,0:0:0:0:
320,192,21882,1,0,0:0:0:0:
192,192,21997,1,0,0:0:0:0:
448,192,22228,1,0,0:0:0:0:
64,192,22459,1,0,0:0:0:0:
192,192,22689,1,0,0:0:0:0:
448,192,22805,1,0,0:0:0:0:
320,192,22920,1,0,0:0:0:0:
192,192,22920,1,0,0:0:0:0:
448,192,23151,1,0,0:0:0:0:
192,192,23266,1,0,0:0:0:0:
64,192,23382,1,0,0:0:0:0:
448,192,23382,1,0,0:0:0:0:
64,192,23612,1,0,0:0:0:0:
192,192,23728,1,0,0:0:0:0:
320,192,23843,1,0,0:0:0:0:
64,192,24074,1,0,0:0:0:0:
448,192,24305,1,0,0:0:0:0:
320,192,24535,1,0,0:0:0:0:
64,192,24651,1,0,0:0:0:0:
192,192,24766,1,0,0:0:0:0:
320,192,24766,1,0,0:0:0:0:
64,192,24997,1,0,0:0:0:0:
320,192,25112,1,0,0:0:0:0:
448,192,25228,1,0,0:0:0:0:
64,192,25228,1,0,0:0:0:0:
448,192,25459,1,0,0:0:0:0:
320,192,25574,1,0,0:0:0:0:
192,192,25689,1,0,0:0:0:0:
448,192,25920,1,0,0:0:0:0:
192,192,26151,1,0,0:0:0:0:
64,192,26151,128,0,27997:0:0:0:0:
320,192,26382,1,0,0:0:0:0:
448,192,26612,1,0,0:0:0:0:
192,192,26843,1,0,0:0:0:0:
320,192,27074,1,0,0:0:0:0:
448,192,27305,1,0,0:0:0:0:
192,192,27535,1,0,0:0:0:0:
320,192,27766,1,0,0:0:0:0:
448,192,27997,128,0,29843:0:0:0:0:
192,192,28228,1,0,0:0:0:0:
320,192,28459,1,0,0:0:0:0:
64,192,28689,1,0,0:0:0:0:
192,192,28920,1,0,0:0:0:0:
64,192,29151,1,0,0:0:0:0:
320,192,29382,1,0,0:0:0:0:
192,192,29497,1,0,0:0:0:0:
64,192,29612,1,0,0:0:0:0:
320,192,29728,1,0,0:0:0:0:
192,192,29843,128,0,31689:0:0:0:0:
64,192,30074,1,0,0:0:0:0:
448,192,30305,1,0,0:0:0:0:
320,192,30535,1,0,0:0:0:0:
64,192,30766,1,0,0:0:0:0:
320,192,30997,1,0,0:0:0:0:
448,192,31228,1,0,0:0:0:0:
64,192,31459,1,0,0:0:0:0:
320,192,31689,128,0,32612:0:0:0:0:
64,192,31920,1,0,0:0:0:0:
192,192,32151,1,0,0:0:0:0:
448,192,32382,1,0,0:0:0:0:
192,192,32612,1,0,0:0:0:0:
64,192,32612,1,0,0:0:0:0:
320,192,32843,1,0,0:0:0:0:
448,192,32843,1,0,0:0:0:0:
192,192,33074,1,0,0:0:0:0:
64,192,33074,1,0,0:0:0:0:
320,192,33305,1,0,0:0:0:0:
448,192,33305,1,0,0:0:0:0:
192,192,33535,1,0,0:0:0:0:
64,192,33535,1,0,0:0:0:0:
320,192,33651,1,0,0:0:0:0:
448,192,33766,1,0,0:0:0:0:
64,192,33882,1,0,0:0:0:0:
192,192,33997,1,0,0:0:0:0:
320,192,34112,1,0,0:0:0:0:
64,192,34228,1,0,0:0:0:0:
192,192,34343,1,0,0:0:0:0:
320,192,34459,1,0,0:0:0:0:
448,192,34459,1,0,0:0:0:0:
192,192,34574,1,0,0:0:0:0:
64,192,34689,1,0,0:0:0:0:
448,192,34805,1,0,0:0:0:0:
320,192,34920,1,0,0:0:0:0:
192,192,35035,1,0,0:0:0:0:
448,192,35151,1,0,0:0:0:0:
320,192,35266,1,0,0:0:0:0:
64,192,35382,1,0,0:0:0:0:
192,192,35382,1,0,0:0:0:0:
320,192,35497,1,0,0:0:0:0:
448,192,35612,1,0,0:0:0:0:
64,192,35728,1,0,0:0:0:0:
192,192,35843,1,0,0:0:0:0:
320,192,35959,1,0,0:0:0:0:
448,192,36074,1,0,0:0:0:0:
192,192,36189,1,0,0:0:0:0:
64,192,36305,1,0,0:0:0:0:
320,192,36305,1,0,0:0:0:0:
448,192,36420,1,0,0:0:0:0:
192,192,36535,1,0,0:0:0:0:
64,192,36651,1,0,0:0:0:0:
320,192,36766,1,0,0:0:0:0:
192,192,36882,1,0,0:0:0:0:
448,192,36997,1,0,0:0:0:0:
320,192,37112,1,0,0:0:0:0:
64,192,39628,1,0,0:0:0:0:
448,192,39628,1,0,0:0:0:0:
192,192,39778,1,0,0:0:0:0:
320,192,39928,1,0,0:0:0:0:
448,192,40078,1,0,0:0:0:0:
64,192,40078,1,0,0:0:0:0:
192,192,40228,1,0,0:0:0:0:
320,192,40378,1,0,0:0:0:0:
64,192,40528,1,0,0:0:0:0:
448,192,40603,1,0,0:0:0:0:
320,192,40678,1,0,0:0:0:0:
192,192,40753,1,0,0:0:0:0:
64,192,40828,1,0,0:0:0:0:
448,192,40828,1,0,0:0:0:0:
320,192,40978,1,0,0:0:0:0:
192,192,41128,1,0,0:0:0:0:
64,192,41278,1,0,0:0:0:0:
448,192,41278,1,0,0:0:0:0:
320,192,41428,1,0,0:0:0:0:
192,192,41578,1,0,0:0:0:0:
448,192,41728,1,0,0:0:0:0:
64,192,41803,1,0,0:0:0:0:
192,192,41878,1,0,0:0:0:0:
320,192,41953,1,0,0:0:0:0:
448,192,42028,1,0,0:0:0:0:
64,192,42028,128,0,43228:0:0:0:0:
320,192,43228,1,0,0:0:0:0:
448,192,43228,128,0,44128:0:0:0:0:
64,192,44428,128,0,44728:0:0:0:0:
320,192,44428,1,0,0:0:0:0:
192,192,44728,1,0,0:0:0:0:
320,192,45028,1,0,0:0:0:0:
448,192,45028,128,0,45328:0:0:0:0:
192,192,45328,1,0,0:0:0:0:
64,192,45628,1,0,0:0:0:0:
320,192,45628,1,0,0:0:0:0:
192,192,45928,1,0,0:0:0:0:
448,192,45928,1,0,0:0:0:0:
320,192,46228,1,0,0:0:0:0:
64,192,46228,1,0,0:0:0:0:
448,192,46528,1,0,0:0:0:0:
64,192,46603,1,0,0:0:0:0:
320,192,46678,1,0,0:0:0:0:
192,192,46753,1,0,0:0:0:0:
448,192,46828,1,0,0:0:0:0:
64,192,46828,128,0,47428:0:0:0:0:
320,192,47128,1,0,0:0:0:0:
192,192,47128,1,0,0:0:0:0:
448,192,47428,128,0,48028:0:0:0:0:
320,192,47428,1,0,0:0:0:0:
192,192,47728,1,0,0:0:0:0:
64,192,47728,1,0,0:0:0:0:
320,192,48028,128,0,48928:0:0:0:0:
64,192,48028,1,0,0:0:0:0:
192,192,48328,1,0,0:0:0:0:
448,192,48328,1,0,0:0:0:0:
64,192,48628,1,0,0:0:0:0:
448,192,48628,1,0,0:0:0:0:
192,192,48928,1,0,0:0:0:0:
64,192,48928,1,0,0:0:0:0:
320,192,49078,1,0,0:0:0:0:
448,192,49078,1,0,0:0:0:0:
64,192,49228,1,0,0:0:0:0:
192,192,49228,128,0,49828:0:0:0:0:
320,192,49528,1,0,0:0:0:0:
448,192,49528,1,0,0:0:0:0:
320,192,49828,1,0,0:0:0:0:
64,192,49828,1,0,0:0:0:0:
192,192,50128,1,0,0:0:0:0:
448,192,50128,1,0,0:0:0:0:
320,192,50428,1,0,0:0:0:0:
64,192,50428,128,0,51028:0:0:0:0:
192,192,50728,1,0,0:0:0:0:
448,192,50728,1,0,0:0:0:0:
320,192,51028,1,0,0:0:0:0:
192,192,51178,1,0,0:0:0:0:
448,192,51328,1,0,0:0:0:0:
64,192,51403,1,0,0:0:0:0:
192,192,51478,1,0,0:0:0:0:
320,192,51553,1,0,0:0:0:0:
64,192,51628,128,0,52228:0:0:0:0:
448,192,51628,1,0,0:0:0:0:
320,192,51928,1,0,0:0:0:0:
192,192,51928,1,0,0:0:0:0:
320,192,52228,128,0,52828:0:0:0:0:
448,192,52228,1,0,0:0:0:0:
192,192,52528,1,0,0:0:0:0:
64,192,52528,1,0,0:0:0:0:
448,192,52828,128,0,53728:0:0:0:0:
192,192,52828,1,0,0:0:0:0:
64,192,53128,1,0,0:0:0:0:
320,192,53128,1,0,0:0:0:0:
192,192,53428,1,0,0:0:0:0:
320,192,53428,1,0,0:0:0:0:
64,192,53728,1,0,0:0:0:0:
192,192,53728,1,0,0:0:0:0:
320,192,54028,1,0,0:0:0:0:
448,192,54028,1,0,0:0:0:0:
64,192,54328,1,0,0:0:0:0:
192,192,54328,1,0,0:0:0:0:
192,192,54628,1,0,0:0:0:0:
320,192,54628,1,0,0:0:0:0:
320,192,54928,1,0,0:0:0:0:
448,192,54928,1,0,0:0:0:0:
192,192,55228,1,0,0:0:0:0:
448,192,55228,1,0,0:0:0:0:
320,192,55528,1,0,0:0:0:0:
192,192,55528,1,0,0:0:0:0:
64,192,55828,1,0,0:0:0:0:
320,192,55828,1,0,0:0:0:0:
448,192,56053,1,0,0:0:0:0:
192,192,56128,1,0,0:0:0:0:
64,192,56128,1,0,0:0:0:0:
320,192,56278,1,0,0:0:0:0:
64,192,56428,1,0,0:0:0:0:
448,192,56503,1,0,0:0:0:0:
320,192,56578,1,0,0:0:0:0:
192,192,56653,1,0,0:0:0:0:
64,192,56728,1,0,0:0:0:0:
448,192,56728,1,0,0:0:0:0:
192,192,57028,1,0,0:0:0:0:
320,192,57028,128,0,57628:0:0:0:0:
64,192,57328,1,0,0:0:0:0:
448,192,57328,1,0,0:0:0:0:
448,192,57628,1,0,0:0:0:0:
192,192,57628,128,0,58528:0:0:0:0:
320,192,57928,1,0,0:0:0:0:
64,192,57928,1,0,0:0:0:0:
448,192,58228,1,0,0:0:0:0:
320,192,58228,1,0,0:0:0:0:
64,192,58528,1,0,0:0:0:0:
448,192,58528,1,0,0:0:0:0:
192,192,58678,1,0,0:0:0:0:
320,192,58678,1,0,0:0:0:0:
448,192,58828,1,0,0:0:0:0:
64,192,58828,128,0,59428:0:0:0:0:
320,192,59128,1,0,0:0:0:0:
192,192,59128,1,0,0:0:0:0:
320,192,59428,1,0,0:0:0:0:
448,192,59428,1,0,0:0:0:0:
192,192,59728,1,0,0:0:0:0:
64,192,59728,1,0,0:0:0:0:
192,192,60028,1,0,0:0:0:0:
448,192,60028,128,0,60628:0:0:0:0:
320,192,60328,1,0,0:0:0:0:
64,192,60328,1,0,0:0:0:0:
192,192,60628,1,0,0:0:0:0:
320,192,60778,1,0,0:0:0:0:
448,192,60928,1,0,0:0:0:0:
64,192,61003,1,0,0:0:0:0:
192,192,61078,1,0,0:0:0:0:
320,192,61153,1,0,0:0:0:0:
448,192,61228,1,0,0:0:0:0:
64,192,61228,128,0,61828:0:0:0:0:
192,192,61528,1,0,0:0:0:0:
320,192,61528,1,0,0:0:0:0:
320,192,61828,128,0,62428:0:0:0:0:
448,192,61828,1,0,0:0:0:0:
192,192,62128,1,0,0:0:0:0:
64,192,62128,1,0,0:0:0:0:
448,192,62428,128,0,63328:0:0:0:0:
64,192,62428,1,0,0:0:0:0:
192,192,62728,1,0,0:0:0:0:
320,192,62728,1,0,0:0:0:0:
64,192,63028,1,0,0:0:0:0:
192,192,63028,1,0,0:0:0:0:
320,192,63328,1,0,0:0:0:0:
64,192,63328,1,0,0:0:0:0:
192,192,63628,1,0,0:0:0:0:
448,192,63628,1,0,0:0:0:0:
192,192,63928,1,0,0:0:0:0:
64,192,63928,1,0,0:0:0:0:
320,192,64228,1,0,0:0:0:0:
448,192,64228,1,0,0:0:0:0:
64,192,64528,1,0,0:0:0:0:
448,192,64528,1,0,0:0:0:0:
320,192,64828,1,0,0:0:0:0:
192,192,64828,1,0,0:0:0:0:
64,192,65128,1,0,0:0:0:0:
192,192,65128,1,0,0:0:0:0:
320,192,65428,1,0,0:0:0:0:
448,192,65428,1,0,0:0:0:0:
64,192,65653,1,0,0:0:0:0:
320,192,65728,1,0,0:0:0:0:
192,192,65728,1,0,0:0:0:0:
448,192,65953,1,0,0:0:0:0:
64,192,66028,1,0,0:0:0:0:
320,192,66028,1,0,0:0:0:0:
192,192,66128,1,0,0:0:0:0:
320,192,66228,1,0,0:0:0:0:
448,192,66328,1,0,0:0:0:0:
320,192,66428,1,0,0:0:0:0:
192,192,66528,1,0,0:0:0:0:
64,192,66628,1,0,0:0:0:0:
192,192,66728,1,0,0:0:0:0:
320,192,66828,1,0,0:0:0:0:
448,192,66928,1,0,0:0:0:0:
64,192,66928,1,0,0:0:0:0:
448,192,67228,1,0,0:0:0:0:
64,192,67228,1,0,0:0:0:0:
320,192,67328,1,0,0:0:0:0:
192,192,67428,1,0,0:0:0:0:
64,192,67528,1,0,0:0:0:0:
192,192,67628,1,0,0:0:0:0:
320,192,67728,1,0,0:0:0:0:
448,192,67828,1,0,0:0:0:0:
320,192,67928,1,0,0:0:0:0:
192,192,68028,1,0,0:0:0:0:
64,192,68128,1,0,0:0:0:0:
448,192,68128,1,0,0:0:0:0:
448,192,68428,1,0,0:0:0:0:
64,192,68428,1,0,0:0:0:0:
320,192,68528,1,0,0:0:0:0:
192,192,68628,1,0,0:0:0:0:
448,192,68728,1,0,0:0:0:0:
320,192,68828,1,0,0:0:0:0:
192,192,68928,1,0,0:0:0:0:
448,192,69028,1,0,0:0:0:0:
320,192,69128,1,0,0:0:0:0:
192,192,69228,1,0,0:0:0:0:
64,192,69328,1,0,0:0:0:0:
448,192,69328,1,0,0:0:0:0:
64,192,69628,1,0,0:0:0:0:
448,192,69628,1,0,0:0:0:0:
192,192,69728,1,0,0:0:0:0:
320,192,69828,1,0,0:0:0:0:
64,192,69928,1,0,0:0:0:0:
192,192,70028,1,0,0:0:0:0:
320,192,70128,1,0,0:0:0:0:
64,192,70228,1,0,0:0:0:0:
192,192,70328,1,0,0:0:0:0:
320,192,70428,1,0,0:0:0:0:
448,192,70528,1,0,0:0:0:0:
64,192,70528,1,0,0:0:0:0:
320,192,70828,1,0,0:0:0:0:
448,192,70828,1,0,0:0:0:0:
192,192,70928,1,0,0:0:0:0:
64,192,71028,1,0,0:0:0:0:
448,192,71128,1,0,0:0:0:0:
192,192,71228,1,0,0:0:0:0:
64,192,71328,1,0,0:0:0:0:
448,192,71428,1,0,0:0:0:0:
320,192,71528,1,0,0:0:0:0:
64,192,71628,1,0,0:0:0:0:
448,192,71728,1,0,0:0:0:0:
320,192,71828,1,0,0:0:0:0:
192,192,71928,1,0,0:0:0:0:
64,192,72028,1,0,0:0:0:0:
192,192,72128,1,0,0:0:0:0:
320,192,72228,1,0,0:0:0:0:
64,192,72328,1,0,0:0:0:0:
192,192,72428,1,0,0:0:0:0:
448,192,72528,1,0,0:0:0:0:
64,192,72628,1,0,0:0:0:0:
320,192,72728,1,0,0:0:0:0:
448,192,72828,1,0,0:0:0:0:
192,192,72928,1,0,0:0:0:0:
320,192,73028,1,0,0:0:0:0:
448,192,73128,1,0,0:0:0:0:
64,192,73228,1,0,0:0:0:0:
192,192,73303,1,0,0:0:0:0:
320,192,73378,1,0,0:0:0:0:
448,192,73453,1,0,0:0:0:0:
64,192,73528,1,0,0:0:0:0:
192,192,73603,1,0,0:0:0:0:
320,192,73678,1,0,0:0:0:0:
448,192,73753,1,0,0:0:0:0:
64,192,73828,1,0,0:0:0:0:
192,192,73903,1,0,0:0:0:0:
448,192,73978,1,0,0:0:0:0:
320,192,74053,1,0,0:0:0:0:
64,192,74128,1,0,0:0:0:0:
192,192,74203,1,0,0:0:0:0:
448,192,74278,1,0,0:0:0:0:
320,192,74353,1,0,0:0:0:0:
192,192,74428,1,0,0:0:0:0:
64,192,74428,128,0,75628:0:0:0:0:
320,192,75628,128,0,76828:0:0:0:0:
192,192,76828,1,0,0:0:0:0:
448,192,76828,1,0,0:0:0:0:
448,192,76978,1,0,0:0:0:0:
64,192,77128,1,0,0:0:0:0:
192,192,77203,1,0,0:0:0:0:
320,192,77278,1,0,0:0:0:0:
448,192,77353,1,0,0:0:0:0:
64,192,77428,1,0,0:0:0:0:
64,192,77578,1,0,0:0:0:0:
448,192,77728,1,0,0:0:0:0:
320,192,77803,1,0,0:0:0:0:
192,192,77878,1,0,0:0:0:0:
64,192,77953,1,0,0:0:0:0:
448,192,78028,1,0,0:0:0:0:
320,192,78103,1,0,0:0:0:0:
64,192,78178,1,0,0:0:0:0:
192,192,78253,1,0,0:0:0:0:
448,192,78328,1,0,0:0:0:0:
320,192,78403,1,0,0:0:0:0:
64,192,78478,1,0,0:0:0:0:
192,192,78553,1,0,0:0:0:0:
320,192,78628,1,0,0:0:0:0:
448,192,78703,1,0,0:0:0:0:
192,192,78778,1,0,0:0:0:0:
64,192,78853,1,0,0:0:0:0:
320,192,78928,1,0,0:0:0:0:
448,192,79003,1,0,0:0:0:0:
192,192,79078,1,0,0:0:0:0:
64,192,79153,1,0,0:0:0:0:
320,192,79228,1,0,0:0:0:0:
320,192,79378,1,0,0:0:0:0:
64,192,79528,1,0,0:0:0:0:
192,192,79603,1,0,0:0:0:0:
320,192,79678,1,0,0:0:0:0:
448,192,79753,1,0,0:0:0:0:
192,192,79828,1,0,0:0:0:0:
192,192,79978,1,0,0:0:0:0:
448,192,80128,1,0,0:0:0:0:
320,192,80203,1,0,0:0:0:0:
192,192,80278,1,0,0:0:0:0:
64,192,80353,1,0,0:0:0:0:
448,192,80428,1,0,0:0:0:0:
320,192,80503,1,0,0:0:0:0:
64,192,80578,1,0,0:0:0:0:
192,192,80653,1,0,0:0:0:0:
448,192,80728,1,0,0:0:0:0:
320,192,80803,1,0,0:0:0:0:
64,192,80878,1,0,0:0:0:0:
192,192,80953,1,0,0:0:0:0:
320,192,81028,1,0,0:0:0:0:
448,192,81028,1,0,0:0:0:0:
192,192,81178,1,0,0:0:0:0:
64,192,81328,1,0,0:0:0:0:
448,192,81328,1,0,0:0:0:0:
320,192,81478,1,0,0:0:0:0:
192,192,81628,1,0,0:0:0:0:
64,192,81628,1,0,0:0:0:0:
64,192,81778,1,0,0:0:0:0:
448,192,81928,1,0,0:0:0:0:
320,192,82003,1,0,0:0:0:0:
192,192,82078,1,0,0:0:0:0:
64,192,82153,1,0,0:0:0:0:
448,192,82228,1,0,0:0:0:0:
448,192,82378,1,0,0:0:0:0:
64,192,82528,1,0,0:0:0:0:
192,192,82603,1,0,0:0:0:0:
320,192,82678,1,0,0:0:0:0:
448,192,82753,1,0,0:0:0:0:
64,192,82828,1,0,0:0:0:0:
192,192,82903,1,0,0:0:0:0:
448,192,82978,1,0,0:0:0:0:
320,192,83053,1,0,0:0:0:0:
64,192,83128,1,0,0:0:0:0:
192,192,83203,1,0,0:0:0:0:
448,192,83278,1,0,0:0:0:0:
320,192,83353,1,0,0:0:0:0:
192,192,83428,1,0,0:0:0:0:
64,192,83503,1,0,0:0:0:0:
320,192,83578,1,0,0:0:0:0:
448,192,83653,1,0,0:0:0:0:
192,192,83728,1,0,0:0:0:0:
64,192,83803,1,0,0:0:0:0:
320,192,83878,1,0,0:0:0:0:
448,192,83953,1,0,0:0:0:0:
192,192,84028,1,0,0:0:0:0:
192,192,84178,1,0,0:0:0:0:
448,192,84328,1,0,0:0:0:0:
320,192,84403,1,0,0:0:0:0:
192,192,84478,1,0,0:0:0:0:
64,192,84553,1,0,0:0:0:0:
320,192,84628,1,0,0:0:0:0:
320,192,84778,1,0,0:0:0:0:
64,192,84928,1,0,0:0:0:0:
192,192,85003,1,0,0:0:0:0:
320,192,85078,1,0,0:0:0:0:
448,192,85153,1,0,0:0:0:0:
192,192,85228,1,0,0:0:0:0:
64,192,85228,1,0,0:0:0:0:
320,192,85303,1,0,0:0:0:0:
448,192,85378,1,0,0:0:0:0:
64,192,85453,1,0,0:0:0:0:
192,192,85528,1,0,0:0:0:0:
320,192,85603,1,0,0:0:0:0:
448,192,85678,1,0,0:0:0:0:
192,192,85753,1,0,0:0:0:0:
64,192,85828,1,0,0:0:0:0:
320,192,85828,1,0,0:0:0:0:
192,192,85978,1,0,0:0:0:0:
64,192,86128,1,0,0:0:0:0:
448,192,86128,1,0,0:0:0:0:
320,192,86278,1,0,0:0:0:0:
192,192,86428,1,0,0:0:0:0:
64,192,86428,1,0,0:0:0:0:
192,192,86578,1,0,0:0:0:0:
320,192,86653,1,0,0:0:0:0:
448,192,86728,1,0,0:0:0:0:
64,192,86728,1,0,0:0:0:0:
192,192,86803,1,0,0:0:0:0:
320,192,86878,1,0,0:0:0:0:
448,192,86953,1,0,0:0:0:0:
64,192,87028,1,0,0:0:0:0:
192,192,87103,1,0,0:0:0:0:
320,192,87178,1,0,0:0:0:0:
448,192,87253,1,0,0:0:0:0:
64,192,87328,1,0,0:0:0:0:
192,192,87403,1,0,0:0:0:0:
320,192,87478,1,0,0:0:0:0:
448,192,87553,1,0,0:0:0:0:
64,192,87628,1,0,0:0:0:0:
192,192,87703,1,0,0:0:0:0:
448,192,87778,1,0,0:0:0:0:
320,192,87853,1,0,0:0:0:0:
64,192,87928,1,0,0:0:0:0:
192,192,88003,1,0,0:0:0:0:
448,192,88078,1,0,0:0:0:0:
320,192,88153,1,0,0:0:0:0:
192,192,88228,1,0,0:0:0:0:
64,192,88303,1,0,0:0:0:0:
320,192,88378,1,0,0:0:0:0:
448,192,88453,1,0,0:0:0:0:
192,192,88528,1,0,0:0:0:0:
64,192,88603,1,0,0:0:0:0:
320,192,88678,1,0,0:0:0:0:
448,192,88753,1,0,0:0:0:0:
64,192,88828,1,0,0:0:0:0:
320,192,88903,1,0,0:0:0:0:
192,192,88978,1,0,0:0:0:0:
64,192,89053,1,0,0:0:0:0:
448,192,89128,1,0,0:0:0:0:
320,192,89203,1,0,0:0:0:0:
192,192,89278,1,0,0:0:0:0:
64,192,89353,1,0,0:0:0:0:
448,192,89428,1,0,0:0:0:0:
320,192,89503,1,0,0:0:0:0:
192,192,89578,1,0,0:0:0:0:
64,192,89653,1,0,0:0:0:0:
448,192,89728,1,0,0:0:0:0:
320,192,89803,1,0,0:0:0:0:
192,192,89878,1,0,0:0:0:0:
64,192,89953,1,0,0:0:0:0:
448,192,90028,1,0,0:0:0:0:
320,192,90103,1,0,0:0:0:0:
64,192,90178,1,0,0:0:0:0:
192,192,90253,1,0,0:0:0:0:
448,192,90328,1,0,0:0:0:0:
320,192,90403,1,0,0:0:0:0:
64,192,90478,1,0,0:0:0:0:
192,192,90553,1,0,0:0:0:0:
320,192,90628,1,0,0:0:0:0:
448,192,90628,1,0,0:0:0:0:
64,192,90778,1,0,0:0:0:0:
192,192,90928,1,0,0:0:0:0:
448,192,90928,1,0,0:0:0:0:
320,192,91078,1,0,0:0:0:0:
448,192,91228,1,0,0:0:0:0:
64,192,91228,1,0,0:0:0:0:
192,192,91378,1,0,0:0:0:0:
320,192,91378,1,0,0:0:0:0:
448,192,91528,1,0,0:0:0:0:
64,192,91528,1,0,0:0:0:0:
192,192,91603,1,0,0:0:0:0:
320,192,91678,1,0,0:0:0:0:
448,192,91753,1,0,0:0:0:0:
64,192,91828,1,0,0:0:0:0:
192,192,91903,1,0,0:0:0:0:
320,192,91978,1,0,0:0:0:0:
448,192,92053,1,0,0:0:0:0:
64,192,92128,1,0,0:0:0:0:
192,192,92203,1,0,0:0:0:0:
320,192,92278,1,0,0:0:0:0:
448,192,92353,1,0,0:0:0:0:
64,192,92428,1,0,0:0:0:0:
192,192,92503,1,0,0:0:0:0:
448,192,92578,1,0,0:0:0:0:
320,192,92653,1,0,0:0:0:0:
64,192,92728,1,0,0:0:0:0:
192,192,92803,1,0,0:0:0:0:
448,192,92878,1,0,0:0:0:0:
320,192,92953,1,0,0:0:0:0:
192,192,93028,1,0,0:0:0:0:
64,192,93103,1,0,0:0:0:0:
320,192,93178,1,0,0:0:0:0:
448,192,93253,1,0,0:0:0:0:
192,192,93328,1,0,0:0:0:0:
64,192,93403,1,0,0:0:0:0:
320,192,93478,1,0,0:0:0:0:
448,192,93553,1,0,0:0:0:0:
192,192,93628,1,0,0:0:0:0:
64,192,93628,1,0,0:0:0:0:
320,192,93778,1,0,0:0:0:0:
448,192,93778,1,0,0:0:0:0:
192,192,93928,1,0,0:0:0:0:
64,192,93928,1,0,0:0:0:0:
320,192,94078,1,0,0:0:0:0:
448,192,94078,1,0,0:0:0:0:
64,192,94228,1,0,0:0:0:0:
192,192,94228,1,0,0:0:0:0:
320,192,94303,1,0,0:0:0:0:
448,192,94378,1,0,0:0:0:0:
192,192,94453,1,0,0:0:0:0:
64,192,94528,1,0,0:0:0:0:
320,192,94603,1,0,0:0:0:0:
448,192,94678,1,0,0:0:0:0:
192,192,94753,1,0,0:0:0:0:
320,192,94828,1,0,0:0:0:0:
64,192,94828,128,0,95428:0:0:0:0:
448,192,95428,1,0,0:0:0:0:
320,192,95428,128,0,96028:0:0:0:0:
64,192,96028,1,0,0:0:0:0:
448,192,96028,128,0,98128:0:0:0:0:
192,192,96178,1,0,0:0:0:0:
320,192,96328,1,0,0:0:0:0:
64,192,96478,1,0,0:0:0:0:
192,192,96628,1,0,0:0:0:0:
320,192,96778,1,0,0:0:0:0:
64,192,96928,1,0,0:0:0:0:
192,192,97078,1,0,0:0:0:0:
320,192,97228,1,0,0:0:0:0:
192,192,97378,1,0,0:0:0:0:
64,192,97528,1,0,0:0:0:0:
320,192,97678,1,0,0:0:0:0:
192,192,97828,1,0,0:0:0:0:
64,192,97978,1,0,0:0:0:0:
320,192,98128,1,0,0:0:0:0:
192,192,98203,1,0,0:0:0:0:
64,192,98278,1,0,0:0:0:0:
320,192,98353,1,0,0:0:0:0:
448,192,98428,1,0,0:0:0:0:
192,192,98428,128,0,100528:0:0:0:0:
448,192,98728,1,0,0:0:0:0:
320,192,98878,1,0,0:0:0:0:
320,192,99178,1,0,0:0:0:0:
64,192,99328,1,0,0:0:0:0:
64,192,99628,1,0,0:0:0:0:
448,192,99778,1,0,0:0:0:0:
448,192,100078,1,0,0:0:0:0:
320,192,100228,1,0,0:0:0:0:
448,192,100528,1,0,0:0:0:0:
320,192,100628,1,0,0:0:0:0:
192,192,100728,1,0,0:0:0:0:
448,192,100828,1,0,0:0:0:0:
64,192,100828,128,0,102928:0:0:0:0:
320,192,100978,1,0,0:0:0:0:
192,192,101128,1,0,0:0:0:0:
448,192,101278,1,0,0:0:0:0:
320,192,101428,1,0,0:0:0:0:
192,192,101578,1,0,0:0:0:0:
448,192,101728,1,0,0:0:0:0:
320,192,101878,1,0,0:0:0:0:
192,192,102028,1,0,0:0:0:0:
320,192,102178,1,0,0:0:0:0:
448,192,102328,1,0,0:0:0:0:
192,192,102478,1,0,0:0:0:0:
320,192,102628,1,0,0:0:0:0:
448,192,102778,1,0,0:0:0:0:
192,192,102928,1,0,0:0:0:0:
320,192,103003,1,0,0:0:0:0:
448,192,103078,1,0,0:0:0:0:
192,192,103153,1,0,0:0:0:0:
64,192,103228,128,0,103528:0:0:0:0:
448,192,103528,1,0,0:0:0:0:
320,192,103528,128,0,105328:0:0:0:0:
192,192,103678,1,0,0:0:0:0:
192,192,103978,1,0,0:0:0:0:
64,192,104128,1,0,0:0:0:0:
64,192,104428,1,0,0:0:0:0:
448,192,104578,1,0,0:0:0:0:
448,192,104878,1,0,0:0:0:0:
192,192,105028,1,0,0:0:0:0:
192,192,105328,128,0,105628:0:0:0:0:
320,192,105628,1,0,0:0:0:0:
448,192,105628,1,0,0:0:0:0:
64,192,105778,1,0,0:0:0:0:
64,192,105928,1,0,0:0:0:0:
192,192,105928,1,0,0:0:0:0:
320,192,106078,1,0,0:0:0:0:
320,192,106228,1,0,0:0:0:0:
448,192,106228,1,0,0:0:0:0:
192,192,106378,1,0,0:0:0:0:
192,192,106528,1,0,0:0:0:0:
64,192,106528,1,0,0:0:0:0:
448,192,106678,1,0,0:0:0:0:
448,192,106828,1,0,0:0:0:0:
192,192,106828,1,0,0:0:0:0:
320,192,106978,1,0,0:0:0:0:
320,192,107128,1,0,0:0:0:0:
64,192,107128,1,0,0:0:0:0:
192,192,107278,1,0,0:0:0:0:
192,192,107428,1,0,0:0:0:0:
448,192,107428,1,0,0:0:0:0:
64,192,107578,1,0,0:0:0:0:
64,192,107728,1,0,0:0:0:0:
320,192,107728,1,0,0:0:0:0:
448,192,107803,1,0,0:0:0:0:
192,192,107878,1,0,0:0:0:0:
320,192,107953,1,0,0:0:0:0:
448,192,108028,1,0,0:0:0:0:
64,192,108028,1,0,0:0:0:0:
192,192,108178,1,0,0:0:0:0:
192,192,108328,1,0,0:0:0:0:
448,192,108328,1,0,0:0:0:0:
320,192,108478,1,0,0:0:0:0:
320,192,108628,1,0,0:0:0:0:
64,192,108628,1,0,0:0:0:0:
448,192,108778,1,0,0:0:0:0:
448,192,108928,1,0,0:0:0:0:
192,192,108928,1,0,0:0:0:0:
64,192,109078,1,0,0:0:0:0:
64,192,109228,1,0,0:0:0:0:
192,192,109228,1,0,0:0:0:0:
448,192,109378,1,0,0:0:0:0:
448,192,109528,1,0,0:0:0:0:
320,192,109528,1,0,0:0:0:0:
192,192,109678,1,0,0:0:0:0:
192,192,109828,1,0,0:0:0:0:
64,192,109828,1,0,0:0:0:0:
320,192,109978,1,0,0:0:0:0:
320,192,110128,1,0,0:0:0:0:
448,192,110128,1,0,0:0:0:0:
192,192,110228,1,0,0:0:0:0:
64,192,110328,1,0,0:0:0:0:
320,192,110428,1,0,0:0:0:0:
448,192,110428,1,0,0:0:0:0:
192,192,110578,1,0,0:0:0:0:
192,192,110728,1,0,0:0:0:0:
64,192,110728,1,0,0:0:0:0:
320,192,110878,1,0,0:0:0:0:
320,192,111028,1,0,0:0:0:0:
448,192,111028,1,0,0:0:0:0:
64,192,111178,1,0,0:0:0:0:
64,192,111328,1,0,0:0:0:0:
448,192,111328,1,0,0:0:0:0:
192,192,111478,1,0,0:0:0:0:
320,192,111478,1,0,0:0:0:0:
448,192,111628,1,0,0:0:0:0:
64,192,111628,1,0,0:0:0:0:
320,192,111728,1,0,0:0:0:0:
192,192,111828,1,0,0:0:0:0:
64,192,111928,1,0,0:0:0:0:
448,192,111928,1,0,0:0:0:0:
320,192,112028,1,0,0:0:0:0:
192,192,112128,1,0,0:0:0:0:
64,192,112228,1,0,0:0:0:0:
448,192,112228,1,0,0:0:0:0:
320,192,112303,1,0,0:0:0:0:
192,192,112378,1,0,0:0:0:0:
64,192,112453,1,0,0:0:0:0:
320,192,112528,1,0,0:0:0:0:
192,192,112603,1,0,0:0:0:0:
320,192,112678,1,0,0:0:0:0:
448,192,112753,1,0,0:0:0:0:
192,192,112828,1,0,0:0:0:0:
64,192,112828,1,0,0:0:0:0:
192,192,112978,1,0,0:0:0:0:
320,192,112978,1,0,0:0:0:0:
320,192,113128,1,0,0:0:0:0:
448,192,113128,1,0,0:0:0:0:
192,192,113278,1,0,0:0:0:0:
64,192,113278,1,0,0:0:0:0:
192,192,113428,1,0,0:0:0:0:
320,192,113428,1,0,0:0:0:0:
320,192,113578,1,0,0:0:0:0:
448,192,113578,1,0,0:0:0:0:
192,192,113728,1,0,0:0:0:0:
64,192,113728,1,0,0:0:0:0:
320,192,113878,1,0,0:0:0:0:
192,192,113878,1,0,0:0:0:0:
320,192,114028,1,0,0:0:0:0:
448,192,114028,1,0,0:0:0:0:
320,192,114178,1,0,0:0:0:0:
192,192,114178,1,0,0:0:0:0:
192,192,114328,1,0,0:0:0:0:
64,192,114328,1,0,0:0:0:0:
320,192,114478,1,0,0:0:0:0:
448,192,114478,1,0,0:0:0:0:
320,192,114628,1,0,0:0:0:0:
192,192,114628,1,0,0:0:0:0:
192,192,114778,1,0,0:0:0:0:
64,192,114778,1,0,0:0:0:0:
448,192,114928,1,0,0:0:0:0:
320,192,115003,1,0,0:0:0:0:
192,192,115078,1,0,0:0:0:0:
64,192,115153,1,0,0:0:0:0:
448,192,115528,1,0,0:0:0:0:
64,192,115528,128,0,117628:0:0:0:0:
192,192,117428,1,0,0:0:0:0:
320,192,117528,1,0,0:0:0:0:
448,192,117628,1,0,0:0:0:0:
192,192,117628,1,0,0:0:0:0:
