osu file format v14

[General]
AudioFilename: audio.mp3
AudioLeadIn: 0
PreviewTime: 97018
Countdown: 0
SampleSet: Normal
StackLeniency: 0.7
Mode: 1
LetterboxInBreaks: 0
WidescreenStoryboard: 0

[Editor]
DistanceSpacing: 1
BeatDivisor: 4
GridSize: 32
TimelineZoom: 2.9

[Metadata]
Title:Touhou Youyoumu ULTIMATE MEDLEY
TitleUnicode:東方妖々夢 ULTIMATE MEDLEY
Artist:uma vs. Morimori Atsushi
ArtistUnicode:uma vs. モリモリあつし
Creator:komasy
Version:Oni
Source:SOUND VOLTEX III GRAVITY WARS
Tags:SDVX ZUN Shanghai Alice 上海アリス Perfect Cherry Blossom
BeatmapID:1820575
BeatmapSetID:871329

[Difficulty]
HPDrainRate:5
CircleSize:6
OverallDifficulty:6
ApproachRate:5
SliderMultiplier:1.4
SliderTickRate:1

[Events]
//Background and Video events
0,0,"aenyycma35s.jpg",0,90
//Break Periods
//Storyboard Layer 0 (Background)
//Storyboard Layer 1 (Fail)
//Storyboard Layer 2 (Pass)
//Storyboard Layer 3 (Foreground)
//Storyboard Sound Samples

[TimingPoints]
542,272.727272727273,4,1,0,90,1,0
2723,272.727272727273,3,1,0,90,1,0
7632,272.727272727273,4,1,0,90,1,0
7700,-125,4,1,0,70,0,0
11382,-117.647058823529,4,1,0,70,0,0
11654,-111.111111111111,4,1,0,70,0,0
11791,-105.263157894737,4,1,0,70,0,0
11927,-100,4,1,0,80,0,0
16427,-100,4,1,0,90,0,0
25018,-100,4,1,0,80,0,0
33745,-100,4,1,0,90,0,0
42472,-100,4,1,0,100,0,0
51200,-100,4,1,0,90,0,0
79563,-100,4,1,0,100,0,0
79632,-100,4,1,0,100,0,1
87268,-100,4,1,0,100,0,0
88359,-100,4,1,0,100,0,1
95995,-100,4,1,0,100,0,0
97086,-100,4,1,0,100,0,1
112359,-100,4,1,0,100,0,0
112427,-100,4,1,0,80,0,0
113109,-111.111111111111,4,1,0,60,0,0
113722,-111.111111111111,4,1,0,40,0,0
114541,-125,4,1,0,20,0,0
115359,-142.857142857143,4,1,0,10,0,0

[HitObjects]
320,192,542,5,4,0:0:0:0:
288,64,814,1,8,0:0:0:0:
320,224,1087,1,4,0:0:0:0:
320,224,1223,1,4,0:0:0:0:
320,160,1360,1,8,0:0:0:0:
320,192,1428,1,8,0:0:0:0:
352,96,1496,1,8,0:0:0:0:
96,224,1632,1,4,0:0:0:0:
352,96,2451,1,8,0:0:0:0:
352,96,2587,1,8,0:0:0:0:
288,224,2723,1,4,0:0:0:0:
288,224,2995,1,8,0:0:0:0:
288,224,3268,1,8,0:0:0:0:
288,224,3404,1,8,0:0:0:0:
288,224,3541,1,0,0:0:0:0:
288,224,3813,1,8,0:0:0:0:
288,224,4086,1,8,0:0:0:0:
416,128,4359,1,4,0:0:0:0:
320,192,4632,1,12,0:0:0:0:
256,288,4904,1,12,0:0:0:0:
288,224,5041,1,0,0:0:0:0:
288,224,5177,1,12,0:0:0:0:
224,160,5450,1,8,0:0:0:0:
256,160,5518,1,8,0:0:0:0:
224,160,5586,1,0,0:0:0:0:
224,160,5723,1,12,0:0:0:0:
320,160,5995,1,4,0:0:0:0:
224,96,6268,1,0,0:0:0:0:
160,128,6404,1,8,0:0:0:0:
96,160,6541,1,0,0:0:0:0:
160,128,6677,1,8,0:0:0:0:
192,96,6813,1,4,0:0:0:0:
320,160,7086,1,8,0:0:0:0:
320,96,7223,1,0,0:0:0:0:
384,32,7359,1,8,0:0:0:0:
352,192,7427,1,8,0:0:0:0:
384,192,7495,1,8,0:0:0:0:
384,224,7632,1,0,0:0:0:0:
384,96,7904,1,8,0:0:0:0:
288,224,8177,1,0,0:0:0:0:
288,96,8450,1,0,0:0:0:0:
288,128,8586,1,8,0:0:0:0:
288,192,8722,1,8,0:0:0:0:
416,96,8995,1,0,0:0:0:0:
320,96,9132,1,8,0:0:0:0:
320,96,9200,1,8,0:0:0:0:
320,96,9268,1,8,0:0:0:0:
320,224,9541,1,8,0:0:0:0:
320,160,9677,1,8,0:0:0:0:
256,160,9813,1,0,0:0:0:0:
256,160,10086,1,8,0:0:0:0:
288,32,10359,1,0,0:0:0:0:
256,160,10632,1,0,0:0:0:0:
288,96,10768,1,8,0:0:0:0:
288,96,10904,1,8,0:0:0:0:
256,384,11450,1,12,0:0:0:0:
256,256,11722,1,8,0:0:0:0:
288,192,11859,1,8,0:0:0:0:
320,128,11995,1,0,0:0:0:0:
320,128,12268,1,8,0:0:0:0:
320,128,12541,1,8,0:0:0:0:
320,128,12813,1,8,0:0:0:0:
224,128,12950,1,0,0:0:0:0:
320,128,13086,1,8,0:0:0:0:
320,128,13359,1,8,0:0:0:0:
384,96,13495,1,0,0:0:0:0:
384,96,13563,1,0,0:0:0:0:
320,128,13632,1,8,0:0:0:0:
320,128,13904,1,8,0:0:0:0:
384,128,14041,1,8,0:0:0:0:
320,128,14177,1,0,0:0:0:0:
384,96,14313,1,8,0:0:0:0:
448,64,14450,1,8,0:0:0:0:
448,64,14586,1,8,0:0:0:0:
384,64,14722,1,0,0:0:0:0:
384,64,14791,1,0,0:0:0:0:
384,64,14859,1,8,0:0:0:0:
384,96,14995,1,0,0:0:0:0:
384,64,15063,1,8,0:0:0:0:
384,64,15132,1,8,0:0:0:0:
384,128,15268,1,4,0:0:0:0:
288,160,15472,1,12,0:0:0:0:
288,160,15677,1,4,0:0:0:0:
288,160,15813,1,12,0:0:0:0:
416,160,16086,1,8,0:0:0:0:
384,160,16154,1,8,0:0:0:0:
384,160,16222,1,8,0:0:0:0:
384,160,16359,1,4,0:0:0:0:
256,128,16632,1,8,0:0:0:0:
320,128,16768,1,0,0:0:0:0:
320,128,17041,1,0,0:0:0:0:
320,128,17177,1,8,0:0:0:0:
320,256,17450,1,0,0:0:0:0:
224,160,17722,1,8,0:0:0:0:
256,96,17859,1,8,0:0:0:0:
224,160,17995,1,8,0:0:0:0:
256,96,18268,1,8,0:0:0:0:
256,96,18541,1,0,0:0:0:0:
256,96,18813,1,8,0:0:0:0:
256,96,18950,1,0,0:0:0:0:
256,96,19222,1,0,0:0:0:0:
256,96,19359,1,8,0:0:0:0:
320,192,19632,1,4,0:0:0:0:
256,64,19904,1,12,0:0:0:0:
320,192,20177,1,4,0:0:0:0:
256,96,20450,1,12,0:0:0:0:
384,160,20722,1,4,0:0:0:0:
448,192,20995,1,8,0:0:0:0:
448,192,21132,1,0,0:0:0:0:
448,192,21404,1,0,0:0:0:0:
448,192,21541,1,8,0:0:0:0:
448,192,21813,1,4,0:0:0:0:
448,192,22086,1,8,0:0:0:0:
384,192,22222,1,8,0:0:0:0:
448,192,22495,1,0,0:0:0:0:
448,192,22632,1,8,0:0:0:0:
448,192,22904,1,4,0:0:0:0:
448,192,23177,1,8,0:0:0:0:
448,192,23313,1,4,0:0:0:0:
448,192,23586,1,8,0:0:0:0:
448,192,23722,1,4,0:0:0:0:
256,160,24132,1,12,0:0:0:0:
320,160,24268,1,4,0:0:0:0:
256,160,24404,1,4,0:0:0:0:
320,160,24541,1,12,0:0:0:0:
320,128,25086,1,0,0:0:0:0:
192,192,25359,1,0,0:0:0:0:
320,96,25632,1,0,0:0:0:0:
224,160,25904,1,0,0:0:0:0:
224,160,26177,1,0,0:0:0:0:
224,160,26450,1,0,0:0:0:0:
224,160,26722,1,0,0:0:0:0:
224,160,26995,1,0,0:0:0:0:
224,160,27268,1,8,0:0:0:0:
224,160,27541,1,0,0:0:0:0:
224,160,27813,1,0,0:0:0:0:
224,160,28086,1,0,0:0:0:0:
224,160,28359,1,0,0:0:0:0:
224,160,28632,1,0,0:0:0:0:
224,160,28904,1,0,0:0:0:0:
448,0,29450,1,0,0:0:0:0:
384,32,29586,1,8,0:0:0:0:
320,64,29722,1,8,0:0:0:0:
256,96,29859,1,0,0:0:0:0:
192,128,29995,1,8,0:0:0:0:
192,128,30268,1,0,0:0:0:0:
256,160,30404,1,8,0:0:0:0:
192,128,30541,1,8,0:0:0:0:
192,128,30677,1,0,0:0:0:0:
192,128,30813,1,8,0:0:0:0:
192,128,30950,1,8,0:0:0:0:
224,96,31018,1,8,0:0:0:0:
192,128,31086,1,8,0:0:0:0:
192,128,31359,1,8,0:0:0:0:
192,128,31495,1,8,0:0:0:0:
192,128,31632,1,0,0:0:0:0:
256,128,31768,1,8,0:0:0:0:
288,32,31904,1,8,0:0:0:0:
320,96,32041,1,0,0:0:0:0:
288,128,32177,1,8,0:0:0:0:
256,64,32450,1,0,0:0:0:0:
288,96,32586,1,8,0:0:0:0:
352,96,32722,1,8,0:0:0:0:
416,128,32859,1,0,0:0:0:0:
256,64,32995,1,8,0:0:0:0:
279,83,33063,1,8,0:0:0:0:
288,96,33132,1,8,0:0:0:0:
128,32,33268,1,0,0:0:0:0:
224,128,33541,1,8,0:0:0:0:
384,64,33813,1,4,0:0:0:0:
288,128,34086,1,8,0:0:0:0:
192,96,34222,1,0,0:0:0:0:
320,96,34495,1,0,0:0:0:0:
384,128,34632,1,0,0:0:0:0:
416,192,34768,1,8,0:0:0:0:
128,64,34904,1,0,0:0:0:0:
256,96,35177,1,8,0:0:0:0:
320,96,35313,1,0,0:0:0:0:
192,64,35586,1,0,0:0:0:0:
288,64,35722,1,12,0:0:0:0:
384,64,35995,1,4,0:0:0:0:
288,128,36268,1,8,0:0:0:0:
192,96,36404,1,0,0:0:0:0:
320,96,36677,1,0,0:0:0:0:
384,128,36813,1,0,0:0:0:0:
416,192,36950,1,8,0:0:0:0:
128,64,37086,1,0,0:0:0:0:
188,91,37222,1,8,0:0:0:0:
256,96,37359,1,8,0:0:0:0:
320,96,37495,1,0,0:0:0:0:
339,81,37768,1,8,0:0:0:0:
319,61,37836,1,8,0:0:0:0:
300,42,37904,1,8,0:0:0:0:
224,96,38177,1,4,0:0:0:0:
288,192,38450,1,8,0:0:0:0:
416,32,38586,1,0,0:0:0:0:
352,160,38859,1,0,0:0:0:0:
320,224,38995,1,0,0:0:0:0:
320,160,39132,1,8,0:0:0:0:
288,96,39268,1,4,0:0:0:0:
320,128,39541,1,8,0:0:0:0:
256,32,39677,1,0,0:0:0:0:
256,32,39950,1,0,0:0:0:0:
256,32,40086,1,12,0:0:0:0:
288,160,40359,1,4,0:0:0:0:
416,128,40632,1,8,0:0:0:0:
416,192,40768,1,0,0:0:0:0:
256,288,40904,1,8,0:0:0:0:
256,224,41041,1,0,0:0:0:0:
320,96,41313,1,0,0:0:0:0:
224,224,41450,1,8,0:0:0:0:
224,192,41518,1,8,0:0:0:0:
192,256,41586,1,8,0:0:0:0:
256,256,41722,1,0,0:0:0:0:
256,256,41791,1,0,0:0:0:0:
320,224,41859,1,0,0:0:0:0:
384,224,41995,1,8,0:0:0:0:
288,160,42132,1,0,0:0:0:0:
352,160,42268,1,12,0:0:0:0:
480,128,42541,1,4,0:0:0:0:
352,128,42813,1,0,0:0:0:0:
288,128,42950,1,8,0:0:0:0:
224,160,43086,1,0,0:0:0:0:
192,160,43359,1,0,0:0:0:0:
192,160,43495,1,8,0:0:0:0:
160,224,43632,1,0,0:0:0:0:
160,224,43700,1,0,0:0:0:0:
224,160,43768,1,0,0:0:0:0:
192,160,43904,1,8,0:0:0:0:
192,160,44041,1,0,0:0:0:0:
352,160,44313,1,12,0:0:0:0:
288,160,44450,1,12,0:0:0:0:
224,160,44586,1,12,0:0:0:0:
224,160,44722,1,12,0:0:0:0:
288,160,44995,1,8,0:0:0:0:
352,192,45132,1,0,0:0:0:0:
288,160,45268,1,8,0:0:0:0:
288,160,45541,1,8,0:0:0:0:
320,192,45677,1,0,0:0:0:0:
320,128,45813,1,8,0:0:0:0:
288,96,45882,1,8,0:0:0:0:
320,128,45950,1,8,0:0:0:0:
384,128,46086,1,0,0:0:0:0:
416,128,46222,1,0,0:0:0:0:
352,128,46359,1,12,0:0:0:0:
224,128,46632,1,12,0:0:0:0:
352,96,46904,1,0,0:0:0:0:
288,96,47041,1,0,0:0:0:0:
320,160,47177,1,12,0:0:0:0:
224,224,47450,1,0,0:0:0:0:
192,192,47722,1,0,0:0:0:0:
256,160,47859,1,8,0:0:0:0:
416,64,47995,1,4,0:0:0:0:
386,164,48200,1,0,0:0:0:0:
320,160,48268,1,0,0:0:0:0:
384,192,48404,1,8,0:0:0:0:
384,192,48541,1,0,0:0:0:0:
352,128,48677,1,0,0:0:0:0:
320,128,48745,1,0,0:0:0:0:
352,96,48813,1,8,0:0:0:0:
320,160,48950,1,8,0:0:0:0:
256,96,49086,1,0,0:0:0:0:
320,160,49222,1,8,0:0:0:0:
320,160,49359,1,8,0:0:0:0:
320,160,49495,1,0,0:0:0:0:
320,160,49563,1,0,0:0:0:0:
320,160,49632,1,8,0:0:0:0:
320,160,49768,1,8,0:0:0:0:
320,160,49904,1,8,0:0:0:0:
320,160,50041,1,0,0:0:0:0:
288,160,50109,1,0,0:0:0:0:
320,160,50177,1,8,0:0:0:0:
320,160,50313,1,0,0:0:0:0:
320,160,50450,1,8,0:0:0:0:
320,192,50518,1,8,0:0:0:0:
320,160,50586,1,0,0:0:0:0:
320,160,50654,1,0,0:0:0:0:
320,160,50722,1,8,0:0:0:0:
448,192,50995,1,8,0:0:0:0:
448,192,51268,1,4,0:0:0:0:
320,192,51541,1,0,0:0:0:0:
352,224,51677,1,0,0:0:0:0:
384,224,51813,1,8,0:0:0:0:
320,128,52086,1,0,0:0:0:0:
320,96,52222,1,2,0:0:0:0:
256,160,52359,1,0,0:0:0:0:
288,160,52427,1,0,0:0:0:0:
288,160,52495,1,0,0:0:0:0:
320,160,52632,1,8,0:0:0:0:
320,160,52768,1,8,0:0:0:0:
320,160,52904,1,0,0:0:0:0:
256,64,53177,1,8,0:0:0:0:
320,192,53450,1,0,0:0:0:0:
192,160,53722,1,0,0:0:0:0:
256,160,53859,1,0,0:0:0:0:
224,224,53995,1,8,0:0:0:0:
256,160,54132,1,8,0:0:0:0:
224,192,54268,1,0,0:0:0:0:
288,160,54404,1,8,0:0:0:0:
224,192,54541,1,0,0:0:0:0:
256,192,54609,1,0,0:0:0:0:
288,224,54677,1,0,0:0:0:0:
320,192,54813,1,8,0:0:0:0:
352,160,54995,1,8,0:0:0:0:
352,160,55086,1,0,0:0:0:0:
480,160,55359,1,12,0:0:0:0:
352,160,55632,1,4,0:0:0:0:
192,160,55904,1,8,0:0:0:0:
256,96,56041,1,0,0:0:0:0:
320,192,56313,1,0,0:0:0:0:
320,192,56450,1,8,0:0:0:0:
352,64,56722,1,0,0:0:0:0:
352,96,56791,1,0,0:0:0:0:
320,128,56859,1,0,0:0:0:0:
384,128,56995,1,8,0:0:0:0:
384,128,57132,1,8,0:0:0:0:
288,160,57404,1,0,0:0:0:0:
224,160,57541,1,8,0:0:0:0:
256,160,57813,1,0,0:0:0:0:
320,128,57950,1,0,0:0:0:0:
288,96,58086,1,8,0:0:0:0:
384,96,58222,1,0,0:0:0:0:
384,96,58359,1,0,0:0:0:0:
384,96,58427,1,0,0:0:0:0:
288,96,58495,1,0,0:0:0:0:
352,96,58632,1,8,0:0:0:0:
384,96,58768,1,8,0:0:0:0:
384,96,58904,1,0,0:0:0:0:
416,128,58972,1,0,0:0:0:0:
448,160,59041,1,0,0:0:0:0:
448,160,59177,1,8,0:0:0:0:
416,64,59359,1,8,0:0:0:0:
416,0,59450,1,0,0:0:0:0:
448,128,59722,1,8,0:0:0:0:
384,256,59995,1,4,0:0:0:0:
288,160,60268,1,8,0:0:0:0:
224,64,60541,1,0,0:0:0:0:
288,96,60677,1,0,0:0:0:0:
288,96,60813,1,8,0:0:0:0:
288,96,60950,1,0,0:0:0:0:
288,96,61018,1,0,0:0:0:0:
288,96,61086,1,0,0:0:0:0:
224,128,61222,1,0,0:0:0:0:
320,32,61359,1,8,0:0:0:0:
320,64,61632,1,8,0:0:0:0:
320,64,61768,1,0,0:0:0:0:
320,64,61904,1,8,0:0:0:0:
288,96,61972,1,8,0:0:0:0:
320,64,62041,1,8,0:0:0:0:
320,64,62177,1,0,0:0:0:0:
288,224,62450,1,0,0:0:0:0:
64,192,62722,1,8,0:0:0:0:
128,192,62813,1,8,0:0:0:0:
192,192,62904,1,8,0:0:0:0:
224,192,62995,1,0,0:0:0:0:
352,224,63268,1,8,0:0:0:0:
352,224,63404,1,8,0:0:0:0:
352,224,63541,1,0,0:0:0:0:
352,224,63632,1,0,0:0:0:0:
320,256,63722,1,0,0:0:0:0:
352,224,63813,1,8,0:0:0:0:
384,192,64086,1,0,0:0:0:0:
352,224,64222,1,0,0:0:0:0:
416,256,64359,1,8,0:0:0:0:
256,128,64632,1,8,0:0:0:0:
384,128,64768,1,0,0:0:0:0:
224,96,65041,1,0,0:0:0:0:
160,128,65177,1,8,0:0:0:0:
205,163,65313,1,8,0:0:0:0:
222,176,65382,1,8,0:0:0:0:
224,128,65450,1,0,0:0:0:0:
221,163,65722,1,8,0:0:0:0:
280,154,65859,1,0,0:0:0:0:
320,96,66132,1,0,0:0:0:0:
320,96,66268,1,8,0:0:0:0:
384,128,66404,1,8,0:0:0:0:
352,160,66472,1,8,0:0:0:0:
352,192,66541,1,0,0:0:0:0:
279,178,66677,1,0,0:0:0:0:
352,192,66813,1,8,0:0:0:0:
384,64,66950,1,0,0:0:0:0:
352,192,67222,1,0,0:0:0:0:
416,224,67359,1,8,0:0:0:0:
352,160,67495,1,8,0:0:0:0:
320,128,67563,1,8,0:0:0:0:
352,192,67632,1,0,0:0:0:0:
308,155,67768,1,0,0:0:0:0:
352,192,67904,1,8,0:0:0:0:
352,192,68041,1,0,0:0:0:0:
332,168,68109,1,0,0:0:0:0:
287,226,68177,1,8,0:0:0:0:
352,192,68313,1,0,0:0:0:0:
416,224,68450,1,8,0:0:0:0:
320,160,68722,1,4,0:0:0:0:
256,64,68927,1,12,0:0:0:0:
320,160,69132,1,12,0:0:0:0:
288,96,69268,1,4,0:0:0:0:
288,96,69472,1,12,0:0:0:0:
288,96,69677,1,12,0:0:0:0:
288,96,69813,1,4,0:0:0:0:
288,128,70086,1,8,0:0:0:0:
288,128,70222,1,0,0:0:0:0:
288,128,70359,1,8,0:0:0:0:
256,160,70427,1,8,0:0:0:0:
277,145,70495,1,0,0:0:0:0:
192,256,70632,1,8,0:0:0:0:
288,160,70904,1,4,0:0:0:0:
288,160,71313,1,4,0:0:0:0:
256,96,71722,1,8,0:0:0:0:
224,160,71859,1,8,0:0:0:0:
32,352,71995,1,4,0:0:0:0:
192,224,72404,1,4,0:0:0:0:
323,155,72677,1,8,0:0:0:0:
320,128,72813,1,8,0:0:0:0:
320,128,72950,1,8,0:0:0:0:
480,64,73086,1,4,0:0:0:0:
320,160,73495,1,4,0:0:0:0:
352,211,73632,1,8,0:0:0:0:
320,160,73768,1,8,0:0:0:0:
352,96,73904,1,8,0:0:0:0:
96,288,74041,1,4,0:0:0:0:
256,192,74450,1,4,0:0:0:0:
128,224,74722,1,4,0:0:0:0:
288,192,74995,1,4,0:0:0:0:
352,160,75132,1,8,0:0:0:0:
128,224,75268,1,4,0:0:0:0:
256,160,75541,1,8,0:0:0:0:
416,128,75813,1,4,0:0:0:0:
288,128,76086,1,8,0:0:0:0:
492,156,76222,1,8,0:0:0:0:
256,352,76359,1,4,0:0:0:0:
320,224,76632,1,8,0:0:0:0:
416,128,76904,1,4,0:0:0:0:
390,188,77041,1,8,0:0:0:0:
288,128,77177,1,8,0:0:0:0:
256,352,77450,1,4,0:0:0:0:
416,128,77586,1,8,0:0:0:0:
416,128,77722,1,0,0:0:0:0:
416,128,77859,1,8,0:0:0:0:
416,192,77995,1,0,0:0:0:0:
448,224,78063,1,0,0:0:0:0:
416,192,78132,1,0,0:0:0:0:
416,192,78268,1,8,0:0:0:0:
384,160,78336,1,8,0:0:0:0:
352,128,78404,1,8,0:0:0:0:
256,192,78541,12,0,79086,0:0:0:0:
352,96,79359,5,8,0:0:0:0:
352,96,79495,1,8,0:0:0:0:
320,128,79632,1,4,0:0:0:0:
288,192,79904,1,0,0:0:0:0:
320,128,80041,1,8,0:0:0:0:
320,128,80177,1,0,0:0:0:0:
288,160,80245,1,0,0:0:0:0:
352,128,80313,1,8,0:0:0:0:
352,128,80450,1,0,0:0:0:0:
352,128,80586,1,8,0:0:0:0:
352,128,80722,1,0,0:0:0:0:
352,128,80995,1,0,0:0:0:0:
320,128,81132,1,8,0:0:0:0:
320,128,81268,1,0,0:0:0:0:
320,128,81404,1,8,0:0:0:0:
320,128,81472,1,8,0:0:0:0:
320,128,81541,1,0,0:0:0:0:
288,128,81677,1,8,0:0:0:0:
288,128,81813,1,0,0:0:0:0:
288,128,82086,1,0,0:0:0:0:
320,128,82222,1,8,0:0:0:0:
352,128,82291,1,8,0:0:0:0:
320,128,82359,1,0,0:0:0:0:
320,128,82495,1,8,0:0:0:0:
320,160,82632,1,0,0:0:0:0:
352,192,82700,1,0,0:0:0:0:
384,192,82768,1,8,0:0:0:0:
320,192,82904,1,0,0:0:0:0:
288,96,83177,1,8,0:0:0:0:
320,128,83313,1,0,0:0:0:0:
320,128,83450,1,8,0:0:0:0:
320,128,83518,1,8,0:0:0:0:
320,128,83586,1,0,0:0:0:0:
384,160,83722,1,12,0:0:0:0:
416,192,83995,1,12,0:0:0:0:
352,128,84268,1,8,0:0:0:0:
320,96,84404,1,0,0:0:0:0:
384,192,84541,1,8,0:0:0:0:
320,96,84609,1,8,0:0:0:0:
352,128,84677,1,0,0:0:0:0:
288,64,84813,1,8,0:0:0:0:
320,96,84950,1,0,0:0:0:0:
384,160,85086,1,8,0:0:0:0:
384,160,85359,1,8,0:0:0:0:
320,160,85495,1,0,0:0:0:0:
384,160,85632,1,8,0:0:0:0:
416,192,85768,1,0,0:0:0:0:
384,160,85836,1,0,0:0:0:0:
384,160,85904,1,8,0:0:0:0:
384,160,86041,1,0,0:0:0:0:
384,160,86177,1,12,0:0:0:0:
384,160,86450,1,8,0:0:0:0:
384,160,86586,1,0,0:0:0:0:
384,160,86722,1,8,0:0:0:0:
352,160,86791,1,8,0:0:0:0:
384,160,86859,1,0,0:0:0:0:
352,160,86927,1,0,0:0:0:0:
416,288,86995,1,8,0:0:0:0:
384,160,87132,1,8,0:0:0:0:
384,192,87268,1,4,0:0:0:0:
384,192,87541,1,4,0:0:0:0:
384,192,87813,1,12,0:0:0:0:
288,288,88086,1,8,0:0:0:0:
320,256,88222,1,8,0:0:0:0:
288,192,88359,1,4,0:0:0:0:
224,160,88632,1,0,0:0:0:0:
288,192,88768,1,8,0:0:0:0:
128,96,88904,1,0,0:0:0:0:
160,128,89041,1,8,0:0:0:0:
224,160,89109,1,8,0:0:0:0:
256,160,89177,1,0,0:0:0:0:
288,128,89313,1,8,0:0:0:0:
256,160,89450,1,0,0:0:0:0:
256,160,89722,1,0,0:0:0:0:
288,128,89859,1,8,0:0:0:0:
256,160,89995,1,0,0:0:0:0:
256,160,90132,1,8,0:0:0:0:
320,128,90200,1,8,0:0:0:0:
256,160,90268,1,0,0:0:0:0:
256,160,90404,1,0,0:0:0:0:
256,160,90541,1,0,0:0:0:0:
288,96,90745,1,8,0:0:0:0:
256,160,90813,1,0,0:0:0:0:
288,128,90950,1,8,0:0:0:0:
256,160,91086,1,0,0:0:0:0:
288,128,91154,1,0,0:0:0:0:
288,128,91222,1,8,0:0:0:0:
256,160,91359,1,0,0:0:0:0:
320,96,91495,1,8,0:0:0:0:
384,64,91632,1,4,0:0:0:0:
416,128,91813,1,4,0:0:0:0:
512,160,91995,1,12,0:0:0:0:
416,128,92177,1,4,0:0:0:0:
416,128,92359,1,4,0:0:0:0:
512,160,92541,1,12,0:0:0:0:
512,160,92722,1,4,0:0:0:0:
384,192,92995,1,8,0:0:0:0:
320,96,93132,1,4,0:0:0:0:
192,96,93404,1,0,0:0:0:0:
384,96,93541,1,8,0:0:0:0:
384,96,93813,1,4,0:0:0:0:
384,96,94086,1,8,0:0:0:0:
384,64,94222,1,4,0:0:0:0:
384,64,94495,1,0,0:0:0:0:
320,96,94632,1,8,0:0:0:0:
256,96,94700,1,8,0:0:0:0:
256,128,94768,1,8,0:0:0:0:
320,128,94904,1,4,0:0:0:0:
288,96,95177,1,8,0:0:0:0:
320,96,95313,1,0,0:0:0:0:
320,96,95382,1,0,0:0:0:0:
416,224,95450,1,8,0:0:0:0:
352,192,95586,1,0,0:0:0:0:
416,224,95722,1,8,0:0:0:0:
390,221,95791,1,8,0:0:0:0:
363,218,95859,1,8,0:0:0:0:
313,200,95995,1,4,0:0:0:0:
256,192,96132,12,0,96677,0:0:0:0:
416,192,96813,5,12,0:0:0:0:
288,160,97086,5,0,0:0:0:0:
288,160,97222,1,0,0:0:0:0:
288,96,97359,1,8,0:0:0:0:
288,160,97495,1,0,0:0:0:0:
256,64,97632,1,8,0:0:0:0:
256,64,97700,1,8,0:0:0:0:
288,160,97768,1,8,0:0:0:0:
256,64,97904,1,0,0:0:0:0:
256,32,98041,1,8,0:0:0:0:
288,160,98177,1,0,0:0:0:0:
320,32,98450,1,0,0:0:0:0:
288,96,98586,1,8,0:0:0:0:
288,160,98722,1,0,0:0:0:0:
288,160,98859,1,0,0:0:0:0:
288,160,98995,1,8,0:0:0:0:
288,160,99132,1,0,0:0:0:0:
288,128,99200,1,0,0:0:0:0:
288,128,99268,1,0,0:0:0:0:
288,160,99404,1,0,0:0:0:0:
352,128,99541,1,8,0:0:0:0:
352,128,99813,1,8,0:0:0:0:
352,128,99950,1,0,0:0:0:0:
384,128,100086,1,0,0:0:0:0:
384,128,100222,1,8,0:0:0:0:
352,128,100359,1,0,0:0:0:0:
352,128,100495,1,0,0:0:0:0:
384,192,100632,1,8,0:0:0:0:
352,128,100768,1,0,0:0:0:0:
352,160,100836,1,0,0:0:0:0:
384,160,100904,1,8,0:0:0:0:
384,160,101041,1,8,0:0:0:0:
384,160,101177,1,0,0:0:0:0:
384,128,101313,1,8,0:0:0:0:
384,160,101450,1,0,0:0:0:0:
384,160,101586,1,0,0:0:0:0:
384,160,101722,1,8,0:0:0:0:
384,160,101995,1,8,0:0:0:0:
352,192,102063,1,8,0:0:0:0:
384,160,102132,1,8,0:0:0:0:
384,160,102268,1,0,0:0:0:0:
384,160,102404,1,8,0:0:0:0:
384,160,102541,1,0,0:0:0:0:
384,160,102677,1,0,0:0:0:0:
384,160,102813,1,8,0:0:0:0:
384,160,103086,1,8,0:0:0:0:
384,160,103222,1,0,0:0:0:0:
384,160,103359,1,8,0:0:0:0:
352,224,103495,1,0,0:0:0:0:
320,160,103563,1,0,0:0:0:0:
320,160,103632,1,0,0:0:0:0:
384,160,103768,1,0,0:0:0:0:
384,160,103904,1,8,0:0:0:0:
288,160,104177,1,8,0:0:0:0:
384,160,104313,1,0,0:0:0:0:
384,160,104450,1,8,0:0:0:0:
320,160,104586,1,8,0:0:0:0:
384,160,104722,1,0,0:0:0:0:
416,128,104813,1,0,0:0:0:0:
416,128,104904,1,0,0:0:0:0:
224,192,104995,1,8,0:0:0:0:
256,160,105268,1,8,0:0:0:0:
384,128,105541,1,8,0:0:0:0:
384,96,105609,1,8,0:0:0:0:
352,96,105677,1,8,0:0:0:0:
320,96,105813,1,0,0:0:0:0:
288,96,105882,1,0,0:0:0:0:
192,96,105950,1,0,0:0:0:0:
192,96,106086,1,8,0:0:0:0:
192,96,106222,1,0,0:0:0:0:
256,64,106359,1,8,0:0:0:0:
192,96,106495,1,0,0:0:0:0:
192,96,106632,1,8,0:0:0:0:
192,96,106700,1,8,0:0:0:0:
192,96,106768,1,8,0:0:0:0:
192,96,106904,1,4,0:0:0:0:
384,192,107313,1,12,0:0:0:0:
192,96,107722,1,8,0:0:0:0:
320,128,107995,1,0,0:0:0:0:
352,128,108063,1,0,0:0:0:0:
352,128,108132,1,0,0:0:0:0:
352,128,108268,1,8,0:0:0:0:
352,128,108404,1,0,0:0:0:0:
352,128,108541,1,8,0:0:0:0:
352,128,108677,1,0,0:0:0:0:
352,128,108813,1,8,0:0:0:0:
352,128,108882,1,8,0:0:0:0:
352,128,108950,1,8,0:0:0:0:
352,128,109086,1,4,0:0:0:0:
160,192,109495,1,12,0:0:0:0:
352,128,109904,1,0,0:0:0:0:
256,32,110177,1,8,0:0:0:0:
320,96,110313,1,0,0:0:0:0:
320,96,110450,1,8,0:0:0:0:
288,64,110518,1,8,0:0:0:0:
320,96,110586,1,0,0:0:0:0:
320,96,110722,1,8,0:0:0:0:
352,192,110859,1,0,0:0:0:0:
352,128,110927,1,0,0:0:0:0:
352,224,110995,1,8,0:0:0:0:
320,160,111132,1,0,0:0:0:0:
352,192,111268,1,8,0:0:0:0:
352,224,111336,1,8,0:0:0:0:
352,192,111404,1,0,0:0:0:0:
256,160,111472,1,0,0:0:0:0:
352,224,111541,1,8,0:0:0:0:
352,224,111677,1,0,0:0:0:0:
320,192,111813,1,8,0:0:0:0:
256,192,111882,1,8,0:0:0:0:
256,160,111950,1,0,0:0:0:0:
288,128,112018,1,0,0:0:0:0:
256,128,112086,1,8,0:0:0:0:
192,128,112154,1,8,0:0:0:0:
256,128,112222,1,8,0:0:0:0:
256,160,112359,1,4,0:0:0:0:
256,192,112495,12,0,115950,0:0:0:0:
