osu file format v14

[General]
AudioFilename: audio.mp3
AudioLeadIn: 0
PreviewTime: 97018
Countdown: 0
SampleSet: Normal
StackLeniency: 0.7
Mode: 1
LetterboxInBreaks: 0
WidescreenStoryboard: 0

[Editor]
Bookmarks: 1632,2451,5177,5723,7632,8177,11450,11995,15813,16359,20177,20722,24541,25086,28904,29450,33268,33813,37086,37632,42541,43086,47177,47722,51268,51813,55086,55632,59450,59995,63813,64359,68722,69268,70359,70904,75268,75813,79086,79632,83450,83995,87813,88359,92177,92722,96541,97086,101450,101995,105268,105813,107313,107995,109495,110177
DistanceSpacing: 1
BeatDivisor: 2
GridSize: 32
TimelineZoom: 1.600001

[Metadata]
Title:Touhou Youyoumu ULTIMATE MEDLEY
TitleUnicode:東方妖々夢 ULTIMATE MEDLEY
Artist:uma vs. Morimori Atsushi
ArtistUnicode:uma vs. モリモリあつし
Creator:komasy
Version:Futsuu
Source:SOUND VOLTEX III GRAVITY WARS
Tags:SDVX ZUN Shanghai Alice 上海アリス Perfect Cherry Blossom
BeatmapID:1820896
BeatmapSetID:871329

[Difficulty]
HPDrainRate:6
CircleSize:4
OverallDifficulty:4
ApproachRate:6
SliderMultiplier:1.4
SliderTickRate:1

[Events]
//Background and Video events
0,0,"aenyycma35s.jpg",0,90
//Break Periods
//Storyboard Layer 0 (Background)
//Storyboard Layer 1 (Fail)
//Storyboard Layer 2 (Pass)
//Storyboard Layer 3 (Foreground)
//Storyboard Sound Samples

[TimingPoints]
542,272.727272727273,4,1,0,90,1,0
2723,272.727272727273,3,1,0,90,1,0
7632,272.727272727273,4,1,0,90,1,0
7700,-100,4,1,0,70,0,0
11927,-100,4,1,0,80,0,0
16427,-100,4,1,0,90,0,0
25018,-100,4,1,0,80,0,0
33745,-100,4,1,0,90,0,0
42472,-100,4,1,0,100,0,0
51200,-100,4,1,0,90,0,0
79563,-100,4,1,0,100,0,0
79632,-100,4,1,0,100,0,1
87268,-100,4,1,0,100,0,0
88359,-100,4,1,0,100,0,1
95995,-100,4,1,0,100,0,0
97086,-100,4,1,0,100,0,1
112359,-100,4,1,0,100,0,0
112427,-100,4,1,0,80,0,0
113109,-111.111111111111,4,1,0,60,0,0
113722,-111.111111111111,4,1,0,40,0,0
114541,-125,4,1,0,20,0,0
115359,-142.857142857143,4,1,0,10,0,0

[HitObjects]
320,192,542,5,4,0:0:0:0:
320,224,1087,1,4,0:0:0:0:
320,224,1223,1,4,0:0:0:0:
96,224,1632,1,4,0:0:0:0:
487,230,2451,1,8,0:0:0:0:
288,224,2723,1,4,0:0:0:0:
288,224,3541,1,8,0:0:0:0:
416,128,4359,1,4,0:0:0:0:
320,192,4632,1,12,0:0:0:0:
256,288,4904,1,12,0:0:0:0:
288,224,5177,1,12,0:0:0:0:
224,160,5723,1,12,0:0:0:0:
320,160,5995,1,4,0:0:0:0:
96,160,6541,1,8,0:0:0:0:
192,96,6813,1,4,0:0:0:0:
320,160,7086,1,8,0:0:0:0:
384,32,7359,1,8,0:0:0:0:
384,224,7632,1,0,0:0:0:0:
256,181,8177,1,8,0:0:0:0:
288,192,8722,1,8,0:0:0:0:
320,96,9268,1,8,0:0:0:0:
257,255,9541,1,8,0:0:0:0:
256,160,9813,1,0,0:0:0:0:
288,32,10359,1,8,0:0:0:0:
256,160,10632,1,8,0:0:0:0:
288,96,10904,1,8,0:0:0:0:
256,384,11450,1,12,0:0:0:0:
320,128,11995,1,0,0:0:0:0:
320,128,12541,1,8,0:0:0:0:
320,128,12813,1,8,0:0:0:0:
320,128,13086,1,8,0:0:0:0:
320,128,13632,1,8,0:0:0:0:
320,128,13904,1,8,0:0:0:0:
320,128,14177,1,0,0:0:0:0:
384,96,14313,1,8,0:0:0:0:
448,64,14450,1,8,0:0:0:0:
384,64,14722,1,0,0:0:0:0:
384,96,14995,1,8,0:0:0:0:
384,64,15132,1,8,0:0:0:0:
384,128,15268,1,4,0:0:0:0:
288,160,15813,1,12,0:0:0:0:
384,160,16359,1,4,0:0:0:0:
256,128,16632,1,8,0:0:0:0:
320,128,17041,1,0,0:0:0:0:
320,128,17177,1,8,0:0:0:0:
320,256,17450,1,0,0:0:0:0:
224,160,17722,1,8,0:0:0:0:
224,160,18268,1,8,0:0:0:0:
256,96,18541,1,0,0:0:0:0:
256,96,18813,1,8,0:0:0:0:
256,96,19222,1,0,0:0:0:0:
256,96,19359,1,8,0:0:0:0:
320,192,19632,1,4,0:0:0:0:
256,64,19904,1,12,0:0:0:0:
320,192,20177,1,4,0:0:0:0:
384,160,20722,1,4,0:0:0:0:
448,192,20995,1,8,0:0:0:0:
448,192,21404,1,0,0:0:0:0:
448,192,21541,1,8,0:0:0:0:
448,192,21813,1,4,0:0:0:0:
448,192,22086,1,8,0:0:0:0:
448,192,22495,1,0,0:0:0:0:
448,192,22632,1,8,0:0:0:0:
448,192,22904,1,4,0:0:0:0:
448,192,23313,1,4,0:0:0:0:
448,192,23722,1,4,0:0:0:0:
256,160,24132,1,8,0:0:0:0:
320,160,24268,1,0,0:0:0:0:
320,160,24541,1,12,0:0:0:0:
320,128,25086,1,0,0:0:0:0:
320,96,25632,1,0,0:0:0:0:
224,160,26177,1,0,0:0:0:0:
224,160,26450,1,0,0:0:0:0:
224,160,26722,1,0,0:0:0:0:
224,160,27268,1,8,0:0:0:0:
224,160,27813,1,0,0:0:0:0:
224,160,28359,1,0,0:0:0:0:
224,160,28632,1,0,0:0:0:0:
224,160,28904,1,0,0:0:0:0:
448,0,29450,1,0,0:0:0:0:
192,128,29995,1,8,0:0:0:0:
192,128,30268,1,0,0:0:0:0:
192,128,30541,1,8,0:0:0:0:
192,128,30813,1,8,0:0:0:0:
256,128,30950,1,8,0:0:0:0:
192,128,31086,1,8,0:0:0:0:
192,128,31632,1,0,0:0:0:0:
288,32,31904,1,8,0:0:0:0:
288,128,32177,1,8,0:0:0:0:
256,64,32450,1,0,0:0:0:0:
352,96,32722,1,8,0:0:0:0:
256,64,32995,1,8,0:0:0:0:
256,64,33268,1,8,0:0:0:0:
384,64,33813,1,4,0:0:0:0:
192,96,34222,1,0,0:0:0:0:
384,128,34632,1,8,0:0:0:0:
128,64,34904,1,0,0:0:0:0:
320,96,35313,1,0,0:0:0:0:
288,64,35722,1,12,0:0:0:0:
384,64,35995,1,4,0:0:0:0:
192,96,36404,1,0,0:0:0:0:
384,128,36813,1,8,0:0:0:0:
381,130,36950,1,0,0:0:0:0:
356,166,37086,1,8,0:0:0:0:
386,181,37632,1,0,0:0:0:0:
300,42,37904,1,12,0:0:0:0:
224,96,38177,1,4,0:0:0:0:
416,32,38586,1,0,0:0:0:0:
320,224,38995,1,8,0:0:0:0:
288,96,39268,1,4,0:0:0:0:
256,32,39677,1,0,0:0:0:0:
256,32,40086,1,12,0:0:0:0:
288,160,40359,1,4,0:0:0:0:
290,159,40904,1,4,0:0:0:0:
224,224,41450,1,8,0:0:0:0:
256,256,41586,1,8,0:0:0:0:
232,94,41995,1,8,0:0:0:0:
247,175,42132,1,0,0:0:0:0:
352,160,42268,1,8,0:0:0:0:
480,128,42541,1,4,0:0:0:0:
224,160,43086,1,0,0:0:0:0:
192,160,43359,1,8,0:0:0:0:
160,224,43632,1,0,0:0:0:0:
192,160,43904,1,8,0:0:0:0:
192,160,44041,1,0,0:0:0:0:
352,160,44313,1,8,0:0:0:0:
288,160,44450,1,8,0:0:0:0:
224,160,44722,1,12,0:0:0:0:
288,160,45268,1,8,0:0:0:0:
288,160,45541,1,0,0:0:0:0:
320,128,45813,1,8,0:0:0:0:
266,102,45950,1,8,0:0:0:0:
384,128,46086,1,0,0:0:0:0:
352,128,46359,1,12,0:0:0:0:
224,128,46632,1,12,0:0:0:0:
352,96,46904,1,0,0:0:0:0:
320,160,47177,1,12,0:0:0:0:
356,188,47722,1,8,0:0:0:0:
416,64,47995,1,4,0:0:0:0:
320,160,48268,1,8,0:0:0:0:
384,192,48404,1,8,0:0:0:0:
384,192,48541,1,0,0:0:0:0:
352,96,48813,1,8,0:0:0:0:
256,96,49086,1,0,0:0:0:0:
320,160,49359,1,8,0:0:0:0:
320,160,49495,1,8,0:0:0:0:
320,160,49632,1,8,0:0:0:0:
320,160,49904,1,8,0:0:0:0:
305,152,50177,1,0,0:0:0:0:
253,126,50313,1,0,0:0:0:0:
320,160,50450,1,8,0:0:0:0:
320,160,50722,1,8,0:0:0:0:
448,192,51268,1,4,0:0:0:0:
384,224,51813,1,8,0:0:0:0:
320,128,52086,1,8,0:0:0:0:
256,160,52359,1,0,0:0:0:0:
288,160,52495,1,0,0:0:0:0:
320,160,52632,1,0,0:0:0:0:
320,160,52904,1,8,0:0:0:0:
256,64,53177,1,8,0:0:0:0:
320,192,53450,1,0,0:0:0:0:
224,224,53995,1,8,0:0:0:0:
224,192,54268,1,8,0:0:0:0:
224,192,54541,1,0,0:0:0:0:
288,224,54677,1,0,0:0:0:0:
320,192,54813,1,8,0:0:0:0:
352,160,55086,1,8,0:0:0:0:
352,160,55632,1,4,0:0:0:0:
192,160,55904,1,8,0:0:0:0:
95,151,56313,1,0,0:0:0:0:
320,192,56450,1,8,0:0:0:0:
352,64,56722,1,0,0:0:0:0:
384,128,56995,1,8,0:0:0:0:
288,160,57404,1,0,0:0:0:0:
224,160,57541,1,8,0:0:0:0:
256,160,57813,1,0,0:0:0:0:
288,96,58086,1,8,0:0:0:0:
384,96,58359,1,0,0:0:0:0:
288,96,58495,1,0,0:0:0:0:
352,96,58632,1,8,0:0:0:0:
384,96,58904,1,0,0:0:0:0:
448,160,59177,1,8,0:0:0:0:
416,0,59450,1,8,0:0:0:0:
384,256,59995,1,4,0:0:0:0:
288,160,60268,1,8,0:0:0:0:
224,64,60541,1,0,0:0:0:0:
288,96,60813,1,8,0:0:0:0:
288,96,60950,1,8,0:0:0:0:
288,96,61086,1,0,0:0:0:0:
320,32,61359,1,0,0:0:0:0:
320,64,61632,1,8,0:0:0:0:
320,64,62177,1,0,0:0:0:0:
64,192,62722,1,8,0:0:0:0:
224,192,62995,1,0,0:0:0:0:
352,224,63541,1,0,0:0:0:0:
352,224,63813,1,8,0:0:0:0:
416,256,64359,1,4,0:0:0:0:
256,128,64768,1,0,0:0:0:0:
224,96,65177,1,0,0:0:0:0:
224,128,65450,1,8,0:0:0:0:
320,96,65859,1,8,0:0:0:0:
320,96,66268,1,8,0:0:0:0:
352,192,66541,1,0,0:0:0:0:
352,192,66813,1,0,0:0:0:0:
352,192,66950,1,0,0:0:0:0:
416,224,67359,1,0,0:0:0:0:
352,192,67632,1,8,0:0:0:0:
315,61,67904,1,8,0:0:0:0:
352,192,68041,1,8,0:0:0:0:
416,224,68450,1,8,0:0:0:0:
320,160,68722,1,4,0:0:0:0:
288,96,69268,1,4,0:0:0:0:
288,96,69813,1,8,0:0:0:0:
288,128,70086,1,8,0:0:0:0:
288,128,70359,1,8,0:0:0:0:
288,160,70904,1,4,0:0:0:0:
288,160,71313,1,4,0:0:0:0:
32,352,71995,1,4,0:0:0:0:
192,224,72404,1,4,0:0:0:0:
480,64,73086,1,4,0:0:0:0:
320,160,73495,1,4,0:0:0:0:
96,288,74041,1,4,0:0:0:0:
256,192,74450,1,4,0:0:0:0:
128,224,74722,1,4,0:0:0:0:
128,224,75268,1,4,0:0:0:0:
416,128,75813,1,4,0:0:0:0:
288,128,76086,1,8,0:0:0:0:
256,352,76359,1,4,0:0:0:0:
416,128,76904,1,4,0:0:0:0:
288,128,77177,1,8,0:0:0:0:
256,352,77450,1,4,0:0:0:0:
416,128,77722,1,8,0:0:0:0:
416,192,77995,1,0,0:0:0:0:
416,192,78132,1,0,0:0:0:0:
416,192,78268,1,8,0:0:0:0:
256,192,78541,12,0,79086,0:0:0:0:
320,128,79632,5,4,0:0:0:0:
288,192,79904,1,0,0:0:0:0:
320,128,80041,1,8,0:0:0:0:
320,128,80177,1,0,0:0:0:0:
352,128,80450,1,8,0:0:0:0:
352,128,80722,1,0,0:0:0:0:
352,128,80995,1,0,0:0:0:0:
320,128,81132,1,8,0:0:0:0:
320,128,81268,1,0,0:0:0:0:
320,128,81541,1,8,0:0:0:0:
288,128,81813,1,0,0:0:0:0:
320,128,82086,1,0,0:0:0:0:
288,128,82222,1,8,0:0:0:0:
320,160,82495,1,8,0:0:0:0:
320,128,82632,1,0,0:0:0:0:
320,192,82904,1,8,0:0:0:0:
288,96,83177,1,0,0:0:0:0:
286,84,83450,1,8,0:0:0:0:
416,192,83995,1,12,0:0:0:0:
286,84,84268,1,8,0:0:0:0:
338,135,84404,1,0,0:0:0:0:
384,192,84541,1,8,0:0:0:0:
288,64,84813,1,0,0:0:0:0:
293,158,85086,1,8,0:0:0:0:
424,161,85359,1,8,0:0:0:0:
361,159,85495,1,0,0:0:0:0:
384,160,85632,1,8,0:0:0:0:
384,160,85904,1,0,0:0:0:0:
384,160,86177,1,12,0:0:0:0:
384,160,86450,1,8,0:0:0:0:
384,160,86586,1,0,0:0:0:0:
384,160,86859,1,0,0:0:0:0:
416,288,86995,1,8,0:0:0:0:
384,192,87268,1,4,0:0:0:0:
384,192,87541,1,4,0:0:0:0:
384,192,87813,1,12,0:0:0:0:
288,192,88359,1,4,0:0:0:0:
224,160,88632,1,0,0:0:0:0:
288,192,88768,1,8,0:0:0:0:
128,96,88904,1,0,0:0:0:0:
256,160,89177,1,8,0:0:0:0:
256,160,89450,1,0,0:0:0:0:
256,160,89722,1,0,0:0:0:0:
288,128,89859,1,8,0:0:0:0:
256,160,89995,1,0,0:0:0:0:
256,160,90268,1,8,0:0:0:0:
256,160,90541,1,0,0:0:0:0:
256,160,90813,1,8,0:0:0:0:
256,160,91086,1,0,0:0:0:0:
288,128,91222,1,0,0:0:0:0:
320,144,91359,1,8,0:0:0:0:
384,64,91632,1,4,0:0:0:0:
416,128,92177,1,12,0:0:0:0:
512,160,92722,1,4,0:0:0:0:
320,96,93132,1,4,0:0:0:0:
384,96,93541,1,8,0:0:0:0:
384,96,93813,1,4,0:0:0:0:
384,64,94222,1,4,0:0:0:0:
320,96,94632,1,8,0:0:0:0:
320,128,94904,1,4,0:0:0:0:
288,96,95177,1,8,0:0:0:0:
416,224,95450,1,0,0:0:0:0:
352,192,95586,1,0,0:0:0:0:
416,224,95722,1,8,0:0:0:0:
313,200,95995,1,4,0:0:0:0:
256,192,96132,12,0,96677,0:0:0:0:
288,160,97086,5,4,0:0:0:0:
288,160,97359,1,8,0:0:0:0:
256,64,97632,1,0,0:0:0:0:
256,64,97768,1,0,0:0:0:0:
256,32,98041,1,8,0:0:0:0:
288,160,98177,1,0,0:0:0:0:
320,32,98586,1,0,0:0:0:0:
288,160,98995,1,0,0:0:0:0:
288,128,99132,1,8,0:0:0:0:
288,128,99268,1,0,0:0:0:0:
352,128,99541,1,8,0:0:0:0:
352,128,99813,1,0,0:0:0:0:
352,128,99950,1,8,0:0:0:0:
256,64,100222,1,8,0:0:0:0:
256,64,100359,1,0,0:0:0:0:
384,192,100632,1,0,0:0:0:0:
302,172,100904,1,8,0:0:0:0:
384,160,101041,1,8,0:0:0:0:
278,91,101313,1,8,0:0:0:0:
224,96,101450,1,4,0:0:0:0:
384,160,101995,1,0,0:0:0:0:
384,160,102132,1,8,0:0:0:0:
384,160,102404,1,8,0:0:0:0:
384,160,102541,1,0,0:0:0:0:
256,64,102813,1,8,0:0:0:0:
384,160,103086,1,0,0:0:0:0:
384,160,103359,1,8,0:0:0:0:
320,160,103495,1,0,0:0:0:0:
384,160,103768,1,0,0:0:0:0:
384,160,103904,1,8,0:0:0:0:
288,160,104177,1,0,0:0:0:0:
384,160,104450,1,8,0:0:0:0:
320,160,104586,1,0,0:0:0:0:
320,160,104722,1,0,0:0:0:0:
320,160,104995,1,8,0:0:0:0:
352,96,105268,1,8,0:0:0:0:
320,96,105813,1,0,0:0:0:0:
288,96,105950,1,0,0:0:0:0:
192,96,106086,1,8,0:0:0:0:
256,64,106359,1,0,0:0:0:0:
192,96,106632,1,8,0:0:0:0:
192,96,106768,1,8,0:0:0:0:
192,96,106904,1,4,0:0:0:0:
384,192,107313,1,12,0:0:0:0:
320,128,107995,1,0,0:0:0:0:
352,128,108132,1,0,0:0:0:0:
352,128,108268,1,8,0:0:0:0:
352,128,108541,1,0,0:0:0:0:
352,128,108813,1,8,0:0:0:0:
352,128,108950,1,8,0:0:0:0:
352,128,109086,1,4,0:0:0:0:
160,192,109495,1,12,0:0:0:0:
256,32,110177,1,0,0:0:0:0:
320,96,110313,1,0,0:0:0:0:
320,96,110450,1,8,0:0:0:0:
320,96,110722,1,0,0:0:0:0:
352,224,110995,1,8,0:0:0:0:
320,160,111132,1,8,0:0:0:0:
352,192,111268,1,0,0:0:0:0:
352,224,111541,1,8,0:0:0:0:
320,192,111813,1,8,0:0:0:0:
318,224,111950,1,8,0:0:0:0:
409,223,112086,1,8,0:0:0:0:
256,160,112359,1,4,0:0:0:0:
256,192,112495,12,0,115950,0:0:0:0:
