osu file format v14

[General]
AudioFilename: audio.mp3
AudioLeadIn: 0
PreviewTime: 79346
Countdown: 0
SampleSet: Soft
StackLeniency: 0.7
Mode: 3
LetterboxInBreaks: 0
SpecialStyle: 0
WidescreenStoryboard: 0

[Editor]
Bookmarks: 15289,15493,15698,15834,22925,23334,23743,46380,46653,87289,87562,87834,90562,90834,91107,91653,96016,106925,107334,109107,109516
DistanceSpacing: 0.8
BeatDivisor: 4
GridSize: 8
TimelineZoom: 3.999998

[Metadata]
Title:Touhou Youyoumu ULTIMATE MEDLEY
TitleUnicode:東方妖々夢 ULTIMATE MEDLEY
Artist:uma vs. Morimori Atsushi
ArtistUnicode:uma vs. モリモリあつし
Creator:Ayydar
Version:ADVANCED
Source:SOUND VOLTEX III GRAVITY WARS
Tags:semyon422 azubeur bumpinho famoss 東方Project Youyoumu Perfect Cherry Blossom ZUN Team Shanghai Alice 妖々夢 ~ Snow or Cherry Petal 無何有の郷 ~ Deep Mountain クリスタライズシルバー Crystallized Silver 遠野幻想物語 The Fantastic Tales from Tono ティアオイエツォン (withered leaf) ブクレシュティの人形師 The Doll Maker of Bucuresti 幽霊楽団 ~ Phantom Ensemble 広有射怪鳥事 ~ Till When? 人形裁判 ~ 人の形弄びし少女 Doll Judgment ~ The Girl Who Played with People's Shapes アルティメットトゥルース Ultimate Truth 幽雅に咲かせ、墨染の桜 ~ Border of Life ネクロファンタジア Necrofantasia 妖々夢 ~ Snow or Cherry Petal
BeatmapID:1452789
BeatmapSetID:545945

[Difficulty]
HPDrainRate:7.5
CircleSize:4
OverallDifficulty:7.5
ApproachRate:5
SliderMultiplier:1.4
SliderTickRate:2

[Events]
//Background and Video events
0,0,"background.jpg",0,0
//Break Periods
//Storyboard Layer 0 (Background)
//Storyboard Layer 1 (Fail)
//Storyboard Layer 2 (Pass)
//Storyboard Layer 3 (Foreground)
//Storyboard Layer 4 (Overlay)
//Storyboard Sound Samples

[TimingPoints]
563,272.727272727273,4,2,1,40,1,0
7653,272.727272727273,4,2,1,40,1,0
42562,-100,4,2,1,40,0,1
51289,-100,4,2,1,40,0,0
60016,-100,4,2,1,40,0,1
62198,-100,4,2,1,40,0,0
64380,-100,4,2,1,40,0,1
70925,-100,4,2,1,40,0,0
79653,-100,4,2,1,40,0,1
87289,-100,4,2,1,40,0,0
88380,-100,4,2,1,40,0,1
96016,-100,4,2,1,40,0,0
97107,-100,4,2,1,40,0,1
112380,-100,4,2,1,40,0,0

[HitObjects]
64,192,563,5,4,0:0:0:0:
192,192,563,1,0,0:0:0:0:
448,192,835,1,2,0:0:0:0:
320,192,903,1,2,0:0:0:0:
192,192,972,1,2,0:0:0:0:
64,192,1040,1,2,0:0:0:0:
320,192,1108,1,4,0:0:0:0:
448,192,1108,1,0,0:0:0:0:
64,192,1244,1,4,0:0:0:0:
192,192,1244,1,0,0:0:0:0:
64,192,1381,1,2,0:0:0:0:
192,192,1449,1,2,0:0:0:0:
320,192,1517,1,2,0:0:0:0:
448,192,1585,1,2,0:0:0:0:
192,192,1653,1,4,0:0:0:0:
64,192,1653,128,0,2744:0:0:0:0:
192,192,2472,1,8,0:0:0:0:
320,192,2608,1,0,0:0:0:0:
448,192,2744,1,4,0:0:0:0:
192,192,2744,1,0,0:0:0:0:
192,192,3017,1,0,0:0:0:0:
64,192,3290,1,2,0:0:0:0:
448,192,3426,1,2,0:0:0:0:
320,192,3563,1,2,0:0:0:0:
64,192,3835,1,0,0:0:0:0:
320,192,4108,1,0,0:0:0:0:
64,192,4381,1,4,0:0:0:0:
192,192,4381,1,0,0:0:0:0:
320,192,4653,1,2,0:0:0:0:
448,192,4653,1,0,0:0:0:0:
192,192,4926,1,4,0:0:0:0:
320,192,4926,1,0,0:0:0:0:
64,192,5063,1,0,0:0:0:0:
448,192,5199,1,2,0:0:0:0:
320,192,5267,1,2,0:0:0:0:
64,192,5335,1,2,0:0:0:0:
192,192,5403,1,2,0:0:0:0:
320,192,5472,1,2,0:0:0:0:
448,192,5472,1,0,0:0:0:0:
64,192,5608,1,2,0:0:0:0:
320,192,5744,1,2,0:0:0:0:
448,192,5744,1,0,0:0:0:0:
192,192,5881,1,2,0:0:0:0:
64,192,6017,1,4,0:0:0:0:
448,192,6017,1,0,0:0:0:0:
320,192,6153,1,2,0:0:0:0:
192,192,6153,1,0,0:0:0:0:
64,192,6290,1,2,0:0:0:0:
448,192,6290,1,0,0:0:0:0:
320,192,6426,1,2,0:0:0:0:
64,192,6563,1,2,0:0:0:0:
192,192,6563,1,0,0:0:0:0:
320,192,6699,1,0,0:0:0:0:
64,192,6835,1,4,0:0:0:0:
448,192,6835,1,0,0:0:0:0:
192,192,6903,1,0,0:0:0:0:
448,192,6972,1,0,0:0:0:0:
320,192,7040,1,2,0:0:0:0:
64,192,7108,1,2,0:0:0:0:
192,192,7108,1,0,0:0:0:0:
320,192,7244,1,2,0:0:0:0:
448,192,7244,1,0,0:0:0:0:
64,192,7381,1,2,0:0:0:0:
192,192,7381,1,0,0:0:0:0:
192,192,7653,1,8,0:0:0:0:
448,192,7653,1,0,0:0:0:0:
64,192,7925,1,0,0:0:0:0:
448,192,8198,1,0,0:0:0:0:
320,192,8471,1,0,0:0:0:0:
192,192,8607,1,0,0:0:0:0:
64,192,8743,1,0,0:0:0:0:
192,192,9016,1,0,0:0:0:0:
64,192,9153,1,0,0:0:0:0:
192,192,9198,1,0,0:0:0:0:
320,192,9243,1,0,0:0:0:0:
448,192,9289,1,0,0:0:0:0:
192,192,9425,1,0,0:0:0:0:
64,192,9562,1,0,0:0:0:0:
448,192,9698,1,0,0:0:0:0:
192,192,9834,1,0,0:0:0:0:
320,192,10107,1,0,0:0:0:0:
64,192,10380,1,0,0:0:0:0:
448,192,10380,1,0,0:0:0:0:
192,192,10653,1,0,0:0:0:0:
320,192,10789,1,0,0:0:0:0:
448,192,10925,1,0,0:0:0:0:
64,192,10925,1,0,0:0:0:0:
192,192,11062,1,0,0:0:0:0:
320,192,11198,1,0,0:0:0:0:
192,192,11334,1,0,0:0:0:0:
64,192,11471,1,0,0:0:0:0:
448,192,11471,1,0,0:0:0:0:
320,192,11607,1,0,0:0:0:0:
192,192,11743,1,0,0:0:0:0:
320,192,11880,1,0,0:0:0:0:
448,192,12016,1,4,0:0:0:0:
64,192,12016,1,0,0:0:0:0:
192,192,12016,1,0,0:0:0:0:
192,192,12289,1,8,0:0:0:0:
320,192,12289,1,0,0:0:0:0:
448,192,12562,1,8,0:0:0:0:
64,192,12562,1,0,0:0:0:0:
192,192,12834,1,8,0:0:0:0:
320,192,12834,1,0,0:0:0:0:
448,192,12971,1,0,0:0:0:0:
64,192,13107,1,8,0:0:0:0:
320,192,13107,1,0,0:0:0:0:
192,192,13380,1,8,0:0:0:0:
448,192,13380,1,0,0:0:0:0:
320,192,13516,1,0,0:0:0:0:
192,192,13584,1,0,0:0:0:0:
64,192,13653,1,8,0:0:0:0:
448,192,13653,1,0,0:0:0:0:
320,192,13789,1,0,0:0:0:0:
192,192,13925,1,2,0:0:0:0:
64,192,13925,1,0,0:0:0:0:
448,192,14062,1,2,0:0:0:0:
320,192,14062,1,0,0:0:0:0:
192,192,14198,1,2,0:0:0:0:
64,192,14198,1,0,0:0:0:0:
64,192,14334,1,2,0:0:0:0:
448,192,14334,1,0,0:0:0:0:
320,192,14471,1,2,0:0:0:0:
192,192,14471,1,0,0:0:0:0:
64,192,14607,1,2,0:0:0:0:
320,192,14607,1,0,0:0:0:0:
192,192,14743,1,2,0:0:0:0:
320,192,14812,1,2,0:0:0:0:
448,192,14880,1,2,0:0:0:0:
192,192,14948,1,2,0:0:0:0:
64,192,15016,1,2,0:0:0:0:
448,192,15084,1,2,0:0:0:0:
320,192,15153,1,2,0:0:0:0:
64,192,15221,1,2,0:0:0:0:
192,192,15289,1,2,0:0:0:0:
448,192,15289,1,4,0:0:0:0:
64,192,15493,1,4,0:0:0:0:
320,192,15493,1,0,0:0:0:0:
448,192,15698,1,4,0:0:0:0:
192,192,15698,1,0,0:0:0:0:
64,192,15834,1,4,0:0:0:0:
320,192,15834,1,0,0:0:0:0:
192,192,16107,1,0,0:0:0:0:
64,192,16175,1,0,0:0:0:0:
320,192,16243,1,0,0:0:0:0:
448,192,16312,1,0,0:0:0:0:
64,192,16380,1,4,0:0:0:0:
192,192,16380,1,0,0:0:0:0:
320,192,16516,1,0,0:0:0:0:
192,192,16653,1,0,0:0:0:0:
64,192,16789,1,8,0:0:0:0:
448,192,16789,1,0,0:0:0:0:
192,192,16925,1,0,0:0:0:0:
320,192,17062,1,0,0:0:0:0:
448,192,17062,1,0,0:0:0:0:
64,192,17198,1,8,0:0:0:0:
192,192,17198,1,0,0:0:0:0:
448,192,17334,1,0,0:0:0:0:
320,192,17471,1,0,0:0:0:0:
64,192,17471,1,0,0:0:0:0:
192,192,17607,1,8,0:0:0:0:
320,192,17743,1,4,0:0:0:0:
448,192,17743,1,0,0:0:0:0:
64,192,17880,1,0,0:0:0:0:
320,192,18016,1,8,0:0:0:0:
448,192,18153,1,8,0:0:0:0:
64,192,18153,1,0,0:0:0:0:
192,192,18289,1,4,0:0:0:0:
320,192,18289,1,0,0:0:0:0:
448,192,18425,1,0,0:0:0:0:
320,192,18562,1,0,0:0:0:0:
64,192,18562,1,0,0:0:0:0:
192,192,18698,1,0,0:0:0:0:
64,192,18834,1,4,0:0:0:0:
448,192,18834,1,0,0:0:0:0:
192,192,18971,1,8,0:0:0:0:
320,192,18971,1,0,0:0:0:0:
448,192,19107,1,0,0:0:0:0:
64,192,19243,1,8,0:0:0:0:
320,192,19243,1,0,0:0:0:0:
192,192,19380,1,4,0:0:0:0:
448,192,19380,1,0,0:0:0:0:
320,192,19516,1,0,0:0:0:0:
64,192,19653,1,4,0:0:0:0:
448,192,19653,128,8,19925:0:0:0:0:
192,192,19789,1,0,0:0:0:0:
320,192,19925,128,8,20198:0:0:0:0:
64,192,19925,1,4,0:0:0:0:
64,192,20198,128,8,20471:0:0:0:0:
192,192,20198,1,4,0:0:0:0:
448,192,20471,1,4,0:0:0:0:
192,192,20471,1,0,0:0:0:0:
320,192,20607,1,0,0:0:0:0:
64,192,20743,1,4,0:0:0:0:
448,192,20743,1,0,0:0:0:0:
320,192,20880,1,0,0:0:0:0:
64,192,21016,1,4,0:0:0:0:
192,192,21016,1,0,0:0:0:0:
448,192,21153,1,8,0:0:0:0:
320,192,21153,1,0,0:0:0:0:
192,192,21289,1,0,0:0:0:0:
64,192,21425,1,0,0:0:0:0:
448,192,21425,1,0,0:0:0:0:
320,192,21562,1,4,0:0:0:0:
192,192,21562,1,0,0:0:0:0:
448,192,21698,1,0,0:0:0:0:
64,192,21834,1,4,0:0:0:0:
192,192,21834,1,0,0:0:0:0:
320,192,21971,1,0,0:0:0:0:
448,192,22107,1,8,0:0:0:0:
64,192,22107,1,0,0:0:0:0:
320,192,22243,1,0,0:0:0:0:
192,192,22380,1,0,0:0:0:0:
64,192,22516,1,8,0:0:0:0:
448,192,22516,1,0,0:0:0:0:
192,192,22653,1,4,0:0:0:0:
320,192,22653,1,0,0:0:0:0:
448,192,22789,1,0,0:0:0:0:
64,192,22925,128,0,23198:0:0:0:0:
448,192,22925,128,0,23198:0:0:0:0:
192,192,23198,1,8,0:0:0:0:
320,192,23198,1,4,0:0:0:0:
192,192,23334,128,2,23539:0:0:0:0:
320,192,23334,128,0,23539:0:0:0:0:
64,192,23607,1,8,0:0:0:0:
448,192,23607,1,4,0:0:0:0:
448,192,23743,128,2,24016:0:0:0:0:
64,192,23743,128,0,24016:0:0:0:0:
320,192,24153,1,2,0:0:0:0:
448,192,24153,1,0,0:0:0:0:
64,192,24289,1,2,0:0:0:0:
320,192,24289,1,0,0:0:0:0:
192,192,24425,1,2,0:0:0:0:
64,192,24425,1,0,0:0:0:0:
448,192,24562,1,4,0:0:0:0:
192,192,24562,1,0,0:0:0:0:
64,192,24834,128,0,25107:0:0:0:0:
448,192,25107,1,2,0:0:0:0:
320,192,25175,1,0,0:0:0:0:
192,192,25243,1,0,0:0:0:0:
64,192,25312,1,0,0:0:0:0:
448,192,25380,1,2,0:0:0:0:
320,192,25448,1,0,0:0:0:0:
192,192,25516,1,0,0:0:0:0:
64,192,25584,1,0,0:0:0:0:
320,192,25653,1,2,0:0:0:0:
448,192,25721,1,0,0:0:0:0:
64,192,25789,1,0,0:0:0:0:
192,192,25857,1,0,0:0:0:0:
448,192,25925,1,2,0:0:0:0:
320,192,25993,1,0,0:0:0:0:
64,192,26062,1,0,0:0:0:0:
192,192,26130,1,0,0:0:0:0:
320,192,26198,1,2,0:0:0:0:
448,192,26266,1,0,0:0:0:0:
64,192,26334,1,0,0:0:0:0:
192,192,26403,1,0,0:0:0:0:
448,192,26471,1,2,0:0:0:0:
320,192,26539,1,0,0:0:0:0:
192,192,26607,1,0,0:0:0:0:
64,192,26675,1,0,0:0:0:0:
320,192,26743,1,2,0:0:0:0:
448,192,26812,1,0,0:0:0:0:
64,192,26880,1,0,0:0:0:0:
192,192,26948,1,0,0:0:0:0:
448,192,27016,1,2,0:0:0:0:
320,192,27084,1,0,0:0:0:0:
192,192,27153,1,0,0:0:0:0:
64,192,27221,1,0,0:0:0:0:
448,192,27289,1,8,0:0:0:0:
320,192,27289,1,0,0:0:0:0:
64,192,27357,1,0,0:0:0:0:
192,192,27425,1,0,0:0:0:0:
448,192,27493,1,0,0:0:0:0:
320,192,27562,1,2,0:0:0:0:
192,192,27630,1,0,0:0:0:0:
64,192,27698,1,0,0:0:0:0:
192,192,27766,1,0,0:0:0:0:
320,192,27834,1,2,0:0:0:0:
448,192,27903,1,0,0:0:0:0:
64,192,27971,1,0,0:0:0:0:
192,192,28039,1,0,0:0:0:0:
448,192,28107,1,2,0:0:0:0:
320,192,28175,1,0,0:0:0:0:
192,192,28243,1,0,0:0:0:0:
64,192,28312,1,0,0:0:0:0:
320,192,28380,1,2,0:0:0:0:
448,192,28448,1,0,0:0:0:0:
64,192,28516,1,0,0:0:0:0:
192,192,28584,1,0,0:0:0:0:
320,192,28653,1,2,0:0:0:0:
448,192,28721,1,0,0:0:0:0:
64,192,28789,1,8,0:0:0:0:
192,192,28857,1,0,0:0:0:0:
448,192,28925,1,2,0:0:0:0:
320,192,28993,1,0,0:0:0:0:
192,192,29062,1,0,0:0:0:0:
64,192,29130,1,0,0:0:0:0:
320,192,29198,1,0,0:0:0:0:
448,192,29266,1,0,0:0:0:0:
192,192,29334,1,0,0:0:0:0:
64,192,29403,1,0,0:0:0:0:
320,192,29471,1,8,0:0:0:0:
448,192,29471,1,2,0:0:0:0:
192,192,29607,1,0,0:0:0:0:
64,192,29743,1,2,0:0:0:0:
448,192,29743,1,0,0:0:0:0:
320,192,29880,1,0,0:0:0:0:
192,192,30016,1,2,0:0:0:0:
64,192,30016,1,0,0:0:0:0:
320,192,30153,1,0,0:0:0:0:
448,192,30289,1,2,0:0:0:0:
64,192,30289,1,0,0:0:0:0:
192,192,30425,1,0,0:0:0:0:
320,192,30562,1,2,0:0:0:0:
448,192,30562,1,0,0:0:0:0:
192,192,30698,1,0,0:0:0:0:
448,192,30834,1,2,0:0:0:0:
64,192,30834,1,0,0:0:0:0:
320,192,30971,1,0,0:0:0:0:
192,192,31107,1,2,0:0:0:0:
64,192,31107,1,0,0:0:0:0:
320,192,31243,1,0,0:0:0:0:
448,192,31380,1,2,0:0:0:0:
64,192,31380,1,0,0:0:0:0:
192,192,31516,1,0,0:0:0:0:
320,192,31653,1,2,0:0:0:0:
448,192,31653,1,0,0:0:0:0:
192,192,31789,1,0,0:0:0:0:
64,192,31925,1,2,0:0:0:0:
448,192,31925,1,0,0:0:0:0:
320,192,32062,1,0,0:0:0:0:
64,192,32198,1,2,0:0:0:0:
192,192,32198,1,0,0:0:0:0:
320,192,32334,1,0,0:0:0:0:
448,192,32471,1,2,0:0:0:0:
64,192,32471,1,0,0:0:0:0:
192,192,32607,1,0,0:0:0:0:
448,192,32743,1,2,0:0:0:0:
320,192,32743,1,0,0:0:0:0:
192,192,32880,1,0,0:0:0:0:
448,192,33016,1,0,0:0:0:0:
64,192,33016,1,0,0:0:0:0:
320,192,33153,1,0,0:0:0:0:
64,192,33289,1,2,0:0:0:0:
192,192,33289,1,0,0:0:0:0:
320,192,33425,1,0,0:0:0:0:
64,192,33562,128,4,33698:0:0:0:0:
448,192,33562,1,0,0:0:0:0:
320,192,33698,128,8,33834:0:0:0:0:
448,192,33834,1,2,0:0:0:0:
192,192,33971,1,0,0:0:0:0:
320,192,34107,1,0,0:0:0:0:
448,192,34243,1,8,0:0:0:0:
64,192,34243,1,0,0:0:0:0:
64,192,34380,1,0,0:0:0:0:
192,192,34380,1,0,0:0:0:0:
320,192,34516,1,0,0:0:0:0:
448,192,34516,1,0,0:0:0:0:
320,192,34653,1,0,0:0:0:0:
192,192,34653,1,0,0:0:0:0:
64,192,34789,1,0,0:0:0:0:
448,192,34925,1,0,0:0:0:0:
192,192,34925,1,0,0:0:0:0:
320,192,35062,1,0,0:0:0:0:
192,192,35198,1,0,0:0:0:0:
448,192,35334,1,8,0:0:0:0:
64,192,35334,1,0,0:0:0:0:
192,192,35471,1,0,0:0:0:0:
320,192,35607,1,8,0:0:0:0:
448,192,35607,1,0,0:0:0:0:
64,192,35743,1,4,0:0:0:0:
192,192,35743,1,0,0:0:0:0:
320,192,35880,1,0,0:0:0:0:
448,192,36016,1,4,0:0:0:0:
64,192,36016,1,0,0:0:0:0:
320,192,36153,1,0,0:0:0:0:
192,192,36289,1,8,0:0:0:0:
64,192,36425,1,8,0:0:0:0:
448,192,36425,1,0,0:0:0:0:
320,192,36562,1,0,0:0:0:0:
192,192,36562,1,0,0:0:0:0:
64,192,36698,1,8,0:0:0:0:
320,192,36698,1,0,0:0:0:0:
448,192,36834,1,0,0:0:0:0:
192,192,36834,1,0,0:0:0:0:
64,192,36971,1,0,0:0:0:0:
320,192,37107,1,8,0:0:0:0:
448,192,37107,1,0,0:0:0:0:
192,192,37243,1,0,0:0:0:0:
64,192,37380,1,0,0:0:0:0:
448,192,37516,1,8,0:0:0:0:
320,192,37516,1,0,0:0:0:0:
192,192,37653,1,0,0:0:0:0:
64,192,37789,1,8,0:0:0:0:
192,192,37857,1,8,0:0:0:0:
320,192,37925,1,4,0:0:0:0:
448,192,37925,1,8,0:0:0:0:
192,192,38062,1,0,0:0:0:0:
64,192,38198,1,4,0:0:0:0:
448,192,38198,1,0,0:0:0:0:
320,192,38334,1,0,0:0:0:0:
192,192,38471,1,0,0:0:0:0:
64,192,38607,1,8,0:0:0:0:
448,192,38607,1,0,0:0:0:0:
320,192,38743,1,0,0:0:0:0:
192,192,38743,1,0,0:0:0:0:
64,192,38880,1,0,0:0:0:0:
192,192,38880,1,0,0:0:0:0:
448,192,39016,1,8,0:0:0:0:
320,192,39016,1,0,0:0:0:0:
192,192,39153,1,0,0:0:0:0:
64,192,39289,1,4,0:0:0:0:
448,192,39289,1,0,0:0:0:0:
320,192,39425,1,0,0:0:0:0:
192,192,39562,1,0,0:0:0:0:
448,192,39698,1,8,0:0:0:0:
64,192,39698,1,0,0:0:0:0:
320,192,39834,1,0,0:0:0:0:
64,192,39971,1,8,0:0:0:0:
192,192,39971,1,0,0:0:0:0:
448,192,40107,1,4,0:0:0:0:
320,192,40107,1,0,0:0:0:0:
192,192,40243,1,0,0:0:0:0:
64,192,40380,128,4,40516:0:0:0:0:
448,192,40380,1,0,0:0:0:0:
64,192,40653,128,0,40789:0:0:0:0:
320,192,40789,128,8,40925:0:0:0:0:
192,192,40789,1,0,0:0:0:0:
448,192,40925,1,0,0:0:0:0:
64,192,41062,1,8,0:0:0:0:
320,192,41198,1,0,0:0:0:0:
64,192,41334,1,0,0:0:0:0:
192,192,41334,1,0,0:0:0:0:
448,192,41471,1,0,0:0:0:0:
320,192,41539,1,0,0:0:0:0:
192,192,41607,1,0,0:0:0:0:
64,192,41743,1,0,0:0:0:0:
320,192,41743,1,0,0:0:0:0:
448,192,41812,1,0,0:0:0:0:
192,192,41880,1,0,0:0:0:0:
64,192,41948,1,0,0:0:0:0:
320,192,42016,1,0,0:0:0:0:
448,192,42016,1,0,0:0:0:0:
64,192,42153,128,0,42289:0:0:0:0:
192,192,42153,128,0,42289:0:0:0:0:
448,192,42289,128,0,42493:0:0:0:0:
64,192,42562,1,4,0:0:0:0:
192,192,42562,1,0,0:0:0:0:
320,192,42698,1,0,0:0:0:0:
64,192,42834,1,8,0:0:0:0:
448,192,42834,1,0,0:0:0:0:
320,192,42971,1,0,0:0:0:0:
64,192,43107,1,8,0:0:0:0:
192,192,43107,1,0,0:0:0:0:
320,192,43243,1,0,0:0:0:0:
448,192,43380,1,8,0:0:0:0:
64,192,43380,1,0,0:0:0:0:
192,192,43516,1,0,0:0:0:0:
320,192,43653,1,8,0:0:0:0:
448,192,43653,1,0,0:0:0:0:
192,192,43789,1,0,0:0:0:0:
64,192,43925,1,8,0:0:0:0:
448,192,43925,1,0,0:0:0:0:
320,192,44062,1,0,0:0:0:0:
192,192,44198,1,0,0:0:0:0:
64,192,44334,1,4,0:0:0:0:
448,192,44334,1,0,0:0:0:0:
192,192,44471,1,4,0:0:0:0:
320,192,44471,1,0,0:0:0:0:
448,192,44607,1,4,0:0:0:0:
320,192,44607,1,0,0:0:0:0:
64,192,44743,1,4,0:0:0:0:
192,192,44743,1,0,0:0:0:0:
448,192,44880,1,0,0:0:0:0:
64,192,45016,1,8,0:0:0:0:
320,192,45016,1,0,0:0:0:0:
192,192,45153,1,0,0:0:0:0:
448,192,45289,1,8,0:0:0:0:
320,192,45289,1,0,0:0:0:0:
320,192,45425,1,0,0:0:0:0:
448,192,45425,1,0,0:0:0:0:
64,192,45562,1,8,0:0:0:0:
192,192,45562,1,0,0:0:0:0:
448,192,45698,1,0,0:0:0:0:
320,192,45698,1,0,0:0:0:0:
192,192,45834,1,2,0:0:0:0:
64,192,45903,1,2,0:0:0:0:
320,192,45971,1,2,0:0:0:0:
448,192,46039,1,2,0:0:0:0:
64,192,46107,1,2,0:0:0:0:
192,192,46175,1,2,0:0:0:0:
448,192,46243,1,2,0:0:0:0:
320,192,46312,1,2,0:0:0:0:
64,192,46380,1,2,0:0:0:0:
192,192,46380,1,4,0:0:0:0:
448,192,46653,1,4,0:0:0:0:
320,192,46653,1,8,0:0:0:0:
64,192,46925,1,2,0:0:0:0:
448,192,46925,1,0,0:0:0:0:
320,192,47062,1,2,0:0:0:0:
192,192,47062,1,0,0:0:0:0:
64,192,47198,1,4,0:0:0:0:
448,192,47198,1,2,0:0:0:0:
192,192,47334,1,0,0:0:0:0:
320,192,47471,1,2,0:0:0:0:
448,192,47471,1,0,0:0:0:0:
192,192,47607,1,0,0:0:0:0:
64,192,47743,1,0,0:0:0:0:
448,192,47743,1,0,0:0:0:0:
192,192,47880,1,0,0:0:0:0:
320,192,48016,1,2,0:0:0:0:
448,192,48016,1,4,0:0:0:0:
64,192,48153,1,2,0:0:0:0:
192,192,48221,1,2,0:0:0:0:
320,192,48289,1,2,0:0:0:0:
448,192,48289,1,0,0:0:0:0:
64,192,48425,1,8,0:0:0:0:
192,192,48425,1,0,0:0:0:0:
64,192,48562,1,8,0:0:0:0:
320,192,48562,1,0,0:0:0:0:
448,192,48698,1,8,0:0:0:0:
320,192,48766,1,0,0:0:0:0:
64,192,48834,1,2,0:0:0:0:
192,192,48834,1,0,0:0:0:0:
448,192,48971,1,2,0:0:0:0:
320,192,49107,1,8,0:0:0:0:
192,192,49107,1,0,0:0:0:0:
64,192,49243,1,8,0:0:0:0:
448,192,49243,1,0,0:0:0:0:
64,192,49380,1,8,0:0:0:0:
192,192,49380,1,4,0:0:0:0:
448,192,49516,1,8,0:0:0:0:
320,192,49584,1,0,0:0:0:0:
192,192,49653,1,8,0:0:0:0:
64,192,49653,1,4,0:0:0:0:
320,192,49789,1,4,0:0:0:0:
448,192,49789,1,8,0:0:0:0:
448,192,49925,1,4,0:0:0:0:
192,192,49925,1,0,0:0:0:0:
64,192,50062,1,4,0:0:0:0:
192,192,50130,1,0,0:0:0:0:
320,192,50198,1,2,0:0:0:0:
448,192,50198,1,0,0:0:0:0:
64,192,50266,1,2,0:0:0:0:
192,192,50334,1,2,0:0:0:0:
448,192,50403,1,2,0:0:0:0:
320,192,50471,1,2,0:0:0:0:
192,192,50539,1,2,0:0:0:0:
64,192,50607,1,2,0:0:0:0:
448,192,50675,1,2,0:0:0:0:
320,192,50743,128,2,50880:0:0:0:0:
64,192,50880,128,0,51016:0:0:0:0:
448,192,51016,128,0,51289:0:0:0:0:
320,192,51289,128,8,51834:0:0:0:0:
64,192,51289,1,0,0:0:0:0:
192,192,51562,1,0,0:0:0:0:
64,192,51698,1,0,0:0:0:0:
448,192,51834,128,0,52107:0:0:0:0:
192,192,51834,1,0,0:0:0:0:
64,192,51971,1,0,0:0:0:0:
192,192,52107,1,0,0:0:0:0:
320,192,52107,128,0,52243:0:0:0:0:
64,192,52243,128,0,52380:0:0:0:0:
448,192,52380,1,8,0:0:0:0:
320,192,52448,1,8,0:0:0:0:
192,192,52516,1,8,0:0:0:0:
64,192,52584,1,8,0:0:0:0:
448,192,52653,128,8,53198:0:0:0:0:
320,192,52653,1,0,0:0:0:0:
192,192,52721,1,8,0:0:0:0:
64,192,52789,1,8,0:0:0:0:
192,192,52857,1,8,0:0:0:0:
320,192,52925,1,2,0:0:0:0:
320,192,53198,1,0,0:0:0:0:
192,192,53198,1,0,0:0:0:0:
64,192,53266,1,0,0:0:0:0:
192,192,53334,1,0,0:0:0:0:
320,192,53403,1,0,0:0:0:0:
64,192,53471,1,0,0:0:0:0:
448,192,53471,128,8,53743:0:0:0:0:
64,192,53743,128,0,53880:0:0:0:0:
448,192,53880,128,0,54016:0:0:0:0:
192,192,53880,1,0,0:0:0:0:
192,192,54016,128,0,54289:0:0:0:0:
320,192,54016,1,0,0:0:0:0:
64,192,54153,1,0,0:0:0:0:
320,192,54289,1,0,0:0:0:0:
448,192,54289,128,0,54562:0:0:0:0:
64,192,54562,1,8,0:0:0:0:
320,192,54630,1,8,0:0:0:0:
192,192,54698,1,8,0:0:0:0:
64,192,54766,1,8,0:0:0:0:
448,192,54834,1,8,0:0:0:0:
320,192,54925,1,8,0:0:0:0:
192,192,55016,1,8,0:0:0:0:
64,192,55107,1,0,0:0:0:0:
448,192,55107,1,0,0:0:0:0:
192,192,55380,1,0,0:0:0:0:
320,192,55380,1,0,0:0:0:0:
448,192,55653,1,4,0:0:0:0:
64,192,55653,1,0,0:0:0:0:
320,192,55789,1,0,0:0:0:0:
192,192,55925,1,0,0:0:0:0:
64,192,55925,1,0,0:0:0:0:
320,192,56062,1,0,0:0:0:0:
448,192,56198,1,0,0:0:0:0:
64,192,56334,1,0,0:0:0:0:
192,192,56334,1,0,0:0:0:0:
448,192,56471,1,0,0:0:0:0:
320,192,56471,1,0,0:0:0:0:
192,192,56607,1,0,0:0:0:0:
64,192,56743,1,4,0:0:0:0:
448,192,56743,1,0,0:0:0:0:
320,192,56812,1,8,0:0:0:0:
192,192,56880,1,8,0:0:0:0:
64,192,56948,1,8,0:0:0:0:
320,192,57016,1,8,0:0:0:0:
448,192,57016,1,0,0:0:0:0:
64,192,57107,1,8,0:0:0:0:
192,192,57198,1,8,0:0:0:0:
320,192,57289,1,8,0:0:0:0:
448,192,57289,1,0,0:0:0:0:
192,192,57425,1,8,0:0:0:0:
448,192,57562,1,8,0:0:0:0:
64,192,57562,1,0,0:0:0:0:
320,192,57698,1,8,0:0:0:0:
192,192,57834,1,8,0:0:0:0:
64,192,57834,1,4,0:0:0:0:
448,192,57971,1,8,0:0:0:0:
320,192,57971,1,0,0:0:0:0:
64,192,58107,1,8,0:0:0:0:
448,192,58107,1,0,0:0:0:0:
320,192,58243,1,8,0:0:0:0:
64,192,58243,1,0,0:0:0:0:
192,192,58380,1,8,0:0:0:0:
64,192,58448,1,0,0:0:0:0:
320,192,58516,1,8,0:0:0:0:
448,192,58584,1,8,0:0:0:0:
192,192,58653,1,8,0:0:0:0:
64,192,58721,1,8,0:0:0:0:
320,192,58789,1,8,0:0:0:0:
448,192,58857,1,8,0:0:0:0:
64,192,58925,1,8,0:0:0:0:
192,192,58993,1,8,0:0:0:0:
448,192,59062,1,8,0:0:0:0:
320,192,59130,1,8,0:0:0:0:
64,192,59198,1,8,0:0:0:0:
192,192,59198,1,0,0:0:0:0:
448,192,59289,1,8,0:0:0:0:
320,192,59334,1,8,0:0:0:0:
192,192,59380,1,8,0:0:0:0:
448,192,59471,1,8,0:0:0:0:
64,192,59471,128,0,60016:0:0:0:0:
320,192,59743,1,0,0:0:0:0:
192,192,59743,1,0,0:0:0:0:
448,192,59880,1,0,0:0:0:0:
192,192,60016,128,4,60834:0:0:0:0:
448,192,60153,1,0,0:0:0:0:
64,192,60289,1,0,0:0:0:0:
448,192,60425,1,0,0:0:0:0:
320,192,60562,1,8,0:0:0:0:
64,192,60698,1,0,0:0:0:0:
448,192,60834,1,0,0:0:0:0:
320,192,60834,1,0,0:0:0:0:
64,192,60971,1,0,0:0:0:0:
192,192,61039,1,0,0:0:0:0:
320,192,61107,1,0,0:0:0:0:
448,192,61107,128,0,61653:0:0:0:0:
64,192,61243,1,8,0:0:0:0:
192,192,61380,1,0,0:0:0:0:
320,192,61516,1,0,0:0:0:0:
64,192,61653,128,8,62198:0:0:0:0:
192,192,61653,1,0,0:0:0:0:
320,192,61789,1,0,0:0:0:0:
448,192,61925,1,8,0:0:0:0:
320,192,62062,1,0,0:0:0:0:
448,192,62198,128,4,63016:0:0:0:0:
192,192,62198,1,0,0:0:0:0:
192,192,62471,1,0,0:0:0:0:
64,192,62743,1,8,0:0:0:0:
192,192,62834,1,0,0:0:0:0:
320,192,62925,1,0,0:0:0:0:
64,192,63016,1,8,0:0:0:0:
320,192,63107,1,0,0:0:0:0:
192,192,63198,1,0,0:0:0:0:
64,192,63289,1,0,0:0:0:0:
192,192,63380,1,0,0:0:0:0:
320,192,63471,1,0,0:0:0:0:
448,192,63562,1,8,0:0:0:0:
64,192,63562,1,0,0:0:0:0:
320,192,63653,1,2,0:0:0:0:
192,192,63743,1,8,0:0:0:0:
64,192,63834,1,2,0:0:0:0:
448,192,63834,1,0,0:0:0:0:
192,192,63925,1,8,0:0:0:0:
320,192,64016,1,0,0:0:0:0:
448,192,64107,1,8,0:0:0:0:
64,192,64107,1,0,0:0:0:0:
192,192,64175,1,0,0:0:0:0:
448,192,64243,1,8,0:0:0:0:
320,192,64312,1,0,0:0:0:0:
192,192,64380,1,8,0:0:0:0:
64,192,64380,1,4,0:0:0:0:
320,192,64516,1,0,0:0:0:0:
192,192,64653,1,0,0:0:0:0:
64,192,64789,1,8,0:0:0:0:
448,192,64789,1,0,0:0:0:0:
192,192,64857,1,0,0:0:0:0:
320,192,64925,1,0,0:0:0:0:
192,192,65062,1,0,0:0:0:0:
448,192,65198,1,8,0:0:0:0:
320,192,65198,1,0,0:0:0:0:
64,192,65334,1,0,0:0:0:0:
192,192,65403,1,0,0:0:0:0:
448,192,65471,1,8,0:0:0:0:
320,192,65539,1,0,0:0:0:0:
192,192,65607,1,0,0:0:0:0:
64,192,65675,1,0,0:0:0:0:
448,192,65743,1,0,0:0:0:0:
320,192,65880,1,8,0:0:0:0:
448,192,65880,1,0,0:0:0:0:
192,192,65948,1,0,0:0:0:0:
64,192,66016,1,0,0:0:0:0:
320,192,66153,1,0,0:0:0:0:
192,192,66289,1,8,0:0:0:0:
448,192,66289,1,0,0:0:0:0:
64,192,66425,1,0,0:0:0:0:
192,192,66493,1,0,0:0:0:0:
320,192,66562,1,8,0:0:0:0:
448,192,66562,1,0,0:0:0:0:
192,192,66698,1,0,0:0:0:0:
64,192,66834,1,0,0:0:0:0:
448,192,66834,1,0,0:0:0:0:
320,192,66971,1,8,0:0:0:0:
192,192,66971,1,0,0:0:0:0:
64,192,67107,1,0,0:0:0:0:
192,192,67175,1,0,0:0:0:0:
320,192,67243,1,0,0:0:0:0:
448,192,67243,1,0,0:0:0:0:
192,192,67380,1,8,0:0:0:0:
320,192,67516,1,0,0:0:0:0:
448,192,67653,1,8,0:0:0:0:
64,192,67653,1,0,0:0:0:0:
192,192,67789,1,8,0:0:0:0:
320,192,67925,1,8,0:0:0:0:
64,192,68062,1,8,0:0:0:0:
448,192,68062,1,0,0:0:0:0:
320,192,68130,1,0,0:0:0:0:
192,192,68198,1,8,0:0:0:0:
448,192,68334,1,8,0:0:0:0:
64,192,68471,1,8,0:0:0:0:
192,192,68471,1,0,0:0:0:0:
320,192,68539,1,0,0:0:0:0:
448,192,68607,1,8,0:0:0:0:
448,192,68743,128,8,68948:0:0:0:0:
192,192,68743,1,0,0:0:0:0:
192,192,68948,128,8,69153:0:0:0:0:
64,192,68948,1,0,0:0:0:0:
320,192,69153,128,8,69289:0:0:0:0:
448,192,69153,1,0,0:0:0:0:
64,192,69289,128,8,69493:0:0:0:0:
192,192,69289,1,0,0:0:0:0:
448,192,69493,128,8,69698:0:0:0:0:
320,192,69493,1,0,0:0:0:0:
192,192,69698,128,8,69834:0:0:0:0:
64,192,69698,1,0,0:0:0:0:
320,192,69834,128,8,70107:0:0:0:0:
448,192,69834,1,0,0:0:0:0:
64,192,70107,128,0,70380:0:0:0:0:
192,192,70107,1,0,0:0:0:0:
448,192,70380,128,8,70584:0:0:0:0:
320,192,70380,1,0,0:0:0:0:
64,192,70653,128,8,70789:0:0:0:0:
320,192,70789,128,8,70925:0:0:0:0:
448,192,70925,1,4,0:0:0:0:
64,192,70925,1,0,0:0:0:0:
192,192,71062,1,0,0:0:0:0:
448,192,71198,1,0,0:0:0:0:
64,192,71334,1,4,0:0:0:0:
320,192,71334,1,2,0:0:0:0:
192,192,71471,1,2,0:0:0:0:
448,192,71607,1,2,0:0:0:0:
64,192,71743,1,2,0:0:0:0:
320,192,71880,1,2,0:0:0:0:
448,192,72016,1,4,0:0:0:0:
64,192,72016,1,2,0:0:0:0:
320,192,72153,1,0,0:0:0:0:
192,192,72289,1,0,0:0:0:0:
448,192,72425,1,4,0:0:0:0:
320,192,72425,1,0,0:0:0:0:
64,192,72562,1,2,0:0:0:0:
192,192,72698,1,0,0:0:0:0:
448,192,72834,1,2,0:0:0:0:
64,192,72971,1,2,0:0:0:0:
448,192,73107,1,4,0:0:0:0:
320,192,73107,1,0,0:0:0:0:
192,192,73243,1,0,0:0:0:0:
64,192,73380,1,0,0:0:0:0:
192,192,73516,1,4,0:0:0:0:
448,192,73516,1,0,0:0:0:0:
320,192,73653,1,2,0:0:0:0:
64,192,73789,1,2,0:0:0:0:
448,192,73925,1,2,0:0:0:0:
64,192,74062,1,4,0:0:0:0:
192,192,74062,1,0,0:0:0:0:
320,192,74198,1,0,0:0:0:0:
448,192,74334,1,0,0:0:0:0:
64,192,74471,1,4,0:0:0:0:
320,192,74471,1,0,0:0:0:0:
192,192,74607,1,0,0:0:0:0:
320,192,74743,1,4,0:0:0:0:
448,192,74743,1,2,0:0:0:0:
64,192,74880,1,0,0:0:0:0:
192,192,75016,1,2,0:0:0:0:
448,192,75016,1,0,0:0:0:0:
320,192,75153,1,0,0:0:0:0:
192,192,75289,1,4,0:0:0:0:
64,192,75289,128,2,75562:0:0:0:0:
320,192,75562,128,8,75698:0:0:0:0:
448,192,75698,128,8,75834:0:0:0:0:
64,192,75834,1,4,0:0:0:0:
192,192,75834,1,0,0:0:0:0:
192,192,76107,128,8,76243:0:0:0:0:
64,192,76243,128,8,76380:0:0:0:0:
320,192,76380,1,4,0:0:0:0:
448,192,76380,1,0,0:0:0:0:
192,192,76653,1,0,0:0:0:0:
64,192,76925,1,4,0:0:0:0:
448,192,76925,1,0,0:0:0:0:
320,192,76925,1,0,0:0:0:0:
320,192,77198,1,0,0:0:0:0:
64,192,77471,1,4,0:0:0:0:
192,192,77471,1,0,0:0:0:0:
448,192,77471,1,0,0:0:0:0:
320,192,77607,1,0,0:0:0:0:
64,192,77743,1,8,0:0:0:0:
192,192,77743,1,0,0:0:0:0:
320,192,77880,1,0,0:0:0:0:
448,192,78016,1,8,0:0:0:0:
320,192,78084,1,0,0:0:0:0:
64,192,78153,1,0,0:0:0:0:
192,192,78221,1,0,0:0:0:0:
320,192,78289,1,0,0:0:0:0:
448,192,78357,1,8,0:0:0:0:
192,192,78425,1,0,0:0:0:0:
64,192,78493,1,0,0:0:0:0:
448,192,78562,128,8,78698:0:0:0:0:
192,192,78698,128,0,78834:0:0:0:0:
320,192,78834,128,2,78971:0:0:0:0:
64,192,78971,128,2,79107:0:0:0:0:
192,192,79107,1,2,0:0:0:0:
320,192,79175,1,2,0:0:0:0:
448,192,79243,1,2,0:0:0:0:
64,192,79312,1,2,0:0:0:0:
192,192,79380,128,0,79516:0:0:0:0:
448,192,79516,128,0,79653:0:0:0:0:
64,192,79653,128,4,79789:0:0:0:0:
320,192,79653,1,0,0:0:0:0:
448,192,79789,1,0,0:0:0:0:
192,192,79925,1,2,0:0:0:0:
320,192,79925,1,0,0:0:0:0:
64,192,80062,1,2,0:0:0:0:
192,192,80198,1,2,0:0:0:0:
448,192,80198,1,0,0:0:0:0:
64,192,80334,1,8,0:0:0:0:
192,192,80403,1,8,0:0:0:0:
448,192,80471,1,8,0:0:0:0:
320,192,80471,1,0,0:0:0:0:
192,192,80607,1,8,0:0:0:0:
64,192,80743,1,0,0:0:0:0:
448,192,80743,1,0,0:0:0:0:
320,192,80880,1,0,0:0:0:0:
64,192,81016,1,0,0:0:0:0:
192,192,81016,1,0,0:0:0:0:
448,192,81153,1,0,0:0:0:0:
64,192,81289,1,8,0:0:0:0:
320,192,81289,1,0,0:0:0:0:
192,192,81425,1,8,0:0:0:0:
320,192,81493,1,8,0:0:0:0:
448,192,81562,1,8,0:0:0:0:
64,192,81562,1,0,0:0:0:0:
320,192,81698,1,0,0:0:0:0:
192,192,81834,1,0,0:0:0:0:
64,192,81834,1,0,0:0:0:0:
320,192,81971,1,8,0:0:0:0:
448,192,82107,1,0,0:0:0:0:
64,192,82107,1,0,0:0:0:0:
192,192,82243,1,8,0:0:0:0:
320,192,82380,1,0,0:0:0:0:
448,192,82380,1,0,0:0:0:0:
64,192,82516,1,8,0:0:0:0:
192,192,82584,1,8,0:0:0:0:
320,192,82653,1,4,0:0:0:0:
448,192,82653,1,0,0:0:0:0:
192,192,82789,1,0,0:0:0:0:
64,192,82925,1,8,0:0:0:0:
448,192,82925,1,0,0:0:0:0:
320,192,83062,1,0,0:0:0:0:
192,192,83198,1,8,0:0:0:0:
64,192,83198,1,0,0:0:0:0:
448,192,83334,1,8,0:0:0:0:
320,192,83471,1,8,0:0:0:0:
64,192,83471,1,0,0:0:0:0:
192,192,83607,1,8,0:0:0:0:
320,192,83743,1,4,0:0:0:0:
448,192,83743,1,0,0:0:0:0:
64,192,83880,1,2,0:0:0:0:
192,192,84016,1,4,0:0:0:0:
448,192,84016,1,0,0:0:0:0:
320,192,84153,1,0,0:0:0:0:
192,192,84289,1,4,0:0:0:0:
64,192,84289,1,0,0:0:0:0:
320,192,84425,1,2,0:0:0:0:
448,192,84562,1,4,0:0:0:0:
64,192,84562,1,0,0:0:0:0:
192,192,84698,1,8,0:0:0:0:
320,192,84766,1,8,0:0:0:0:
448,192,84834,1,8,0:0:0:0:
64,192,84834,1,0,0:0:0:0:
192,192,84971,1,0,0:0:0:0:
320,192,85107,1,4,0:0:0:0:
448,192,85107,1,0,0:0:0:0:
192,192,85243,1,0,0:0:0:0:
64,192,85380,1,4,0:0:0:0:
448,192,85380,1,0,0:0:0:0:
320,192,85516,1,0,0:0:0:0:
192,192,85653,1,4,0:0:0:0:
64,192,85653,1,0,0:0:0:0:
448,192,85789,1,8,0:0:0:0:
320,192,85857,1,8,0:0:0:0:
192,192,85925,1,8,0:0:0:0:
64,192,85925,1,0,0:0:0:0:
448,192,86062,1,0,0:0:0:0:
320,192,86062,1,0,0:0:0:0:
64,192,86198,1,0,0:0:0:0:
448,192,86198,1,0,0:0:0:0:
320,192,86334,1,0,0:0:0:0:
64,192,86471,1,2,0:0:0:0:
448,192,86471,1,0,0:0:0:0:
192,192,86607,1,0,0:0:0:0:
448,192,86743,1,2,0:0:0:0:
320,192,86812,1,2,0:0:0:0:
64,192,86880,1,2,0:0:0:0:
192,192,86948,1,2,0:0:0:0:
320,192,87016,1,2,0:0:0:0:
448,192,87084,1,2,0:0:0:0:
192,192,87153,1,2,0:0:0:0:
64,192,87221,1,2,0:0:0:0:
320,192,87289,1,4,0:0:0:0:
448,192,87289,1,2,0:0:0:0:
64,192,87562,1,4,0:0:0:0:
192,192,87562,1,0,0:0:0:0:
320,192,87834,1,4,0:0:0:0:
448,192,87834,1,0,0:0:0:0:
64,192,88107,128,8,88243:0:0:0:0:
448,192,88243,128,8,88380:0:0:0:0:
64,192,88380,1,2,0:0:0:0:
192,192,88380,1,0,0:0:0:0:
320,192,88516,1,2,0:0:0:0:
448,192,88516,1,0,0:0:0:0:
64,192,88653,1,2,0:0:0:0:
192,192,88653,1,0,0:0:0:0:
320,192,88789,1,0,0:0:0:0:
448,192,88925,1,2,0:0:0:0:
64,192,88925,1,0,0:0:0:0:
64,192,89062,1,8,0:0:0:0:
192,192,89130,1,8,0:0:0:0:
448,192,89198,1,2,0:0:0:0:
320,192,89198,1,0,0:0:0:0:
192,192,89334,1,0,0:0:0:0:
64,192,89471,1,2,0:0:0:0:
448,192,89471,1,0,0:0:0:0:
320,192,89607,1,0,0:0:0:0:
192,192,89743,1,2,0:0:0:0:
64,192,89743,1,0,0:0:0:0:
320,192,89880,1,0,0:0:0:0:
448,192,90016,1,2,0:0:0:0:
64,192,90016,1,0,0:0:0:0:
448,192,90153,1,8,0:0:0:0:
320,192,90221,1,8,0:0:0:0:
64,192,90289,1,2,0:0:0:0:
192,192,90289,1,0,0:0:0:0:
448,192,90425,1,2,0:0:0:0:
320,192,90425,1,0,0:0:0:0:
64,192,90562,1,2,0:0:0:0:
192,192,90562,1,4,0:0:0:0:
448,192,90834,1,2,0:0:0:0:
192,192,90834,1,0,0:0:0:0:
64,192,91107,1,2,0:0:0:0:
320,192,91107,1,0,0:0:0:0:
192,192,91380,1,0,0:0:0:0:
448,192,91380,128,0,91653:0:0:0:0:
320,192,91653,1,2,0:0:0:0:
64,192,91653,128,0,92198:0:0:0:0:
192,192,91834,1,2,0:0:0:0:
320,192,92016,1,2,0:0:0:0:
192,192,92198,1,2,0:0:0:0:
448,192,92198,128,0,92743:0:0:0:0:
320,192,92380,1,2,0:0:0:0:
192,192,92562,1,2,0:0:0:0:
64,192,92743,1,4,0:0:0:0:
320,192,92880,1,0,0:0:0:0:
64,192,93016,1,2,0:0:0:0:
192,192,93016,1,0,0:0:0:0:
448,192,93153,1,2,0:0:0:0:
320,192,93153,1,4,0:0:0:0:
192,192,93289,1,4,0:0:0:0:
64,192,93425,1,2,0:0:0:0:
448,192,93425,1,0,0:0:0:0:
320,192,93562,1,2,0:0:0:0:
448,192,93630,1,2,0:0:0:0:
192,192,93698,1,2,0:0:0:0:
64,192,93766,1,2,0:0:0:0:
320,192,93834,1,2,0:0:0:0:
448,192,93834,1,4,0:0:0:0:
192,192,93971,1,8,0:0:0:0:
64,192,94107,1,2,0:0:0:0:
448,192,94107,1,0,0:0:0:0:
192,192,94243,1,2,0:0:0:0:
320,192,94243,1,4,0:0:0:0:
448,192,94380,1,0,0:0:0:0:
64,192,94516,1,2,0:0:0:0:
320,192,94516,1,0,0:0:0:0:
448,192,94653,128,2,94789:0:0:0:0:
64,192,94789,128,2,94925:0:0:0:0:
320,192,94925,1,4,0:0:0:0:
448,192,94993,1,0,0:0:0:0:
192,192,95062,1,4,0:0:0:0:
64,192,95130,1,0,0:0:0:0:
448,192,95198,1,4,0:0:0:0:
320,192,95266,1,0,0:0:0:0:
64,192,95334,1,2,0:0:0:0:
192,192,95403,1,0,0:0:0:0:
448,192,95471,1,4,0:0:0:0:
320,192,95539,1,0,0:0:0:0:
192,192,95607,1,4,0:0:0:0:
64,192,95675,1,0,0:0:0:0:
320,192,95743,1,4,0:0:0:0:
448,192,95812,1,2,0:0:0:0:
64,192,95880,1,4,0:0:0:0:
192,192,95948,1,2,0:0:0:0:
320,192,96016,1,4,0:0:0:0:
448,192,96016,128,2,96834:0:0:0:0:
64,192,96834,128,0,97039:0:0:0:0:
320,192,97107,1,4,0:0:0:0:
448,192,97107,1,0,0:0:0:0:
320,192,97243,1,0,0:0:0:0:
448,192,97243,1,0,0:0:0:0:
192,192,97380,1,8,0:0:0:0:
64,192,97380,1,0,0:0:0:0:
64,192,97516,1,8,0:0:0:0:
192,192,97516,1,0,0:0:0:0:
320,192,97653,1,8,0:0:0:0:
448,192,97653,1,0,0:0:0:0:
448,192,97789,1,0,0:0:0:0:
320,192,97789,1,0,0:0:0:0:
64,192,97925,1,8,0:0:0:0:
192,192,97925,1,0,0:0:0:0:
192,192,98062,1,0,0:0:0:0:
64,192,98062,1,0,0:0:0:0:
448,192,98198,1,8,0:0:0:0:
192,192,98198,1,0,0:0:0:0:
192,192,98334,1,8,0:0:0:0:
448,192,98334,1,0,0:0:0:0:
64,192,98471,1,8,0:0:0:0:
320,192,98471,1,0,0:0:0:0:
320,192,98607,1,8,0:0:0:0:
64,192,98607,1,0,0:0:0:0:
192,192,98743,1,8,0:0:0:0:
448,192,98743,1,0,0:0:0:0:
320,192,98880,1,8,0:0:0:0:
64,192,98880,1,0,0:0:0:0:
64,192,99016,1,8,0:0:0:0:
192,192,99084,1,8,0:0:0:0:
448,192,99153,1,8,0:0:0:0:
320,192,99221,1,8,0:0:0:0:
64,192,99289,1,8,0:0:0:0:
192,192,99357,1,8,0:0:0:0:
448,192,99425,1,8,0:0:0:0:
320,192,99493,1,8,0:0:0:0:
64,192,99562,1,8,0:0:0:0:
192,192,99562,1,0,0:0:0:0:
64,192,99698,1,8,0:0:0:0:
192,192,99698,1,0,0:0:0:0:
448,192,99834,1,8,0:0:0:0:
320,192,99834,1,0,0:0:0:0:
320,192,99971,1,8,0:0:0:0:
448,192,99971,1,0,0:0:0:0:
64,192,100107,1,8,0:0:0:0:
192,192,100107,1,0,0:0:0:0:
192,192,100243,1,8,0:0:0:0:
64,192,100243,1,0,0:0:0:0:
448,192,100380,1,8,0:0:0:0:
320,192,100380,1,0,0:0:0:0:
64,192,100516,1,8,0:0:0:0:
192,192,100584,1,8,0:0:0:0:
448,192,100653,1,8,0:0:0:0:
320,192,100653,1,0,0:0:0:0:
192,192,100789,1,8,0:0:0:0:
64,192,100857,1,8,0:0:0:0:
320,192,100925,1,8,0:0:0:0:
448,192,100993,1,0,0:0:0:0:
64,192,101062,1,8,0:0:0:0:
192,192,101062,1,0,0:0:0:0:
320,192,101198,1,8,0:0:0:0:
448,192,101198,1,0,0:0:0:0:
64,192,101334,1,8,0:0:0:0:
192,192,101403,1,8,0:0:0:0:
448,192,101471,1,8,0:0:0:0:
320,192,101471,1,0,0:0:0:0:
64,192,101607,1,0,0:0:0:0:
192,192,101607,1,0,0:0:0:0:
320,192,101743,1,8,0:0:0:0:
448,192,101743,1,0,0:0:0:0:
64,192,101880,1,0,0:0:0:0:
192,192,101880,1,0,0:0:0:0:
448,192,102016,1,8,0:0:0:0:
320,192,102084,1,8,0:0:0:0:
192,192,102153,1,8,0:0:0:0:
64,192,102153,1,0,0:0:0:0:
320,192,102289,1,8,0:0:0:0:
448,192,102289,1,0,0:0:0:0:
64,192,102425,1,8,0:0:0:0:
192,192,102493,1,0,0:0:0:0:
448,192,102562,1,8,0:0:0:0:
320,192,102562,1,0,0:0:0:0:
192,192,102698,1,0,0:0:0:0:
320,192,102766,1,0,0:0:0:0:
448,192,102834,1,0,0:0:0:0:
64,192,102834,1,0,0:0:0:0:
320,192,102971,1,8,0:0:0:0:
192,192,102971,1,0,0:0:0:0:
448,192,103107,1,0,0:0:0:0:
64,192,103107,1,0,0:0:0:0:
320,192,103243,1,8,0:0:0:0:
192,192,103312,1,0,0:0:0:0:
64,192,103380,1,8,0:0:0:0:
448,192,103380,1,0,0:0:0:0:
320,192,103516,1,8,0:0:0:0:
192,192,103584,1,8,0:0:0:0:
64,192,103653,1,8,0:0:0:0:
448,192,103721,1,8,0:0:0:0:
320,192,103789,1,8,0:0:0:0:
192,192,103857,1,8,0:0:0:0:
64,192,103925,1,8,0:0:0:0:
448,192,103925,1,0,0:0:0:0:
192,192,104062,1,8,0:0:0:0:
320,192,104062,1,0,0:0:0:0:
64,192,104198,1,8,0:0:0:0:
192,192,104266,1,0,0:0:0:0:
320,192,104334,1,8,0:0:0:0:
448,192,104334,1,0,0:0:0:0:
448,192,104471,1,0,0:0:0:0:
320,192,104539,1,0,0:0:0:0:
192,192,104607,1,8,0:0:0:0:
64,192,104607,1,0,0:0:0:0:
448,192,104743,1,0,0:0:0:0:
320,192,104743,1,0,0:0:0:0:
64,192,104834,1,0,0:0:0:0:
192,192,104925,1,0,0:0:0:0:
320,192,105016,1,0,0:0:0:0:
448,192,105107,1,8,0:0:0:0:
64,192,105198,1,8,0:0:0:0:
448,192,105289,128,8,105834:0:0:0:0:
192,192,105289,1,0,0:0:0:0:
320,192,105425,1,8,0:0:0:0:
64,192,105562,1,8,0:0:0:0:
192,192,105630,1,8,0:0:0:0:
320,192,105698,1,8,0:0:0:0:
192,192,105834,1,8,0:0:0:0:
320,192,105903,1,0,0:0:0:0:
448,192,105971,1,0,0:0:0:0:
64,192,105971,1,0,0:0:0:0:
320,192,106107,1,8,0:0:0:0:
192,192,106107,1,0,0:0:0:0:
64,192,106243,1,8,0:0:0:0:
448,192,106243,1,0,0:0:0:0:
192,192,106380,1,8,0:0:0:0:
320,192,106380,1,0,0:0:0:0:
64,192,106516,1,8,0:0:0:0:
448,192,106516,1,0,0:0:0:0:
320,192,106653,1,2,0:0:0:0:
192,192,106721,1,2,0:0:0:0:
64,192,106789,1,2,0:0:0:0:
192,192,106857,1,2,0:0:0:0:
320,192,106925,1,2,0:0:0:0:
448,192,106925,128,0,107266:0:0:0:0:
192,192,107334,1,4,0:0:0:0:
64,192,107334,128,0,107743:0:0:0:0:
320,192,107743,1,4,0:0:0:0:
448,192,107812,1,8,0:0:0:0:
192,192,107880,1,4,0:0:0:0:
64,192,107948,1,8,0:0:0:0:
448,192,108016,1,4,0:0:0:0:
320,192,108084,1,8,0:0:0:0:
192,192,108153,1,8,0:0:0:0:
64,192,108221,1,8,0:0:0:0:
320,192,108289,1,4,0:0:0:0:
448,192,108289,1,8,0:0:0:0:
64,192,108425,1,4,0:0:0:0:
192,192,108425,1,8,0:0:0:0:
320,192,108562,1,8,0:0:0:0:
448,192,108562,1,4,0:0:0:0:
64,192,108698,1,4,0:0:0:0:
192,192,108698,1,8,0:0:0:0:
448,192,108834,1,8,0:0:0:0:
320,192,108903,1,8,0:0:0:0:
192,192,108971,1,2,0:0:0:0:
64,192,109039,1,8,0:0:0:0:
320,192,109107,1,8,0:0:0:0:
448,192,109107,128,4,109516:0:0:0:0:
192,192,109243,1,0,0:0:0:0:
64,192,109380,1,0,0:0:0:0:
192,192,109516,1,4,0:0:0:0:
448,192,109653,1,0,0:0:0:0:
64,192,109789,1,0,0:0:0:0:
320,192,110198,1,8,0:0:0:0:
448,192,110266,1,8,0:0:0:0:
192,192,110334,1,8,0:0:0:0:
64,192,110403,1,8,0:0:0:0:
448,192,110471,1,8,0:0:0:0:
320,192,110539,1,8,0:0:0:0:
64,192,110607,1,8,0:0:0:0:
192,192,110675,1,8,0:0:0:0:
320,192,110743,1,8,0:0:0:0:
448,192,110812,1,8,0:0:0:0:
320,192,110880,1,8,0:0:0:0:
192,192,110948,1,8,0:0:0:0:
64,192,111016,1,8,0:0:0:0:
448,192,111084,1,8,0:0:0:0:
320,192,111153,1,8,0:0:0:0:
64,192,111221,1,8,0:0:0:0:
192,192,111289,1,8,0:0:0:0:
320,192,111357,1,8,0:0:0:0:
448,192,111425,1,8,0:0:0:0:
64,192,111493,1,8,0:0:0:0:
192,192,111562,1,8,0:0:0:0:
320,192,111630,1,8,0:0:0:0:
448,192,111698,1,8,0:0:0:0:
64,192,111766,1,8,0:0:0:0:
192,192,111834,1,8,0:0:0:0:
320,192,111903,1,8,0:0:0:0:
448,192,111971,1,8,0:0:0:0:
192,192,112039,1,8,0:0:0:0:
64,192,112107,1,8,0:0:0:0:
448,192,112175,1,8,0:0:0:0:
320,192,112243,1,8,0:0:0:0:
192,192,112312,1,8,0:0:0:0:
64,192,112380,128,8,113812:0:0:0:0:
448,192,112539,1,0,0:0:0:0:
320,192,112698,1,0,0:0:0:0:
448,192,112857,1,0,0:0:0:0:
192,192,113016,1,0,0:0:0:0:
448,192,113198,1,0,0:0:0:0:
320,192,113380,1,0,0:0:0:0:
192,192,113584,1,0,0:0:0:0:
448,192,113812,1,0,0:0:0:0:
192,192,114039,1,0,0:0:0:0:
320,192,114266,1,0,0:0:0:0:
64,192,114516,1,0,0:0:0:0:
320,192,114766,1,0,0:0:0:0:
64,192,115039,1,0,0:0:0:0:
448,192,115312,1,0,0:0:0:0:
192,192,115653,1,0,0:0:0:0:
448,192,115959,1,8,0:0:0:0:
64,192,116028,1,0,0:0:0:0:
192,192,116096,1,0,0:0:0:0:
320,192,116164,1,0,0:0:0:0:
