osu file format v14

[General]
AudioFilename: audio.mp3
AudioLeadIn: 0
PreviewTime: 72576
Countdown: 0
SampleSet: Normal
StackLeniency: 0.7
Mode: 1
LetterboxInBreaks: 0
WidescreenStoryboard: 0

[Editor]
Bookmarks: 9604,18944,27717,36491,45831,54887,66208,82057,100170,109651,118283,136397,145453,156774,237717,248614
DistanceSpacing: 1
BeatDivisor: 4
GridSize: 32
TimelineZoom: 3.700002

[Metadata]
Title:Re:End of a Dream (long ver.)
TitleUnicode:Re:End of a Dream (long ver.)
Artist:uma vs. Morimori Atsushi
ArtistUnicode:uma vs. モリモリあつし
Creator:Yummy-
Version:Lost Dream
Source:
Tags:
BeatmapID:2112678
BeatmapSetID:1009177

[Difficulty]
HPDrainRate:5
CircleSize:2
OverallDifficulty:6.5
ApproachRate:2
SliderMultiplier:1.4
SliderTickRate:1

[Events]
//Background and Video events
0,0,"Dream.png",0,0
//Break Periods
//Storyboard Layer 0 (Background)
//Storyboard Layer 1 (Fail)
//Storyboard Layer 2 (Pass)
//Storyboard Layer 3 (Foreground)
//Storyboard Layer 4 (Overlay)
//Storyboard Sound Samples

[TimingPoints]
548,283.018867924528,4,1,0,50,1,0
548,-111.111111111111,4,1,0,50,0,0
9038,-108.695652173913,4,1,0,50,0,0
9109,-107.52688172043,4,1,0,50,0,0
9180,-106.382978723404,4,1,0,50,0,0
9250,-105.263157894737,4,1,0,50,0,0
9321,-104.166666666667,4,1,0,50,0,0
9392,-103.092783505155,4,1,0,50,0,0
9463,-102.040816326531,4,1,0,50,0,0
9533,-101.010101010101,4,1,0,50,0,0
9604,-100,4,1,0,70,0,0
66208,-100,4,1,0,70,0,1
72434,-100,4,1,0,70,0,0
73000,-100,4,1,0,70,0,1
89981,-100,4,1,0,70,0,0
91397,-100,4,1,0,70,0,1
99604,-100,4,1,0,70,0,0
156774,-100,4,1,0,70,0,1
163000,-100,4,1,0,70,0,0
163566,-100,4,1,0,70,0,1
174887,-100,4,1,0,70,0,0
179415,-100,4,1,0,70,0,1
183944,-100,4,1,0,70,0,0
188472,-100,4,1,0,70,0,1
192434,-100,4,1,0,70,0,0
193000,-100,4,1,0,70,0,1
199793,-100,4,1,0,70,0,0
204321,-100,4,1,0,70,0,1
206019,-100,4,1,0,70,0,0
206868,-100,4,1,0,70,0,1
214510,-100,4,1,0,70,0,0
215925,-100,4,1,0,70,0,1
233755,-100,4,1,0,70,0,0
236019,-100,4,1,0,70,0,1
237717,-100,4,1,0,70,0,0
239981,-102.040816326531,4,1,0,20,0,0
240052,-103.092783505155,4,1,0,25,0,0
240123,-104.166666666667,4,1,0,30,0,0
240194,-105.263157894737,4,1,0,35,0,0
240264,-106.382978723404,4,1,0,40,0,0
240335,-107.52688172043,4,1,0,43,0,0
240406,-108.695652173913,4,1,0,45,0,0
240477,-109.89010989011,4,1,0,47,0,0
240546,-111.111111111111,4,1,0,50,0,0

[HitObjects]
256,192,548,5,0,0:0:0:0:
256,192,689,1,8,0:0:0:0:
256,192,831,1,0,0:0:0:0:
256,192,972,1,8,0:0:0:0:
256,192,1114,1,0,0:0:0:0:
256,192,1255,1,8,0:0:0:0:
256,192,1397,1,8,0:0:0:0:
256,192,1538,1,0,0:0:0:0:
256,192,1821,1,8,0:0:0:0:
256,192,2670,1,8,0:0:0:0:
256,192,2741,1,8,0:0:0:0:
256,192,2812,1,0,0:0:0:0:
256,192,2953,1,0,0:0:0:0:
256,192,3095,1,8,0:0:0:0:
256,192,3236,1,0,0:0:0:0:
256,192,3378,1,0,0:0:0:0:
256,192,3519,1,8,0:0:0:0:
256,192,3661,1,8,0:0:0:0:
256,192,3802,1,0,0:0:0:0:
256,192,4085,1,8,0:0:0:0:
256,192,4368,1,0,0:0:0:0:
256,192,4510,1,0,0:0:0:0:
256,192,4793,1,0,0:0:0:0:
256,192,5076,1,0,0:0:0:0:
256,192,5217,1,8,0:0:0:0:
256,192,5359,1,0,0:0:0:0:
256,192,5500,1,8,0:0:0:0:
256,192,5642,1,0,0:0:0:0:
256,192,5783,1,8,0:0:0:0:
256,192,5925,1,8,0:0:0:0:
256,192,6066,1,0,0:0:0:0:
256,192,6349,1,8,0:0:0:0:
256,192,7198,1,0,0:0:0:0:
256,192,7269,1,0,0:0:0:0:
256,192,7340,1,8,0:0:0:0:
256,192,7481,1,0,0:0:0:0:
256,192,7623,1,8,0:0:0:0:
256,192,7764,1,0,0:0:0:0:
256,192,7906,1,0,0:0:0:0:
256,192,8047,1,8,0:0:0:0:
256,192,8189,1,8,0:0:0:0:
256,192,8331,1,0,0:0:0:0:
256,192,8614,1,8,0:0:0:0:
256,192,9038,1,0,0:0:0:0:
256,192,9109,1,0,0:0:0:0:
256,192,9180,1,0,0:0:0:0:
256,192,9250,1,0,0:0:0:0:
256,192,9321,1,8,0:0:0:0:
256,192,9392,1,8,0:0:0:0:
256,192,9463,1,0,0:0:0:0:
256,192,9533,1,0,0:0:0:0:
256,288,9604,1,12,0:0:0:0:
256,192,9746,1,0,0:0:0:0:
256,192,9816,1,8,0:0:0:0:
256,192,9887,1,8,0:0:0:0:
256,192,10029,1,0,0:0:0:0:
256,192,10312,1,0,0:0:0:0:
256,192,10453,1,0,0:0:0:0:
256,192,10595,1,8,0:0:0:0:
256,192,10736,1,8,0:0:0:0:
256,192,10878,1,0,0:0:0:0:
256,192,10948,1,0,0:0:0:0:
256,192,11019,1,8,0:0:0:0:
256,192,11161,1,0,0:0:0:0:
256,192,11444,1,0,0:0:0:0:
256,192,11585,1,0,0:0:0:0:
256,192,11727,1,8,0:0:0:0:
256,192,11868,1,8,0:0:0:0:
256,192,12010,1,0,0:0:0:0:
256,192,12081,1,8,0:0:0:0:
256,192,12151,1,8,0:0:0:0:
256,192,12293,1,0,0:0:0:0:
256,192,12576,1,0,0:0:0:0:
256,192,12717,1,0,0:0:0:0:
256,192,12859,1,8,0:0:0:0:
256,192,13000,1,0,0:0:0:0:
256,192,13071,1,8,0:0:0:0:
256,192,13142,1,0,0:0:0:0:
256,192,13283,1,8,0:0:0:0:
256,192,13425,1,8,0:0:0:0:
256,192,13708,1,0,0:0:0:0:
256,192,13849,1,0,0:0:0:0:
256,192,13897,1,8,0:0:0:0:
256,192,13944,1,8,0:0:0:0:
256,192,13991,1,0,0:0:0:0:
256,192,14132,1,8,0:0:0:0:
256,192,14274,1,0,0:0:0:0:
256,192,14345,1,8,0:0:0:0:
256,192,14415,1,8,0:0:0:0:
256,192,14557,1,0,0:0:0:0:
256,192,14698,1,8,0:0:0:0:
256,192,14769,1,8,0:0:0:0:
256,192,14840,1,8,0:0:0:0:
256,192,14911,1,0,0:0:0:0:
256,192,14981,1,8,0:0:0:0:
256,192,15123,1,0,0:0:0:0:
256,192,15264,1,8,0:0:0:0:
256,192,15406,1,0,0:0:0:0:
256,192,15477,1,0,0:0:0:0:
256,192,15547,1,8,0:0:0:0:
256,192,15689,1,0,0:0:0:0:
256,192,15972,1,0,0:0:0:0:
256,192,16114,1,0,0:0:0:0:
256,192,16255,1,8,0:0:0:0:
256,192,16397,1,8,0:0:0:0:
256,192,16538,1,0,0:0:0:0:
256,192,16609,1,8,0:0:0:0:
256,192,16680,1,8,0:0:0:0:
256,192,16821,1,0,0:0:0:0:
256,192,16963,1,8,0:0:0:0:
256,192,17033,1,0,0:0:0:0:
256,192,17104,1,8,0:0:0:0:
256,192,17175,1,8,0:0:0:0:
256,192,17246,1,0,0:0:0:0:
256,192,17316,1,8,0:0:0:0:
256,192,17387,1,0,0:0:0:0:
256,192,17458,1,0,0:0:0:0:
256,288,17529,1,12,0:0:0:0:
256,288,17717,1,12,0:0:0:0:
256,288,17906,1,4,0:0:0:0:
256,288,18095,1,4,0:0:0:0:
256,288,18283,1,12,0:0:0:0:
256,288,18472,1,4,0:0:0:0:
256,192,18661,1,8,0:0:0:0:
256,192,18708,1,8,0:0:0:0:
256,192,18755,1,8,0:0:0:0:
256,192,18802,1,0,0:0:0:0:
256,192,18873,1,0,0:0:0:0:
256,288,18944,1,12,0:0:0:0:
256,192,19085,1,0,0:0:0:0:
256,192,19368,1,0,0:0:0:0:
256,192,19439,1,0,0:0:0:0:
256,192,19510,1,8,0:0:0:0:
256,192,19651,1,8,0:0:0:0:
256,192,19793,1,0,0:0:0:0:
256,192,19864,1,0,0:0:0:0:
256,192,19934,1,8,0:0:0:0:
256,192,20005,1,8,0:0:0:0:
256,192,20076,1,0,0:0:0:0:
256,192,20217,1,8,0:0:0:0:
256,192,20500,1,0,0:0:0:0:
256,192,20642,1,0,0:0:0:0:
256,192,20783,1,8,0:0:0:0:
256,192,20854,1,8,0:0:0:0:
256,192,20925,1,8,0:0:0:0:
256,192,21066,1,0,0:0:0:0:
256,192,21137,1,8,0:0:0:0:
256,192,21208,1,0,0:0:0:0:
256,192,21349,1,0,0:0:0:0:
256,192,21632,1,0,0:0:0:0:
256,192,21774,1,8,0:0:0:0:
256,192,21915,1,8,0:0:0:0:
256,192,21986,1,8,0:0:0:0:
256,192,22057,1,0,0:0:0:0:
256,192,22128,1,0,0:0:0:0:
256,192,22198,1,8,0:0:0:0:
256,192,22340,1,0,0:0:0:0:
256,192,22481,1,8,0:0:0:0:
256,192,22764,1,0,0:0:0:0:
256,192,22906,1,8,0:0:0:0:
256,192,22953,1,8,0:0:0:0:
256,192,23000,1,8,0:0:0:0:
256,192,23047,1,0,0:0:0:0:
256,288,23189,1,12,0:0:0:0:
256,192,23331,1,0,0:0:0:0:
256,192,23401,1,8,0:0:0:0:
256,192,23472,1,8,0:0:0:0:
256,192,23614,1,0,0:0:0:0:
256,192,23684,1,0,0:0:0:0:
256,192,23755,1,8,0:0:0:0:
256,192,23826,1,0,0:0:0:0:
256,192,23897,1,8,0:0:0:0:
256,192,23944,1,8,0:0:0:0:
256,192,23991,1,8,0:0:0:0:
256,192,24038,1,0,0:0:0:0:
256,192,24180,1,0,0:0:0:0:
256,288,24321,1,12,0:0:0:0:
256,192,24463,1,0,0:0:0:0:
256,192,24533,1,0,0:0:0:0:
256,192,24604,1,8,0:0:0:0:
256,192,24746,1,0,0:0:0:0:
256,192,25029,1,0,0:0:0:0:
256,192,25170,1,8,0:0:0:0:
256,192,25241,1,8,0:0:0:0:
256,192,25312,1,0,0:0:0:0:
256,288,25453,1,12,0:0:0:0:
256,192,25595,1,0,0:0:0:0:
256,192,25665,1,0,0:0:0:0:
256,192,25736,1,8,0:0:0:0:
256,192,25807,1,8,0:0:0:0:
256,192,25878,1,0,0:0:0:0:
256,288,26019,1,12,0:0:0:0:
256,192,26161,1,0,0:0:0:0:
256,192,26231,1,8,0:0:0:0:
256,192,26302,1,0,0:0:0:0:
256,192,26373,1,0,0:0:0:0:
256,192,26444,1,8,0:0:0:0:
256,288,26585,1,12,0:0:0:0:
256,192,26727,1,0,0:0:0:0:
256,192,26868,1,0,0:0:0:0:
256,192,27010,1,8,0:0:0:0:
256,192,27151,1,0,0:0:0:0:
256,192,27434,1,8,0:0:0:0:
256,192,27576,1,8,0:0:0:0:
256,288,27717,1,4,0:0:0:0:
256,192,28000,1,8,0:0:0:0:
256,192,28142,1,0,0:0:0:0:
256,192,28425,1,8,0:0:0:0:
256,192,28566,1,0,0:0:0:0:
256,192,28708,1,0,0:0:0:0:
256,192,28849,1,8,0:0:0:0:
256,192,28991,1,8,0:0:0:0:
256,192,29132,1,0,0:0:0:0:
256,192,29274,1,8,0:0:0:0:
256,192,29698,1,8,0:0:0:0:
256,192,29840,1,0,0:0:0:0:
256,192,29981,1,8,0:0:0:0:
256,192,30264,1,0,0:0:0:0:
256,192,30406,1,8,0:0:0:0:
256,192,30689,1,0,0:0:0:0:
256,192,30831,1,0,0:0:0:0:
256,192,30972,1,8,0:0:0:0:
256,192,31114,1,0,0:0:0:0:
256,192,31680,1,0,0:0:0:0:
256,192,31963,1,8,0:0:0:0:
256,192,32246,1,0,0:0:0:0:
256,192,32529,1,0,0:0:0:0:
256,192,32670,1,8,0:0:0:0:
256,192,32953,1,0,0:0:0:0:
256,192,33095,1,8,0:0:0:0:
256,192,33236,1,8,0:0:0:0:
256,192,33378,1,0,0:0:0:0:
256,192,33661,1,8,0:0:0:0:
256,192,33802,1,0,0:0:0:0:
256,192,34085,1,0,0:0:0:0:
256,192,34227,1,8,0:0:0:0:
256,192,34368,1,0,0:0:0:0:
256,192,34510,1,8,0:0:0:0:
256,192,34793,1,0,0:0:0:0:
256,192,34934,1,0,0:0:0:0:
256,192,35005,1,0,0:0:0:0:
256,192,35076,1,8,0:0:0:0:
256,192,35217,1,0,0:0:0:0:
256,192,35359,1,0,0:0:0:0:
256,192,35500,1,8,0:0:0:0:
256,192,35571,1,0,0:0:0:0:
256,192,35642,1,8,0:0:0:0:
256,192,35689,1,8,0:0:0:0:
256,192,35736,1,8,0:0:0:0:
256,192,35783,1,0,0:0:0:0:
256,192,35854,1,0,0:0:0:0:
256,288,35925,1,12,0:0:0:0:
256,288,36208,1,4,0:0:0:0:
256,288,36491,1,4,0:0:0:0:
256,192,36774,1,8,0:0:0:0:
256,192,36821,1,8,0:0:0:0:
256,192,36868,1,8,0:0:0:0:
256,192,36915,1,0,0:0:0:0:
256,192,36986,1,0,0:0:0:0:
256,288,37057,1,12,0:0:0:0:
256,192,37198,1,8,0:0:0:0:
256,192,37340,1,0,0:0:0:0:
256,192,37411,1,0,0:0:0:0:
256,192,37552,1,8,0:0:0:0:
256,192,37623,1,8,0:0:0:0:
256,192,37764,1,0,0:0:0:0:
256,192,37835,1,0,0:0:0:0:
256,192,37906,1,8,0:0:0:0:
256,192,38047,1,8,0:0:0:0:
256,192,38118,1,8,0:0:0:0:
256,192,38189,1,0,0:0:0:0:
256,192,38260,1,0,0:0:0:0:
256,192,38331,1,8,0:0:0:0:
256,192,38472,1,0,0:0:0:0:
256,192,38543,1,8,0:0:0:0:
256,192,38684,1,8,0:0:0:0:
256,192,38755,1,0,0:0:0:0:
256,192,38826,1,8,0:0:0:0:
256,192,38897,1,0,0:0:0:0:
256,192,38967,1,0,0:0:0:0:
256,288,39038,1,12,0:0:0:0:
256,192,39180,1,0,0:0:0:0:
256,192,39250,1,0,0:0:0:0:
256,192,39321,1,8,0:0:0:0:
256,192,39463,1,8,0:0:0:0:
256,192,39604,1,0,0:0:0:0:
256,192,39675,1,0,0:0:0:0:
256,192,39816,1,8,0:0:0:0:
256,192,39887,1,0,0:0:0:0:
256,192,39958,1,0,0:0:0:0:
256,192,40029,1,8,0:0:0:0:
256,288,40170,1,12,0:0:0:0:
256,192,40312,1,0,0:0:0:0:
256,192,40382,1,0,0:0:0:0:
256,192,40453,1,8,0:0:0:0:
256,192,40595,1,0,0:0:0:0:
256,288,40736,1,12,0:0:0:0:
256,192,40878,1,0,0:0:0:0:
256,192,40948,1,0,0:0:0:0:
256,288,41019,1,12,0:0:0:0:
256,192,41161,1,0,0:0:0:0:
256,288,41302,1,12,0:0:0:0:
256,192,41585,1,0,0:0:0:0:
256,288,41727,1,12,0:0:0:0:
256,192,42010,1,0,0:0:0:0:
256,192,42151,1,8,0:0:0:0:
256,192,42222,1,8,0:0:0:0:
256,192,42293,1,0,0:0:0:0:
256,192,42364,1,0,0:0:0:0:
256,288,42434,1,12,0:0:0:0:
256,192,42576,1,0,0:0:0:0:
256,288,42859,1,12,0:0:0:0:
256,192,43142,1,0,0:0:0:0:
256,192,43283,1,0,0:0:0:0:
256,192,43354,1,8,0:0:0:0:
256,192,43425,1,0,0:0:0:0:
256,192,43496,1,0,0:0:0:0:
256,288,43566,1,12,0:0:0:0:
256,192,43849,1,0,0:0:0:0:
256,192,43920,1,0,0:0:0:0:
256,192,43991,1,0,0:0:0:0:
256,192,44062,1,0,0:0:0:0:
256,288,44132,1,12,0:0:0:0:
256,288,44274,1,12,0:0:0:0:
256,288,44557,1,12,0:0:0:0:
256,288,44840,1,12,0:0:0:0:
256,288,44981,1,4,0:0:0:0:
256,288,45123,1,4,0:0:0:0:
256,288,45264,1,12,0:0:0:0:
256,192,45547,1,8,0:0:0:0:
256,192,45618,1,0,0:0:0:0:
256,192,45689,1,0,0:0:0:0:
256,288,45831,1,12,0:0:0:0:
256,192,46114,1,0,0:0:0:0:
256,288,46255,1,12,0:0:0:0:
256,192,47387,1,8,0:0:0:0:
256,288,47529,1,4,0:0:0:0:
256,192,47812,1,8,0:0:0:0:
256,192,47953,1,0,0:0:0:0:
256,288,48095,1,12,0:0:0:0:
256,192,48378,1,8,0:0:0:0:
256,288,48519,1,4,0:0:0:0:
256,192,48802,1,8,0:0:0:0:
256,288,49227,1,4,0:0:0:0:
256,288,49651,1,12,0:0:0:0:
256,288,50359,1,12,0:0:0:0:
256,192,50642,1,0,0:0:0:0:
256,288,50783,1,12,0:0:0:0:
256,192,51915,1,8,0:0:0:0:
256,288,52057,1,4,0:0:0:0:
256,192,52340,1,0,0:0:0:0:
256,192,52481,1,8,0:0:0:0:
256,288,52623,1,12,0:0:0:0:
256,192,52906,1,0,0:0:0:0:
256,192,53047,1,0,0:0:0:0:
256,288,53118,1,8,0:0:0:0:
256,192,53189,1,8,0:0:0:0:
256,192,53331,1,8,0:0:0:0:
256,288,53755,1,4,0:0:0:0:
256,288,54180,1,12,0:0:0:0:
256,192,54604,1,8,0:0:0:0:
256,192,54675,1,8,0:0:0:0:
256,192,54746,1,8,0:0:0:0:
256,192,54816,1,8,0:0:0:0:
256,288,54887,1,4,0:0:0:0:
256,192,55029,1,0,0:0:0:0:
256,192,55099,1,0,0:0:0:0:
256,192,55170,1,8,0:0:0:0:
256,192,55312,1,0,0:0:0:0:
256,192,55453,1,8,0:0:0:0:
256,192,55524,1,8,0:0:0:0:
256,192,55595,1,0,0:0:0:0:
256,192,55736,1,8,0:0:0:0:
256,192,55807,1,0,0:0:0:0:
256,192,55878,1,8,0:0:0:0:
256,192,55948,1,8,0:0:0:0:
256,192,56019,1,0,0:0:0:0:
256,192,56090,1,0,0:0:0:0:
256,192,56161,1,8,0:0:0:0:
256,192,56302,1,8,0:0:0:0:
256,192,56444,1,8,0:0:0:0:
256,192,56514,1,8,0:0:0:0:
256,192,56585,1,0,0:0:0:0:
256,192,56727,1,0,0:0:0:0:
256,192,56868,1,8,0:0:0:0:
256,192,57010,1,0,0:0:0:0:
256,192,57081,1,0,0:0:0:0:
256,192,57151,1,8,0:0:0:0:
256,192,57293,1,8,0:0:0:0:
256,192,57364,1,0,0:0:0:0:
256,192,57434,1,8,0:0:0:0:
256,288,57576,1,0,0:0:0:0:
256,192,57647,1,8,0:0:0:0:
256,192,57717,1,8,0:0:0:0:
256,192,57788,1,0,0:0:0:0:
256,192,57859,1,8,0:0:0:0:
256,192,58000,1,8,0:0:0:0:
256,192,58071,1,0,0:0:0:0:
256,192,58142,1,8,0:0:0:0:
256,192,58213,1,8,0:0:0:0:
256,192,58283,1,0,0:0:0:0:
256,192,58425,1,0,0:0:0:0:
256,192,58496,1,8,0:0:0:0:
256,192,58637,1,8,0:0:0:0:
256,192,58708,1,0,0:0:0:0:
256,192,58779,1,0,0:0:0:0:
256,192,58849,1,8,0:0:0:0:
256,192,58991,1,0,0:0:0:0:
256,192,59132,1,8,0:0:0:0:
256,192,59180,1,8,0:0:0:0:
256,192,59227,1,0,0:0:0:0:
256,192,59274,1,0,0:0:0:0:
256,288,59415,1,12,0:0:0:0:
256,192,59840,1,0,0:0:0:0:
256,192,59911,1,0,0:0:0:0:
256,192,59981,1,8,0:0:0:0:
256,192,60406,1,0,0:0:0:0:
256,192,60477,1,8,0:0:0:0:
256,192,60547,1,8,0:0:0:0:
256,192,60972,1,8,0:0:0:0:
256,192,61043,1,0,0:0:0:0:
256,192,61114,1,8,0:0:0:0:
256,192,61538,1,8,0:0:0:0:
256,192,61609,1,8,0:0:0:0:
256,192,61680,1,8,0:0:0:0:
256,192,61868,1,8,0:0:0:0:
256,192,61963,1,0,0:0:0:0:
256,192,62057,1,0,0:0:0:0:
256,192,62151,1,8,0:0:0:0:
256,192,62246,1,8,0:0:0:0:
256,192,62340,1,8,0:0:0:0:
256,192,62434,1,0,0:0:0:0:
256,192,62529,1,0,0:0:0:0:
256,192,62623,1,8,0:0:0:0:
256,192,62717,1,0,0:0:0:0:
256,192,62764,1,0,0:0:0:0:
256,192,62812,1,8,0:0:0:0:
256,192,62906,1,0,0:0:0:0:
256,192,63000,1,8,0:0:0:0:
256,192,63095,1,0,0:0:0:0:
256,192,63189,1,8,0:0:0:0:
256,192,63283,1,8,0:0:0:0:
256,192,63378,1,0,0:0:0:0:
256,192,63519,1,8,0:0:0:0:
256,192,63661,1,0,0:0:0:0:
256,192,63731,1,8,0:0:0:0:
256,192,63802,1,0,0:0:0:0:
256,192,63873,1,0,0:0:0:0:
256,288,63944,1,12,0:0:0:0:
256,192,64156,1,0,0:0:0:0:
256,288,64227,1,12,0:0:0:0:
256,192,64368,1,0,0:0:0:0:
256,192,64510,1,8,0:0:0:0:
256,192,64581,1,0,0:0:0:0:
256,192,64651,1,8,0:0:0:0:
256,192,64698,1,8,0:0:0:0:
256,192,64746,1,8,0:0:0:0:
256,192,64793,1,0,0:0:0:0:
256,192,64864,1,0,0:0:0:0:
256,288,64934,1,12,0:0:0:0:
256,192,65217,1,0,0:0:0:0:
256,192,65288,1,0,0:0:0:0:
256,192,65430,1,8,0:0:0:0:
256,192,65500,1,8,0:0:0:0:
256,192,65642,1,0,0:0:0:0:
256,192,65713,1,8,0:0:0:0:
256,192,65783,1,8,0:0:0:0:
256,192,65854,1,0,0:0:0:0:
256,192,65925,1,8,0:0:0:0:
256,192,66066,1,0,0:0:0:0:
256,192,66137,1,0,0:0:0:0:
256,288,66208,1,12,0:0:0:0:
256,192,66349,1,0,0:0:0:0:
256,192,66420,1,8,0:0:0:0:
256,192,66491,1,0,0:0:0:0:
256,192,66632,1,8,0:0:0:0:
256,192,66774,1,0,0:0:0:0:
256,192,66845,1,8,0:0:0:0:
256,192,66915,1,8,0:0:0:0:
256,192,66986,1,0,0:0:0:0:
256,192,67057,1,8,0:0:0:0:
256,192,67198,1,0,0:0:0:0:
256,192,67269,1,8,0:0:0:0:
256,192,67340,1,8,0:0:0:0:
256,192,67481,1,8,0:0:0:0:
256,192,67623,1,0,0:0:0:0:
256,192,67764,1,8,0:0:0:0:
256,192,67835,1,0,0:0:0:0:
256,192,67906,1,8,0:0:0:0:
256,192,67977,1,8,0:0:0:0:
256,192,68047,1,0,0:0:0:0:
256,192,68189,1,8,0:0:0:0:
256,192,68331,1,0,0:0:0:0:
256,192,68401,1,0,0:0:0:0:
256,288,68472,1,12,0:0:0:0:
256,192,68614,1,0,0:0:0:0:
256,192,68684,1,0,0:0:0:0:
256,192,68755,1,8,0:0:0:0:
256,192,68897,1,0,0:0:0:0:
256,192,69038,1,8,0:0:0:0:
256,192,69109,1,0,0:0:0:0:
256,192,69180,1,8,0:0:0:0:
256,192,69250,1,8,0:0:0:0:
256,192,69321,1,0,0:0:0:0:
256,192,69392,1,8,0:0:0:0:
256,192,69463,1,0,0:0:0:0:
256,192,69533,1,0,0:0:0:0:
256,288,69604,1,12,0:0:0:0:
256,192,69746,1,0,0:0:0:0:
256,192,69816,1,0,0:0:0:0:
256,192,69887,1,8,0:0:0:0:
256,192,70029,1,0,0:0:0:0:
256,192,70170,1,8,0:0:0:0:
256,192,70241,1,8,0:0:0:0:
256,192,70312,1,0,0:0:0:0:
256,192,70382,1,0,0:0:0:0:
256,192,70453,1,8,0:0:0:0:
256,192,70524,1,0,0:0:0:0:
256,192,70595,1,8,0:0:0:0:
256,192,70665,1,8,0:0:0:0:
256,288,70736,1,4,0:0:0:0:
256,192,70925,1,0,0:0:0:0:
256,192,71114,1,8,0:0:0:0:
256,288,71302,1,4,0:0:0:0:
256,192,71491,1,8,0:0:0:0:
256,192,71680,1,0,0:0:0:0:
256,192,71868,1,0,0:0:0:0:
256,192,71963,1,8,0:0:0:0:
256,192,72057,1,8,0:0:0:0:
256,192,72151,1,0,0:0:0:0:
256,192,72246,1,8,0:0:0:0:
256,192,72340,1,0,0:0:0:0:
256,192,72434,1,8,0:0:0:0:
256,192,72576,1,0,0:0:0:0:
256,192,72647,1,0,0:0:0:0:
256,192,72717,1,8,0:0:0:0:
256,192,72753,1,8,0:0:0:0:
256,288,73000,1,12,0:0:0:0:
256,192,73142,1,0,0:0:0:0:
256,192,73212,1,8,0:0:0:0:
256,192,73283,1,0,0:0:0:0:
256,192,73425,1,8,0:0:0:0:
256,192,73566,1,0,0:0:0:0:
256,192,73637,1,8,0:0:0:0:
256,192,73708,1,8,0:0:0:0:
256,192,73779,1,0,0:0:0:0:
256,192,73849,1,8,0:0:0:0:
256,192,73991,1,0,0:0:0:0:
256,192,74062,1,0,0:0:0:0:
256,192,74132,1,8,0:0:0:0:
256,192,74274,1,8,0:0:0:0:
256,192,74345,1,8,0:0:0:0:
256,192,74415,1,0,0:0:0:0:
256,192,74557,1,8,0:0:0:0:
256,192,74698,1,0,0:0:0:0:
256,192,74769,1,0,0:0:0:0:
256,192,74840,1,8,0:0:0:0:
256,192,74911,1,8,0:0:0:0:
256,192,74981,1,0,0:0:0:0:
256,192,75123,1,0,0:0:0:0:
256,192,75194,1,0,0:0:0:0:
256,288,75264,1,12,0:0:0:0:
256,192,75406,1,0,0:0:0:0:
256,192,75476,1,8,0:0:0:0:
256,192,75547,1,0,0:0:0:0:
256,192,75689,1,8,0:0:0:0:
256,192,75831,1,0,0:0:0:0:
256,192,75901,1,0,0:0:0:0:
256,192,75972,1,8,0:0:0:0:
256,192,76043,1,8,0:0:0:0:
256,192,76114,1,8,0:0:0:0:
256,192,76255,1,0,0:0:0:0:
256,192,76397,1,8,0:0:0:0:
256,192,76467,1,8,0:0:0:0:
256,192,76538,1,0,0:0:0:0:
256,192,76609,1,0,0:0:0:0:
256,192,76680,1,8,0:0:0:0:
256,192,76821,1,8,0:0:0:0:
256,192,76892,1,8,0:0:0:0:
256,192,76963,1,0,0:0:0:0:
256,192,77104,1,8,0:0:0:0:
256,192,77151,1,0,0:0:0:0:
256,192,77198,1,0,0:0:0:0:
256,192,77246,1,8,0:0:0:0:
256,192,77387,1,0,0:0:0:0:
256,288,77529,1,12,0:0:0:0:
256,288,77670,1,12,0:0:0:0:
256,288,77953,1,4,0:0:0:0:
256,288,78236,1,4,0:0:0:0:
256,288,78519,1,4,0:0:0:0:
256,192,78802,1,0,0:0:0:0:
256,192,78873,1,8,0:0:0:0:
256,192,78944,1,8,0:0:0:0:
256,192,79085,1,0,0:0:0:0:
256,192,79227,1,0,0:0:0:0:
256,192,79368,1,8,0:0:0:0:
256,192,79439,1,0,0:0:0:0:
256,192,79510,1,8,0:0:0:0:
256,192,79557,1,8,0:0:0:0:
256,192,79604,1,8,0:0:0:0:
256,192,79651,1,0,0:0:0:0:
256,192,79722,1,0,0:0:0:0:
256,288,79793,1,12,0:0:0:0:
256,288,80005,1,12,0:0:0:0:
256,288,80217,1,4,0:0:0:0:
256,288,80359,1,12,0:0:0:0:
256,288,80571,1,12,0:0:0:0:
256,192,80783,1,0,0:0:0:0:
256,192,80854,1,0,0:0:0:0:
256,192,80925,1,8,0:0:0:0:
256,192,81066,1,0,0:0:0:0:
256,192,81137,1,8,0:0:0:0:
256,192,81279,1,8,0:0:0:0:
256,192,81349,1,0,0:0:0:0:
256,192,81420,1,0,0:0:0:0:
256,192,81491,1,8,0:0:0:0:
256,192,81774,1,8,0:0:0:0:
256,192,81845,1,0,0:0:0:0:
256,192,81915,1,0,0:0:0:0:
256,192,81986,1,0,0:0:0:0:
256,288,82057,1,12,0:0:0:0:
256,192,82198,1,0,0:0:0:0:
256,192,82269,1,8,0:0:0:0:
256,192,82340,1,8,0:0:0:0:
256,192,82481,1,0,0:0:0:0:
256,192,82623,1,8,0:0:0:0:
256,192,82764,1,0,0:0:0:0:
256,192,82906,1,8,0:0:0:0:
256,192,82977,1,8,0:0:0:0:
256,192,83047,1,0,0:0:0:0:
256,192,83118,1,0,0:0:0:0:
256,192,83189,1,8,0:0:0:0:
256,192,83331,1,0,0:0:0:0:
256,192,83401,1,8,0:0:0:0:
256,192,83472,1,0,0:0:0:0:
256,192,83614,1,8,0:0:0:0:
256,192,83755,1,8,0:0:0:0:
256,192,83826,1,0,0:0:0:0:
256,192,83897,1,0,0:0:0:0:
256,192,84038,1,8,0:0:0:0:
256,192,84109,1,0,0:0:0:0:
256,192,84180,1,0,0:0:0:0:
256,192,84250,1,0,0:0:0:0:
256,192,84321,1,8,0:0:0:0:
256,192,84463,1,0,0:0:0:0:
256,192,84533,1,8,0:0:0:0:
256,192,84604,1,8,0:0:0:0:
256,192,84746,1,0,0:0:0:0:
256,192,84887,1,8,0:0:0:0:
256,192,85029,1,0,0:0:0:0:
256,192,85099,1,0,0:0:0:0:
256,192,85170,1,8,0:0:0:0:
256,192,85241,1,8,0:0:0:0:
256,192,85312,1,0,0:0:0:0:
256,192,85453,1,8,0:0:0:0:
256,192,85524,1,0,0:0:0:0:
256,192,85595,1,8,0:0:0:0:
256,192,85736,1,0,0:0:0:0:
256,192,85878,1,8,0:0:0:0:
256,192,86019,1,8,0:0:0:0:
256,192,86090,1,8,0:0:0:0:
256,192,86161,1,0,0:0:0:0:
256,192,86231,1,0,0:0:0:0:
256,192,86302,1,8,0:0:0:0:
256,192,86349,1,8,0:0:0:0:
256,192,86397,1,8,0:0:0:0:
256,192,86444,1,0,0:0:0:0:
256,288,86585,1,12,0:0:0:0:
256,192,86727,1,0,0:0:0:0:
256,192,86797,1,0,0:0:0:0:
256,192,86868,1,8,0:0:0:0:
256,192,87010,1,0,0:0:0:0:
256,192,87151,1,8,0:0:0:0:
256,192,87293,1,0,0:0:0:0:
256,192,87364,1,0,0:0:0:0:
256,192,87434,1,8,0:0:0:0:
256,192,87505,1,8,0:0:0:0:
256,192,87576,1,0,0:0:0:0:
256,288,87717,1,12,0:0:0:0:
256,192,87859,1,0,0:0:0:0:
256,192,87930,1,8,0:0:0:0:
256,192,88000,1,0,0:0:0:0:
256,192,88142,1,8,0:0:0:0:
256,192,88283,1,0,0:0:0:0:
256,192,88425,1,8,0:0:0:0:
256,192,88496,1,0,0:0:0:0:
256,192,88566,1,8,0:0:0:0:
256,192,88637,1,8,0:0:0:0:
256,192,88708,1,0,0:0:0:0:
256,288,88849,1,8,0:0:0:0:
256,192,88920,1,8,0:0:0:0:
256,192,88991,1,0,0:0:0:0:
256,192,89062,1,0,0:0:0:0:
256,192,89132,1,8,0:0:0:0:
256,192,89203,1,0,0:0:0:0:
256,192,89274,1,8,0:0:0:0:
256,192,89345,1,8,0:0:0:0:
256,192,89415,1,0,0:0:0:0:
256,192,89486,1,8,0:0:0:0:
256,192,89557,1,0,0:0:0:0:
256,192,89628,1,0,0:0:0:0:
256,192,89698,1,8,0:0:0:0:
256,192,89769,1,8,0:0:0:0:
256,192,89840,1,0,0:0:0:0:
256,192,89911,1,0,0:0:0:0:
256,288,89981,1,12,0:0:0:0:
256,288,90170,1,12,0:0:0:0:
256,288,90359,1,4,0:0:0:0:
256,288,90547,1,4,0:0:0:0:
256,288,90736,1,12,0:0:0:0:
256,288,90925,1,4,0:0:0:0:
256,192,91114,1,8,0:0:0:0:
256,192,91161,1,8,0:0:0:0:
256,192,91208,1,8,0:0:0:0:
256,192,91255,1,0,0:0:0:0:
256,192,91326,1,0,0:0:0:0:
256,288,91397,1,12,0:0:0:0:
256,192,91538,1,0,0:0:0:0:
256,192,91609,1,8,0:0:0:0:
256,192,91680,1,8,0:0:0:0:
256,192,91821,1,0,0:0:0:0:
256,192,91963,1,8,0:0:0:0:
256,192,92033,1,8,0:0:0:0:
256,192,92104,1,0,0:0:0:0:
256,192,92175,1,0,0:0:0:0:
256,192,92246,1,8,0:0:0:0:
256,192,92387,1,0,0:0:0:0:
256,192,92458,1,8,0:0:0:0:
256,192,92529,1,0,0:0:0:0:
256,192,92670,1,8,0:0:0:0:
256,192,92812,1,8,0:0:0:0:
256,192,92882,1,0,0:0:0:0:
256,192,92953,1,0,0:0:0:0:
256,192,93095,1,8,0:0:0:0:
256,192,93165,1,0,0:0:0:0:
256,192,93236,1,0,0:0:0:0:
256,192,93307,1,0,0:0:0:0:
256,192,93378,1,8,0:0:0:0:
256,192,93519,1,0,0:0:0:0:
256,192,93590,1,8,0:0:0:0:
256,192,93661,1,8,0:0:0:0:
256,192,93802,1,0,0:0:0:0:
256,192,93944,1,8,0:0:0:0:
256,192,94014,1,0,0:0:0:0:
256,192,94085,1,8,0:0:0:0:
256,192,94156,1,0,0:0:0:0:
256,192,94227,1,8,0:0:0:0:
256,192,94368,1,0,0:0:0:0:
256,192,94439,1,0,0:0:0:0:
256,288,94510,1,12,0:0:0:0:
256,192,94651,1,0,0:0:0:0:
256,192,94722,1,0,0:0:0:0:
256,192,94793,1,8,0:0:0:0:
256,192,94864,1,0,0:0:0:0:
256,192,94934,1,8,0:0:0:0:
256,192,95005,1,8,0:0:0:0:
256,192,95076,1,8,0:0:0:0:
256,192,95217,1,0,0:0:0:0:
256,192,95288,1,0,0:0:0:0:
256,192,95359,1,8,0:0:0:0:
256,192,95406,1,8,0:0:0:0:
256,192,95453,1,8,0:0:0:0:
256,192,95500,1,0,0:0:0:0:
256,288,95642,1,12,0:0:0:0:
256,192,95783,1,0,0:0:0:0:
256,192,95854,1,0,0:0:0:0:
256,192,95925,1,8,0:0:0:0:
256,192,95996,1,0,0:0:0:0:
256,192,96066,1,8,0:0:0:0:
256,192,96208,1,0,0:0:0:0:
256,192,96349,1,8,0:0:0:0:
256,192,96491,1,0,0:0:0:0:
256,192,96562,1,8,0:0:0:0:
256,192,96632,1,0,0:0:0:0:
256,192,96774,1,8,0:0:0:0:
256,192,96868,1,8,0:0:0:0:
256,192,96963,1,0,0:0:0:0:
256,192,97057,1,8,0:0:0:0:
256,192,97151,1,0,0:0:0:0:
256,192,97246,1,0,0:0:0:0:
256,192,97340,1,8,0:0:0:0:
256,192,97434,1,0,0:0:0:0:
256,192,97529,1,8,0:0:0:0:
256,192,97623,1,0,0:0:0:0:
256,192,97694,1,0,0:0:0:0:
256,192,97764,1,8,0:0:0:0:
256,192,97835,1,8,0:0:0:0:
256,288,97906,1,4,0:0:0:0:
256,192,98047,1,8,0:0:0:0:
256,192,98118,1,8,0:0:0:0:
256,192,98189,1,0,0:0:0:0:
256,192,98260,1,8,0:0:0:0:
256,192,98331,1,0,0:0:0:0:
256,192,98401,1,8,0:0:0:0:
256,192,98472,1,8,0:0:0:0:
256,192,98543,1,0,0:0:0:0:
256,192,98614,1,0,0:0:0:0:
256,192,98684,1,8,0:0:0:0:
256,192,98755,1,8,0:0:0:0:
256,192,98826,1,0,0:0:0:0:
256,192,98897,1,8,0:0:0:0:
256,192,98967,1,8,0:0:0:0:
256,288,99038,1,4,0:0:0:0:
256,192,99180,1,0,0:0:0:0:
256,288,99321,1,12,0:0:0:0:
256,288,99463,1,12,0:0:0:0:
256,288,99604,1,12,0:0:0:0:
256,192,99887,1,8,0:0:0:0:
256,192,99958,1,8,0:0:0:0:
256,192,100029,1,0,0:0:0:0:
256,192,100099,1,0,0:0:0:0:
256,288,100170,1,12,0:0:0:0:
256,192,100312,1,8,0:0:0:0:
256,192,100453,1,0,0:0:0:0:
256,192,100524,1,0,0:0:0:0:
256,192,100594,1,8,0:0:0:0:
256,192,100736,1,0,0:0:0:0:
256,192,100877,1,8,0:0:0:0:
256,192,100948,1,0,0:0:0:0:
256,192,101019,1,8,0:0:0:0:
256,192,101161,1,0,0:0:0:0:
256,192,101302,1,8,0:0:0:0:
256,192,101373,1,0,0:0:0:0:
256,192,101444,1,8,0:0:0:0:
256,192,101514,1,8,0:0:0:0:
256,192,101585,1,0,0:0:0:0:
256,192,101656,1,0,0:0:0:0:
256,192,101727,1,8,0:0:0:0:
256,192,101868,1,0,0:0:0:0:
256,192,102010,1,0,0:0:0:0:
256,192,102151,1,8,0:0:0:0:
256,192,102222,1,8,0:0:0:0:
256,192,102293,1,0,0:0:0:0:
256,192,102364,1,0,0:0:0:0:
256,288,102434,1,12,0:0:0:0:
256,192,102576,1,0,0:0:0:0:
256,192,102717,1,8,0:0:0:0:
256,192,102788,1,0,0:0:0:0:
256,192,102859,1,0,0:0:0:0:
256,192,103000,1,0,0:0:0:0:
256,192,103142,1,8,0:0:0:0:
256,192,103213,1,8,0:0:0:0:
256,192,103283,1,0,0:0:0:0:
256,192,103354,1,0,0:0:0:0:
256,192,103425,1,8,0:0:0:0:
256,192,103496,1,8,0:0:0:0:
256,192,103566,1,0,0:0:0:0:
256,192,103708,1,0,0:0:0:0:
256,192,103779,1,0,0:0:0:0:
256,192,103849,1,8,0:0:0:0:
256,192,103991,1,0,0:0:0:0:
256,288,104132,1,12,0:0:0:0:
256,192,104274,1,0,0:0:0:0:
256,192,104345,1,0,0:0:0:0:
256,288,104415,1,12,0:0:0:0:
256,192,104557,1,0,0:0:0:0:
256,288,104698,1,12,0:0:0:0:
256,192,104840,1,0,0:0:0:0:
256,192,104911,1,0,0:0:0:0:
256,192,104981,1,8,0:0:0:0:
256,192,105052,1,0,0:0:0:0:
256,192,105123,1,8,0:0:0:0:
256,192,105264,1,0,0:0:0:0:
256,192,105406,1,8,0:0:0:0:
256,192,105477,1,0,0:0:0:0:
256,192,105547,1,8,0:0:0:0:
256,192,105618,1,8,0:0:0:0:
256,192,105689,1,0,0:0:0:0:
256,192,105760,1,0,0:0:0:0:
256,288,105831,1,12,0:0:0:0:
256,192,105972,1,0,0:0:0:0:
256,192,106114,1,8,0:0:0:0:
256,192,106184,1,8,0:0:0:0:
256,192,106255,1,0,0:0:0:0:
256,192,106326,1,0,0:0:0:0:
256,192,106397,1,8,0:0:0:0:
256,192,106538,1,0,0:0:0:0:
256,192,106609,1,8,0:0:0:0:
256,192,106680,1,0,0:0:0:0:
256,192,106821,1,0,0:0:0:0:
256,192,106892,1,0,0:0:0:0:
256,288,106963,1,12,0:0:0:0:
256,192,107104,1,0,0:0:0:0:
256,192,107246,1,8,0:0:0:0:
256,192,107293,1,8,0:0:0:0:
256,192,107340,1,8,0:0:0:0:
256,192,107387,1,0,0:0:0:0:
256,192,107458,1,0,0:0:0:0:
256,288,107529,1,12,0:0:0:0:
256,192,107670,1,0,0:0:0:0:
256,192,107812,1,8,0:0:0:0:
256,192,107859,1,8,0:0:0:0:
256,192,107906,1,8,0:0:0:0:
256,192,107953,1,0,0:0:0:0:
256,192,108024,1,0,0:0:0:0:
256,192,108095,1,8,0:0:0:0:
256,192,108142,1,0,0:0:0:0:
256,192,108189,1,0,0:0:0:0:
256,192,108236,1,8,0:0:0:0:
256,192,108307,1,0,0:0:0:0:
256,288,108378,1,12,0:0:0:0:
256,288,108661,1,12,0:0:0:0:
256,288,108944,1,12,0:0:0:0:
256,192,109227,1,8,0:0:0:0:
256,192,109297,1,0,0:0:0:0:
256,192,109368,1,0,0:0:0:0:
256,192,109439,1,8,0:0:0:0:
256,192,109581,1,0,0:0:0:0:
256,288,109651,1,12,0:0:0:0:
256,192,109793,1,0,0:0:0:0:
256,192,109864,1,0,0:0:0:0:
256,192,110005,1,8,0:0:0:0:
256,192,110076,1,8,0:0:0:0:
256,192,110217,1,0,0:0:0:0:
256,192,110288,1,0,0:0:0:0:
256,192,110359,1,8,0:0:0:0:
256,192,110500,1,8,0:0:0:0:
256,192,110571,1,0,0:0:0:0:
256,192,110713,1,0,0:0:0:0:
256,192,110783,1,8,0:0:0:0:
256,192,110925,1,0,0:0:0:0:
256,192,110996,1,0,0:0:0:0:
256,192,111137,1,8,0:0:0:0:
256,192,111208,1,0,0:0:0:0:
256,192,111279,1,0,0:0:0:0:
256,192,111349,1,8,0:0:0:0:
256,192,111420,1,8,0:0:0:0:
256,192,111491,1,0,0:0:0:0:
256,192,111632,1,0,0:0:0:0:
256,192,111703,1,8,0:0:0:0:
256,192,111845,1,8,0:0:0:0:
256,192,111915,1,0,0:0:0:0:
256,192,112057,1,8,0:0:0:0:
256,192,112128,1,8,0:0:0:0:
256,192,112269,1,0,0:0:0:0:
256,192,112340,1,8,0:0:0:0:
256,192,112411,1,0,0:0:0:0:
256,192,112481,1,8,0:0:0:0:
256,192,112552,1,8,0:0:0:0:
256,192,112623,1,0,0:0:0:0:
256,192,112764,1,8,0:0:0:0:
256,192,112835,1,0,0:0:0:0:
256,192,112906,1,0,0:0:0:0:
256,192,113047,1,0,0:0:0:0:
256,192,113189,1,8,0:0:0:0:
256,192,113260,1,0,0:0:0:0:
256,192,113401,1,0,0:0:0:0:
256,192,113472,1,8,0:0:0:0:
256,192,113614,1,0,0:0:0:0:
256,288,113755,1,12,0:0:0:0:
256,192,114038,1,0,0:0:0:0:
256,288,114180,1,12,0:0:0:0:
256,192,114463,1,0,0:0:0:0:
256,192,114604,1,8,0:0:0:0:
256,192,114675,1,8,0:0:0:0:
256,192,114746,1,0,0:0:0:0:
256,192,114816,1,0,0:0:0:0:
256,288,114887,1,12,0:0:0:0:
256,192,115029,1,0,0:0:0:0:
256,288,115312,1,12,0:0:0:0:
256,192,115595,1,0,0:0:0:0:
256,192,115736,1,0,0:0:0:0:
256,192,115807,1,0,0:0:0:0:
256,192,115878,1,8,0:0:0:0:
256,192,115948,1,8,0:0:0:0:
256,288,116019,1,4,0:0:0:0:
256,192,116302,1,0,0:0:0:0:
256,192,116373,1,8,0:0:0:0:
256,192,116444,1,8,0:0:0:0:
256,192,116514,1,8,0:0:0:0:
256,288,116585,1,4,0:0:0:0:
256,288,116727,1,12,0:0:0:0:
256,192,116868,1,0,0:0:0:0:
256,288,117010,1,12,0:0:0:0:
256,288,117293,1,12,0:0:0:0:
256,288,117434,1,4,0:0:0:0:
256,288,117576,1,4,0:0:0:0:
256,288,117717,1,12,0:0:0:0:
256,192,118000,1,8,0:0:0:0:
256,192,118071,1,0,0:0:0:0:
256,192,118142,1,0,0:0:0:0:
256,288,118283,1,12,0:0:0:0:
256,192,118425,1,8,0:0:0:0:
256,192,118566,1,0,0:0:0:0:
256,192,118637,1,0,0:0:0:0:
256,192,118708,1,8,0:0:0:0:
256,192,118849,1,0,0:0:0:0:
256,192,118991,1,8,0:0:0:0:
256,192,119132,1,0,0:0:0:0:
256,192,119203,1,0,0:0:0:0:
256,192,119274,1,8,0:0:0:0:
256,192,119345,1,0,0:0:0:0:
256,192,119415,1,8,0:0:0:0:
256,192,119557,1,0,0:0:0:0:
256,192,119698,1,0,0:0:0:0:
256,192,119769,1,8,0:0:0:0:
256,192,119840,1,8,0:0:0:0:
256,192,119911,1,0,0:0:0:0:
256,192,119981,1,8,0:0:0:0:
256,192,120123,1,0,0:0:0:0:
256,192,120264,1,8,0:0:0:0:
256,192,120335,1,8,0:0:0:0:
256,192,120406,1,0,0:0:0:0:
256,192,120477,1,0,0:0:0:0:
256,288,120547,1,12,0:0:0:0:
256,192,120689,1,0,0:0:0:0:
256,192,120760,1,0,0:0:0:0:
256,192,120831,1,0,0:0:0:0:
256,192,120972,1,8,0:0:0:0:
256,192,121114,1,0,0:0:0:0:
256,192,121255,1,0,0:0:0:0:
256,192,121326,1,0,0:0:0:0:
256,192,121397,1,8,0:0:0:0:
256,192,121467,1,0,0:0:0:0:
256,192,121538,1,8,0:0:0:0:
256,192,121609,1,8,0:0:0:0:
256,192,121680,1,0,0:0:0:0:
256,192,121821,1,0,0:0:0:0:
256,192,121963,1,8,0:0:0:0:
256,192,122104,1,0,0:0:0:0:
256,192,122175,1,8,0:0:0:0:
256,192,122246,1,8,0:0:0:0:
256,192,122316,1,0,0:0:0:0:
256,192,122387,1,0,0:0:0:0:
256,192,122434,1,0,0:0:0:0:
256,192,122481,1,0,0:0:0:0:
256,288,122529,1,12,0:0:0:0:
256,192,122670,1,0,0:0:0:0:
256,288,122812,1,12,0:0:0:0:
256,192,122953,1,8,0:0:0:0:
256,192,123095,1,0,0:0:0:0:
256,192,123165,1,0,0:0:0:0:
256,192,123236,1,8,0:0:0:0:
256,192,123378,1,0,0:0:0:0:
256,192,123519,1,8,0:0:0:0:
256,192,123661,1,0,0:0:0:0:
256,192,123731,1,0,0:0:0:0:
256,192,123802,1,8,0:0:0:0:
256,192,123873,1,0,0:0:0:0:
256,192,123944,1,0,0:0:0:0:
256,192,124085,1,8,0:0:0:0:
256,192,124227,1,0,0:0:0:0:
256,192,124297,1,8,0:0:0:0:
256,192,124368,1,0,0:0:0:0:
256,192,124439,1,0,0:0:0:0:
256,192,124510,1,8,0:0:0:0:
256,192,124651,1,0,0:0:0:0:
256,192,124793,1,8,0:0:0:0:
256,192,124864,1,8,0:0:0:0:
256,192,124934,1,0,0:0:0:0:
256,192,125005,1,0,0:0:0:0:
256,288,125076,1,12,0:0:0:0:
256,192,125359,1,0,0:0:0:0:
256,192,125500,1,8,0:0:0:0:
256,288,125642,1,12,0:0:0:0:
256,192,125783,1,0,0:0:0:0:
256,192,125854,1,0,0:0:0:0:
256,192,125925,1,0,0:0:0:0:
256,192,126066,1,8,0:0:0:0:
256,192,126137,1,0,0:0:0:0:
256,192,126208,1,8,0:0:0:0:
256,192,126255,1,8,0:0:0:0:
256,192,126302,1,8,0:0:0:0:
256,192,126349,1,0,0:0:0:0:
256,192,126420,1,0,0:0:0:0:
256,288,126491,1,12,0:0:0:0:
256,288,126774,1,12,0:0:0:0:
256,288,127057,1,4,0:0:0:0:
256,192,127198,1,0,0:0:0:0:
256,192,127269,1,0,0:0:0:0:
256,288,127340,1,12,0:0:0:0:
256,192,127481,1,8,0:0:0:0:
256,192,127623,1,0,0:0:0:0:
256,192,127694,1,0,0:0:0:0:
256,192,127764,1,8,0:0:0:0:
256,192,127906,1,0,0:0:0:0:
256,192,128047,1,8,0:0:0:0:
256,192,128118,1,0,0:0:0:0:
256,192,128189,1,8,0:0:0:0:
256,192,128260,1,8,0:0:0:0:
256,192,128331,1,0,0:0:0:0:
256,192,128401,1,0,0:0:0:0:
256,192,128472,1,8,0:0:0:0:
256,192,128614,1,0,0:0:0:0:
256,192,128755,1,8,0:0:0:0:
256,192,128826,1,8,0:0:0:0:
256,192,128897,1,8,0:0:0:0:
256,192,128967,1,0,0:0:0:0:
256,192,129038,1,0,0:0:0:0:
256,192,129180,1,8,0:0:0:0:
256,192,129321,1,0,0:0:0:0:
256,192,129392,1,8,0:0:0:0:
256,192,129463,1,0,0:0:0:0:
256,192,129604,1,8,0:0:0:0:
256,192,129675,1,8,0:0:0:0:
256,192,129746,1,0,0:0:0:0:
256,192,129816,1,0,0:0:0:0:
256,192,129887,1,8,0:0:0:0:
256,192,129958,1,0,0:0:0:0:
256,192,130029,1,8,0:0:0:0:
256,192,130099,1,8,0:0:0:0:
256,192,130170,1,0,0:0:0:0:
256,192,130241,1,0,0:0:0:0:
256,192,130312,1,8,0:0:0:0:
256,192,130382,1,8,0:0:0:0:
256,192,130453,1,0,0:0:0:0:
256,192,130524,1,8,0:0:0:0:
256,192,130595,1,8,0:0:0:0:
256,192,130665,1,0,0:0:0:0:
256,288,130736,1,12,0:0:0:0:
256,192,131019,1,0,0:0:0:0:
256,288,131161,1,12,0:0:0:0:
256,192,131585,1,0,0:0:0:0:
256,192,131656,1,0,0:0:0:0:
256,192,131727,1,0,0:0:0:0:
256,192,131797,1,0,0:0:0:0:
256,288,131868,1,12,0:0:0:0:
256,192,132010,1,8,0:0:0:0:
256,192,132081,1,0,0:0:0:0:
256,192,132151,1,8,0:0:0:0:
256,192,132222,1,8,0:0:0:0:
256,192,132293,1,0,0:0:0:0:
256,192,132364,1,0,0:0:0:0:
256,192,132434,1,8,0:0:0:0:
256,192,132505,1,8,0:0:0:0:
256,192,132576,1,8,0:0:0:0:
256,192,132647,1,0,0:0:0:0:
256,192,132717,1,8,0:0:0:0:
256,192,132788,1,8,0:0:0:0:
256,192,132859,1,0,0:0:0:0:
256,192,132930,1,0,0:0:0:0:
256,288,133000,1,12,0:0:0:0:
256,192,133142,1,0,0:0:0:0:
256,192,133213,1,0,0:0:0:0:
256,192,133283,1,8,0:0:0:0:
256,192,133354,1,0,0:0:0:0:
256,192,133425,1,8,0:0:0:0:
256,192,133496,1,8,0:0:0:0:
256,192,133566,1,0,0:0:0:0:
256,192,133637,1,8,0:0:0:0:
256,192,133708,1,0,0:0:0:0:
256,192,133779,1,0,0:0:0:0:
256,192,133849,1,8,0:0:0:0:
256,192,133920,1,8,0:0:0:0:
256,192,133991,1,0,0:0:0:0:
256,192,134062,1,0,0:0:0:0:
256,288,134132,1,12,0:0:0:0:
256,192,134274,1,0,0:0:0:0:
256,192,134345,1,0,0:0:0:0:
256,288,134415,1,12,0:0:0:0:
256,192,134557,1,0,0:0:0:0:
256,192,134628,1,8,0:0:0:0:
256,192,134698,1,8,0:0:0:0:
256,192,134769,1,0,0:0:0:0:
256,192,134840,1,8,0:0:0:0:
256,192,134911,1,0,0:0:0:0:
256,192,134981,1,8,0:0:0:0:
256,192,135052,1,8,0:0:0:0:
256,192,135123,1,0,0:0:0:0:
256,192,135194,1,0,0:0:0:0:
256,288,135264,1,12,0:0:0:0:
256,192,136114,1,8,0:0:0:0:
256,192,136184,1,0,0:0:0:0:
256,192,136255,1,0,0:0:0:0:
256,288,136397,1,12,0:0:0:0:
256,192,136680,1,0,0:0:0:0:
256,288,136821,1,12,0:0:0:0:
256,192,137953,1,8,0:0:0:0:
256,288,138095,1,4,0:0:0:0:
256,192,138378,1,8,0:0:0:0:
256,192,138519,1,0,0:0:0:0:
256,288,138661,1,12,0:0:0:0:
256,192,138944,1,8,0:0:0:0:
256,288,139085,1,4,0:0:0:0:
256,192,139368,1,8,0:0:0:0:
256,288,139793,1,4,0:0:0:0:
256,288,140217,1,12,0:0:0:0:
256,288,140925,1,12,0:0:0:0:
256,192,141208,1,0,0:0:0:0:
256,288,141349,1,12,0:0:0:0:
256,192,142481,1,8,0:0:0:0:
256,288,142623,1,4,0:0:0:0:
256,192,142906,1,0,0:0:0:0:
256,192,143047,1,8,0:0:0:0:
256,288,143189,1,12,0:0:0:0:
256,192,143472,1,0,0:0:0:0:
256,192,143614,1,0,0:0:0:0:
256,192,143684,1,8,0:0:0:0:
256,192,143755,1,8,0:0:0:0:
256,192,143897,1,0,0:0:0:0:
256,192,144180,1,0,0:0:0:0:
256,288,144321,1,12,0:0:0:0:
256,192,144463,1,0,0:0:0:0:
256,192,144604,1,8,0:0:0:0:
256,288,144746,1,4,0:0:0:0:
256,192,145170,1,8,0:0:0:0:
256,192,145206,1,8,0:0:0:0:
256,288,145453,1,12,0:0:0:0:
256,192,145595,1,0,0:0:0:0:
256,192,145665,1,0,0:0:0:0:
256,192,145736,1,8,0:0:0:0:
256,192,145878,1,0,0:0:0:0:
256,192,146019,1,8,0:0:0:0:
256,192,146090,1,8,0:0:0:0:
256,192,146161,1,0,0:0:0:0:
256,192,146302,1,8,0:0:0:0:
256,192,146373,1,0,0:0:0:0:
256,192,146444,1,8,0:0:0:0:
256,192,146514,1,8,0:0:0:0:
256,192,146585,1,0,0:0:0:0:
256,192,146656,1,0,0:0:0:0:
256,192,146727,1,8,0:0:0:0:
256,192,146868,1,8,0:0:0:0:
256,192,147010,1,8,0:0:0:0:
256,192,147081,1,8,0:0:0:0:
256,192,147151,1,0,0:0:0:0:
256,192,147293,1,8,0:0:0:0:
256,192,147434,1,0,0:0:0:0:
256,192,147576,1,0,0:0:0:0:
256,192,147647,1,0,0:0:0:0:
256,192,147717,1,8,0:0:0:0:
256,192,147859,1,8,0:0:0:0:
256,192,147930,1,0,0:0:0:0:
256,192,148000,1,8,0:0:0:0:
256,192,148142,1,0,0:0:0:0:
256,192,148213,1,0,0:0:0:0:
256,192,148283,1,8,0:0:0:0:
256,192,148354,1,0,0:0:0:0:
256,192,148425,1,8,0:0:0:0:
256,192,148566,1,8,0:0:0:0:
256,192,148637,1,0,0:0:0:0:
256,192,148708,1,8,0:0:0:0:
256,192,148779,1,8,0:0:0:0:
256,192,148849,1,0,0:0:0:0:
256,192,148944,1,8,0:0:0:0:
256,192,149038,1,8,0:0:0:0:
256,192,149132,1,0,0:0:0:0:
256,192,149227,1,8,0:0:0:0:
256,192,149321,1,0,0:0:0:0:
256,192,149415,1,8,0:0:0:0:
256,192,149510,1,8,0:0:0:0:
256,192,149604,1,0,0:0:0:0:
256,192,149698,1,8,0:0:0:0:
256,192,149793,1,0,0:0:0:0:
256,192,149887,1,0,0:0:0:0:
256,288,149981,1,12,0:0:0:0:
256,192,150194,1,0,0:0:0:0:
256,192,150406,1,0,0:0:0:0:
256,192,150477,1,0,0:0:0:0:
256,288,150547,1,8,0:0:0:0:
256,192,150760,1,0,0:0:0:0:
256,192,150972,1,0,0:0:0:0:
256,192,151043,1,8,0:0:0:0:
256,288,151114,1,8,0:0:0:0:
256,192,151326,1,0,0:0:0:0:
256,192,151538,1,8,0:0:0:0:
256,192,151609,1,0,0:0:0:0:
256,192,151680,1,8,0:0:0:0:
256,192,151892,1,0,0:0:0:0:
256,192,152104,1,8,0:0:0:0:
256,192,152175,1,8,0:0:0:0:
256,192,152246,1,8,0:0:0:0:
256,192,152434,1,8,0:0:0:0:
256,192,152529,1,0,0:0:0:0:
256,192,152623,1,8,0:0:0:0:
256,192,152717,1,0,0:0:0:0:
256,192,152812,1,8,0:0:0:0:
256,192,152906,1,8,0:0:0:0:
256,192,153000,1,0,0:0:0:0:
256,192,153095,1,0,0:0:0:0:
256,192,153189,1,8,0:0:0:0:
256,192,153283,1,0,0:0:0:0:
256,192,153331,1,0,0:0:0:0:
256,192,153378,1,8,0:0:0:0:
256,192,153472,1,0,0:0:0:0:
256,192,153566,1,8,0:0:0:0:
256,192,153661,1,0,0:0:0:0:
256,192,153755,1,8,0:0:0:0:
256,192,153849,1,8,0:0:0:0:
256,192,153944,1,0,0:0:0:0:
256,192,154085,1,8,0:0:0:0:
256,192,154156,1,0,0:0:0:0:
256,192,154227,1,8,0:0:0:0:
256,192,154297,1,8,0:0:0:0:
256,192,154368,1,0,0:0:0:0:
256,192,154439,1,0,0:0:0:0:
256,288,154510,1,12,0:0:0:0:
256,192,154651,1,0,0:0:0:0:
256,192,154722,1,0,0:0:0:0:
256,288,154793,1,12,0:0:0:0:
256,192,154934,1,0,0:0:0:0:
256,192,155076,1,8,0:0:0:0:
256,192,155147,1,0,0:0:0:0:
256,192,155217,1,8,0:0:0:0:
256,192,155264,1,0,0:0:0:0:
256,192,155312,1,0,0:0:0:0:
256,192,155359,1,8,0:0:0:0:
256,192,155430,1,8,0:0:0:0:
256,288,155500,1,4,0:0:0:0:
256,192,155783,1,0,0:0:0:0:
256,192,155854,1,8,0:0:0:0:
256,192,155925,1,0,0:0:0:0:
256,192,155996,1,8,0:0:0:0:
256,192,156066,1,8,0:0:0:0:
256,192,156208,1,0,0:0:0:0:
256,192,156279,1,8,0:0:0:0:
256,192,156349,1,8,0:0:0:0:
256,192,156420,1,0,0:0:0:0:
256,192,156491,1,0,0:0:0:0:
256,192,156562,1,8,0:0:0:0:
256,192,156632,1,0,0:0:0:0:
256,192,156703,1,0,0:0:0:0:
256,288,156774,1,12,0:0:0:0:
256,192,156915,1,0,0:0:0:0:
256,192,156986,1,0,0:0:0:0:
256,192,157057,1,8,0:0:0:0:
256,192,157128,1,0,0:0:0:0:
256,192,157198,1,8,0:0:0:0:
256,192,157340,1,8,0:0:0:0:
256,192,157411,1,8,0:0:0:0:
256,192,157481,1,0,0:0:0:0:
256,192,157552,1,0,0:0:0:0:
256,192,157623,1,8,0:0:0:0:
256,192,157764,1,0,0:0:0:0:
256,192,157835,1,8,0:0:0:0:
256,192,157906,1,8,0:0:0:0:
256,192,158047,1,8,0:0:0:0:
256,192,158189,1,0,0:0:0:0:
256,192,158331,1,8,0:0:0:0:
256,192,158401,1,8,0:0:0:0:
256,192,158472,1,0,0:0:0:0:
256,192,158543,1,8,0:0:0:0:
256,192,158614,1,0,0:0:0:0:
256,192,158684,1,0,0:0:0:0:
256,192,158755,1,8,0:0:0:0:
256,192,158897,1,0,0:0:0:0:
256,192,158967,1,0,0:0:0:0:
256,288,159038,1,12,0:0:0:0:
256,192,159180,1,0,0:0:0:0:
256,192,159250,1,8,0:0:0:0:
256,192,159321,1,8,0:0:0:0:
256,192,159463,1,0,0:0:0:0:
256,192,159604,1,8,0:0:0:0:
256,192,159675,1,0,0:0:0:0:
256,192,159746,1,8,0:0:0:0:
256,192,159816,1,8,0:0:0:0:
256,192,159887,1,0,0:0:0:0:
256,192,159958,1,8,0:0:0:0:
256,192,160029,1,0,0:0:0:0:
256,192,160099,1,0,0:0:0:0:
256,288,160170,1,12,0:0:0:0:
256,192,160312,1,0,0:0:0:0:
256,192,160382,1,0,0:0:0:0:
256,192,160453,1,8,0:0:0:0:
256,192,160595,1,0,0:0:0:0:
256,192,160736,1,8,0:0:0:0:
256,192,160807,1,8,0:0:0:0:
256,192,160878,1,0,0:0:0:0:
256,192,160948,1,0,0:0:0:0:
256,192,161019,1,8,0:0:0:0:
256,192,161090,1,0,0:0:0:0:
256,192,161161,1,8,0:0:0:0:
256,192,161231,1,8,0:0:0:0:
256,288,161302,1,4,0:0:0:0:
256,192,161491,1,0,0:0:0:0:
256,192,161680,1,8,0:0:0:0:
256,288,161868,1,4,0:0:0:0:
256,192,162057,1,8,0:0:0:0:
256,192,162246,1,0,0:0:0:0:
256,192,162434,1,0,0:0:0:0:
256,192,162529,1,8,0:0:0:0:
256,192,162623,1,0,0:0:0:0:
256,192,162717,1,0,0:0:0:0:
256,192,162812,1,8,0:0:0:0:
256,192,162906,1,0,0:0:0:0:
256,192,163000,1,8,0:0:0:0:
256,192,163142,1,0,0:0:0:0:
256,192,163213,1,0,0:0:0:0:
256,192,163283,1,8,0:0:0:0:
256,192,163319,1,8,0:0:0:0:
256,288,163566,1,12,0:0:0:0:
256,192,163708,1,0,0:0:0:0:
256,192,163779,1,0,0:0:0:0:
256,192,163849,1,8,0:0:0:0:
256,192,163991,1,0,0:0:0:0:
256,192,164132,1,8,0:0:0:0:
256,192,164203,1,8,0:0:0:0:
256,192,164274,1,0,0:0:0:0:
256,192,164345,1,0,0:0:0:0:
256,192,164415,1,8,0:0:0:0:
256,192,164557,1,0,0:0:0:0:
256,192,164628,1,0,0:0:0:0:
256,192,164698,1,8,0:0:0:0:
256,192,164840,1,0,0:0:0:0:
256,192,164911,1,8,0:0:0:0:
256,192,164981,1,0,0:0:0:0:
256,192,165123,1,8,0:0:0:0:
256,192,165194,1,0,0:0:0:0:
256,192,165264,1,8,0:0:0:0:
256,192,165335,1,8,0:0:0:0:
256,192,165406,1,0,0:0:0:0:
256,192,165477,1,0,0:0:0:0:
256,192,165547,1,8,0:0:0:0:
256,192,165689,1,0,0:0:0:0:
256,192,165760,1,0,0:0:0:0:
256,288,165831,1,12,0:0:0:0:
256,192,165972,1,8,0:0:0:0:
256,192,166043,1,8,0:0:0:0:
256,192,166114,1,0,0:0:0:0:
256,192,166255,1,8,0:0:0:0:
256,192,166397,1,0,0:0:0:0:
256,192,166467,1,8,0:0:0:0:
256,192,166538,1,0,0:0:0:0:
256,192,166609,1,0,0:0:0:0:
256,192,166680,1,8,0:0:0:0:
256,192,166821,1,0,0:0:0:0:
256,192,166892,1,8,0:0:0:0:
256,192,166963,1,8,0:0:0:0:
256,192,167033,1,0,0:0:0:0:
256,192,167104,1,8,0:0:0:0:
256,192,167175,1,0,0:0:0:0:
256,192,167246,1,8,0:0:0:0:
256,192,167387,1,8,0:0:0:0:
256,192,167458,1,8,0:0:0:0:
256,192,167529,1,0,0:0:0:0:
256,192,167670,1,8,0:0:0:0:
256,192,167717,1,0,0:0:0:0:
256,192,167764,1,0,0:0:0:0:
256,192,167812,1,8,0:0:0:0:
256,192,167882,1,8,0:0:0:0:
256,192,167953,1,0,0:0:0:0:
256,192,168024,1,0,0:0:0:0:
256,288,168095,1,12,0:0:0:0:
256,288,168236,1,12,0:0:0:0:
256,288,168519,1,4,0:0:0:0:
256,288,168802,1,4,0:0:0:0:
256,288,169085,1,4,0:0:0:0:
256,192,169368,1,0,0:0:0:0:
256,192,169439,1,0,0:0:0:0:
256,192,169510,1,8,0:0:0:0:
256,192,169651,1,0,0:0:0:0:
256,192,169793,1,0,0:0:0:0:
256,192,169934,1,8,0:0:0:0:
256,192,170005,1,0,0:0:0:0:
256,192,170076,1,8,0:0:0:0:
256,192,170123,1,8,0:0:0:0:
256,192,170170,1,8,0:0:0:0:
256,192,170217,1,0,0:0:0:0:
256,192,170288,1,0,0:0:0:0:
256,288,170359,1,12,0:0:0:0:
256,288,170571,1,12,0:0:0:0:
256,288,170783,1,4,0:0:0:0:
256,288,170925,1,12,0:0:0:0:
256,288,171137,1,12,0:0:0:0:
256,192,171349,1,4,0:0:0:0:
256,192,171491,1,12,0:0:0:0:
256,192,171703,1,12,0:0:0:0:
256,192,171915,1,0,0:0:0:0:
256,192,171986,1,0,0:0:0:0:
256,192,172057,1,8,0:0:0:0:
256,192,172198,1,0,0:0:0:0:
256,192,172269,1,8,0:0:0:0:
256,192,172411,1,8,0:0:0:0:
256,192,172481,1,0,0:0:0:0:
256,192,172552,1,0,0:0:0:0:
256,192,172623,1,8,0:0:0:0:
256,192,172764,1,8,0:0:0:0:
256,192,172835,1,0,0:0:0:0:
256,192,172977,1,0,0:0:0:0:
256,192,173047,1,8,0:0:0:0:
256,192,173118,1,8,0:0:0:0:
256,192,173189,1,0,0:0:0:0:
256,192,173331,1,8,0:0:0:0:
256,192,173401,1,8,0:0:0:0:
256,192,173472,1,0,0:0:0:0:
256,192,173543,1,0,0:0:0:0:
256,192,173614,1,8,0:0:0:0:
256,192,173755,1,8,0:0:0:0:
256,192,173826,1,8,0:0:0:0:
256,192,173897,1,0,0:0:0:0:
256,192,173967,1,8,0:0:0:0:
256,192,174038,1,0,0:0:0:0:
256,192,174109,1,8,0:0:0:0:
256,192,174180,1,8,0:0:0:0:
256,192,174250,1,0,0:0:0:0:
256,192,174321,1,8,0:0:0:0:
256,192,174604,1,8,0:0:0:0:
256,192,174675,1,0,0:0:0:0:
256,192,174746,1,0,0:0:0:0:
256,288,174887,1,12,0:0:0:0:
256,192,175170,1,0,0:0:0:0:
256,192,175312,1,8,0:0:0:0:
256,192,175453,1,0,0:0:0:0:
256,192,175559,1,8,0:0:0:0:
256,192,175595,1,8,0:0:0:0:
256,192,175665,1,0,0:0:0:0:
256,192,175736,1,8,0:0:0:0:
256,192,175878,1,0,0:0:0:0:
256,192,176019,1,8,0:0:0:0:
256,192,176114,1,8,0:0:0:0:
256,192,176208,1,0,0:0:0:0:
256,192,176302,1,8,0:0:0:0:
256,192,176397,1,0,0:0:0:0:
256,192,176491,1,0,0:0:0:0:
256,192,176585,1,8,0:0:0:0:
256,288,176868,1,4,0:0:0:0:
256,288,177151,1,12,0:0:0:0:
256,192,177434,1,8,0:0:0:0:
256,192,177576,1,0,0:0:0:0:
256,192,177647,1,0,0:0:0:0:
256,192,177717,1,8,0:0:0:0:
256,192,177788,1,0,0:0:0:0:
256,192,177859,1,8,0:0:0:0:
256,192,177930,1,8,0:0:0:0:
256,192,178000,1,0,0:0:0:0:
256,192,178071,1,8,0:0:0:0:
256,192,178142,1,8,0:0:0:0:
256,288,178283,1,4,0:0:0:0:
256,192,178566,1,0,0:0:0:0:
256,192,178849,1,8,0:0:0:0:
256,192,178991,1,8,0:0:0:0:
256,192,179132,1,0,0:0:0:0:
256,192,179274,1,0,0:0:0:0:
256,288,179415,1,12,0:0:0:0:
256,192,179557,1,0,0:0:0:0:
256,192,179698,1,0,0:0:0:0:
256,192,179769,1,0,0:0:0:0:
256,192,179840,1,8,0:0:0:0:
256,192,179911,1,8,0:0:0:0:
256,192,179981,1,0,0:0:0:0:
256,192,180123,1,0,0:0:0:0:
256,192,180264,1,8,0:0:0:0:
256,192,180335,1,8,0:0:0:0:
256,192,180406,1,0,0:0:0:0:
256,192,180477,1,0,0:0:0:0:
256,192,180547,1,8,0:0:0:0:
256,192,180689,1,0,0:0:0:0:
256,192,180831,1,8,0:0:0:0:
256,192,180901,1,8,0:0:0:0:
256,192,180972,1,0,0:0:0:0:
256,192,181043,1,0,0:0:0:0:
256,192,181114,1,0,0:0:0:0:
256,192,181255,1,0,0:0:0:0:
256,192,181397,1,8,0:0:0:0:
256,192,181467,1,0,0:0:0:0:
256,192,181538,1,8,0:0:0:0:
256,288,181680,1,12,0:0:0:0:
256,192,181868,1,8,0:0:0:0:
256,192,182057,1,0,0:0:0:0:
256,288,182246,1,12,0:0:0:0:
256,288,182434,1,0,0:0:0:0:
256,192,182623,1,0,0:0:0:0:
256,288,182812,1,12,0:0:0:0:
256,192,183000,1,0,0:0:0:0:
256,192,183378,1,0,0:0:0:0:
256,192,183519,1,8,0:0:0:0:
256,192,183590,1,0,0:0:0:0:
256,192,183661,1,8,0:0:0:0:
256,192,183731,1,8,0:0:0:0:
256,192,183802,1,0,0:0:0:0:
256,192,183873,1,0,0:0:0:0:
256,288,183944,1,12,0:0:0:0:
256,192,184085,1,0,0:0:0:0:
256,192,184156,1,8,0:0:0:0:
256,192,184297,1,8,0:0:0:0:
256,192,184368,1,0,0:0:0:0:
256,192,184510,1,8,0:0:0:0:
256,192,184581,1,8,0:0:0:0:
256,192,184651,1,0,0:0:0:0:
256,192,184722,1,0,0:0:0:0:
256,192,184793,1,8,0:0:0:0:
256,192,184934,1,0,0:0:0:0:
256,192,185005,1,0,0:0:0:0:
256,192,185076,1,8,0:0:0:0:
256,192,185217,1,0,0:0:0:0:
256,192,185288,1,8,0:0:0:0:
256,192,185430,1,8,0:0:0:0:
256,192,185500,1,0,0:0:0:0:
256,192,185642,1,8,0:0:0:0:
256,192,185713,1,0,0:0:0:0:
256,192,185783,1,0,0:0:0:0:
256,192,185854,1,0,0:0:0:0:
256,192,185925,1,8,0:0:0:0:
256,192,186066,1,0,0:0:0:0:
256,192,186137,1,0,0:0:0:0:
256,192,186208,1,8,0:0:0:0:
256,192,186349,1,0,0:0:0:0:
256,192,186420,1,8,0:0:0:0:
256,192,186562,1,8,0:0:0:0:
256,192,186632,1,0,0:0:0:0:
256,192,186774,1,8,0:0:0:0:
256,192,186845,1,0,0:0:0:0:
256,192,186915,1,8,0:0:0:0:
256,192,186986,1,0,0:0:0:0:
256,192,187057,1,8,0:0:0:0:
256,192,187198,1,0,0:0:0:0:
256,192,187269,1,0,0:0:0:0:
256,288,187340,1,12,0:0:0:0:
256,288,187481,1,12,0:0:0:0:
256,288,187623,1,12,0:0:0:0:
256,192,187764,1,0,0:0:0:0:
256,192,187835,1,0,0:0:0:0:
256,288,187906,1,12,0:0:0:0:
256,192,188047,1,12,0:0:0:0:
256,192,188331,1,0,0:0:0:0:
256,288,188472,1,12,0:0:0:0:
256,192,188614,1,0,0:0:0:0:
256,192,188684,1,0,0:0:0:0:
256,192,188755,1,8,0:0:0:0:
256,192,188897,1,8,0:0:0:0:
256,192,188967,1,0,0:0:0:0:
256,192,189038,1,8,0:0:0:0:
256,192,189109,1,8,0:0:0:0:
256,192,189180,1,0,0:0:0:0:
256,192,189250,1,0,0:0:0:0:
256,192,189321,1,8,0:0:0:0:
256,192,189392,1,8,0:0:0:0:
256,192,189463,1,0,0:0:0:0:
256,192,189533,1,0,0:0:0:0:
256,288,189604,1,12,0:0:0:0:
256,192,189746,1,0,0:0:0:0:
256,192,189816,1,0,0:0:0:0:
256,192,189887,1,8,0:0:0:0:
256,192,190029,1,8,0:0:0:0:
256,192,190100,1,8,0:0:0:0:
256,192,190170,1,0,0:0:0:0:
256,192,190241,1,0,0:0:0:0:
256,192,190312,1,8,0:0:0:0:
256,192,190359,1,8,0:0:0:0:
256,192,190406,1,8,0:0:0:0:
256,192,190453,1,0,0:0:0:0:
256,192,190524,1,8,0:0:0:0:
256,192,190595,1,0,0:0:0:0:
256,192,190665,1,0,0:0:0:0:
256,288,190736,1,12,0:0:0:0:
256,192,190925,1,0,0:0:0:0:
256,192,191114,1,8,0:0:0:0:
256,288,191302,1,4,0:0:0:0:
256,192,191491,1,8,0:0:0:0:
256,192,191680,1,0,0:0:0:0:
256,192,191868,1,8,0:0:0:0:
256,192,191963,1,0,0:0:0:0:
256,192,192057,1,0,0:0:0:0:
256,192,192151,1,8,0:0:0:0:
256,192,192246,1,0,0:0:0:0:
256,192,192340,1,8,0:0:0:0:
256,192,192434,1,8,0:0:0:0:
256,192,192717,1,8,0:0:0:0:
256,192,192753,1,8,0:0:0:0:
256,288,193000,1,12,0:0:0:0:
256,192,193142,1,0,0:0:0:0:
256,192,193213,1,8,0:0:0:0:
256,192,193283,1,8,0:0:0:0:
256,192,193425,1,0,0:0:0:0:
256,192,193566,1,8,0:0:0:0:
256,192,193637,1,0,0:0:0:0:
256,192,193708,1,8,0:0:0:0:
256,192,193779,1,8,0:0:0:0:
256,192,193849,1,0,0:0:0:0:
256,192,193991,1,0,0:0:0:0:
256,192,194062,1,0,0:0:0:0:
256,192,194132,1,8,0:0:0:0:
256,192,194274,1,0,0:0:0:0:
256,192,194345,1,8,0:0:0:0:
256,192,194486,1,8,0:0:0:0:
256,192,194557,1,0,0:0:0:0:
256,192,194698,1,0,0:0:0:0:
256,192,194769,1,8,0:0:0:0:
256,192,194840,1,0,0:0:0:0:
256,192,194911,1,0,0:0:0:0:
256,192,194981,1,8,0:0:0:0:
256,192,195052,1,8,0:0:0:0:
256,192,195123,1,0,0:0:0:0:
256,192,195194,1,0,0:0:0:0:
256,288,195264,1,12,0:0:0:0:
256,288,195406,1,12,0:0:0:0:
256,192,195547,1,0,0:0:0:0:
256,192,195618,1,0,0:0:0:0:
256,192,195689,1,8,0:0:0:0:
256,288,195831,1,4,0:0:0:0:
256,288,195972,1,4,0:0:0:0:
256,192,196114,1,8,0:0:0:0:
256,192,196184,1,8,0:0:0:0:
256,192,196255,1,0,0:0:0:0:
256,288,196397,1,12,0:0:0:0:
256,288,196538,1,12,0:0:0:0:
256,192,196680,1,0,0:0:0:0:
256,192,196750,1,0,0:0:0:0:
256,192,196821,1,8,0:0:0:0:
256,288,196963,1,4,0:0:0:0:
256,288,197104,1,4,0:0:0:0:
256,192,197246,1,8,0:0:0:0:
256,192,197293,1,8,0:0:0:0:
256,192,197340,1,8,0:0:0:0:
256,192,197387,1,0,0:0:0:0:
256,192,197458,1,0,0:0:0:0:
256,288,197529,1,12,0:0:0:0:
256,288,197670,1,12,0:0:0:0:
256,288,197953,1,4,0:0:0:0:
256,288,198236,1,4,0:0:0:0:
256,288,198519,1,4,0:0:0:0:
256,192,198802,1,0,0:0:0:0:
256,192,198873,1,0,0:0:0:0:
256,288,198944,1,12,0:0:0:0:
256,288,199085,1,12,0:0:0:0:
256,288,199227,1,12,0:0:0:0:
256,192,199368,1,0,0:0:0:0:
256,192,199439,1,0,0:0:0:0:
256,192,199510,1,12,0:0:0:0:
256,192,199651,1,8,0:0:0:0:
256,192,199698,1,0,0:0:0:0:
256,192,199746,1,0,0:0:0:0:
256,192,199793,1,8,0:0:0:0:
256,192,199934,1,0,0:0:0:0:
256,192,200217,1,0,0:0:0:0:
256,192,200500,1,0,0:0:0:0:
256,192,200783,1,8,0:0:0:0:
256,192,201066,1,0,0:0:0:0:
256,192,201208,1,8,0:0:0:0:
256,192,201349,1,8,0:0:0:0:
256,192,201491,1,0,0:0:0:0:
256,288,201774,1,4,0:0:0:0:
256,288,202057,1,12,0:0:0:0:
256,192,202198,1,8,0:0:0:0:
256,192,202481,1,8,0:0:0:0:
256,192,202764,1,8,0:0:0:0:
256,192,203047,1,8,0:0:0:0:
256,192,203330,1,8,0:0:0:0:
256,192,203472,1,0,0:0:0:0:
256,192,203613,1,0,0:0:0:0:
256,192,203755,1,8,0:0:0:0:
256,192,203897,1,0,0:0:0:0:
256,192,203967,1,0,0:0:0:0:
256,192,204038,1,8,0:0:0:0:
256,192,204109,1,8,0:0:0:0:
256,192,204180,1,0,0:0:0:0:
256,192,204250,1,0,0:0:0:0:
256,288,204321,1,12,0:0:0:0:
256,288,204533,1,12,0:0:0:0:
256,288,204746,1,4,0:0:0:0:
256,288,204887,1,12,0:0:0:0:
256,288,205099,1,12,0:0:0:0:
256,192,205312,1,0,0:0:0:0:
256,192,205382,1,0,0:0:0:0:
256,192,205453,1,8,0:0:0:0:
256,192,205595,1,0,0:0:0:0:
256,192,205665,1,8,0:0:0:0:
256,192,205807,1,8,0:0:0:0:
256,192,205878,1,0,0:0:0:0:
256,192,205948,1,0,0:0:0:0:
256,192,206019,1,8,0:0:0:0:
256,192,206302,1,0,0:0:0:0:
256,192,206373,1,0,0:0:0:0:
256,192,206444,1,8,0:0:0:0:
256,192,206514,1,0,0:0:0:0:
256,192,206585,1,8,0:0:0:0:
256,192,206632,1,8,0:0:0:0:
256,192,206680,1,8,0:0:0:0:
256,192,206727,1,0,0:0:0:0:
256,192,206797,1,0,0:0:0:0:
256,288,206868,1,12,0:0:0:0:
256,192,207010,1,0,0:0:0:0:
256,192,207293,1,0,0:0:0:0:
256,192,207364,1,0,0:0:0:0:
256,192,207434,1,8,0:0:0:0:
256,192,207576,1,0,0:0:0:0:
256,192,207717,1,8,0:0:0:0:
256,192,207788,1,0,0:0:0:0:
256,192,207859,1,8,0:0:0:0:
256,192,207930,1,8,0:0:0:0:
256,192,208000,1,0,0:0:0:0:
256,192,208142,1,0,0:0:0:0:
256,192,208425,1,0,0:0:0:0:
256,192,208566,1,8,0:0:0:0:
256,192,208637,1,8,0:0:0:0:
256,192,208708,1,0,0:0:0:0:
256,192,208779,1,0,0:0:0:0:
256,192,208849,1,8,0:0:0:0:
256,192,208991,1,0,0:0:0:0:
256,192,209062,1,8,0:0:0:0:
256,192,209132,1,0,0:0:0:0:
256,192,209274,1,0,0:0:0:0:
256,192,209557,1,0,0:0:0:0:
256,192,209698,1,8,0:0:0:0:
256,192,209769,1,8,0:0:0:0:
256,192,209840,1,0,0:0:0:0:
256,192,209981,1,8,0:0:0:0:
256,192,210052,1,8,0:0:0:0:
256,192,210123,1,0,0:0:0:0:
256,192,210194,1,0,0:0:0:0:
256,192,210264,1,8,0:0:0:0:
256,192,210335,1,0,0:0:0:0:
256,192,210406,1,8,0:0:0:0:
256,192,210547,1,0,0:0:0:0:
256,192,210618,1,8,0:0:0:0:
256,192,210689,1,0,0:0:0:0:
256,192,210831,1,8,0:0:0:0:
256,192,210878,1,8,0:0:0:0:
256,192,210925,1,8,0:0:0:0:
256,192,210972,1,0,0:0:0:0:
256,192,211043,1,0,0:0:0:0:
256,288,211114,1,12,0:0:0:0:
256,192,211255,1,0,0:0:0:0:
256,192,211326,1,8,0:0:0:0:
256,192,211397,1,8,0:0:0:0:
256,192,211538,1,0,0:0:0:0:
256,192,211680,1,8,0:0:0:0:
256,192,211750,1,0,0:0:0:0:
256,192,211821,1,0,0:0:0:0:
256,192,211868,1,8,0:0:0:0:
256,192,211915,1,8,0:0:0:0:
256,192,211963,1,0,0:0:0:0:
256,192,212104,1,0,0:0:0:0:
256,192,212175,1,0,0:0:0:0:
256,288,212246,1,12,0:0:0:0:
256,192,212387,1,0,0:0:0:0:
256,192,212458,1,8,0:0:0:0:
256,192,212529,1,8,0:0:0:0:
256,192,212670,1,0,0:0:0:0:
256,192,212953,1,0,0:0:0:0:
256,192,213095,1,8,0:0:0:0:
256,192,213165,1,8,0:0:0:0:
256,192,213236,1,0,0:0:0:0:
256,192,213307,1,0,0:0:0:0:
256,192,213378,1,8,0:0:0:0:
256,192,213519,1,0,0:0:0:0:
256,192,213590,1,0,0:0:0:0:
256,192,213661,1,8,0:0:0:0:
256,192,213802,1,0,0:0:0:0:
256,192,213944,1,0,0:0:0:0:
256,192,214085,1,8,0:0:0:0:
256,192,214156,1,8,0:0:0:0:
256,192,214227,1,0,0:0:0:0:
256,192,214297,1,0,0:0:0:0:
256,192,214368,1,8,0:0:0:0:
256,192,214439,1,0,0:0:0:0:
256,288,214510,1,12,0:0:0:0:
256,288,214698,1,12,0:0:0:0:
256,288,214887,1,4,0:0:0:0:
256,288,215076,1,12,0:0:0:0:
256,288,215264,1,4,0:0:0:0:
256,288,215453,1,12,0:0:0:0:
256,288,215642,1,12,0:0:0:0:
256,288,215925,1,12,0:0:0:0:
256,192,216066,1,0,0:0:0:0:
256,192,216137,1,0,0:0:0:0:
256,192,216208,1,8,0:0:0:0:
256,192,216279,1,8,0:0:0:0:
256,192,216349,1,0,0:0:0:0:
256,192,216420,1,8,0:0:0:0:
256,192,216562,1,8,0:0:0:0:
256,192,216632,1,0,0:0:0:0:
256,192,216703,1,0,0:0:0:0:
256,192,216774,1,8,0:0:0:0:
256,192,216845,1,0,0:0:0:0:
256,192,216915,1,8,0:0:0:0:
256,192,217057,1,8,0:0:0:0:
256,192,217128,1,8,0:0:0:0:
256,192,217198,1,0,0:0:0:0:
256,192,217269,1,0,0:0:0:0:
256,192,217340,1,8,0:0:0:0:
256,192,217481,1,0,0:0:0:0:
256,192,217529,1,0,0:0:0:0:
256,192,217576,1,8,0:0:0:0:
256,192,217623,1,8,0:0:0:0:
256,192,217764,1,0,0:0:0:0:
256,192,217835,1,0,0:0:0:0:
256,288,217906,1,12,0:0:0:0:
256,192,218047,1,0,0:0:0:0:
256,192,218189,1,8,0:0:0:0:
256,192,218331,1,8,0:0:0:0:
256,192,218401,1,8,0:0:0:0:
256,192,218472,1,0,0:0:0:0:
256,192,218614,1,0,0:0:0:0:
256,192,218755,1,8,0:0:0:0:
256,192,218826,1,0,0:0:0:0:
256,192,218897,1,8,0:0:0:0:
256,288,219038,1,12,0:0:0:0:
256,192,219180,1,0,0:0:0:0:
256,192,219250,1,0,0:0:0:0:
256,288,219321,1,12,0:0:0:0:
256,192,219463,1,0,0:0:0:0:
256,192,219604,1,8,0:0:0:0:
256,192,219651,1,8,0:0:0:0:
256,192,219698,1,8,0:0:0:0:
256,192,219746,1,0,0:0:0:0:
256,192,219816,1,0,0:0:0:0:
256,288,219887,1,12,0:0:0:0:
256,192,220029,1,0,0:0:0:0:
256,192,220170,1,8,0:0:0:0:
256,192,220241,1,8,0:0:0:0:
256,192,220312,1,0,0:0:0:0:
256,192,220382,1,0,0:0:0:0:
256,192,220453,1,8,0:0:0:0:
256,192,220524,1,0,0:0:0:0:
256,192,220595,1,8,0:0:0:0:
256,192,220665,1,0,0:0:0:0:
256,192,220736,1,8,0:0:0:0:
256,192,220807,1,8,0:0:0:0:
256,192,220878,1,0,0:0:0:0:
256,192,220948,1,8,0:0:0:0:
256,192,221019,1,8,0:0:0:0:
256,192,221090,1,0,0:0:0:0:
256,192,221161,1,0,0:0:0:0:
256,192,221231,1,0,0:0:0:0:
256,192,221302,1,8,0:0:0:0:
256,192,221373,1,8,0:0:0:0:
256,192,221444,1,0,0:0:0:0:
256,192,221514,1,0,0:0:0:0:
256,192,221585,1,8,0:0:0:0:
256,192,221656,1,8,0:0:0:0:
256,192,221727,1,8,0:0:0:0:
256,192,221797,1,0,0:0:0:0:
256,192,221868,1,8,0:0:0:0:
256,192,222010,1,8,0:0:0:0:
256,192,222057,1,0,0:0:0:0:
256,192,222104,1,0,0:0:0:0:
256,192,222151,1,8,0:0:0:0:
256,192,222293,1,0,0:0:0:0:
256,192,222364,1,0,0:0:0:0:
256,288,222434,1,12,0:0:0:0:
256,192,222576,1,8,0:0:0:0:
256,192,222647,1,0,0:0:0:0:
256,192,222717,1,8,0:0:0:0:
256,192,222859,1,0,0:0:0:0:
256,192,222930,1,8,0:0:0:0:
256,192,223000,1,8,0:0:0:0:
256,192,223071,1,0,0:0:0:0:
256,192,223142,1,8,0:0:0:0:
256,192,223189,1,0,0:0:0:0:
256,192,223236,1,0,0:0:0:0:
256,192,223283,1,8,0:0:0:0:
256,192,223425,1,0,0:0:0:0:
256,192,223496,1,0,0:0:0:0:
256,288,223566,1,12,0:0:0:0:
256,192,223708,1,0,0:0:0:0:
256,192,223779,1,0,0:0:0:0:
256,192,223849,1,8,0:0:0:0:
256,192,223920,1,8,0:0:0:0:
256,192,223991,1,0,0:0:0:0:
256,192,224062,1,0,0:0:0:0:
256,288,224132,1,12,0:0:0:0:
256,192,224274,1,0,0:0:0:0:
256,192,224345,1,8,0:0:0:0:
256,192,224415,1,8,0:0:0:0:
256,192,224486,1,0,0:0:0:0:
256,192,224557,1,8,0:0:0:0:
256,192,224628,1,0,0:0:0:0:
256,288,224698,1,12,0:0:0:0:
256,192,224840,1,0,0:0:0:0:
256,192,224911,1,0,0:0:0:0:
256,192,224981,1,8,0:0:0:0:
256,192,225123,1,0,0:0:0:0:
256,192,225264,1,8,0:0:0:0:
256,192,225335,1,0,0:0:0:0:
256,192,225477,1,0,0:0:0:0:
256,192,225547,1,8,0:0:0:0:
256,192,225618,1,8,0:0:0:0:
256,192,225689,1,0,0:0:0:0:
256,192,225831,1,8,0:0:0:0:
256,192,225901,1,0,0:0:0:0:
256,192,225972,1,8,0:0:0:0:
256,192,226043,1,8,0:0:0:0:
256,192,226114,1,0,0:0:0:0:
256,192,226184,1,8,0:0:0:0:
256,192,226255,1,0,0:0:0:0:
256,192,226326,1,0,0:0:0:0:
256,192,226397,1,8,0:0:0:0:
256,192,226538,1,0,0:0:0:0:
256,192,226585,1,0,0:0:0:0:
256,192,226632,1,8,0:0:0:0:
256,192,226680,1,8,0:0:0:0:
256,192,226821,1,0,0:0:0:0:
256,192,226892,1,0,0:0:0:0:
256,288,226963,1,12,0:0:0:0:
256,192,227104,1,8,0:0:0:0:
256,192,227175,1,0,0:0:0:0:
256,192,227246,1,8,0:0:0:0:
256,192,227316,1,8,0:0:0:0:
256,192,227387,1,0,0:0:0:0:
256,192,227458,1,0,0:0:0:0:
256,192,227529,1,8,0:0:0:0:
256,192,227599,1,0,0:0:0:0:
256,192,227670,1,8,0:0:0:0:
256,192,227741,1,0,0:0:0:0:
256,192,227812,1,8,0:0:0:0:
256,192,227953,1,0,0:0:0:0:
256,192,228024,1,0,0:0:0:0:
256,288,228095,1,12,0:0:0:0:
256,192,228236,1,0,0:0:0:0:
256,192,228307,1,0,0:0:0:0:
256,288,228378,1,12,0:0:0:0:
256,192,228519,1,8,0:0:0:0:
256,192,228590,1,0,0:0:0:0:
256,192,228661,1,8,0:0:0:0:
256,192,228708,1,8,0:0:0:0:
256,192,228755,1,8,0:0:0:0:
256,192,228802,1,0,0:0:0:0:
256,192,228873,1,0,0:0:0:0:
256,192,228944,1,8,0:0:0:0:
256,192,229085,1,0,0:0:0:0:
256,192,229156,1,0,0:0:0:0:
256,288,229227,1,12,0:0:0:0:
256,192,229368,1,8,0:0:0:0:
256,192,229439,1,0,0:0:0:0:
256,192,229510,1,8,0:0:0:0:
256,192,229581,1,8,0:0:0:0:
256,192,229651,1,0,0:0:0:0:
256,192,229722,1,0,0:0:0:0:
256,192,229793,1,8,0:0:0:0:
256,192,229864,1,0,0:0:0:0:
256,192,229934,1,0,0:0:0:0:
256,192,230005,1,8,0:0:0:0:
256,192,230147,1,8,0:0:0:0:
256,192,230217,1,0,0:0:0:0:
256,192,230359,1,0,0:0:0:0:
256,192,230430,1,8,0:0:0:0:
256,192,230500,1,0,0:0:0:0:
256,192,230642,1,8,0:0:0:0:
256,192,230713,1,8,0:0:0:0:
256,192,230783,1,0,0:0:0:0:
256,192,230854,1,0,0:0:0:0:
256,192,230925,1,8,0:0:0:0:
256,192,231066,1,0,0:0:0:0:
256,192,231114,1,0,0:0:0:0:
256,192,231161,1,8,0:0:0:0:
256,192,231208,1,8,0:0:0:0:
256,192,231349,1,0,0:0:0:0:
256,192,231420,1,0,0:0:0:0:
256,288,231491,1,12,0:0:0:0:
256,192,231632,1,0,0:0:0:0:
256,192,231703,1,8,0:0:0:0:
256,192,231774,1,8,0:0:0:0:
256,192,231915,1,8,0:0:0:0:
256,192,231986,1,0,0:0:0:0:
256,192,232057,1,8,0:0:0:0:
256,192,232128,1,8,0:0:0:0:
256,192,232198,1,0,0:0:0:0:
256,192,232269,1,0,0:0:0:0:
256,192,232340,1,8,0:0:0:0:
256,192,232411,1,0,0:0:0:0:
256,192,232481,1,8,0:0:0:0:
256,192,232552,1,8,0:0:0:0:
256,192,232623,1,0,0:0:0:0:
256,192,232694,1,0,0:0:0:0:
256,192,232764,1,8,0:0:0:0:
256,192,232835,1,0,0:0:0:0:
256,192,232906,1,8,0:0:0:0:
256,192,232977,1,8,0:0:0:0:
256,192,233047,1,0,0:0:0:0:
256,192,233118,1,0,0:0:0:0:
256,192,233189,1,8,0:0:0:0:
256,192,233283,1,0,0:0:0:0:
256,192,233378,1,0,0:0:0:0:
256,192,233472,1,8,0:0:0:0:
256,192,233566,1,8,0:0:0:0:
256,192,233661,1,0,0:0:0:0:
256,288,233755,1,12,0:0:0:0:
256,192,234038,1,0,0:0:0:0:
256,192,234180,1,8,0:0:0:0:
256,192,234215,1,8,0:0:0:0:
256,192,234321,1,0,0:0:0:0:
256,192,234463,1,8,0:0:0:0:
256,192,234533,1,8,0:0:0:0:
256,192,234604,1,0,0:0:0:0:
256,192,234746,1,8,0:0:0:0:
256,192,234887,1,8,0:0:0:0:
256,192,234981,1,8,0:0:0:0:
256,192,235076,1,0,0:0:0:0:
256,192,235170,1,8,0:0:0:0:
256,192,235264,1,8,0:0:0:0:
256,192,235359,1,0,0:0:0:0:
256,192,235453,1,8,0:0:0:0:
256,192,235547,1,0,0:0:0:0:
256,192,235642,1,0,0:0:0:0:
256,192,235736,1,8,0:0:0:0:
256,192,235831,1,0,0:0:0:0:
256,192,235925,1,8,0:0:0:0:
256,192,236019,1,0,0:0:0:0:
256,192,236090,1,0,0:0:0:0:
256,192,236161,1,8,0:0:0:0:
256,192,236231,1,8,0:0:0:0:
256,192,236302,1,0,0:0:0:0:
256,192,236373,1,0,0:0:0:0:
256,192,236444,1,8,0:0:0:0:
256,192,236514,1,0,0:0:0:0:
256,192,236585,1,0,0:0:0:0:
256,192,236656,1,0,0:0:0:0:
256,192,236727,1,8,0:0:0:0:
256,192,236797,1,0,0:0:0:0:
256,192,236868,1,8,0:0:0:0:
256,192,236939,1,0,0:0:0:0:
256,192,237010,1,8,0:0:0:0:
256,192,237081,1,8,0:0:0:0:
256,192,237151,1,0,0:0:0:0:
256,192,237293,1,0,0:0:0:0:
256,192,237434,1,8,0:0:0:0:
256,192,237505,1,8,0:0:0:0:
256,192,237576,1,0,0:0:0:0:
256,288,237717,1,12,0:0:0:0:
256,192,237859,12,0,239557,0:0:0:0:
256,192,239981,5,8,0:0:0:0:
256,192,240052,1,0,0:0:0:0:
256,192,240123,1,8,0:0:0:0:
256,192,240194,1,8,0:0:0:0:
256,192,240264,1,0,0:0:0:0:
256,192,240335,1,8,0:0:0:0:
256,192,240406,1,0,0:0:0:0:
256,192,240477,1,0,0:0:0:0:
256,288,240547,1,12,0:0:0:0:
256,192,240689,1,0,0:0:0:0:
256,192,240831,1,8,0:0:0:0:
256,192,240972,1,0,0:0:0:0:
256,192,241114,1,0,0:0:0:0:
256,192,241255,1,8,0:0:0:0:
256,192,241397,1,8,0:0:0:0:
256,192,241538,1,0,0:0:0:0:
256,192,241821,1,8,0:0:0:0:
256,192,242670,1,8,0:0:0:0:
256,192,242741,1,8,0:0:0:0:
256,192,242812,1,0,0:0:0:0:
256,192,242953,1,0,0:0:0:0:
256,192,243095,1,8,0:0:0:0:
256,192,243236,1,0,0:0:0:0:
256,192,243378,1,0,0:0:0:0:
256,192,243519,1,8,0:0:0:0:
256,192,243661,1,8,0:0:0:0:
256,192,243802,1,0,0:0:0:0:
256,192,244085,1,8,0:0:0:0:
256,192,244368,1,0,0:0:0:0:
256,192,244510,1,0,0:0:0:0:
256,192,244793,1,0,0:0:0:0:
256,192,245076,1,0,0:0:0:0:
256,192,245217,1,8,0:0:0:0:
256,192,245359,1,0,0:0:0:0:
256,192,245500,1,8,0:0:0:0:
256,192,245642,1,0,0:0:0:0:
256,192,245783,1,8,0:0:0:0:
256,192,245925,1,8,0:0:0:0:
256,192,246066,1,0,0:0:0:0:
256,192,246349,1,8,0:0:0:0:
256,192,247198,1,0,0:0:0:0:
256,192,247269,1,0,0:0:0:0:
256,192,247340,1,8,0:0:0:0:
256,192,247481,1,0,0:0:0:0:
256,192,247623,1,8,0:0:0:0:
256,192,247764,1,0,0:0:0:0:
256,192,247906,1,0,0:0:0:0:
256,192,248047,1,8,0:0:0:0:
256,192,248189,1,8,0:0:0:0:
256,192,248331,1,0,0:0:0:0:
256,192,248614,1,8,0:0:0:0:
