osu file format v14

[General]
AudioFilename: audio.mp3
AudioLeadIn: 0
PreviewTime: 34826
Countdown: 0
SampleSet: Soft
StackLeniency: 0.7
Mode: 3
LetterboxInBreaks: 0
SpecialStyle: 0
WidescreenStoryboard: 0

[Editor]
DistanceSpacing: 1.4
BeatDivisor: 4
GridSize: 16
TimelineZoom: 1.6

[Metadata]
Title:Re:End of a Dream
TitleUnicode:Re:End of a Dream
Artist:uma vs. Morimori Atsushi
ArtistUnicode:uma vs. モリモリあつし
Creator:Critical_Star
Version:Normal
Source:BMS
Tags:masiro vs. adaptor SUPERALLOYS チームメンバーリンク Pieces sequel BOFU2016 - Legendary Again - OF FIGHTERS ULTIMATE HARD RENAISSANCE Kuo Kyoka
BeatmapID:1130002
BeatmapSetID:531425

[Difficulty]
HPDrainRate:7
CircleSize:4
OverallDifficulty:7
ApproachRate:5
SliderMultiplier:1.4
SliderTickRate:1

[Events]
//Background and Video events
Video,-10,"ReEnd of a Dream.avi"
0,0,"Meowpaz.jpg",0,0
//Break Periods
//Storyboard Layer 0 (Background)
//Storyboard Layer 1 (Fail)
//Storyboard Layer 2 (Pass)
//Storyboard Layer 3 (Foreground)
//Storyboard Sound Samples

[TimingPoints]
440,283.018867924528,4,2,1,40,1,0
18836,-100,4,2,1,40,0,1
26477,-100,4,2,1,40,0,0
36949,-100,4,2,1,40,0,1
45723,-100,4,2,1,40,0,0
66100,-100,4,2,1,40,0,1
70628,-100,4,2,1,40,0,0
72892,-100,4,2,1,40,0,1
81949,-100,4,2,1,40,0,0
95534,-100,4,2,1,40,0,1
106855,-100,4,2,1,40,0,0
113930,-100,4,2,1,40,0,1
122704,-100,4,2,1,40,0,0
122987,-100,4,2,1,40,0,1
127232,-100,4,2,1,40,0,0

[HitObjects]
64,192,440,5,0,0:0:0:0:
192,192,581,1,0,0:0:0:0:
448,192,723,1,0,0:0:0:0:
320,192,864,1,0,0:0:0:0:
64,192,1006,1,0,0:0:0:0:
192,192,1147,1,0,0:0:0:0:
320,192,1289,1,0,0:0:0:0:
448,192,1430,1,0,0:0:0:0:
64,192,1713,1,0,0:0:0:0:
448,192,2704,1,0,0:0:0:0:
320,192,2845,1,0,0:0:0:0:
64,192,2987,1,0,0:0:0:0:
192,192,3128,1,0,0:0:0:0:
448,192,3270,1,0,0:0:0:0:
320,192,3411,1,0,0:0:0:0:
192,192,3553,1,0,0:0:0:0:
64,192,3694,1,0,0:0:0:0:
448,192,3977,1,0,0:0:0:0:
64,192,4968,1,0,0:0:0:0:
448,192,5109,1,0,0:0:0:0:
192,192,5251,1,0,0:0:0:0:
320,192,5392,1,0,0:0:0:0:
64,192,5534,1,0,0:0:0:0:
192,192,5675,1,0,0:0:0:0:
448,192,5817,1,0,0:0:0:0:
320,192,5958,1,0,0:0:0:0:
64,192,6241,1,0,0:0:0:0:
448,192,7232,1,0,0:0:0:0:
64,192,7373,1,0,0:0:0:0:
320,192,7515,1,0,0:0:0:0:
192,192,7656,1,0,0:0:0:0:
448,192,7798,1,0,0:0:0:0:
320,192,7939,1,0,0:0:0:0:
64,192,8081,1,0,0:0:0:0:
192,192,8223,1,0,0:0:0:0:
448,192,8506,1,0,0:0:0:0:
64,192,8930,128,0,9496:0:0:0:0:
192,192,9213,128,0,9496:0:0:0:0:
448,192,9496,1,6,0:0:0:0:
320,192,9638,1,0,0:0:0:0:
192,192,9779,1,0,0:0:0:0:
448,192,9921,128,0,10204:0:0:0:0:
320,192,10204,1,0,0:0:0:0:
448,192,10345,1,0,0:0:0:0:
192,192,10487,1,0,0:0:0:0:
320,192,10628,1,0,0:0:0:0:
64,192,10770,1,0,0:0:0:0:
192,192,10911,1,0,0:0:0:0:
320,192,11053,128,0,11336:0:0:0:0:
448,192,11336,1,0,0:0:0:0:
320,192,11477,1,0,0:0:0:0:
192,192,11619,1,0,0:0:0:0:
64,192,11760,1,0,0:0:0:0:
320,192,11902,1,0,0:0:0:0:
448,192,12043,1,0,0:0:0:0:
64,192,12185,128,0,12468:0:0:0:0:
192,192,12468,1,0,0:0:0:0:
64,192,12609,1,0,0:0:0:0:
320,192,12751,1,0,0:0:0:0:
192,192,12892,1,0,0:0:0:0:
448,192,13034,1,0,0:0:0:0:
320,192,13175,1,0,0:0:0:0:
192,192,13317,128,0,13600:0:0:0:0:
64,192,13600,1,0,0:0:0:0:
192,192,13741,1,0,0:0:0:0:
320,192,13883,1,0,0:0:0:0:
448,192,14024,1,8,0:0:0:0:
448,192,14307,1,8,0:0:0:0:
448,192,14590,1,8,0:0:0:0:
448,192,14873,1,8,0:0:0:0:
64,192,15156,1,8,0:0:0:0:
64,192,15439,1,8,0:0:0:0:
64,192,15723,1,8,0:0:0:0:
64,192,16006,1,8,0:0:0:0:
320,192,16289,1,8,0:0:0:0:
320,192,16430,1,8,0:0:0:0:
192,192,16572,1,8,0:0:0:0:
192,192,16713,1,8,0:0:0:0:
448,192,16855,128,8,17421:0:0:0:0:
64,192,17421,1,6,0:0:0:0:
320,192,17609,1,6,0:0:0:0:
192,192,17798,1,6,0:0:0:0:
448,192,17987,1,6,0:0:0:0:
320,192,18175,1,6,0:0:0:0:
64,192,18364,1,6,0:0:0:0:
448,192,18553,128,2,18836:0:0:0:0:
192,192,18836,1,8,0:0:0:0:
64,192,18836,1,4,0:0:0:0:
64,192,19260,1,2,0:0:0:0:
320,192,19402,1,8,0:0:0:0:
448,192,19402,1,0,0:0:0:0:
192,192,19685,1,2,0:0:0:0:
64,192,19968,1,8,0:0:0:0:
448,192,19968,1,0,0:0:0:0:
320,192,20109,1,2,0:0:0:0:
320,192,20392,1,2,0:0:0:0:
192,192,20534,1,8,0:0:0:0:
64,192,20534,1,0,0:0:0:0:
448,192,20817,1,2,0:0:0:0:
320,192,21100,1,8,0:0:0:0:
192,192,21100,1,0,0:0:0:0:
64,192,21524,1,2,0:0:0:0:
320,192,21666,1,8,0:0:0:0:
448,192,21666,1,0,0:0:0:0:
192,192,21949,1,2,0:0:0:0:
64,192,22232,1,8,0:0:0:0:
448,192,22232,1,0,0:0:0:0:
192,192,22373,1,2,0:0:0:0:
192,192,22656,1,2,0:0:0:0:
320,192,22798,1,8,0:0:0:0:
448,192,22798,1,0,0:0:0:0:
64,192,23081,1,2,0:0:0:0:
192,192,23081,1,4,0:0:0:0:
320,192,23364,1,8,0:0:0:0:
448,192,23364,1,0,0:0:0:0:
192,192,23789,1,2,0:0:0:0:
64,192,23930,1,8,0:0:0:0:
448,192,23930,1,0,0:0:0:0:
320,192,24213,1,2,0:0:0:0:
448,192,24213,1,4,0:0:0:0:
64,192,24496,1,8,0:0:0:0:
192,192,24496,1,0,0:0:0:0:
448,192,24638,1,2,0:0:0:0:
448,192,24921,1,2,0:0:0:0:
192,192,25062,1,8,0:0:0:0:
64,192,25062,1,0,0:0:0:0:
448,192,25345,128,10,26194:0:0:0:0:
320,192,25345,1,0,0:0:0:0:
64,192,25628,1,10,0:0:0:0:
320,192,25770,1,12,0:0:0:0:
64,192,25911,1,12,0:0:0:0:
192,192,26194,1,2,0:0:0:0:
320,192,26336,1,2,0:0:0:0:
64,192,26477,1,6,0:0:0:0:
448,192,26619,1,0,0:0:0:0:
320,192,26760,1,0,0:0:0:0:
192,192,26902,1,0,0:0:0:0:
448,192,27043,1,0,0:0:0:0:
192,192,27326,1,0,0:0:0:0:
320,192,27468,1,0,0:0:0:0:
448,192,27609,1,2,0:0:0:0:
64,192,27609,1,0,0:0:0:0:
64,192,28034,1,0,0:0:0:0:
192,192,28741,1,0,0:0:0:0:
192,192,29166,1,0,0:0:0:0:
320,192,29873,1,0,0:0:0:0:
320,192,30298,1,0,0:0:0:0:
448,192,31006,1,0,0:0:0:0:
448,192,31430,1,0,0:0:0:0:
320,192,32138,1,0,0:0:0:0:
320,192,32562,1,0,0:0:0:0:
192,192,33270,1,0,0:0:0:0:
192,192,33694,1,0,0:0:0:0:
64,192,34402,128,0,34968:0:0:0:0:
448,192,34968,128,0,35534:0:0:0:0:
192,192,35534,128,2,35817:0:0:0:0:
448,192,35817,1,6,0:0:0:0:
320,192,36100,1,6,0:0:0:0:
192,192,36383,1,6,0:0:0:0:
64,192,36666,1,6,0:0:0:0:
448,192,36949,1,6,0:0:0:0:
320,192,37090,1,0,0:0:0:0:
64,192,37232,1,2,0:0:0:0:
448,192,37373,1,0,0:0:0:0:
192,192,37515,1,8,0:0:0:0:
64,192,37656,1,0,0:0:0:0:
448,192,37798,1,2,0:0:0:0:
192,192,37939,1,0,0:0:0:0:
320,192,38081,1,8,0:0:0:0:
448,192,38223,1,0,0:0:0:0:
64,192,38364,1,2,0:0:0:0:
192,192,38506,1,0,0:0:0:0:
448,192,38647,1,8,0:0:0:0:
192,192,38789,1,0,0:0:0:0:
64,192,38930,1,6,0:0:0:0:
320,192,39072,1,0,0:0:0:0:
448,192,39213,1,8,0:0:0:0:
64,192,39355,1,0,0:0:0:0:
192,192,39496,1,2,0:0:0:0:
448,192,39638,1,0,0:0:0:0:
192,192,39779,1,8,0:0:0:0:
320,192,39921,1,0,0:0:0:0:
448,192,40062,128,2,40628:0:0:0:0:
64,192,40062,1,4,0:0:0:0:
320,192,40345,1,8,0:0:0:0:
192,192,40628,128,2,40911:0:0:0:0:
64,192,40911,128,2,41194:0:0:0:0:
320,192,41194,1,2,0:0:0:0:
448,192,41194,1,4,0:0:0:0:
192,192,41619,1,2,0:0:0:0:
64,192,41619,1,4,0:0:0:0:
320,192,42043,1,2,0:0:0:0:
192,192,42185,1,2,0:0:0:0:
448,192,42326,1,6,0:0:0:0:
64,192,42397,1,0,0:0:0:0:
448,192,42468,1,0,0:0:0:0:
320,192,42751,128,2,43034:0:0:0:0:
64,192,42751,1,4,0:0:0:0:
192,192,43034,1,0,0:0:0:0:
448,192,43175,1,2,0:0:0:0:
320,192,43317,1,2,0:0:0:0:
192,192,43458,1,2,0:0:0:0:
64,192,43458,128,4,43741:0:0:0:0:
320,192,43741,128,2,44024:0:0:0:0:
64,192,44024,1,6,0:0:0:0:
448,192,44166,1,6,0:0:0:0:
448,192,44449,128,2,44732:0:0:0:0:
320,192,44449,1,4,0:0:0:0:
64,192,44732,1,6,0:0:0:0:
192,192,44873,1,6,0:0:0:0:
320,192,45015,1,6,0:0:0:0:
448,192,45156,1,6,0:0:0:0:
64,192,45439,1,8,0:0:0:0:
448,192,45439,1,2,0:0:0:0:
192,192,45723,1,2,0:0:0:0:
64,192,45723,1,4,0:0:0:0:
448,192,46147,1,2,0:0:0:0:
320,192,46147,1,4,0:0:0:0:
448,192,47421,1,2,0:0:0:0:
64,192,47421,1,4,0:0:0:0:
192,192,47704,1,2,0:0:0:0:
448,192,47987,1,2,0:0:0:0:
320,192,47987,1,4,0:0:0:0:
192,192,48411,1,2,0:0:0:0:
64,192,48411,1,4,0:0:0:0:
320,192,49119,1,4,0:0:0:0:
192,192,49119,1,2,0:0:0:0:
448,192,49543,1,2,0:0:0:0:
64,192,49543,1,4,0:0:0:0:
64,192,50251,1,2,0:0:0:0:
320,192,50251,1,4,0:0:0:0:
192,192,50675,1,4,0:0:0:0:
448,192,50675,1,2,0:0:0:0:
320,192,51949,1,4,0:0:0:0:
192,192,51949,1,2,0:0:0:0:
448,192,52232,1,2,0:0:0:0:
192,192,52515,1,4,0:0:0:0:
64,192,52515,1,2,0:0:0:0:
448,192,52939,1,2,0:0:0:0:
64,192,52939,1,4,0:0:0:0:
192,192,53647,1,2,0:0:0:0:
448,192,53647,1,4,0:0:0:0:
64,192,54072,1,4,0:0:0:0:
320,192,54072,1,2,0:0:0:0:
192,192,54496,128,2,54779:0:0:0:0:
320,192,54779,1,4,0:0:0:0:
448,192,54779,1,2,0:0:0:0:
64,192,55062,1,0,0:0:0:0:
320,192,55204,1,2,0:0:0:0:
448,192,55204,1,4,0:0:0:0:
192,192,56336,1,0,0:0:0:0:
64,192,56477,1,2,0:0:0:0:
448,192,56477,1,4,0:0:0:0:
192,192,56760,1,2,0:0:0:0:
320,192,57043,1,2,0:0:0:0:
448,192,57043,1,4,0:0:0:0:
64,192,57326,1,0,0:0:0:0:
320,192,57468,1,4,0:0:0:0:
448,192,57468,1,2,0:0:0:0:
448,192,58175,1,4,0:0:0:0:
64,192,58175,1,2,0:0:0:0:
320,192,58741,1,4,0:0:0:0:
448,192,58741,1,2,0:0:0:0:
192,192,59024,1,0,0:0:0:0:
64,192,59307,128,2,59732:0:0:0:0:
448,192,59307,1,4,0:0:0:0:
448,192,59732,1,2,0:0:0:0:
192,192,59873,128,6,60298:0:0:0:0:
64,192,60298,1,2,0:0:0:0:
320,192,60439,128,6,60864:0:0:0:0:
192,192,60864,1,2,0:0:0:0:
448,192,61006,128,6,61430:0:0:0:0:
64,192,61430,1,2,0:0:0:0:
192,192,61572,1,6,0:0:0:0:
448,192,61760,1,2,0:0:0:0:
448,192,61949,1,2,0:0:0:0:
64,192,62138,1,6,0:0:0:0:
320,192,62326,1,2,0:0:0:0:
320,192,62515,1,2,0:0:0:0:
64,192,62704,128,6,63270:0:0:0:0:
448,192,63270,1,2,0:0:0:0:
320,192,63270,1,4,0:0:0:0:
448,192,63836,1,2,0:0:0:0:
64,192,63836,1,4,0:0:0:0:
448,192,64119,1,2,0:0:0:0:
64,192,64119,1,4,0:0:0:0:
192,192,64402,1,2,0:0:0:0:
320,192,64543,1,2,0:0:0:0:
64,192,64685,1,2,0:0:0:0:
192,192,64826,1,2,0:0:0:0:
448,192,64826,1,4,0:0:0:0:
320,192,65109,1,0,0:0:0:0:
64,192,65251,1,2,0:0:0:0:
320,192,65392,1,2,0:0:0:0:
64,192,65534,1,2,0:0:0:0:
192,192,65675,1,2,0:0:0:0:
448,192,65817,1,10,0:0:0:0:
320,192,65958,1,2,0:0:0:0:
64,192,66100,1,2,0:0:0:0:
448,192,66100,1,4,0:0:0:0:
192,192,66383,1,8,0:0:0:0:
320,192,66666,1,2,0:0:0:0:
192,192,66807,1,0,0:0:0:0:
448,192,66949,1,8,0:0:0:0:
320,192,67090,1,0,0:0:0:0:
64,192,67232,1,2,0:0:0:0:
192,192,67515,1,8,0:0:0:0:
448,192,67798,1,2,0:0:0:0:
64,192,67939,128,2,68364:0:0:0:0:
320,192,68364,1,2,0:0:0:0:
448,192,68364,1,4,0:0:0:0:
64,192,68647,1,8,0:0:0:0:
320,192,68930,1,0,0:0:0:0:
192,192,69072,1,2,0:0:0:0:
448,192,69213,1,8,0:0:0:0:
320,192,69355,1,0,0:0:0:0:
192,192,69496,1,2,0:0:0:0:
64,192,69496,1,4,0:0:0:0:
448,192,69779,1,8,0:0:0:0:
192,192,70062,1,2,0:0:0:0:
320,192,70204,1,2,0:0:0:0:
64,192,70345,1,2,0:0:0:0:
192,192,70487,1,2,0:0:0:0:
448,192,70628,1,6,0:0:0:0:
192,192,70817,1,0,0:0:0:0:
64,192,71006,1,0,0:0:0:0:
448,192,71194,1,6,0:0:0:0:
320,192,71383,1,0,0:0:0:0:
192,192,71572,1,0,0:0:0:0:
64,192,71760,128,2,72043:0:0:0:0:
320,192,72043,128,2,72326:0:0:0:0:
448,192,72326,1,2,0:0:0:0:
64,192,72326,1,4,0:0:0:0:
192,192,72609,128,0,72892:0:0:0:0:
320,192,72892,1,6,0:0:0:0:
64,192,73034,1,0,0:0:0:0:
448,192,73175,1,8,0:0:0:0:
192,192,73317,1,0,0:0:0:0:
448,192,73741,1,8,0:0:0:0:
192,192,73883,1,0,0:0:0:0:
320,192,74024,1,2,0:0:0:0:
64,192,74166,1,0,0:0:0:0:
448,192,74307,1,8,0:0:0:0:
192,192,74449,1,0,0:0:0:0:
192,192,74873,1,8,0:0:0:0:
320,192,75015,1,2,0:0:0:0:
448,192,75156,1,6,0:0:0:0:
192,192,75298,1,0,0:0:0:0:
320,192,75439,1,8,0:0:0:0:
64,192,75581,1,0,0:0:0:0:
448,192,75864,1,0,0:0:0:0:
320,192,76006,1,8,0:0:0:0:
192,192,76147,1,0,0:0:0:0:
64,192,76289,128,2,76572:0:0:0:0:
448,192,76572,1,8,0:0:0:0:
192,192,76713,1,0,0:0:0:0:
448,192,76855,1,2,0:0:0:0:
64,192,76996,1,2,0:0:0:0:
320,192,77138,1,2,0:0:0:0:
64,192,77421,1,4,0:0:0:0:
448,192,77421,1,2,0:0:0:0:
192,192,77562,1,2,0:0:0:0:
320,192,77562,1,4,0:0:0:0:
64,192,77845,1,4,0:0:0:0:
192,192,77845,1,2,0:0:0:0:
64,192,78128,1,4,0:0:0:0:
192,192,78128,1,2,0:0:0:0:
320,192,78411,1,4,0:0:0:0:
448,192,78411,1,2,0:0:0:0:
192,192,78694,1,2,0:0:0:0:
320,192,78694,1,4,0:0:0:0:
192,192,78977,1,2,0:0:0:0:
64,192,78977,1,4,0:0:0:0:
320,192,79119,1,4,0:0:0:0:
448,192,79119,1,2,0:0:0:0:
192,192,79402,1,6,0:0:0:0:
320,192,79543,1,2,0:0:0:0:
448,192,79685,1,2,0:0:0:0:
64,192,79685,1,4,0:0:0:0:
192,192,79897,1,6,0:0:0:0:
448,192,80109,1,2,0:0:0:0:
64,192,80251,1,6,0:0:0:0:
320,192,80463,1,6,0:0:0:0:
64,192,80675,1,2,0:0:0:0:
448,192,80817,1,6,0:0:0:0:
192,192,81029,1,6,0:0:0:0:
448,192,81241,1,2,0:0:0:0:
64,192,81383,128,6,81666:0:0:0:0:
320,192,81666,1,2,0:0:0:0:
192,192,81666,1,8,0:0:0:0:
64,192,81949,1,4,0:0:0:0:
448,192,81949,128,2,83647:0:0:0:0:
320,192,83081,128,0,83647:0:0:0:0:
64,192,83647,1,0,0:0:0:0:
192,192,83930,1,2,0:0:0:0:
320,192,83930,1,4,0:0:0:0:
448,192,84213,1,2,0:0:0:0:
64,192,84213,1,4,0:0:0:0:
192,192,84496,128,0,85345:0:0:0:0:
64,192,85345,1,2,0:0:0:0:
448,192,85345,128,4,85911:0:0:0:0:
320,192,85911,1,0,0:0:0:0:
320,192,86053,1,0,0:0:0:0:
64,192,86194,1,2,0:0:0:0:
64,192,86336,1,0,0:0:0:0:
448,192,86477,1,2,0:0:0:0:
320,192,86477,1,8,0:0:0:0:
64,192,86760,1,2,0:0:0:0:
448,192,86760,1,8,0:0:0:0:
192,192,87043,1,2,0:0:0:0:
64,192,87043,1,8,0:0:0:0:
64,192,87326,1,8,0:0:0:0:
448,192,87326,1,2,0:0:0:0:
320,192,87609,1,2,0:0:0:0:
192,192,87609,1,8,0:0:0:0:
192,192,87892,1,8,0:0:0:0:
448,192,87892,1,2,0:0:0:0:
320,192,88175,1,8,0:0:0:0:
192,192,88175,1,2,0:0:0:0:
64,192,88458,1,2,0:0:0:0:
320,192,88458,1,8,0:0:0:0:
448,192,88741,1,4,0:0:0:0:
192,192,88741,1,2,0:0:0:0:
448,192,88883,1,2,0:0:0:0:
192,192,88883,1,4,0:0:0:0:
320,192,89307,1,2,0:0:0:0:
64,192,89307,1,4,0:0:0:0:
320,192,89449,1,4,0:0:0:0:
64,192,89449,1,2,0:0:0:0:
448,192,89873,1,4,0:0:0:0:
64,192,89873,1,2,0:0:0:0:
448,192,90015,1,4,0:0:0:0:
64,192,90015,1,2,0:0:0:0:
192,192,90439,1,2,0:0:0:0:
320,192,90439,1,4,0:0:0:0:
192,192,90581,1,4,0:0:0:0:
320,192,90581,1,2,0:0:0:0:
64,192,91006,1,4,0:0:0:0:
448,192,91006,1,2,0:0:0:0:
192,192,91147,1,0,0:0:0:0:
320,192,91289,1,0,0:0:0:0:
64,192,91430,1,0,0:0:0:0:
448,192,91572,1,0,0:0:0:0:
192,192,91713,1,0,0:0:0:0:
448,192,91855,1,0,0:0:0:0:
192,192,91996,1,0,0:0:0:0:
448,192,92138,1,0,0:0:0:0:
320,192,92279,1,0,0:0:0:0:
192,192,92421,1,0,0:0:0:0:
448,192,92562,1,0,0:0:0:0:
64,192,92704,1,0,0:0:0:0:
320,192,92845,1,0,0:0:0:0:
64,192,92987,1,0,0:0:0:0:
320,192,93128,1,0,0:0:0:0:
64,192,93270,1,0,0:0:0:0:
192,192,93411,1,0,0:0:0:0:
448,192,93553,1,0,0:0:0:0:
320,192,93694,1,0,0:0:0:0:
64,192,93836,1,0,0:0:0:0:
448,192,93977,1,0,0:0:0:0:
64,192,94119,1,0,0:0:0:0:
448,192,94260,1,0,0:0:0:0:
192,192,94402,1,6,0:0:0:0:
320,192,94543,1,6,0:0:0:0:
192,192,94685,1,6,0:0:0:0:
320,192,94826,1,6,0:0:0:0:
64,192,94968,1,6,0:0:0:0:
448,192,95109,1,6,0:0:0:0:
64,192,95392,1,6,0:0:0:0:
320,192,95534,1,2,0:0:0:0:
448,192,95534,1,4,0:0:0:0:
192,192,95817,1,8,0:0:0:0:
320,192,96100,1,2,0:0:0:0:
64,192,96241,1,0,0:0:0:0:
448,192,96383,1,8,0:0:0:0:
192,192,96524,1,0,0:0:0:0:
320,192,96666,1,2,0:0:0:0:
448,192,96666,1,4,0:0:0:0:
64,192,96949,1,8,0:0:0:0:
192,192,97232,1,2,0:0:0:0:
448,192,97373,1,2,0:0:0:0:
64,192,97515,1,2,0:0:0:0:
320,192,97656,1,2,0:0:0:0:
64,192,97798,1,6,0:0:0:0:
320,192,97987,1,0,0:0:0:0:
448,192,98175,1,0,0:0:0:0:
64,192,98364,1,6,0:0:0:0:
192,192,98553,1,0,0:0:0:0:
320,192,98741,1,0,0:0:0:0:
64,192,98930,128,2,99213:0:0:0:0:
448,192,98930,1,4,0:0:0:0:
320,192,99213,128,6,99496:0:0:0:0:
448,192,99496,1,2,0:0:0:0:
64,192,99496,1,4,0:0:0:0:
192,192,99779,1,0,0:0:0:0:
448,192,100062,1,6,0:0:0:0:
320,192,100204,1,0,0:0:0:0:
64,192,100345,1,8,0:0:0:0:
192,192,100487,1,0,0:0:0:0:
64,192,100911,1,8,0:0:0:0:
320,192,101053,1,0,0:0:0:0:
192,192,101194,1,2,0:0:0:0:
448,192,101336,1,0,0:0:0:0:
320,192,101477,1,8,0:0:0:0:
64,192,101619,1,0,0:0:0:0:
448,192,102043,1,8,0:0:0:0:
64,192,102185,1,2,0:0:0:0:
320,192,102326,1,2,0:0:0:0:
448,192,102326,1,4,0:0:0:0:
320,192,102468,1,2,0:0:0:0:
448,192,102468,1,4,0:0:0:0:
192,192,102892,1,2,0:0:0:0:
64,192,102892,1,4,0:0:0:0:
192,192,103034,1,2,0:0:0:0:
64,192,103034,1,4,0:0:0:0:
448,192,103458,1,2,0:0:0:0:
64,192,103458,1,4,0:0:0:0:
448,192,103600,1,2,0:0:0:0:
64,192,103600,1,4,0:0:0:0:
192,192,104024,1,2,0:0:0:0:
320,192,104024,1,4,0:0:0:0:
320,192,104166,1,2,0:0:0:0:
192,192,104166,1,4,0:0:0:0:
64,192,104590,1,2,0:0:0:0:
192,192,104590,1,4,0:0:0:0:
448,192,104732,1,4,0:0:0:0:
320,192,104732,1,2,0:0:0:0:
192,192,105015,1,4,0:0:0:0:
320,192,105015,1,2,0:0:0:0:
448,192,105298,1,4,0:0:0:0:
192,192,105298,1,2,0:0:0:0:
64,192,105581,1,4,0:0:0:0:
320,192,105581,1,2,0:0:0:0:
448,192,105864,1,6,0:0:0:0:
64,192,106006,1,6,0:0:0:0:
320,192,106147,1,6,0:0:0:0:
192,192,106289,1,6,0:0:0:0:
448,192,106430,1,6,0:0:0:0:
64,192,106572,1,6,0:0:0:0:
192,192,106713,1,6,0:0:0:0:
448,192,106855,1,2,0:0:0:0:
64,192,106996,1,0,0:0:0:0:
320,192,107279,1,0,0:0:0:0:
192,192,107562,1,0,0:0:0:0:
448,192,107845,1,0,0:0:0:0:
64,192,108128,1,0,0:0:0:0:
192,192,108270,1,0,0:0:0:0:
448,192,108411,1,0,0:0:0:0:
320,192,108553,1,0,0:0:0:0:
64,192,108694,1,0,0:0:0:0:
320,192,108836,1,6,0:0:0:0:
192,192,108977,1,0,0:0:0:0:
448,192,109119,1,4,0:0:0:0:
64,192,109119,1,2,0:0:0:0:
192,192,111100,1,2,0:0:0:0:
320,192,111241,1,0,0:0:0:0:
448,192,111383,1,2,0:0:0:0:
64,192,111383,1,4,0:0:0:0:
192,192,111595,1,6,0:0:0:0:
448,192,111807,1,2,0:0:0:0:
64,192,111949,1,6,0:0:0:0:
320,192,112161,1,6,0:0:0:0:
64,192,112373,1,2,0:0:0:0:
448,192,112515,1,6,0:0:0:0:
192,192,112727,1,6,0:0:0:0:
448,192,112939,1,2,0:0:0:0:
64,192,113081,128,6,113364:0:0:0:0:
192,192,113364,1,8,0:0:0:0:
448,192,113364,1,2,0:0:0:0:
320,192,113647,1,2,0:0:0:0:
192,192,113789,1,2,0:0:0:0:
448,192,113930,1,10,0:0:0:0:
64,192,114072,128,0,114355:0:0:0:0:
192,192,114355,1,2,0:0:0:0:
320,192,114496,1,8,0:0:0:0:
64,192,114638,1,0,0:0:0:0:
448,192,114779,1,2,0:0:0:0:
320,192,114921,1,0,0:0:0:0:
192,192,115062,1,8,0:0:0:0:
448,192,115204,128,2,115487:0:0:0:0:
320,192,115487,1,2,0:0:0:0:
192,192,115628,1,8,0:0:0:0:
64,192,115770,1,0,0:0:0:0:
448,192,115911,1,2,0:0:0:0:
192,192,116053,1,0,0:0:0:0:
320,192,116194,1,8,0:0:0:0:
64,192,116336,128,0,116619:0:0:0:0:
320,192,116619,1,2,0:0:0:0:
192,192,116760,1,8,0:0:0:0:
448,192,116902,1,0,0:0:0:0:
320,192,117043,1,2,0:0:0:0:
64,192,117185,1,0,0:0:0:0:
192,192,117326,1,8,0:0:0:0:
320,192,117468,128,2,117751:0:0:0:0:
64,192,117751,1,2,0:0:0:0:
448,192,117892,1,8,0:0:0:0:
192,192,118175,1,6,0:0:0:0:
320,192,118317,1,0,0:0:0:0:
448,192,118458,1,8,0:0:0:0:
64,192,118600,128,0,118883:0:0:0:0:
320,192,118883,1,2,0:0:0:0:
192,192,119024,1,8,0:0:0:0:
448,192,119166,1,0,0:0:0:0:
64,192,119307,1,6,0:0:0:0:
192,192,119449,1,0,0:0:0:0:
448,192,119590,1,8,0:0:0:0:
320,192,119732,128,2,120015:0:0:0:0:
64,192,120015,1,2,0:0:0:0:
448,192,120156,1,8,0:0:0:0:
192,192,120298,1,0,0:0:0:0:
448,192,120439,1,6,0:0:0:0:
64,192,120723,1,8,0:0:0:0:
192,192,120723,1,0,0:0:0:0:
448,192,120864,1,6,0:0:0:0:
448,192,121006,1,6,0:0:0:0:
64,192,121289,128,2,121572:0:0:0:0:
448,192,121572,1,6,0:0:0:0:
320,192,121760,1,6,0:0:0:0:
192,192,121949,1,6,0:0:0:0:
64,192,122138,1,6,0:0:0:0:
192,192,122326,1,6,0:0:0:0:
320,192,122515,1,6,0:0:0:0:
448,192,122704,1,4,0:0:0:0:
64,192,122704,1,2,0:0:0:0:
320,192,122987,1,6,0:0:0:0:
448,192,123128,1,0,0:0:0:0:
192,192,123270,1,8,0:0:0:0:
320,192,123411,1,0,0:0:0:0:
64,192,123553,1,2,0:0:0:0:
448,192,123694,1,0,0:0:0:0:
192,192,123836,1,8,0:0:0:0:
64,192,123977,1,0,0:0:0:0:
320,192,124119,1,2,0:0:0:0:
192,192,124260,1,0,0:0:0:0:
448,192,124402,1,8,0:0:0:0:
64,192,124543,1,0,0:0:0:0:
192,192,124685,1,2,0:0:0:0:
448,192,124826,1,2,0:0:0:0:
64,192,124968,1,6,0:0:0:0:
192,192,125109,1,0,0:0:0:0:
320,192,125251,1,8,0:0:0:0:
448,192,125392,1,0,0:0:0:0:
64,192,125534,1,6,0:0:0:0:
448,192,125675,1,2,0:0:0:0:
320,192,125817,1,2,0:0:0:0:
192,192,125958,1,2,0:0:0:0:
64,192,126100,1,2,0:0:0:0:
448,192,126100,1,4,0:0:0:0:
192,192,126383,1,4,0:0:0:0:
64,192,126383,1,2,0:0:0:0:
320,192,126666,1,2,0:0:0:0:
448,192,126666,1,4,0:0:0:0:
192,192,126949,1,2,0:0:0:0:
320,192,126949,1,4,0:0:0:0:
448,192,127232,1,2,0:0:0:0:
64,192,127232,128,4,127798:0:0:0:0:
320,192,127798,128,0,128364:0:0:0:0:
64,192,128081,1,6,0:0:0:0:
448,192,128364,128,6,128647:0:0:0:0:
192,192,128647,128,6,128930:0:0:0:0:
320,192,128930,128,6,129213:0:0:0:0:
64,192,129213,128,6,129496:0:0:0:0:
448,192,129496,1,6,0:0:0:0:
320,192,129638,1,2,0:0:0:0:
64,192,129779,1,2,0:0:0:0:
192,192,129921,128,2,130204:0:0:0:0:
320,192,130204,1,2,0:0:0:0:
448,192,130345,1,2,0:0:0:0:
192,192,130487,1,2,0:0:0:0:
320,192,130628,1,6,0:0:0:0:
64,192,130770,1,0,0:0:0:0:
448,192,130911,1,0,0:0:0:0:
192,192,131053,1,0,0:0:0:0:
320,192,131194,128,0,131477:0:0:0:0:
64,192,131477,128,2,131760:0:0:0:0:
448,192,131760,1,6,0:0:0:0:
320,192,131902,1,0,0:0:0:0:
64,192,132043,1,0,0:0:0:0:
192,192,132185,1,0,0:0:0:0:
448,192,132326,1,0,0:0:0:0:
192,192,132468,1,0,0:0:0:0:
320,192,132609,1,0,0:0:0:0:
64,192,132751,1,0,0:0:0:0:
448,192,133034,1,0,0:0:0:0:
64,192,134024,1,0,0:0:0:0:
192,192,134166,1,0,0:0:0:0:
448,192,134307,1,0,0:0:0:0:
320,192,134449,1,0,0:0:0:0:
64,192,134590,1,0,0:0:0:0:
320,192,134732,1,0,0:0:0:0:
192,192,134873,1,0,0:0:0:0:
448,192,135015,1,0,0:0:0:0:
64,192,135298,1,0,0:0:0:0:
64,192,136289,1,0,0:0:0:0:
320,192,136430,1,0,0:0:0:0:
192,192,136572,1,0,0:0:0:0:
448,192,136713,1,0,0:0:0:0:
64,192,136855,1,0,0:0:0:0:
192,192,136996,1,0,0:0:0:0:
448,192,137138,1,0,0:0:0:0:
320,192,137279,1,0,0:0:0:0:
64,192,137562,1,0,0:0:0:0:
448,192,138553,1,0,0:0:0:0:
192,192,138694,1,0,0:0:0:0:
320,192,138836,1,0,0:0:0:0:
64,192,138977,1,0,0:0:0:0:
448,192,139119,1,0,0:0:0:0:
320,192,139260,1,0,0:0:0:0:
64,192,139402,1,0,0:0:0:0:
192,192,139543,1,0,0:0:0:0:
448,192,139826,1,0,0:0:0:0:
