osu file format v14

[General]
AudioFilename: audio.mp3
AudioLeadIn: 0
PreviewTime: 34826
Countdown: 0
SampleSet: Soft
StackLeniency: 0.7
Mode: 3
LetterboxInBreaks: 0
SpecialStyle: 0
WidescreenStoryboard: 0

[Editor]
DistanceSpacing: 1.4
BeatDivisor: 4
GridSize: 16
TimelineZoom: 1.6

[Metadata]
Title:Re:End of a Dream
TitleUnicode:Re:End of a Dream
Artist:uma vs. Morimori Atsushi
ArtistUnicode:uma vs. モリモリあつし
Creator:Critical_Star
Version:Another
Source:BMS
Tags:masiro vs. adaptor SUPERALLOYS チームメンバーリンク Pieces sequel BOFU2016 - Legendary Again - OF FIGHTERS ULTIMATE HARD RENAISSANCE Kuo Kyoka
BeatmapID:1126226
BeatmapSetID:531425

[Difficulty]
HPDrainRate:8
CircleSize:4
OverallDifficulty:8
ApproachRate:5
SliderMultiplier:1.4
SliderTickRate:1

[Events]
//Background and Video events
Video,-10,"ReEnd of a Dream.avi"
0,0,"MeowPaz.jpg",0,0
//Break Periods
//Storyboard Layer 0 (Background)
//Storyboard Layer 1 (Fail)
//Storyboard Layer 2 (Pass)
//Storyboard Layer 3 (Foreground)
//Storyboard Sound Samples

[TimingPoints]
440,283.018867924528,4,2,1,40,1,0
18836,-100,4,2,1,40,0,1
26477,-100,4,2,1,40,0,0
36949,-100,4,2,1,40,0,1
45723,-100,4,2,1,40,0,0
66100,-100,4,2,1,40,0,1
70628,-100,4,2,1,40,0,0
72892,-100,4,2,1,40,0,1
81949,-100,4,2,1,40,0,0
95534,-100,4,2,1,40,0,1
106855,-100,4,2,1,40,0,0
113930,-100,4,2,1,40,0,1
122704,-100,4,2,1,40,0,0
122987,-100,4,2,1,40,0,1
127232,-100,4,2,1,40,0,0

[HitObjects]
64,192,440,5,0,0:0:0:0:
448,192,581,1,0,0:0:0:0:
64,192,723,1,0,0:0:0:0:
448,192,864,1,0,0:0:0:0:
64,192,1006,1,0,0:0:0:0:
192,192,1147,1,0,0:0:0:0:
320,192,1289,1,0,0:0:0:0:
448,192,1430,1,0,0:0:0:0:
192,192,1713,1,0,0:0:0:0:
192,192,2562,1,0,0:0:0:0:
320,192,2633,1,0,0:0:0:0:
448,192,2704,1,0,0:0:0:0:
64,192,2845,1,0,0:0:0:0:
448,192,2987,1,0,0:0:0:0:
64,192,3128,1,0,0:0:0:0:
448,192,3270,1,0,0:0:0:0:
320,192,3411,1,0,0:0:0:0:
64,192,3553,1,0,0:0:0:0:
192,192,3694,1,0,0:0:0:0:
448,192,3977,1,0,0:0:0:0:
320,192,4260,1,0,0:0:0:0:
192,192,4402,128,0,4968:0:0:0:0:
64,192,4685,128,0,4968:0:0:0:0:
448,192,4968,1,0,0:0:0:0:
320,192,5109,1,0,0:0:0:0:
448,192,5251,1,0,0:0:0:0:
320,192,5392,1,0,0:0:0:0:
64,192,5534,1,0,0:0:0:0:
192,192,5675,1,0,0:0:0:0:
448,192,5817,1,0,0:0:0:0:
320,192,5958,1,0,0:0:0:0:
64,192,6241,1,0,0:0:0:0:
192,192,7090,1,0,0:0:0:0:
448,192,7161,1,0,0:0:0:0:
64,192,7232,1,0,0:0:0:0:
320,192,7373,1,0,0:0:0:0:
64,192,7515,1,0,0:0:0:0:
320,192,7656,1,0,0:0:0:0:
64,192,7798,1,0,0:0:0:0:
192,192,7939,1,0,0:0:0:0:
448,192,8081,1,0,0:0:0:0:
320,192,8223,1,0,0:0:0:0:
448,192,8506,1,0,0:0:0:0:
320,192,8930,1,0,0:0:0:0:
448,192,9001,1,0,0:0:0:0:
192,192,9072,1,0,0:0:0:0:
320,192,9142,1,0,0:0:0:0:
64,192,9213,1,0,0:0:0:0:
192,192,9284,1,0,0:0:0:0:
448,192,9355,1,0,0:0:0:0:
320,192,9425,1,0,0:0:0:0:
448,192,9496,1,0,0:0:0:0:
192,192,9496,1,4,0:0:0:0:
64,192,9496,1,2,0:0:0:0:
320,192,9638,1,0,0:0:0:0:
448,192,9708,1,0,0:0:0:0:
320,192,9779,1,0,0:0:0:0:
64,192,9921,128,0,10204:0:0:0:0:
320,192,10204,1,0,0:0:0:0:
192,192,10345,1,0,0:0:0:0:
448,192,10487,1,0,0:0:0:0:
64,192,10628,1,0,0:0:0:0:
192,192,10770,1,0,0:0:0:0:
320,192,10840,1,0,0:0:0:0:
192,192,10911,1,0,0:0:0:0:
448,192,11053,128,0,11336:0:0:0:0:
64,192,11336,1,0,0:0:0:0:
320,192,11477,1,0,0:0:0:0:
192,192,11619,1,0,0:0:0:0:
448,192,11760,1,0,0:0:0:0:
64,192,11902,1,0,0:0:0:0:
192,192,11973,1,0,0:0:0:0:
64,192,12043,1,0,0:0:0:0:
320,192,12185,128,0,12468:0:0:0:0:
192,192,12468,1,0,0:0:0:0:
448,192,12609,1,0,0:0:0:0:
64,192,12751,1,0,0:0:0:0:
192,192,12892,1,0,0:0:0:0:
320,192,12963,1,0,0:0:0:0:
192,192,13034,1,0,0:0:0:0:
448,192,13175,1,0,0:0:0:0:
192,192,13317,128,0,13600:0:0:0:0:
320,192,13600,1,0,0:0:0:0:
64,192,13741,1,0,0:0:0:0:
192,192,13789,1,0,0:0:0:0:
320,192,13836,1,0,0:0:0:0:
448,192,13883,1,0,0:0:0:0:
192,192,14024,1,8,0:0:0:0:
64,192,14024,1,0,0:0:0:0:
448,192,14166,1,0,0:0:0:0:
320,192,14237,1,0,0:0:0:0:
192,192,14307,1,8,0:0:0:0:
64,192,14307,1,0,0:0:0:0:
448,192,14449,1,0,0:0:0:0:
64,192,14590,1,8,0:0:0:0:
320,192,14590,1,0,0:0:0:0:
192,192,14732,1,0,0:0:0:0:
64,192,14873,1,8,0:0:0:0:
320,192,14873,1,0,0:0:0:0:
448,192,15015,1,0,0:0:0:0:
64,192,15156,1,8,0:0:0:0:
192,192,15156,1,0,0:0:0:0:
320,192,15298,1,0,0:0:0:0:
448,192,15369,1,0,0:0:0:0:
192,192,15439,1,8,0:0:0:0:
64,192,15439,1,0,0:0:0:0:
320,192,15581,1,0,0:0:0:0:
64,192,15723,1,8,0:0:0:0:
448,192,15723,1,0,0:0:0:0:
192,192,15864,1,0,0:0:0:0:
448,192,16006,1,8,0:0:0:0:
64,192,16006,1,0,0:0:0:0:
320,192,16147,1,0,0:0:0:0:
64,192,16289,1,8,0:0:0:0:
448,192,16289,1,0,0:0:0:0:
192,192,16430,1,8,0:0:0:0:
64,192,16430,1,0,0:0:0:0:
320,192,16501,1,0,0:0:0:0:
448,192,16572,1,8,0:0:0:0:
64,192,16572,1,0,0:0:0:0:
320,192,16713,1,8,0:0:0:0:
448,192,16713,1,0,0:0:0:0:
192,192,16855,1,8,0:0:0:0:
64,192,16855,1,0,0:0:0:0:
320,192,16925,1,8,0:0:0:0:
448,192,16996,1,8,0:0:0:0:
192,192,17067,1,8,0:0:0:0:
320,192,17138,1,8,0:0:0:0:
64,192,17208,1,8,0:0:0:0:
192,192,17279,1,8,0:0:0:0:
320,192,17350,1,8,0:0:0:0:
192,192,17421,1,2,0:0:0:0:
64,192,17421,1,4,0:0:0:0:
448,192,17421,1,0,0:0:0:0:
320,192,17609,1,4,0:0:0:0:
448,192,17609,1,2,0:0:0:0:
192,192,17609,1,0,0:0:0:0:
320,192,17798,1,4,0:0:0:0:
192,192,17798,1,2,0:0:0:0:
64,192,17798,1,0,0:0:0:0:
448,192,17987,1,4,0:0:0:0:
320,192,17987,1,2,0:0:0:0:
64,192,17987,1,0,0:0:0:0:
192,192,18175,1,4,0:0:0:0:
64,192,18175,1,2,0:0:0:0:
448,192,18175,1,0,0:0:0:0:
320,192,18364,1,4,0:0:0:0:
192,192,18364,1,2,0:0:0:0:
64,192,18364,1,0,0:0:0:0:
64,192,18553,1,2,0:0:0:0:
192,192,18588,1,2,0:0:0:0:
320,192,18623,1,2,0:0:0:0:
448,192,18659,1,2,0:0:0:0:
64,192,18694,1,2,0:0:0:0:
192,192,18730,1,2,0:0:0:0:
320,192,18765,1,2,0:0:0:0:
448,192,18800,1,2,0:0:0:0:
64,192,18836,1,8,0:0:0:0:
192,192,18836,1,4,0:0:0:0:
320,192,18977,128,0,19260:0:0:0:0:
448,192,19260,1,2,0:0:0:0:
192,192,19260,1,0,0:0:0:0:
448,192,19402,1,8,0:0:0:0:
64,192,19402,1,0,0:0:0:0:
192,192,19402,1,0,0:0:0:0:
320,192,19543,1,0,0:0:0:0:
64,192,19685,1,2,0:0:0:0:
448,192,19685,1,0,0:0:0:0:
192,192,19826,1,0,0:0:0:0:
320,192,19897,1,0,0:0:0:0:
448,192,19968,1,8,0:0:0:0:
64,192,19968,1,0,0:0:0:0:
192,192,19968,1,0,0:0:0:0:
320,192,20109,128,2,20392:0:0:0:0:
64,192,20109,1,0,0:0:0:0:
192,192,20392,1,2,0:0:0:0:
64,192,20392,1,0,0:0:0:0:
320,192,20534,1,8,0:0:0:0:
448,192,20534,1,0,0:0:0:0:
64,192,20534,1,0,0:0:0:0:
192,192,20675,1,0,0:0:0:0:
64,192,20817,1,2,0:0:0:0:
448,192,20817,1,0,0:0:0:0:
320,192,20958,1,0,0:0:0:0:
192,192,21029,1,0,0:0:0:0:
64,192,21100,1,8,0:0:0:0:
320,192,21100,1,0,0:0:0:0:
448,192,21100,1,0,0:0:0:0:
448,192,21241,128,0,21524:0:0:0:0:
192,192,21524,1,2,0:0:0:0:
64,192,21524,1,0,0:0:0:0:
320,192,21666,1,8,0:0:0:0:
448,192,21666,1,0,0:0:0:0:
64,192,21666,1,0,0:0:0:0:
192,192,21807,1,0,0:0:0:0:
448,192,21949,1,2,0:0:0:0:
64,192,21949,1,0,0:0:0:0:
320,192,22020,1,0,0:0:0:0:
192,192,22090,1,0,0:0:0:0:
320,192,22232,1,8,0:0:0:0:
448,192,22232,1,0,0:0:0:0:
64,192,22232,1,0,0:0:0:0:
64,192,22373,128,2,22656:0:0:0:0:
448,192,22373,1,0,0:0:0:0:
320,192,22656,1,2,0:0:0:0:
192,192,22656,1,0,0:0:0:0:
448,192,22798,1,8,0:0:0:0:
64,192,22798,1,0,0:0:0:0:
320,192,22798,1,0,0:0:0:0:
192,192,22939,1,0,0:0:0:0:
192,192,23081,1,2,0:0:0:0:
64,192,23081,1,4,0:0:0:0:
448,192,23081,1,0,0:0:0:0:
320,192,23223,1,0,0:0:0:0:
192,192,23293,1,0,0:0:0:0:
64,192,23364,1,8,0:0:0:0:
320,192,23364,1,0,0:0:0:0:
448,192,23364,1,0,0:0:0:0:
192,192,23506,128,0,23789:0:0:0:0:
64,192,23789,1,2,0:0:0:0:
320,192,23789,1,0,0:0:0:0:
192,192,23930,1,8,0:0:0:0:
64,192,23930,1,0,0:0:0:0:
448,192,23930,1,0,0:0:0:0:
320,192,24072,1,0,0:0:0:0:
320,192,24213,1,2,0:0:0:0:
448,192,24213,1,4,0:0:0:0:
64,192,24213,1,0,0:0:0:0:
192,192,24355,1,0,0:0:0:0:
64,192,24425,1,0,0:0:0:0:
192,192,24496,1,8,0:0:0:0:
320,192,24496,1,0,0:0:0:0:
448,192,24496,1,0,0:0:0:0:
448,192,24638,128,2,24921:0:0:0:0:
64,192,24638,1,0,0:0:0:0:
320,192,24921,1,2,0:0:0:0:
64,192,24921,1,0,0:0:0:0:
448,192,25062,1,8,0:0:0:0:
320,192,25062,1,0,0:0:0:0:
192,192,25062,1,0,0:0:0:0:
64,192,25204,1,0,0:0:0:0:
64,192,25345,1,10,0:0:0:0:
448,192,25345,1,0,0:0:0:0:
192,192,25416,1,0,0:0:0:0:
320,192,25487,1,8,0:0:0:0:
448,192,25557,1,8,0:0:0:0:
192,192,25628,1,8,0:0:0:0:
64,192,25628,1,2,0:0:0:0:
448,192,25699,1,8,0:0:0:0:
64,192,25770,1,8,0:0:0:0:
320,192,25770,1,4,0:0:0:0:
192,192,25840,1,8,0:0:0:0:
320,192,25911,1,8,0:0:0:0:
448,192,25911,1,4,0:0:0:0:
64,192,25982,1,8,0:0:0:0:
192,192,26053,1,8,0:0:0:0:
320,192,26123,1,8,0:0:0:0:
64,192,26194,1,2,0:0:0:0:
448,192,26194,1,0,0:0:0:0:
320,192,26265,1,2,0:0:0:0:
192,192,26265,1,0,0:0:0:0:
64,192,26336,1,2,0:0:0:0:
448,192,26336,1,0,0:0:0:0:
320,192,26406,1,2,0:0:0:0:
448,192,26477,1,2,0:0:0:0:
192,192,26477,1,4,0:0:0:0:
64,192,26477,1,0,0:0:0:0:
320,192,26619,1,0,0:0:0:0:
192,192,26760,1,0,0:0:0:0:
64,192,26902,1,0,0:0:0:0:
448,192,27043,128,0,27326:0:0:0:0:
320,192,27326,1,0,0:0:0:0:
192,192,27468,1,0,0:0:0:0:
64,192,27609,1,2,0:0:0:0:
448,192,27609,1,0,0:0:0:0:
192,192,27892,1,0,0:0:0:0:
448,192,28034,1,0,0:0:0:0:
320,192,28034,1,0,0:0:0:0:
320,192,28317,1,0,0:0:0:0:
64,192,28458,1,0,0:0:0:0:
192,192,28600,1,0,0:0:0:0:
448,192,28741,1,0,0:0:0:0:
320,192,28741,1,0,0:0:0:0:
192,192,29024,1,0,0:0:0:0:
448,192,29166,1,0,0:0:0:0:
64,192,29166,1,0,0:0:0:0:
320,192,29590,1,0,0:0:0:0:
192,192,29732,1,0,0:0:0:0:
64,192,29873,1,0,0:0:0:0:
448,192,29873,1,0,0:0:0:0:
320,192,30156,1,0,0:0:0:0:
64,192,30298,1,0,0:0:0:0:
192,192,30298,1,0,0:0:0:0:
192,192,30581,1,0,0:0:0:0:
320,192,30723,1,0,0:0:0:0:
448,192,30864,1,0,0:0:0:0:
192,192,31006,1,0,0:0:0:0:
64,192,31006,1,0,0:0:0:0:
64,192,31430,1,0,0:0:0:0:
448,192,31572,1,0,0:0:0:0:
320,192,31855,1,0,0:0:0:0:
64,192,32138,1,0,0:0:0:0:
448,192,32138,1,0,0:0:0:0:
192,192,32421,1,0,0:0:0:0:
320,192,32562,1,0,0:0:0:0:
448,192,32562,1,0,0:0:0:0:
448,192,32845,1,0,0:0:0:0:
320,192,32987,1,0,0:0:0:0:
192,192,33128,1,0,0:0:0:0:
64,192,33270,1,0,0:0:0:0:
448,192,33270,1,0,0:0:0:0:
448,192,33553,1,0,0:0:0:0:
192,192,33694,1,0,0:0:0:0:
64,192,33694,1,0,0:0:0:0:
192,192,33977,1,0,0:0:0:0:
320,192,34119,1,0,0:0:0:0:
448,192,34260,1,0,0:0:0:0:
448,192,34402,1,0,0:0:0:0:
64,192,34402,128,0,34826:0:0:0:0:
320,192,34826,1,0,0:0:0:0:
192,192,34897,1,0,0:0:0:0:
448,192,34968,128,0,35392:0:0:0:0:
192,192,35392,1,0,0:0:0:0:
320,192,35463,1,0,0:0:0:0:
64,192,35534,1,2,0:0:0:0:
192,192,35569,1,2,0:0:0:0:
320,192,35605,1,2,0:0:0:0:
448,192,35640,1,2,0:0:0:0:
64,192,35675,1,2,0:0:0:0:
192,192,35746,1,2,0:0:0:0:
320,192,35817,1,2,0:0:0:0:
448,192,35817,1,4,0:0:0:0:
64,192,35817,1,0,0:0:0:0:
320,192,36100,1,2,0:0:0:0:
192,192,36100,1,4,0:0:0:0:
64,192,36100,1,0,0:0:0:0:
448,192,36383,1,4,0:0:0:0:
320,192,36383,1,2,0:0:0:0:
64,192,36383,1,0,0:0:0:0:
192,192,36666,1,2,0:0:0:0:
320,192,36666,1,4,0:0:0:0:
448,192,36666,1,0,0:0:0:0:
64,192,36807,1,0,0:0:0:0:
192,192,36878,1,0,0:0:0:0:
320,192,36949,1,2,0:0:0:0:
448,192,36949,1,4,0:0:0:0:
64,192,36949,1,0,0:0:0:0:
192,192,37020,1,0,0:0:0:0:
448,192,37090,1,0,0:0:0:0:
320,192,37232,1,2,0:0:0:0:
64,192,37232,1,0,0:0:0:0:
192,192,37303,1,0,0:0:0:0:
448,192,37373,1,0,0:0:0:0:
320,192,37444,1,0,0:0:0:0:
192,192,37515,1,8,0:0:0:0:
64,192,37515,1,0,0:0:0:0:
320,192,37586,1,0,0:0:0:0:
448,192,37656,1,0,0:0:0:0:
192,192,37727,1,0,0:0:0:0:
448,192,37798,1,2,0:0:0:0:
64,192,37798,1,0,0:0:0:0:
320,192,37939,1,0,0:0:0:0:
192,192,38010,1,0,0:0:0:0:
448,192,38081,1,8,0:0:0:0:
64,192,38081,1,0,0:0:0:0:
320,192,38152,1,0,0:0:0:0:
192,192,38223,1,0,0:0:0:0:
320,192,38293,1,0,0:0:0:0:
64,192,38364,1,2,0:0:0:0:
448,192,38364,1,0,0:0:0:0:
192,192,38435,1,0,0:0:0:0:
320,192,38506,1,0,0:0:0:0:
448,192,38576,1,0,0:0:0:0:
64,192,38647,1,8,0:0:0:0:
192,192,38647,1,0,0:0:0:0:
320,192,38789,1,0,0:0:0:0:
192,192,38789,1,0,0:0:0:0:
448,192,38930,1,2,0:0:0:0:
64,192,38930,1,4,0:0:0:0:
320,192,38930,1,0,0:0:0:0:
192,192,39072,1,0,0:0:0:0:
320,192,39142,1,0,0:0:0:0:
64,192,39213,1,8,0:0:0:0:
448,192,39213,1,0,0:0:0:0:
320,192,39284,1,0,0:0:0:0:
192,192,39355,1,0,0:0:0:0:
448,192,39496,1,2,0:0:0:0:
64,192,39496,1,0,0:0:0:0:
320,192,39567,1,0,0:0:0:0:
192,192,39638,1,0,0:0:0:0:
320,192,39708,1,0,0:0:0:0:
448,192,39779,1,8,0:0:0:0:
64,192,39779,1,0,0:0:0:0:
192,192,39921,1,0,0:0:0:0:
320,192,39921,1,0,0:0:0:0:
448,192,40062,128,2,40628:0:0:0:0:
64,192,40062,1,4,0:0:0:0:
192,192,40062,1,0,0:0:0:0:
320,192,40204,1,0,0:0:0:0:
320,192,40345,1,8,0:0:0:0:
64,192,40345,1,0,0:0:0:0:
192,192,40487,1,0,0:0:0:0:
64,192,40628,1,2,0:0:0:0:
192,192,40628,1,4,0:0:0:0:
320,192,40699,1,2,0:0:0:0:
448,192,40699,1,0,0:0:0:0:
192,192,40770,1,2,0:0:0:0:
320,192,40840,1,2,0:0:0:0:
448,192,40911,1,2,0:0:0:0:
64,192,40911,1,4,0:0:0:0:
192,192,40911,1,0,0:0:0:0:
320,192,41053,1,0,0:0:0:0:
64,192,41194,1,2,0:0:0:0:
448,192,41194,1,4,0:0:0:0:
320,192,41194,1,0,0:0:0:0:
192,192,41477,128,0,41619:0:0:0:0:
64,192,41619,1,2,0:0:0:0:
448,192,41619,1,4,0:0:0:0:
320,192,41619,1,0,0:0:0:0:
192,192,41902,1,0,0:0:0:0:
320,192,41973,1,0,0:0:0:0:
192,192,42043,1,2,0:0:0:0:
64,192,42043,1,0,0:0:0:0:
448,192,42114,1,2,0:0:0:0:
64,192,42185,1,2,0:0:0:0:
192,192,42185,1,0,0:0:0:0:
320,192,42256,1,2,0:0:0:0:
448,192,42326,1,2,0:0:0:0:
64,192,42326,1,4,0:0:0:0:
320,192,42397,1,0,0:0:0:0:
192,192,42397,1,0,0:0:0:0:
448,192,42468,1,0,0:0:0:0:
64,192,42468,1,0,0:0:0:0:
448,192,42751,128,2,43034:0:0:0:0:
320,192,42751,1,4,0:0:0:0:
64,192,42751,1,0,0:0:0:0:
192,192,43034,1,0,0:0:0:0:
64,192,43175,1,2,0:0:0:0:
448,192,43175,1,0,0:0:0:0:
320,192,43246,1,2,0:0:0:0:
448,192,43317,1,2,0:0:0:0:
64,192,43317,1,0,0:0:0:0:
192,192,43388,1,2,0:0:0:0:
320,192,43458,128,2,43741:0:0:0:0:
448,192,43458,1,4,0:0:0:0:
64,192,43458,1,0,0:0:0:0:
64,192,43741,1,2,0:0:0:0:
448,192,43741,1,0,0:0:0:0:
192,192,43812,1,2,0:0:0:0:
64,192,43883,1,2,0:0:0:0:
448,192,43883,1,0,0:0:0:0:
192,192,43954,1,2,0:0:0:0:
64,192,44024,1,2,0:0:0:0:
448,192,44024,1,4,0:0:0:0:
320,192,44024,1,0,0:0:0:0:
192,192,44166,1,4,0:0:0:0:
64,192,44166,1,2,0:0:0:0:
448,192,44166,1,0,0:0:0:0:
320,192,44449,128,2,44732:0:0:0:0:
448,192,44449,1,4,0:0:0:0:
64,192,44449,1,0,0:0:0:0:
192,192,44732,1,4,0:0:0:0:
64,192,44732,1,2,0:0:0:0:
320,192,44873,1,4,0:0:0:0:
192,192,44873,1,2,0:0:0:0:
320,192,45015,1,4,0:0:0:0:
448,192,45015,1,2,0:0:0:0:
448,192,45156,1,4,0:0:0:0:
192,192,45156,1,2,0:0:0:0:
64,192,45156,1,0,0:0:0:0:
320,192,45439,1,8,0:0:0:0:
192,192,45439,1,2,0:0:0:0:
448,192,45439,1,0,0:0:0:0:
64,192,45439,1,0,0:0:0:0:
64,192,45723,1,2,0:0:0:0:
448,192,45723,1,4,0:0:0:0:
64,192,45864,1,0,0:0:0:0:
64,192,46006,1,0,0:0:0:0:
320,192,46006,1,0,0:0:0:0:
64,192,46147,1,2,0:0:0:0:
448,192,46147,1,4,0:0:0:0:
192,192,46147,1,0,0:0:0:0:
320,192,46572,1,0,0:0:0:0:
192,192,47279,1,0,0:0:0:0:
64,192,47421,1,2,0:0:0:0:
320,192,47421,1,4,0:0:0:0:
448,192,47421,1,0,0:0:0:0:
192,192,47704,1,2,0:0:0:0:
64,192,47704,1,0,0:0:0:0:
320,192,47845,1,0,0:0:0:0:
448,192,47987,1,2,0:0:0:0:
192,192,47987,1,4,0:0:0:0:
64,192,47987,1,0,0:0:0:0:
448,192,48128,1,0,0:0:0:0:
448,192,48270,1,0,0:0:0:0:
192,192,48270,1,0,0:0:0:0:
448,192,48411,1,2,0:0:0:0:
64,192,48411,1,4,0:0:0:0:
320,192,48411,1,0,0:0:0:0:
192,192,48694,1,0,0:0:0:0:
448,192,49119,1,4,0:0:0:0:
64,192,49119,1,2,0:0:0:0:
320,192,49119,1,0,0:0:0:0:
320,192,49543,1,2,0:0:0:0:
192,192,49543,1,4,0:0:0:0:
64,192,49543,1,0,0:0:0:0:
448,192,50251,1,2,0:0:0:0:
192,192,50251,1,4,0:0:0:0:
64,192,50251,1,0,0:0:0:0:
64,192,50392,1,0,0:0:0:0:
64,192,50534,1,0,0:0:0:0:
320,192,50534,1,0,0:0:0:0:
448,192,50675,1,4,0:0:0:0:
320,192,50675,1,2,0:0:0:0:
64,192,50675,1,0,0:0:0:0:
192,192,51100,1,0,0:0:0:0:
448,192,51807,1,0,0:0:0:0:
320,192,51949,1,4,0:0:0:0:
192,192,51949,1,2,0:0:0:0:
64,192,51949,1,0,0:0:0:0:
64,192,52232,1,2,0:0:0:0:
448,192,52232,1,0,0:0:0:0:
192,192,52373,1,0,0:0:0:0:
448,192,52515,1,4,0:0:0:0:
64,192,52515,1,2,0:0:0:0:
320,192,52515,1,0,0:0:0:0:
448,192,52656,1,0,0:0:0:0:
448,192,52798,1,0,0:0:0:0:
192,192,52798,1,0,0:0:0:0:
448,192,52939,1,2,0:0:0:0:
64,192,52939,1,4,0:0:0:0:
320,192,52987,1,0,0:0:0:0:
192,192,53034,1,0,0:0:0:0:
64,192,53081,1,0,0:0:0:0:
448,192,53223,1,0,0:0:0:0:
192,192,53364,1,0,0:0:0:0:
64,192,53647,1,2,0:0:0:0:
320,192,53647,1,4,0:0:0:0:
448,192,53647,1,0,0:0:0:0:
192,192,54072,1,4,0:0:0:0:
448,192,54072,1,2,0:0:0:0:
320,192,54072,1,0,0:0:0:0:
64,192,54496,1,2,0:0:0:0:
192,192,54531,1,2,0:0:0:0:
448,192,54567,1,2,0:0:0:0:
320,192,54602,1,2,0:0:0:0:
64,192,54638,1,2,0:0:0:0:
192,192,54673,1,2,0:0:0:0:
320,192,54708,1,2,0:0:0:0:
448,192,54744,1,2,0:0:0:0:
192,192,54779,1,4,0:0:0:0:
64,192,54779,1,2,0:0:0:0:
448,192,55062,1,0,0:0:0:0:
64,192,55062,1,0,0:0:0:0:
320,192,55204,1,2,0:0:0:0:
448,192,55204,1,4,0:0:0:0:
192,192,55274,1,0,0:0:0:0:
320,192,55345,1,0,0:0:0:0:
192,192,55416,1,0,0:0:0:0:
448,192,55487,1,0,0:0:0:0:
64,192,55487,1,0,0:0:0:0:
320,192,55628,1,0,0:0:0:0:
192,192,55699,1,0,0:0:0:0:
448,192,55770,1,0,0:0:0:0:
320,192,55840,1,0,0:0:0:0:
192,192,55911,1,0,0:0:0:0:
64,192,55911,1,0,0:0:0:0:
320,192,55982,1,0,0:0:0:0:
448,192,56053,1,0,0:0:0:0:
64,192,56053,1,0,0:0:0:0:
192,192,56194,1,0,0:0:0:0:
320,192,56194,1,0,0:0:0:0:
64,192,56336,1,0,0:0:0:0:
448,192,56336,1,0,0:0:0:0:
192,192,56406,1,0,0:0:0:0:
320,192,56477,1,2,0:0:0:0:
448,192,56477,1,4,0:0:0:0:
64,192,56619,1,0,0:0:0:0:
192,192,56760,1,2,0:0:0:0:
320,192,56760,1,4,0:0:0:0:
448,192,56902,1,0,0:0:0:0:
192,192,57043,1,2,0:0:0:0:
64,192,57043,1,4,0:0:0:0:
320,192,57114,1,0,0:0:0:0:
448,192,57185,1,0,0:0:0:0:
64,192,57326,1,0,0:0:0:0:
320,192,57326,1,0,0:0:0:0:
64,192,57468,1,4,0:0:0:0:
448,192,57468,1,2,0:0:0:0:
192,192,57539,1,0,0:0:0:0:
320,192,57680,1,0,0:0:0:0:
192,192,57751,1,0,0:0:0:0:
64,192,57751,1,0,0:0:0:0:
448,192,57892,1,0,0:0:0:0:
192,192,57963,1,0,0:0:0:0:
448,192,58034,1,0,0:0:0:0:
192,192,58105,1,0,0:0:0:0:
320,192,58175,1,4,0:0:0:0:
448,192,58175,1,2,0:0:0:0:
64,192,58317,1,0,0:0:0:0:
448,192,58388,1,0,0:0:0:0:
64,192,58529,1,0,0:0:0:0:
448,192,58600,1,0,0:0:0:0:
192,192,58741,1,4,0:0:0:0:
64,192,58741,1,2,0:0:0:0:
320,192,58812,1,0,0:0:0:0:
448,192,58883,1,0,0:0:0:0:
192,192,59024,1,0,0:0:0:0:
320,192,59024,1,0,0:0:0:0:
64,192,59166,1,0,0:0:0:0:
192,192,59237,1,0,0:0:0:0:
320,192,59307,1,2,0:0:0:0:
448,192,59307,1,4,0:0:0:0:
64,192,59307,128,0,59732:0:0:0:0:
192,192,59732,1,2,0:0:0:0:
320,192,59732,1,0,0:0:0:0:
448,192,59803,1,2,0:0:0:0:
64,192,59803,1,0,0:0:0:0:
192,192,59873,128,2,60298:0:0:0:0:
320,192,59873,1,4,0:0:0:0:
320,192,60298,1,2,0:0:0:0:
448,192,60298,1,0,0:0:0:0:
192,192,60369,1,2,0:0:0:0:
64,192,60369,1,0,0:0:0:0:
320,192,60439,128,2,60864:0:0:0:0:
448,192,60439,1,4,0:0:0:0:
64,192,60864,1,2,0:0:0:0:
448,192,60864,1,0,0:0:0:0:
320,192,60935,1,2,0:0:0:0:
192,192,60935,1,0,0:0:0:0:
448,192,61006,128,2,61430:0:0:0:0:
64,192,61006,1,4,0:0:0:0:
192,192,61430,1,2,0:0:0:0:
64,192,61430,1,0,0:0:0:0:
320,192,61501,1,2,0:0:0:0:
448,192,61501,1,0,0:0:0:0:
192,192,61572,1,2,0:0:0:0:
64,192,61572,1,4,0:0:0:0:
64,192,61760,1,2,0:0:0:0:
192,192,61760,1,0,0:0:0:0:
448,192,61760,1,0,0:0:0:0:
64,192,61949,1,2,0:0:0:0:
192,192,61949,1,0,0:0:0:0:
320,192,61949,1,0,0:0:0:0:
64,192,62138,1,2,0:0:0:0:
192,192,62138,1,4,0:0:0:0:
448,192,62138,1,0,0:0:0:0:
448,192,62326,1,2,0:0:0:0:
64,192,62326,1,0,0:0:0:0:
320,192,62326,1,0,0:0:0:0:
64,192,62515,1,2,0:0:0:0:
192,192,62515,1,0,0:0:0:0:
448,192,62515,1,0,0:0:0:0:
448,192,62704,1,2,0:0:0:0:
320,192,62704,1,4,0:0:0:0:
192,192,62798,1,2,0:0:0:0:
320,192,62798,1,0,0:0:0:0:
192,192,62892,1,2,0:0:0:0:
64,192,62892,1,4,0:0:0:0:
320,192,62987,1,2,0:0:0:0:
448,192,62987,1,0,0:0:0:0:
192,192,63081,1,2,0:0:0:0:
64,192,63081,1,4,0:0:0:0:
192,192,63175,1,2,0:0:0:0:
320,192,63175,1,0,0:0:0:0:
448,192,63270,1,2,0:0:0:0:
320,192,63270,1,4,0:0:0:0:
64,192,63270,1,0,0:0:0:0:
192,192,63411,1,0,0:0:0:0:
320,192,63482,1,0,0:0:0:0:
448,192,63553,1,0,0:0:0:0:
64,192,63623,1,0,0:0:0:0:
192,192,63694,1,0,0:0:0:0:
320,192,63765,1,0,0:0:0:0:
448,192,63836,1,2,0:0:0:0:
192,192,63836,1,4,0:0:0:0:
64,192,63836,1,0,0:0:0:0:
320,192,63977,1,0,0:0:0:0:
64,192,64048,1,0,0:0:0:0:
192,192,64119,1,2,0:0:0:0:
448,192,64119,1,4,0:0:0:0:
320,192,64260,1,0,0:0:0:0:
64,192,64402,1,2,0:0:0:0:
192,192,64473,1,0,0:0:0:0:
64,192,64543,1,2,0:0:0:0:
192,192,64614,1,2,0:0:0:0:
64,192,64685,1,2,0:0:0:0:
448,192,64685,1,0,0:0:0:0:
192,192,64756,1,0,0:0:0:0:
320,192,64826,1,2,0:0:0:0:
448,192,64826,1,4,0:0:0:0:
64,192,64826,1,0,0:0:0:0:
192,192,65109,1,0,0:0:0:0:
320,192,65180,1,0,0:0:0:0:
64,192,65251,1,2,0:0:0:0:
448,192,65251,1,0,0:0:0:0:
192,192,65322,1,0,0:0:0:0:
64,192,65392,1,2,0:0:0:0:
320,192,65392,1,0,0:0:0:0:
192,192,65463,1,0,0:0:0:0:
448,192,65534,1,2,0:0:0:0:
320,192,65534,1,0,0:0:0:0:
64,192,65605,1,0,0:0:0:0:
448,192,65675,1,2,0:0:0:0:
64,192,65746,1,0,0:0:0:0:
320,192,65817,1,2,0:0:0:0:
448,192,65817,1,8,0:0:0:0:
192,192,65888,1,2,0:0:0:0:
64,192,65958,1,2,0:0:0:0:
448,192,65958,1,0,0:0:0:0:
320,192,66029,1,2,0:0:0:0:
448,192,66100,1,2,0:0:0:0:
192,192,66100,1,4,0:0:0:0:
64,192,66100,1,0,0:0:0:0:
320,192,66241,1,0,0:0:0:0:
192,192,66312,1,0,0:0:0:0:
448,192,66383,1,8,0:0:0:0:
64,192,66383,1,0,0:0:0:0:
320,192,66524,128,0,66666:0:0:0:0:
448,192,66666,1,2,0:0:0:0:
64,192,66666,1,0,0:0:0:0:
192,192,66737,1,0,0:0:0:0:
64,192,66807,1,0,0:0:0:0:
192,192,66878,1,0,0:0:0:0:
64,192,66949,1,8,0:0:0:0:
320,192,66949,1,0,0:0:0:0:
448,192,66949,1,0,0:0:0:0:
192,192,67090,1,0,0:0:0:0:
320,192,67161,1,0,0:0:0:0:
192,192,67232,1,2,0:0:0:0:
64,192,67232,128,0,67373:0:0:0:0:
448,192,67232,1,0,0:0:0:0:
320,192,67373,1,0,0:0:0:0:
192,192,67515,128,8,67656:0:0:0:0:
448,192,67515,1,0,0:0:0:0:
64,192,67515,1,0,0:0:0:0:
320,192,67656,1,0,0:0:0:0:
192,192,67727,1,0,0:0:0:0:
64,192,67798,1,2,0:0:0:0:
448,192,67798,128,0,67939:0:0:0:0:
192,192,67939,1,2,0:0:0:0:
320,192,67987,1,2,0:0:0:0:
448,192,68034,1,2,0:0:0:0:
192,192,68081,1,2,0:0:0:0:
64,192,68081,1,8,0:0:0:0:
320,192,68223,1,2,0:0:0:0:
448,192,68364,1,2,0:0:0:0:
192,192,68364,1,4,0:0:0:0:
64,192,68364,1,0,0:0:0:0:
320,192,68506,1,0,0:0:0:0:
448,192,68576,1,0,0:0:0:0:
64,192,68647,1,8,0:0:0:0:
320,192,68647,1,0,0:0:0:0:
192,192,68718,1,0,0:0:0:0:
448,192,68789,1,0,0:0:0:0:
320,192,68859,1,0,0:0:0:0:
448,192,68930,1,2,0:0:0:0:
64,192,68930,1,0,0:0:0:0:
192,192,69001,1,0,0:0:0:0:
320,192,69072,1,0,0:0:0:0:
64,192,69072,1,0,0:0:0:0:
192,192,69142,1,0,0:0:0:0:
320,192,69213,1,8,0:0:0:0:
448,192,69213,1,0,0:0:0:0:
192,192,69284,1,0,0:0:0:0:
64,192,69355,1,0,0:0:0:0:
448,192,69355,1,0,0:0:0:0:
320,192,69425,1,0,0:0:0:0:
192,192,69496,1,2,0:0:0:0:
64,192,69496,1,4,0:0:0:0:
448,192,69496,1,0,0:0:0:0:
320,192,69638,1,0,0:0:0:0:
192,192,69708,1,0,0:0:0:0:
64,192,69779,1,8,0:0:0:0:
448,192,69779,1,0,0:0:0:0:
320,192,69850,1,0,0:0:0:0:
192,192,69921,1,0,0:0:0:0:
320,192,69991,1,0,0:0:0:0:
448,192,70062,1,2,0:0:0:0:
64,192,70062,1,0,0:0:0:0:
192,192,70133,1,0,0:0:0:0:
320,192,70204,1,2,0:0:0:0:
448,192,70204,1,0,0:0:0:0:
192,192,70274,1,2,0:0:0:0:
64,192,70345,1,2,0:0:0:0:
448,192,70345,1,0,0:0:0:0:
320,192,70416,1,0,0:0:0:0:
192,192,70487,1,2,0:0:0:0:
64,192,70487,1,0,0:0:0:0:
320,192,70557,1,0,0:0:0:0:
64,192,70628,1,2,0:0:0:0:
192,192,70628,1,4,0:0:0:0:
448,192,70628,128,0,70770:0:0:0:0:
320,192,70817,128,0,70958:0:0:0:0:
64,192,70817,1,0,0:0:0:0:
192,192,71006,128,0,71147:0:0:0:0:
448,192,71006,1,0,0:0:0:0:
64,192,71194,128,2,71336:0:0:0:0:
448,192,71194,1,4,0:0:0:0:
320,192,71194,1,0,0:0:0:0:
192,192,71383,128,0,71524:0:0:0:0:
448,192,71383,1,0,0:0:0:0:
320,192,71572,128,0,71713:0:0:0:0:
64,192,71572,1,0,0:0:0:0:
192,192,71760,1,2,0:0:0:0:
64,192,71760,1,0,0:0:0:0:
320,192,71855,1,2,0:0:0:0:
448,192,71855,1,0,0:0:0:0:
64,192,71949,1,2,0:0:0:0:
192,192,71949,1,0,0:0:0:0:
192,192,72043,1,2,0:0:0:0:
320,192,72043,1,0,0:0:0:0:
320,192,72138,1,2,0:0:0:0:
448,192,72138,1,0,0:0:0:0:
192,192,72232,1,2,0:0:0:0:
64,192,72232,1,0,0:0:0:0:
64,192,72326,1,2,0:0:0:0:
320,192,72326,1,4,0:0:0:0:
448,192,72326,1,0,0:0:0:0:
192,192,72609,1,0,0:0:0:0:
320,192,72892,1,2,0:0:0:0:
448,192,72892,1,4,0:0:0:0:
64,192,72892,1,0,0:0:0:0:
192,192,73034,1,0,0:0:0:0:
320,192,73034,1,0,0:0:0:0:
192,192,73175,1,8,0:0:0:0:
64,192,73175,1,0,0:0:0:0:
64,192,73317,1,0,0:0:0:0:
448,192,73317,1,0,0:0:0:0:
320,192,73458,1,2,0:0:0:0:
448,192,73458,1,0,0:0:0:0:
192,192,73529,1,0,0:0:0:0:
64,192,73600,1,0,0:0:0:0:
192,192,73671,1,0,0:0:0:0:
448,192,73741,1,8,0:0:0:0:
64,192,73741,1,0,0:0:0:0:
320,192,73741,1,0,0:0:0:0:
192,192,73883,1,0,0:0:0:0:
320,192,73883,1,0,0:0:0:0:
192,192,74024,1,2,0:0:0:0:
64,192,74024,1,0,0:0:0:0:
320,192,74166,1,0,0:0:0:0:
448,192,74166,1,0,0:0:0:0:
320,192,74307,1,8,0:0:0:0:
64,192,74307,1,0,0:0:0:0:
192,192,74449,1,0,0:0:0:0:
448,192,74449,1,0,0:0:0:0:
64,192,74590,1,2,0:0:0:0:
192,192,74590,1,0,0:0:0:0:
320,192,74661,1,0,0:0:0:0:
448,192,74732,1,0,0:0:0:0:
320,192,74803,1,0,0:0:0:0:
192,192,74873,1,8,0:0:0:0:
64,192,74873,1,0,0:0:0:0:
448,192,74873,1,0,0:0:0:0:
320,192,75015,1,2,0:0:0:0:
192,192,75015,1,0,0:0:0:0:
448,192,75156,1,2,0:0:0:0:
320,192,75156,1,4,0:0:0:0:
64,192,75156,1,0,0:0:0:0:
64,192,75298,1,0,0:0:0:0:
448,192,75298,1,0,0:0:0:0:
192,192,75439,1,8,0:0:0:0:
320,192,75439,1,0,0:0:0:0:
320,192,75581,1,0,0:0:0:0:
448,192,75581,1,0,0:0:0:0:
448,192,75723,1,2,0:0:0:0:
64,192,75723,1,0,0:0:0:0:
320,192,75793,1,0,0:0:0:0:
192,192,75864,1,0,0:0:0:0:
320,192,75935,1,0,0:0:0:0:
192,192,76006,1,8,0:0:0:0:
64,192,76006,1,0,0:0:0:0:
448,192,76006,1,0,0:0:0:0:
320,192,76147,1,0,0:0:0:0:
192,192,76218,1,0,0:0:0:0:
64,192,76289,1,2,0:0:0:0:
448,192,76289,1,0,0:0:0:0:
320,192,76359,1,0,0:0:0:0:
448,192,76430,1,0,0:0:0:0:
320,192,76501,1,0,0:0:0:0:
448,192,76572,1,8,0:0:0:0:
192,192,76572,1,0,0:0:0:0:
64,192,76572,1,0,0:0:0:0:
320,192,76713,1,0,0:0:0:0:
192,192,76855,1,2,0:0:0:0:
64,192,76855,1,0,0:0:0:0:
448,192,76996,1,2,0:0:0:0:
320,192,77043,1,2,0:0:0:0:
192,192,77090,1,2,0:0:0:0:
448,192,77138,1,0,0:0:0:0:
64,192,77138,1,2,0:0:0:0:
192,192,77279,1,2,0:0:0:0:
64,192,77421,1,4,0:0:0:0:
320,192,77421,1,2,0:0:0:0:
448,192,77421,1,0,0:0:0:0:
192,192,77562,1,2,0:0:0:0:
64,192,77562,1,4,0:0:0:0:
320,192,77562,1,0,0:0:0:0:
448,192,77845,1,4,0:0:0:0:
320,192,77845,1,2,0:0:0:0:
192,192,77845,1,0,0:0:0:0:
448,192,78128,1,4,0:0:0:0:
320,192,78128,1,2,0:0:0:0:
192,192,78128,1,0,0:0:0:0:
64,192,78411,1,4,0:0:0:0:
192,192,78411,1,2,0:0:0:0:
448,192,78411,1,0,0:0:0:0:
64,192,78694,1,2,0:0:0:0:
448,192,78694,1,4,0:0:0:0:
320,192,78694,1,0,0:0:0:0:
192,192,78765,1,0,0:0:0:0:
320,192,78836,1,0,0:0:0:0:
448,192,78906,1,0,0:0:0:0:
64,192,78977,1,2,0:0:0:0:
192,192,78977,1,4,0:0:0:0:
320,192,79048,1,0,0:0:0:0:
448,192,79119,1,4,0:0:0:0:
64,192,79119,1,2,0:0:0:0:
320,192,79189,1,0,0:0:0:0:
192,192,79260,1,0,0:0:0:0:
320,192,79331,1,0,0:0:0:0:
448,192,79402,1,4,0:0:0:0:
64,192,79402,1,2,0:0:0:0:
192,192,79473,1,2,0:0:0:0:
320,192,79543,1,2,0:0:0:0:
448,192,79543,1,0,0:0:0:0:
192,192,79614,1,2,0:0:0:0:
64,192,79685,1,2,0:0:0:0:
448,192,79685,1,4,0:0:0:0:
192,192,79756,1,8,0:0:0:0:
320,192,79826,1,8,0:0:0:0:
448,192,79897,1,2,0:0:0:0:
64,192,79897,1,4,0:0:0:0:
320,192,79968,1,8,0:0:0:0:
192,192,80039,1,8,0:0:0:0:
448,192,80109,1,2,0:0:0:0:
320,192,80109,1,0,0:0:0:0:
192,192,80180,1,2,0:0:0:0:
64,192,80180,1,0,0:0:0:0:
320,192,80251,1,4,0:0:0:0:
448,192,80251,1,2,0:0:0:0:
192,192,80322,1,8,0:0:0:0:
320,192,80392,1,8,0:0:0:0:
448,192,80463,1,2,0:0:0:0:
64,192,80463,1,4,0:0:0:0:
192,192,80534,1,8,0:0:0:0:
320,192,80605,1,8,0:0:0:0:
64,192,80675,1,2,0:0:0:0:
192,192,80675,1,0,0:0:0:0:
320,192,80746,1,2,0:0:0:0:
448,192,80746,1,0,0:0:0:0:
192,192,80817,1,2,0:0:0:0:
64,192,80817,1,4,0:0:0:0:
320,192,80888,1,8,0:0:0:0:
192,192,80958,1,8,0:0:0:0:
64,192,81029,1,2,0:0:0:0:
448,192,81029,1,4,0:0:0:0:
320,192,81100,1,8,0:0:0:0:
192,192,81171,1,8,0:0:0:0:
448,192,81241,1,2,0:0:0:0:
64,192,81241,1,0,0:0:0:0:
320,192,81312,1,2,0:0:0:0:
192,192,81312,1,0,0:0:0:0:
64,192,81383,1,2,0:0:0:0:
448,192,81383,128,4,81666:0:0:0:0:
192,192,81666,1,2,0:0:0:0:
64,192,81666,1,8,0:0:0:0:
320,192,81666,1,0,0:0:0:0:
320,192,81949,1,4,0:0:0:0:
448,192,81949,1,2,0:0:0:0:
64,192,81949,1,0,0:0:0:0:
192,192,82232,1,0,0:0:0:0:
320,192,82373,1,0,0:0:0:0:
448,192,82515,1,0,0:0:0:0:
192,192,82609,1,0,0:0:0:0:
64,192,82656,1,0,0:0:0:0:
448,192,82798,1,0,0:0:0:0:
192,192,82939,1,0,0:0:0:0:
448,192,83081,1,0,0:0:0:0:
320,192,83175,1,0,0:0:0:0:
192,192,83270,1,0,0:0:0:0:
64,192,83364,1,0,0:0:0:0:
448,192,83458,1,0,0:0:0:0:
320,192,83553,1,0,0:0:0:0:
192,192,83647,1,0,0:0:0:0:
64,192,83647,1,0,0:0:0:0:
64,192,83930,1,2,0:0:0:0:
448,192,83930,1,4,0:0:0:0:
448,192,84213,1,2,0:0:0:0:
320,192,84213,1,4,0:0:0:0:
192,192,84213,1,0,0:0:0:0:
64,192,84496,1,0,0:0:0:0:
64,192,84638,1,0,0:0:0:0:
320,192,84708,1,0,0:0:0:0:
64,192,84779,1,0,0:0:0:0:
448,192,84850,1,0,0:0:0:0:
192,192,84921,1,0,0:0:0:0:
448,192,84991,1,0,0:0:0:0:
64,192,85062,1,0,0:0:0:0:
320,192,85133,1,0,0:0:0:0:
64,192,85204,1,0,0:0:0:0:
448,192,85345,1,2,0:0:0:0:
320,192,85345,1,4,0:0:0:0:
64,192,85487,1,0,0:0:0:0:
320,192,85557,1,0,0:0:0:0:
64,192,85628,1,0,0:0:0:0:
448,192,85699,1,0,0:0:0:0:
192,192,85770,1,0,0:0:0:0:
448,192,85840,1,0,0:0:0:0:
192,192,85911,1,0,0:0:0:0:
64,192,85911,1,0,0:0:0:0:
192,192,86053,1,0,0:0:0:0:
64,192,86053,1,0,0:0:0:0:
320,192,86194,1,2,0:0:0:0:
448,192,86194,1,4,0:0:0:0:
448,192,86336,1,0,0:0:0:0:
320,192,86336,1,0,0:0:0:0:
192,192,86477,1,2,0:0:0:0:
64,192,86477,1,8,0:0:0:0:
448,192,86477,1,0,0:0:0:0:
320,192,86619,1,0,0:0:0:0:
192,192,86619,1,0,0:0:0:0:
64,192,86760,1,2,0:0:0:0:
448,192,86760,1,8,0:0:0:0:
192,192,86902,1,0,0:0:0:0:
64,192,86902,1,0,0:0:0:0:
320,192,87043,1,2,0:0:0:0:
448,192,87043,1,8,0:0:0:0:
192,192,87185,1,0,0:0:0:0:
320,192,87185,1,0,0:0:0:0:
448,192,87326,1,8,0:0:0:0:
64,192,87326,1,2,0:0:0:0:
192,192,87468,1,2,0:0:0:0:
448,192,87468,1,0,0:0:0:0:
320,192,87539,1,0,0:0:0:0:
192,192,87609,1,2,0:0:0:0:
64,192,87609,1,8,0:0:0:0:
320,192,87751,1,0,0:0:0:0:
192,192,87751,1,0,0:0:0:0:
448,192,87892,1,8,0:0:0:0:
64,192,87892,1,2,0:0:0:0:
192,192,88034,1,2,0:0:0:0:
320,192,88034,1,0,0:0:0:0:
192,192,88175,1,8,0:0:0:0:
64,192,88175,1,2,0:0:0:0:
448,192,88317,1,2,0:0:0:0:
320,192,88317,1,0,0:0:0:0:
448,192,88458,1,2,0:0:0:0:
64,192,88458,1,8,0:0:0:0:
320,192,88600,1,2,0:0:0:0:
64,192,88600,1,0,0:0:0:0:
192,192,88671,1,0,0:0:0:0:
448,192,88741,1,4,0:0:0:0:
320,192,88741,1,2,0:0:0:0:
64,192,88741,1,0,0:0:0:0:
192,192,88883,1,2,0:0:0:0:
320,192,88883,1,4,0:0:0:0:
448,192,88883,1,0,0:0:0:0:
192,192,89307,1,2,0:0:0:0:
64,192,89307,1,4,0:0:0:0:
320,192,89307,1,0,0:0:0:0:
64,192,89449,1,4,0:0:0:0:
192,192,89449,1,2,0:0:0:0:
448,192,89449,1,0,0:0:0:0:
320,192,89873,1,4,0:0:0:0:
64,192,89873,1,2,0:0:0:0:
192,192,89873,1,0,0:0:0:0:
448,192,90015,1,4,0:0:0:0:
320,192,90015,1,2,0:0:0:0:
64,192,90015,1,0,0:0:0:0:
192,192,90439,1,2,0:0:0:0:
320,192,90439,1,4,0:0:0:0:
64,192,90439,1,0,0:0:0:0:
64,192,90581,1,4,0:0:0:0:
448,192,90581,1,2,0:0:0:0:
320,192,90581,1,0,0:0:0:0:
192,192,90652,1,0,0:0:0:0:
320,192,90723,1,0,0:0:0:0:
448,192,90793,1,0,0:0:0:0:
192,192,90864,1,0,0:0:0:0:
320,192,90935,1,0,0:0:0:0:
448,192,91006,1,4,0:0:0:0:
64,192,91006,1,2,0:0:0:0:
448,192,91218,1,0,0:0:0:0:
64,192,91430,1,0,0:0:0:0:
320,192,91572,1,0,0:0:0:0:
192,192,91642,1,0,0:0:0:0:
320,192,91713,1,0,0:0:0:0:
192,192,91784,1,0,0:0:0:0:
320,192,91855,1,0,0:0:0:0:
192,192,91996,1,0,0:0:0:0:
320,192,92067,1,0,0:0:0:0:
448,192,92138,1,0,0:0:0:0:
320,192,92350,1,0,0:0:0:0:
448,192,92562,1,0,0:0:0:0:
64,192,92704,1,0,0:0:0:0:
320,192,92774,1,0,0:0:0:0:
64,192,92845,1,0,0:0:0:0:
320,192,92916,1,0,0:0:0:0:
64,192,92987,1,0,0:0:0:0:
448,192,93128,1,0,0:0:0:0:
320,192,93199,1,0,0:0:0:0:
192,192,93270,1,0,0:0:0:0:
320,192,93482,1,0,0:0:0:0:
64,192,93694,1,0,0:0:0:0:
448,192,93836,1,0,0:0:0:0:
192,192,93906,1,0,0:0:0:0:
448,192,93977,1,0,0:0:0:0:
192,192,94048,1,0,0:0:0:0:
448,192,94119,1,0,0:0:0:0:
192,192,94260,1,0,0:0:0:0:
320,192,94331,1,0,0:0:0:0:
448,192,94402,1,2,0:0:0:0:
192,192,94402,1,4,0:0:0:0:
64,192,94402,1,0,0:0:0:0:
192,192,94543,1,4,0:0:0:0:
64,192,94543,1,2,0:0:0:0:
448,192,94543,1,0,0:0:0:0:
64,192,94685,1,4,0:0:0:0:
192,192,94685,1,2,0:0:0:0:
448,192,94826,1,4,0:0:0:0:
320,192,94826,1,2,0:0:0:0:
192,192,94897,1,2,0:0:0:0:
64,192,94968,1,2,0:0:0:0:
320,192,94968,1,4,0:0:0:0:
448,192,94968,1,0,0:0:0:0:
192,192,95109,1,2,0:0:0:0:
64,192,95109,1,4,0:0:0:0:
448,192,95109,1,0,0:0:0:0:
192,192,95392,1,2,0:0:0:0:
320,192,95392,1,4,0:0:0:0:
448,192,95392,1,0,0:0:0:0:
448,192,95534,1,2,0:0:0:0:
320,192,95534,1,4,0:0:0:0:
64,192,95534,1,0,0:0:0:0:
192,192,95675,1,0,0:0:0:0:
320,192,95746,1,0,0:0:0:0:
448,192,95817,1,8,0:0:0:0:
64,192,95817,1,0,0:0:0:0:
192,192,95888,1,0,0:0:0:0:
320,192,95958,1,0,0:0:0:0:
192,192,96029,1,0,0:0:0:0:
64,192,96100,1,2,0:0:0:0:
448,192,96100,1,0,0:0:0:0:
320,192,96171,1,0,0:0:0:0:
448,192,96241,1,0,0:0:0:0:
192,192,96312,1,0,0:0:0:0:
320,192,96383,1,8,0:0:0:0:
64,192,96383,1,0,0:0:0:0:
192,192,96454,1,0,0:0:0:0:
448,192,96524,1,0,0:0:0:0:
64,192,96595,1,0,0:0:0:0:
320,192,96666,1,2,0:0:0:0:
448,192,96666,1,4,0:0:0:0:
192,192,96666,1,0,0:0:0:0:
64,192,96807,1,0,0:0:0:0:
192,192,96878,1,0,0:0:0:0:
64,192,96949,1,8,0:0:0:0:
448,192,96949,1,0,0:0:0:0:
320,192,97090,1,0,0:0:0:0:
192,192,97161,1,0,0:0:0:0:
64,192,97232,1,2,0:0:0:0:
448,192,97232,1,0,0:0:0:0:
320,192,97303,1,0,0:0:0:0:
448,192,97373,1,2,0:0:0:0:
64,192,97444,1,2,0:0:0:0:
320,192,97515,1,2,0:0:0:0:
192,192,97515,1,0,0:0:0:0:
448,192,97586,1,0,0:0:0:0:
192,192,97656,1,2,0:0:0:0:
64,192,97727,1,0,0:0:0:0:
320,192,97798,1,2,0:0:0:0:
448,192,97798,1,4,0:0:0:0:
192,192,97798,128,0,97939:0:0:0:0:
320,192,97987,1,0,0:0:0:0:
64,192,97987,128,0,98128:0:0:0:0:
192,192,98175,128,0,98317:0:0:0:0:
448,192,98175,1,0,0:0:0:0:
448,192,98364,128,2,98506:0:0:0:0:
64,192,98364,1,4,0:0:0:0:
320,192,98364,1,0,0:0:0:0:
320,192,98553,128,0,98694:0:0:0:0:
192,192,98553,1,0,0:0:0:0:
64,192,98741,128,0,98883:0:0:0:0:
448,192,98741,1,0,0:0:0:0:
448,192,98930,1,2,0:0:0:0:
320,192,98930,1,4,0:0:0:0:
320,192,99024,1,2,0:0:0:0:
448,192,99024,1,0,0:0:0:0:
192,192,99119,1,2,0:0:0:0:
64,192,99119,1,0,0:0:0:0:
64,192,99213,1,4,0:0:0:0:
192,192,99213,1,2,0:0:0:0:
320,192,99307,1,2,0:0:0:0:
448,192,99307,1,0,0:0:0:0:
320,192,99402,1,2,0:0:0:0:
448,192,99402,1,0,0:0:0:0:
192,192,99496,1,4,0:0:0:0:
64,192,99496,1,2,0:0:0:0:
448,192,99496,1,0,0:0:0:0:
320,192,99779,1,0,0:0:0:0:
320,192,100062,1,2,0:0:0:0:
448,192,100062,1,4,0:0:0:0:
64,192,100062,1,0,0:0:0:0:
320,192,100204,1,0,0:0:0:0:
192,192,100204,1,0,0:0:0:0:
64,192,100345,1,8,0:0:0:0:
192,192,100345,1,0,0:0:0:0:
320,192,100487,1,0,0:0:0:0:
448,192,100487,1,0,0:0:0:0:
64,192,100628,1,2,0:0:0:0:
448,192,100628,1,0,0:0:0:0:
192,192,100699,1,0,0:0:0:0:
64,192,100770,1,0,0:0:0:0:
192,192,100840,1,0,0:0:0:0:
64,192,100911,1,8,0:0:0:0:
448,192,100911,1,0,0:0:0:0:
320,192,100911,1,0,0:0:0:0:
192,192,101053,1,0,0:0:0:0:
320,192,101053,1,0,0:0:0:0:
64,192,101194,1,2,0:0:0:0:
448,192,101194,1,0,0:0:0:0:
320,192,101336,1,0,0:0:0:0:
448,192,101336,1,0,0:0:0:0:
192,192,101477,1,8,0:0:0:0:
320,192,101477,1,0,0:0:0:0:
64,192,101619,1,0,0:0:0:0:
192,192,101619,1,0,0:0:0:0:
448,192,101760,1,2,0:0:0:0:
64,192,101760,1,0,0:0:0:0:
320,192,101831,1,0,0:0:0:0:
448,192,101902,1,0,0:0:0:0:
320,192,101973,1,0,0:0:0:0:
448,192,102043,1,8,0:0:0:0:
192,192,102043,1,0,0:0:0:0:
64,192,102043,1,0,0:0:0:0:
320,192,102185,1,2,0:0:0:0:
64,192,102185,1,0,0:0:0:0:
192,192,102326,1,2,0:0:0:0:
64,192,102326,1,4,0:0:0:0:
448,192,102326,1,0,0:0:0:0:
192,192,102468,1,2,0:0:0:0:
64,192,102468,1,4,0:0:0:0:
448,192,102468,1,0,0:0:0:0:
192,192,102609,1,2,0:0:0:0:
320,192,102656,1,2,0:0:0:0:
448,192,102704,1,2,0:0:0:0:
64,192,102751,1,2,0:0:0:0:
192,192,102822,1,2,0:0:0:0:
448,192,102892,1,2,0:0:0:0:
320,192,102892,1,4,0:0:0:0:
192,192,103034,1,2,0:0:0:0:
64,192,103034,1,4,0:0:0:0:
448,192,103034,1,0,0:0:0:0:
320,192,103175,1,2,0:0:0:0:
192,192,103223,1,2,0:0:0:0:
64,192,103270,1,2,0:0:0:0:
448,192,103317,1,2,0:0:0:0:
320,192,103388,1,2,0:0:0:0:
192,192,103458,1,2,0:0:0:0:
64,192,103458,1,4,0:0:0:0:
192,192,103600,1,2,0:0:0:0:
320,192,103600,1,4,0:0:0:0:
64,192,103600,1,0,0:0:0:0:
448,192,103741,1,2,0:0:0:0:
320,192,103777,1,2,0:0:0:0:
192,192,103812,1,2,0:0:0:0:
64,192,103848,1,2,0:0:0:0:
448,192,103883,1,2,0:0:0:0:
320,192,103954,1,2,0:0:0:0:
64,192,104024,1,4,0:0:0:0:
192,192,104024,1,2,0:0:0:0:
320,192,104166,1,2,0:0:0:0:
192,192,104166,1,4,0:0:0:0:
448,192,104166,1,0,0:0:0:0:
64,192,104307,1,2,0:0:0:0:
192,192,104343,1,2,0:0:0:0:
320,192,104378,1,2,0:0:0:0:
448,192,104414,1,2,0:0:0:0:
192,192,104449,1,2,0:0:0:0:
64,192,104449,1,0,0:0:0:0:
64,192,104590,1,2,0:0:0:0:
448,192,104590,1,4,0:0:0:0:
192,192,104590,1,0,0:0:0:0:
320,192,104732,1,4,0:0:0:0:
448,192,104732,1,2,0:0:0:0:
192,192,104732,1,0,0:0:0:0:
64,192,105015,1,4,0:0:0:0:
448,192,105015,1,2,0:0:0:0:
320,192,105015,1,0,0:0:0:0:
192,192,105298,1,4,0:0:0:0:
64,192,105298,1,2,0:0:0:0:
320,192,105298,1,0,0:0:0:0:
192,192,105581,1,4,0:0:0:0:
64,192,105581,1,2,0:0:0:0:
448,192,105581,1,0,0:0:0:0:
320,192,105864,1,2,0:0:0:0:
448,192,105864,1,4,0:0:0:0:
192,192,105935,1,0,0:0:0:0:
64,192,105935,1,0,0:0:0:0:
320,192,106006,1,4,0:0:0:0:
448,192,106006,1,2,0:0:0:0:
448,192,106147,1,4,0:0:0:0:
192,192,106147,1,2,0:0:0:0:
320,192,106289,1,4,0:0:0:0:
64,192,106289,1,2,0:0:0:0:
192,192,106289,1,0,0:0:0:0:
64,192,106430,1,4,0:0:0:0:
448,192,106430,1,2,0:0:0:0:
320,192,106572,1,4,0:0:0:0:
448,192,106572,1,2,0:0:0:0:
64,192,106572,1,0,0:0:0:0:
192,192,106713,1,2,0:0:0:0:
320,192,106784,1,2,0:0:0:0:
64,192,106855,1,2,0:0:0:0:
448,192,106855,1,0,0:0:0:0:
192,192,106996,1,0,0:0:0:0:
448,192,107279,1,0,0:0:0:0:
320,192,107562,1,0,0:0:0:0:
192,192,107845,1,0,0:0:0:0:
64,192,108128,1,0,0:0:0:0:
192,192,108270,1,0,0:0:0:0:
448,192,108411,1,0,0:0:0:0:
320,192,108553,1,0,0:0:0:0:
192,192,108694,1,0,0:0:0:0:
64,192,108836,1,2,0:0:0:0:
448,192,108836,1,4,0:0:0:0:
320,192,108977,1,0,0:0:0:0:
448,192,109119,1,4,0:0:0:0:
192,192,109119,1,2,0:0:0:0:
64,192,109119,1,0,0:0:0:0:
320,192,109402,1,0,0:0:0:0:
192,192,109543,1,0,0:0:0:0:
448,192,109685,1,0,0:0:0:0:
320,192,109826,1,0,0:0:0:0:
64,192,109968,1,0,0:0:0:0:
192,192,110109,1,0,0:0:0:0:
448,192,110251,1,0,0:0:0:0:
64,192,110392,1,0,0:0:0:0:
448,192,110534,1,0,0:0:0:0:
64,192,110675,1,0,0:0:0:0:
448,192,110817,1,0,0:0:0:0:
320,192,110958,1,0,0:0:0:0:
64,192,111100,1,2,0:0:0:0:
192,192,111100,1,0,0:0:0:0:
320,192,111241,1,0,0:0:0:0:
448,192,111383,1,2,0:0:0:0:
64,192,111383,1,4,0:0:0:0:
192,192,111454,1,8,0:0:0:0:
320,192,111524,1,8,0:0:0:0:
448,192,111595,1,2,0:0:0:0:
64,192,111595,1,4,0:0:0:0:
320,192,111666,1,8,0:0:0:0:
192,192,111737,1,8,0:0:0:0:
320,192,111807,1,2,0:0:0:0:
448,192,111807,1,0,0:0:0:0:
192,192,111878,1,2,0:0:0:0:
64,192,111878,1,0,0:0:0:0:
320,192,111949,1,2,0:0:0:0:
448,192,111949,1,4,0:0:0:0:
192,192,112020,1,8,0:0:0:0:
320,192,112090,1,8,0:0:0:0:
64,192,112161,1,2,0:0:0:0:
448,192,112161,1,4,0:0:0:0:
192,192,112232,1,8,0:0:0:0:
320,192,112303,1,8,0:0:0:0:
64,192,112373,1,2,0:0:0:0:
192,192,112373,1,0,0:0:0:0:
320,192,112444,1,2,0:0:0:0:
448,192,112444,1,0,0:0:0:0:
192,192,112515,1,2,0:0:0:0:
64,192,112515,1,4,0:0:0:0:
320,192,112586,1,8,0:0:0:0:
192,192,112656,1,8,0:0:0:0:
64,192,112727,1,2,0:0:0:0:
448,192,112727,1,4,0:0:0:0:
320,192,112798,1,8,0:0:0:0:
192,192,112869,1,8,0:0:0:0:
448,192,112939,1,2,0:0:0:0:
320,192,112939,1,0,0:0:0:0:
192,192,113010,1,2,0:0:0:0:
64,192,113010,1,0,0:0:0:0:
448,192,113081,128,2,113364:0:0:0:0:
320,192,113081,1,4,0:0:0:0:
192,192,113364,1,8,0:0:0:0:
64,192,113364,1,2,0:0:0:0:
320,192,113435,1,0,0:0:0:0:
448,192,113506,1,0,0:0:0:0:
192,192,113576,1,0,0:0:0:0:
448,192,113647,1,2,0:0:0:0:
64,192,113647,1,0,0:0:0:0:
320,192,113718,1,2,0:0:0:0:
192,192,113789,1,2,0:0:0:0:
64,192,113789,1,0,0:0:0:0:
320,192,113859,1,2,0:0:0:0:
448,192,113930,1,8,0:0:0:0:
64,192,113930,1,2,0:0:0:0:
192,192,113930,1,0,0:0:0:0:
320,192,114072,128,0,114355:0:0:0:0:
448,192,114355,1,2,0:0:0:0:
192,192,114355,1,0,0:0:0:0:
448,192,114496,1,8,0:0:0:0:
320,192,114496,1,0,0:0:0:0:
64,192,114496,1,0,0:0:0:0:
192,192,114638,1,0,0:0:0:0:
64,192,114779,1,2,0:0:0:0:
448,192,114779,1,0,0:0:0:0:
320,192,114921,1,0,0:0:0:0:
192,192,114991,1,0,0:0:0:0:
64,192,115062,1,8,0:0:0:0:
320,192,115062,1,0,0:0:0:0:
448,192,115062,1,0,0:0:0:0:
192,192,115204,128,2,115487:0:0:0:0:
320,192,115204,1,0,0:0:0:0:
320,192,115487,1,2,0:0:0:0:
448,192,115487,1,0,0:0:0:0:
64,192,115628,1,8,0:0:0:0:
192,192,115628,1,0,0:0:0:0:
448,192,115628,1,0,0:0:0:0:
320,192,115770,1,0,0:0:0:0:
448,192,115911,1,2,0:0:0:0:
64,192,115911,1,0,0:0:0:0:
192,192,116053,1,0,0:0:0:0:
320,192,116123,1,0,0:0:0:0:
448,192,116194,1,8,0:0:0:0:
192,192,116194,1,0,0:0:0:0:
64,192,116194,1,0,0:0:0:0:
448,192,116336,128,0,116619:0:0:0:0:
192,192,116619,1,2,0:0:0:0:
64,192,116619,1,0,0:0:0:0:
320,192,116760,1,8,0:0:0:0:
448,192,116760,1,0,0:0:0:0:
64,192,116760,1,0,0:0:0:0:
192,192,116902,1,0,0:0:0:0:
64,192,117043,1,2,0:0:0:0:
448,192,117043,1,0,0:0:0:0:
320,192,117185,1,0,0:0:0:0:
192,192,117326,1,8,0:0:0:0:
448,192,117326,1,0,0:0:0:0:
64,192,117468,128,2,117751:0:0:0:0:
320,192,117468,1,0,0:0:0:0:
192,192,117751,1,2,0:0:0:0:
320,192,117751,1,0,0:0:0:0:
192,192,117892,1,8,0:0:0:0:
64,192,117892,1,0,0:0:0:0:
448,192,117892,1,0,0:0:0:0:
320,192,118034,1,0,0:0:0:0:
320,192,118175,1,2,0:0:0:0:
448,192,118175,1,4,0:0:0:0:
64,192,118175,1,0,0:0:0:0:
192,192,118317,1,0,0:0:0:0:
64,192,118388,1,0,0:0:0:0:
192,192,118458,1,8,0:0:0:0:
320,192,118458,1,0,0:0:0:0:
448,192,118458,1,0,0:0:0:0:
64,192,118600,128,0,118883:0:0:0:0:
320,192,118883,1,2,0:0:0:0:
448,192,118883,1,0,0:0:0:0:
192,192,119024,1,8,0:0:0:0:
64,192,119024,1,0,0:0:0:0:
448,192,119024,1,0,0:0:0:0:
320,192,119166,1,0,0:0:0:0:
64,192,119307,1,6,0:0:0:0:
448,192,119307,1,0,0:0:0:0:
320,192,119449,1,0,0:0:0:0:
448,192,119520,1,0,0:0:0:0:
320,192,119590,1,8,0:0:0:0:
192,192,119590,1,0,0:0:0:0:
64,192,119590,1,0,0:0:0:0:
448,192,119732,128,2,120015:0:0:0:0:
64,192,119732,1,0,0:0:0:0:
320,192,120015,1,2,0:0:0:0:
192,192,120015,1,0,0:0:0:0:
320,192,120156,1,8,0:0:0:0:
448,192,120156,1,0,0:0:0:0:
64,192,120156,1,0,0:0:0:0:
192,192,120298,1,0,0:0:0:0:
192,192,120439,1,2,0:0:0:0:
64,192,120439,1,4,0:0:0:0:
448,192,120439,1,0,0:0:0:0:
320,192,120581,1,0,0:0:0:0:
192,192,120652,1,0,0:0:0:0:
64,192,120723,1,8,0:0:0:0:
320,192,120723,1,0,0:0:0:0:
448,192,120723,1,0,0:0:0:0:
320,192,120864,1,2,0:0:0:0:
192,192,120864,128,0,121147:0:0:0:0:
64,192,121006,1,2,0:0:0:0:
448,192,121006,1,4,0:0:0:0:
320,192,121147,1,0,0:0:0:0:
64,192,121289,1,2,0:0:0:0:
448,192,121289,1,0,0:0:0:0:
192,192,121359,1,2,0:0:0:0:
320,192,121430,1,2,0:0:0:0:
64,192,121430,1,0,0:0:0:0:
192,192,121501,1,0,0:0:0:0:
320,192,121572,1,2,0:0:0:0:
448,192,121572,1,4,0:0:0:0:
64,192,121572,1,0,0:0:0:0:
192,192,121760,1,2,0:0:0:0:
64,192,121760,1,4,0:0:0:0:
448,192,121760,1,0,0:0:0:0:
448,192,121949,1,4,0:0:0:0:
320,192,121949,1,2,0:0:0:0:
192,192,121949,1,0,0:0:0:0:
192,192,122138,1,4,0:0:0:0:
64,192,122138,1,2,0:0:0:0:
320,192,122138,1,0,0:0:0:0:
64,192,122326,1,4,0:0:0:0:
448,192,122326,1,2,0:0:0:0:
320,192,122326,1,0,0:0:0:0:
192,192,122515,1,4,0:0:0:0:
320,192,122515,1,2,0:0:0:0:
448,192,122515,1,0,0:0:0:0:
192,192,122704,1,4,0:0:0:0:
64,192,122704,1,2,0:0:0:0:
448,192,122704,1,0,0:0:0:0:
448,192,122987,1,2,0:0:0:0:
64,192,122987,1,4,0:0:0:0:
320,192,122987,1,0,0:0:0:0:
192,192,123057,1,0,0:0:0:0:
320,192,123128,1,0,0:0:0:0:
448,192,123199,1,0,0:0:0:0:
192,192,123270,1,8,0:0:0:0:
64,192,123270,1,0,0:0:0:0:
448,192,123340,1,0,0:0:0:0:
320,192,123411,1,0,0:0:0:0:
192,192,123482,1,0,0:0:0:0:
64,192,123553,1,2,0:0:0:0:
448,192,123553,1,0,0:0:0:0:
320,192,123623,1,0,0:0:0:0:
448,192,123694,1,0,0:0:0:0:
64,192,123765,1,0,0:0:0:0:
192,192,123836,1,8,0:0:0:0:
448,192,123836,1,0,0:0:0:0:
64,192,123906,1,0,0:0:0:0:
320,192,123977,1,0,0:0:0:0:
192,192,124048,1,0,0:0:0:0:
448,192,124119,1,2,0:0:0:0:
64,192,124119,1,0,0:0:0:0:
320,192,124189,1,0,0:0:0:0:
192,192,124260,1,0,0:0:0:0:
320,192,124331,1,0,0:0:0:0:
448,192,124402,1,8,0:0:0:0:
64,192,124402,1,0,0:0:0:0:
192,192,124496,1,0,0:0:0:0:
320,192,124590,1,0,0:0:0:0:
448,192,124685,1,2,0:0:0:0:
64,192,124685,1,0,0:0:0:0:
192,192,124779,1,0,0:0:0:0:
320,192,124873,1,0,0:0:0:0:
448,192,124968,1,2,0:0:0:0:
64,192,124968,1,4,0:0:0:0:
192,192,124968,1,0,0:0:0:0:
320,192,125039,1,0,0:0:0:0:
192,192,125109,1,0,0:0:0:0:
64,192,125180,1,0,0:0:0:0:
320,192,125251,1,8,0:0:0:0:
448,192,125251,1,0,0:0:0:0:
64,192,125322,1,0,0:0:0:0:
192,192,125392,1,0,0:0:0:0:
320,192,125463,1,0,0:0:0:0:
448,192,125534,1,2,0:0:0:0:
64,192,125534,1,0,0:0:0:0:
192,192,125534,1,0,0:0:0:0:
320,192,125605,1,0,0:0:0:0:
192,192,125675,1,2,0:0:0:0:
64,192,125746,1,2,0:0:0:0:
448,192,125817,1,2,0:0:0:0:
320,192,125817,1,0,0:0:0:0:
192,192,125888,1,0,0:0:0:0:
320,192,125958,1,2,0:0:0:0:
192,192,126029,1,0,0:0:0:0:
448,192,126100,1,2,0:0:0:0:
64,192,126100,1,4,0:0:0:0:
320,192,126171,1,2,0:0:0:0:
192,192,126241,1,2,0:0:0:0:
64,192,126241,1,0,0:0:0:0:
320,192,126312,1,2,0:0:0:0:
448,192,126383,1,2,0:0:0:0:
64,192,126383,1,4,0:0:0:0:
192,192,126454,1,2,0:0:0:0:
320,192,126524,1,2,0:0:0:0:
448,192,126524,1,0,0:0:0:0:
192,192,126595,1,2,0:0:0:0:
64,192,126666,1,2,0:0:0:0:
448,192,126666,1,4,0:0:0:0:
320,192,126760,1,2,0:0:0:0:
192,192,126760,1,0,0:0:0:0:
64,192,126855,1,2,0:0:0:0:
448,192,126855,1,0,0:0:0:0:
192,192,126949,1,2,0:0:0:0:
320,192,126949,1,0,0:0:0:0:
448,192,127043,1,2,0:0:0:0:
64,192,127043,1,0,0:0:0:0:
192,192,127138,1,2,0:0:0:0:
320,192,127138,1,0,0:0:0:0:
192,192,127232,1,2,0:0:0:0:
64,192,127232,1,4,0:0:0:0:
448,192,127232,1,0,0:0:0:0:
320,192,127515,1,0,0:0:0:0:
64,192,127656,1,0,0:0:0:0:
192,192,127727,1,0,0:0:0:0:
448,192,127939,1,0,0:0:0:0:
320,192,128081,1,4,0:0:0:0:
64,192,128081,1,2,0:0:0:0:
192,192,128223,1,0,0:0:0:0:
448,192,128364,1,2,0:0:0:0:
320,192,128364,1,4,0:0:0:0:
320,192,128458,1,2,0:0:0:0:
192,192,128458,1,0,0:0:0:0:
192,192,128553,1,2,0:0:0:0:
64,192,128553,1,0,0:0:0:0:
448,192,128647,1,2,0:0:0:0:
320,192,128647,1,4,0:0:0:0:
320,192,128741,1,2,0:0:0:0:
192,192,128741,1,0,0:0:0:0:
192,192,128836,1,2,0:0:0:0:
64,192,128836,1,0,0:0:0:0:
448,192,128930,1,2,0:0:0:0:
320,192,128930,1,4,0:0:0:0:
64,192,129024,1,2,0:0:0:0:
192,192,129024,1,0,0:0:0:0:
192,192,129119,1,2,0:0:0:0:
320,192,129119,1,0,0:0:0:0:
320,192,129213,1,2,0:0:0:0:
448,192,129213,1,4,0:0:0:0:
64,192,129307,1,2,0:0:0:0:
192,192,129307,1,0,0:0:0:0:
192,192,129402,1,2,0:0:0:0:
320,192,129402,1,0,0:0:0:0:
448,192,129496,1,2,0:0:0:0:
64,192,129496,1,4,0:0:0:0:
320,192,129567,1,2,0:0:0:0:
192,192,129638,1,2,0:0:0:0:
320,192,129708,1,2,0:0:0:0:
448,192,129779,1,2,0:0:0:0:
64,192,129779,1,0,0:0:0:0:
192,192,129850,1,2,0:0:0:0:
320,192,129921,1,2,0:0:0:0:
192,192,129991,1,2,0:0:0:0:
64,192,130062,1,2,0:0:0:0:
448,192,130062,1,4,0:0:0:0:
320,192,130062,1,0,0:0:0:0:
192,192,130204,1,2,0:0:0:0:
320,192,130204,1,0,0:0:0:0:
192,192,130345,1,2,0:0:0:0:
64,192,130345,1,0,0:0:0:0:
320,192,130487,1,2,0:0:0:0:
448,192,130487,1,0,0:0:0:0:
192,192,130628,1,2,0:0:0:0:
64,192,130628,1,4,0:0:0:0:
448,192,130628,1,0,0:0:0:0:
320,192,130770,1,0,0:0:0:0:
64,192,130911,1,0,0:0:0:0:
448,192,130982,1,0,0:0:0:0:
192,192,131053,1,0,0:0:0:0:
320,192,131194,128,0,131477:0:0:0:0:
64,192,131477,1,2,0:0:0:0:
448,192,131477,1,0,0:0:0:0:
192,192,131548,1,2,0:0:0:0:
64,192,131619,1,2,0:0:0:0:
192,192,131689,1,2,0:0:0:0:
64,192,131760,1,2,0:0:0:0:
320,192,131760,1,4,0:0:0:0:
448,192,131760,1,0,0:0:0:0:
192,192,131902,1,0,0:0:0:0:
320,192,132043,1,0,0:0:0:0:
64,192,132185,1,0,0:0:0:0:
448,192,132326,1,0,0:0:0:0:
192,192,132468,1,0,0:0:0:0:
448,192,132609,1,0,0:0:0:0:
64,192,132751,1,0,0:0:0:0:
320,192,133034,1,0,0:0:0:0:
192,192,133883,1,0,0:0:0:0:
320,192,133954,1,0,0:0:0:0:
64,192,134024,1,0,0:0:0:0:
448,192,134166,1,0,0:0:0:0:
192,192,134307,1,0,0:0:0:0:
320,192,134449,1,0,0:0:0:0:
448,192,134590,1,0,0:0:0:0:
64,192,134732,1,0,0:0:0:0:
320,192,134873,1,0,0:0:0:0:
192,192,135015,1,0,0:0:0:0:
448,192,135298,1,0,0:0:0:0:
64,192,135581,1,0,0:0:0:0:
320,192,135723,128,0,136289:0:0:0:0:
448,192,136006,128,0,136289:0:0:0:0:
64,192,136289,1,0,0:0:0:0:
192,192,136430,1,0,0:0:0:0:
64,192,136572,1,0,0:0:0:0:
192,192,136713,1,0,0:0:0:0:
320,192,136855,1,0,0:0:0:0:
448,192,136996,1,0,0:0:0:0:
192,192,137138,1,0,0:0:0:0:
320,192,137279,1,0,0:0:0:0:
64,192,137562,1,0,0:0:0:0:
320,192,138411,1,0,0:0:0:0:
64,192,138482,1,0,0:0:0:0:
448,192,138553,1,0,0:0:0:0:
192,192,138694,1,0,0:0:0:0:
448,192,138836,1,0,0:0:0:0:
64,192,138977,1,0,0:0:0:0:
192,192,139119,1,0,0:0:0:0:
320,192,139260,1,0,0:0:0:0:
448,192,139402,1,0,0:0:0:0:
64,192,139543,1,0,0:0:0:0:
320,192,139826,1,0,0:0:0:0:
