osu file format v14

[General]
AudioFilename: gg no re.mp3
AudioLeadIn: 0
PreviewTime: 363
Countdown: 0
SampleSet: Soft
StackLeniency: 0.3
Mode: 0
LetterboxInBreaks: 0
WidescreenStoryboard: 1

[Editor]
Bookmarks: 18553,27609,36666,45723,63836,81949,95534,113647
DistanceSpacing: 0.7
BeatDivisor: 4
GridSize: 32
TimelineZoom: 2.899999

[Metadata]
Title:Re:End of a Dream
TitleUnicode:Re:End of a Dream
Artist:uma vs. Morimori Atsushi
ArtistUnicode:uma vs. モリモリあつし
Creator:Battle
Version:toybot's Extra
Source:BMS
Tags:superalloys masiro vs adaptor hobbes2 toybot vinxis liiraye lasse regraz
BeatmapID:1249833
BeatmapSetID:557039

[Difficulty]
HPDrainRate:6
CircleSize:4.2
OverallDifficulty:8
ApproachRate:9.2
SliderMultiplier:1.7
SliderTickRate:1

[Events]
//Background and Video events
0,0,"end.jpg",0,0
Video,0,"anime.avi"
//Break Periods
2,109331,110542
//Storyboard Layer 0 (Background)
//Storyboard Layer 1 (Fail)
//Storyboard Layer 2 (Pass)
//Storyboard Layer 3 (Foreground)
//Storyboard Sound Samples

[TimingPoints]
434,283.018867924528,4,2,2,80,1,0
434,-166.666666666667,4,2,2,80,0,0
8924,-166.666666666667,4,2,1,100,0,0
9136,-111.111111111111,4,2,1,100,0,0
9490,-100,4,2,1,100,0,0
13735,-66.6666666666667,4,2,1,100,0,0
14018,-90.9090909090909,4,2,1,100,0,0
17415,-83.3333333333333,4,2,1,100,0,0
18971,-76.9230769230769,4,2,1,100,0,0
26471,-76.9230769230769,4,2,2,100,0,0
27037,-133.333333333333,4,2,2,100,0,0
34679,-133.333333333333,4,2,1,100,0,0
34820,-100,4,2,1,100,0,0
35528,-66.6666666666667,4,2,1,100,0,0
36660,-57.1428571428571,4,2,1,100,0,0
36943,-90.9090909090909,4,2,1,100,0,0
37792,-80,4,2,1,100,0,0
38924,-90.9090909090909,4,2,1,100,0,0
41188,-111.111111111111,4,2,1,100,0,0
42037,-83.3333333333333,4,2,1,100,0,0
42745,-66.6666666666667,4,2,1,100,0,0
43452,-200,4,2,1,100,0,0
44301,-80,4,2,1,100,0,0
45433,-66.6666666666667,4,2,1,100,0,0
45717,-133.333333333333,4,2,2,100,0,0
46141,-133.333333333333,4,2,1,70,0,0
46212,-133.333333333333,4,2,1,5,0,0
46566,-133.333333333333,4,2,1,70,0,0
46636,-133.333333333333,4,2,1,5,0,0
47273,-133.333333333333,4,2,2,70,0,0
47415,-100,4,2,2,70,0,0
47981,-133.333333333333,4,2,2,70,0,0
48405,-200,4,2,2,70,0,0
49113,-100,4,2,2,70,0,0
49537,-100,4,2,1,80,0,0
49608,-100,4,2,1,5,0,0
50245,-133.333333333333,4,2,2,70,0,0
50669,-133.333333333333,4,2,1,70,0,0
50740,-133.333333333333,4,2,1,5,0,0
51094,-133.333333333333,4,2,1,100,0,0
51165,-133.333333333333,4,2,1,5,0,0
51801,-133.333333333333,4,2,2,70,0,0
51943,-100,4,2,2,70,0,0
52509,-133.333333333333,4,2,2,70,0,0
53217,-200,4,2,2,70,0,0
53641,-100,4,2,2,70,0,0
54066,-100,4,2,1,70,0,0
54136,-100,4,2,1,5,0,0
54490,-100,4,2,3,100,0,0
54791,283.018867924528,4,2,3,100,1,0
54791,-90.9090909090909,4,2,3,100,0,0
56064,-66.6666666666667,4,2,3,100,0,0
57054,-90.9090909090909,4,2,3,100,0,0
58186,-76.9230769230769,4,2,3,100,0,0
58752,-66.6666666666667,4,2,1,100,0,0
59318,-100,4,2,1,100,0,0
59884,-90.9090909090909,4,2,1,100,0,0
60450,-83.3333333333333,4,2,1,100,0,0
61017,-76.9230769230769,4,2,1,100,0,0
61583,-100,4,2,1,100,0,0
61771,-66.6666666666667,4,2,3,100,0,0
63847,-90.9090909090909,4,2,1,100,0,0
65262,-76.9230769230769,4,2,1,100,0,0
66111,-66.6666666666667,4,2,1,100,0,1
70639,-100,4,2,1,100,0,1
72338,-100,4,2,1,100,0,0
72904,-66.6666666666667,4,2,1,100,0,1
77432,-66.6666666666667,4,2,1,100,0,0
79696,-57.1428571428571,4,2,1,100,0,1
81394,-76.9230769230769,4,2,1,100,0,1
81677,-50,4,2,1,100,0,1
81890,-50,4,2,1,5,0,1
81960,-50,4,2,1,100,0,0
82243,-111.111111111111,4,2,2,100,0,0
83941,-76.9230769230769,4,2,2,100,0,0
84224,-100,4,2,2,100,0,0
86205,-100,4,2,1,100,0,0
86488,-90.9090909090909,4,2,1,100,0,0
88752,-76.9230769230769,4,2,1,100,0,0
89884,-90.9090909090909,4,2,1,100,0,0
90592,-76.9230769230769,4,2,1,100,0,0
90734,-90.9090909090909,4,2,1,100,0,0
90875,-111.111111111111,4,2,1,100,0,0
91017,-111.111111111111,4,2,2,100,0,0
94413,-66.6666666666667,4,2,1,100,0,0
95545,-66.6666666666667,4,2,1,100,0,1
97809,-83.3333333333333,4,2,1,100,0,0
98375,-66.6666666666667,4,2,1,100,0,0
99790,-111.111111111111,4,2,1,100,0,0
100074,-66.6666666666667,4,2,1,100,0,1
106866,-133.333333333333,4,2,2,100,0,0
108847,-200,4,2,2,100,0,0
110828,-66.6666666666667,4,2,2,100,0,0
111394,-66.6666666666667,4,2,1,100,0,0
111960,-58.8235294117647,4,2,1,100,0,0
112526,-52.6315789473684,4,2,1,100,0,0
113092,-100,4,2,1,100,0,0
113658,-80,4,2,1,100,0,0
114083,-76.9230769230769,4,2,1,100,0,0
121583,-90.9090909090909,4,2,1,100,0,0
122149,-66.6666666666667,4,2,1,100,0,0
122998,-66.6666666666667,4,2,1,100,0,1
126394,-57.1428571428571,4,2,1,100,0,1
126677,-66.6666666666667,4,2,1,100,0,1
127243,-66.6666666666667,4,2,1,100,0,0
128092,-76.3358778625954,4,2,1,100,0,0
129507,-76.3358778625954,4,2,1,100,0,1
131205,-200,4,2,1,100,0,1
131772,-166.666666666667,4,2,2,70,0,0

[Colours]
Combo1 : 253,153,104
Combo2 : 181,165,254
Combo3 : 152,243,97
Combo4 : 107,192,220

[HitObjects]
72,60,434,5,2,0:0:0:0:
76,96,575,1,0,0:0:0:0:
80,132,717,1,2,0:0:0:0:
84,168,858,1,0,0:0:0:0:
176,140,1000,5,2,0:0:0:0:
172,104,1141,1,0,0:0:0:0:
168,68,1283,1,2,0:0:0:0:
264,76,1424,5,2,0:0:0:0:
268,112,1707,1,2,0:0:0:0:
468,124,2556,5,2,0:0:0:0:
471,136,2627,1,2,0:0:0:0:
474,148,2698,1,2,0:0:0:0:
434,146,2839,1,0,0:0:0:0:
394,144,2981,1,2,0:0:0:0:
354,142,3122,1,0,0:0:0:0:
450,235,3264,5,2,0:0:0:0:
410,233,3406,1,0,0:0:0:0:
370,231,3547,1,2,0:0:0:0:
425,318,3688,5,2,0:0:0:0:
385,315,3971,1,2,0:0:0:0:
172,356,4254,5,0,0:0:0:0:
132,353,4396,2,0,L|12:344,1,101.999996887207
88,108,4962,5,2,0:0:0:0:
128,104,5103,1,0,0:0:0:0:
168,112,5245,1,2,0:0:0:0:
208,108,5386,1,0,0:0:0:0:
328,120,5528,5,2,0:0:0:0:
248,116,5669,1,0,0:0:0:0:
168,112,5810,1,2,0:0:0:0:
88,108,5952,5,2,0:0:0:0:
76,120,6235,1,2,0:0:0:0:
64,132,7084,5,0,0:0:0:0:
76,120,7155,1,0,0:0:0:0:
88,108,7226,1,2,0:0:0:0:
176,96,7367,1,0,0:0:0:0:
188,183,7509,1,2,0:0:0:0:
101,196,7650,1,0,0:0:0:0:
88,108,7792,5,2,0:0:0:0:
256,128,7933,1,0,0:0:0:0:
424,148,8075,1,2,0:0:0:0:
336,84,8217,6,0,L|344:204,1,101.999996887207,2|2,0:0|0:0,0:0:0:0:
342,185,8924,2,0,L|338:229,2,25.4999992218018
430,210,9136,1,0,0:0:0:0:
430,210,9207,6,2,L|468:213,1,38.2499988327027,2|0,0:1|0:0,0:1:0:0:
251,185,9349,2,2,L|212:181,1,38.2499988327027,2|0,0:1|0:0,0:1:0:0:
432,120,9490,6,0,P|424:78|426:35,1,85,4|0,0:0|0:0,0:0:0:0:
428,24,9702,1,0,0:0:0:0:
432,12,9773,1,0,0:0:0:0:
328,92,9915,2,2,B|228:76|264:148|164:132,1,170,2|0,0:1|0:0,0:1:0:0:
88,200,10339,1,0,0:0:0:0:
80,80,10481,1,0,0:0:0:0:
88,200,10622,6,0,P|91:242|86:284,1,85
83,295,10834,1,0,0:0:0:0:
78,307,10905,1,0,0:0:0:0:
340,292,11047,2,2,B|240:308|276:236|176:252,1,170,2|0,0:1|0:0,0:1:0:0:
436,332,11471,2,0,P|430:289|433:247,1,85
492,168,11754,5,0,0:0:0:0:
340,292,11896,2,0,L|332:228,2,42.5
447,77,12179,2,2,L|433:247,1,170,2|0,0:1|0:1,0:1:0:0:
272,144,12603,2,0,P|312:155|354:152,1,85
323,70,12816,1,0,0:0:0:0:
323,70,12886,6,0,L|320:28,1,42.5
340,240,13028,2,0,L|343:282,1,42.5
354,152,13169,1,0,0:0:0:0:
240,276,13311,2,2,B|176:268|176:268|144:296|144:296|72:288,1,170,2|0,0:1|0:1,0:1:0:0:
0,184,13735,2,0,L|5:139,3,42.5000016212464,8|0|0|0,0:0|0:0|0:0|0:0,0:0:0:0:
0,184,14018,6,0,P|48:188|104:176,1,93.5000028533936,8|0,0:0|0:0,0:0:0:0:
164,112,14231,1,0,0:0:0:0:
164,112,14301,2,0,P|168:64|156:8,1,93.5000028533936,8|0,0:0|0:0,0:0:0:0:
352,60,14584,2,0,P|343:105|348:152,1,93.5000028533936,8|0,0:0|0:0,0:0:0:0:
412,220,14797,1,0,0:0:0:0:
412,220,14867,1,8,0:0:0:0:
256,156,15009,1,0,0:0:0:0:
436,112,15150,6,0,L|452:16,1,93.5000028533936,8|0,0:0|0:0,0:0:0:0:
451,19,15363,1,0,0:0:0:0:
451,19,15433,1,8,0:0:0:0:
504,188,15575,1,0,0:0:0:0:
246,69,15717,2,0,B|294:81|294:81|342:61,1,93.5000028533936,8|0,0:0|0:0,0:0:0:0:
352,59,15929,1,0,0:0:0:0:
352,59,16000,2,0,L|340:112,1,46.7500014266968,8|0,0:0|0:0,0:0:0:0:
300,276,16141,1,0,0:0:0:0:
388,180,16283,6,0,L|288:192,1,93.5000028533936,8|8,0:0|0:0,0:0:0:0:
212,204,16495,1,0,0:0:0:0:
212,204,16566,1,8,0:0:0:0:
392,272,16707,1,8,0:0:0:0:
232,348,16849,1,8,0:0:0:0:
229,336,16919,1,0,0:0:0:0:
227,325,16990,5,8,0:0:0:0:
262,309,17061,1,0,0:0:0:0:
300,313,17132,1,8,0:0:0:0:
332,335,17202,1,0,0:0:0:0:
364,357,17273,1,8,0:0:0:0:
402,361,17344,1,0,0:0:0:0:
437,345,17415,6,0,L|452:256,1,67.9999979248048,2|0,1:0|0:0,0:0:0:0:
216,232,17603,2,0,L|231:143,1,67.9999979248048,2|0,1:0|0:0,0:0:0:0:
432,244,17792,2,0,L|447:155,1,67.9999979248048,2|0,1:0|0:0,0:0:0:0:
272,140,17981,2,0,L|287:51,1,67.9999979248048,2|0,1:0|0:0,0:0:0:0:
380,112,18169,6,0,L|395:23,1,67.9999979248048,2|0,1:0|0:0,0:0:0:0:
380,32,18358,2,0,L|368:99,1,67.9999979248048,2|0,1:0|0:0,0:0:0:0:
432,244,18547,6,0,L|480:240,2,25.4999992218018
340,252,18688,1,0,0:0:0:0:
314,253,18758,1,0,0:0:0:0:
289,255,18830,1,12,0:0:0:0:
428,112,18971,6,0,B|324:128|368:52|256:72,1,165.749992412568
256,76,19254,1,2,0:0:0:0:
404,20,19396,1,8,0:0:0:0:
284,164,19537,1,0,0:0:0:0:
56,96,19679,6,0,P|116:92|172:112,1,110.499994941712,2|0,0:0|0:0,0:0:0:0:
182,120,19891,1,0,0:0:0:0:
182,120,19962,2,0,L|170:48,1,55.2499974708558,8|0,0:0|0:0,0:0:0:0:
20,208,20103,2,0,B|68:216|99:187|99:187|120:224|176:232,1,165.749992412568,2|0,0:0|0:0,0:0:0:0:
164,229,20386,1,2,0:0:0:0:
84,296,20528,1,8,0:0:0:0:
256,176,20669,1,0,0:0:0:0:
428,296,20811,6,0,P|368:292|316:312,1,110.499994941712,2|0,0:0|0:0,0:0:0:0:
309,321,21023,1,0,0:0:0:0:
309,321,21094,2,0,L|320:261,1,55.2499974708558,8|0,0:0|0:0,0:0:0:0:
437,126,21235,2,0,P|377:130|301:50,1,165.749992412568
303,61,21518,1,2,0:0:0:0:
317,158,21660,1,8,0:0:0:0:
330,254,21801,1,0,0:0:0:0:
68,152,21943,6,0,L|12:147,1,55.2499974708558,2|0,0:0|0:0,0:0:0:0:
236,168,22084,2,0,L|291:172,1,55.2499974708558
152,160,22225,1,8,0:0:0:0:
52,292,22367,2,0,B|104:284|104:284|168:312|168:312|224:304,1,165.749992412568,2|0,0:0|0:0,0:0:0:0:
210,305,22650,2,0,L|200:368,2,55.2499974708558,2|0|8,0:0|0:0|0:0,0:0:0:0:
226,222,22863,1,0,0:0:0:0:
229,203,22933,1,0,0:0:0:0:
232,185,23004,1,0,0:0:0:0:
235,167,23075,5,6,0:0:0:0:
132,180,23217,1,0,0:0:0:0:
132,180,23287,1,0,0:0:0:0:
132,180,23358,1,8,0:0:0:0:
329,209,23500,2,0,P|384:212|436:112,1,165.749992412568
439,127,23783,1,2,0:0:0:0:
356,308,23924,1,8,0:0:0:0:
468,264,24066,1,0,0:0:0:0:
328,116,24207,6,0,P|268:120|212:104,1,110.499994941712,6|0,0:0|0:0,0:0:0:0:
144,72,24419,1,0,0:0:0:0:
144,72,24490,1,8,0:0:0:0:
16,216,24632,2,0,B|116:200|72:276|176:260,1,165.749992412568,2|0,0:0|0:0,0:0:0:0:
256,232,24915,2,0,L|248:304,1,55.2499974708558,2|0,0:0|0:0,0:0:0:0:
240,372,25056,1,8,0:0:0:0:
156,176,25198,2,0,L|149:121,1,55.2499974708558
175,84,25339,5,6,0:0:0:0:
209,58,25409,1,0,0:0:0:0:
252,53,25480,1,0,0:0:0:0:
291,71,25551,1,0,0:0:0:0:
316,106,25622,1,8,0:0:0:0:
340,136,25693,1,0,0:0:0:0:
382,156,25764,2,0,P|410:157|437:150,1,55.2499974708558,2|0,0:0|0:0,0:0:0:0:
488,72,25905,5,4,0:0:0:0:
486,58,25975,1,0,0:0:0:0:
484,44,26046,1,2,0:0:0:0:
482,30,26117,1,0,0:0:0:0:
480,17,26188,5,8,0:0:0:0:
474,71,26258,1,0,0:0:0:0:
468,126,26329,1,0,0:0:0:0:
462,181,26400,1,0,0:0:0:0:
456,236,26471,5,2,0:0:0:0:
136,252,26613,1,2,0:0:0:0:
376,268,26754,5,2,0:0:0:0:
216,220,26896,1,2,0:0:0:0:
296,244,27037,6,0,L|288:112,1,127.500004863739,2|0,0:0|0:0,0:0:0:0:
283,34,27462,1,2,0:0:0:0:
301,326,27603,5,0,1:0:0:0:
500,240,27886,1,0,0:0:0:0:
500,240,28028,2,0,P|448:249|375:220,1,127.500004863739,2|0,0:0|0:0,0:0:0:0:
296,244,28452,1,0,0:0:0:0:
212,264,28594,1,0,0:0:0:0:
88,200,28735,6,0,L|96:124,1,63.7500024318696,2|0,0:0|0:0,0:0:0:0:
72,52,29018,1,0,0:0:0:0:
176,168,29160,2,0,P|228:140|304:136,1,127.500004863739,2|0,0:0|0:0,0:0:0:0:
460,196,29584,1,0,0:0:0:0:
460,196,29726,1,0,0:0:0:0:
384,104,29867,6,0,L|364:236,1,127.500004863739,2|0,0:0|0:0,0:0:0:0:
408,308,30292,2,0,P|356:280|280:276,1,127.500004863739,2|0,0:0|0:0,0:0:0:0:
151,336,30717,2,0,P|183:333|212:320,1,63.7500024318696
252,192,31000,6,0,B|146:165|176:256|64:224,1,191.250007295609,2|2,0:0|0:0,0:0:0:0:
0,184,31566,1,0,0:0:0:0:
328,236,31849,1,0,0:0:0:0:
328,236,31990,1,0,0:0:0:0:
236,65,32132,6,0,L|251:191,1,127.500004863739,2|0,0:0|0:0,0:0:0:0:
408,272,32556,2,0,P|352:268|288:308,1,127.500004863739,2|0,0:0|0:0,0:0:0:0:
404,184,32981,1,0,0:0:0:0:
404,184,33122,1,0,0:0:0:0:
504,320,33264,6,0,P|492:252|500:184,1,127.500004863739,2|0,0:0|0:0,0:0:0:0:
512,104,33688,2,0,B|444:120|460:68|384:84,1,127.500004863739,2|0,0:0|0:0,0:0:0:0:
288,152,34113,1,0,0:0:0:0:
300,24,34254,1,0,0:0:0:0:
288,152,34396,6,0,L|280:280,1,127.500004863739,2|0,0:0|0:0,0:0:0:0:
282,44,34820,1,0,0:0:0:0:
288,56,34891,1,0,0:0:0:0:
293,67,34962,6,0,L|287:151,1,85,0|2,0:0|0:0,0:0:0:0:
280,279,35174,1,0,0:0:0:0:
280,279,35245,2,0,L|283:237,1,42.5
440,120,35386,5,0,0:0:0:0:
428,126,35457,1,0,0:0:0:0:
417,131,35528,2,0,L|378:129,6,31.8750012159348
432,216,35811,6,0,L|358:211,1,63.7500024318696,0|0,1:0|0:0,0:0:0:0:
188,27,36094,2,0,L|221:94,1,63.7500024318696,0|0,1:0|0:0,0:0:0:0:
147,332,36377,2,0,L|188:270,1,63.7500024318696,0|0,1:0|0:0,0:0:0:0:
256,192,36660,6,2,B|196:196|196:196|160:176|160:176|96:180,1,148.750001418591,2|0,0:1|0:0,0:1:0:0:
24,244,36872,1,0,0:0:0:0:
24,244,36943,2,0,L|32:180,1,46.7500014266968,12|0,0:0|0:0,0:0:0:0:
40,112,37084,1,0,0:0:0:0:
168,288,37226,5,2,0:0:0:0:
133,282,37296,1,0,0:0:0:0:
100,293,37367,1,0,0:0:0:0:
168,160,37509,6,0,L|162:206,1,46.7500014266968,8|0,0:0|0:0,0:0:0:0:
140,372,37650,1,0,0:0:0:0:
140,372,37721,1,0,0:0:0:0:
140,372,37792,6,0,B|180:356|180:356|256:372,1,106.25,2|0,0:0|0:0,0:0:0:0:
320,380,38004,1,0,0:0:0:0:
320,380,38075,2,0,L|312:312,1,53.125,8|0,0:0|0:0,0:0:0:0:
208,180,38217,6,0,B|194:236|194:236|217:283,1,106.25,0|2,0:0|0:0,0:0:0:0:
402,271,38429,2,0,B|415:214|415:214|392:167,1,106.25
278,227,38641,2,0,L|331:223,1,53.125,8|0,0:0|0:0,0:0:0:0:
424,96,38783,2,0,L|371:91,1,53.125
252,0,38924,6,0,P|263:45|262:91,1,93.5000028533936,6|0,0:0|0:0,0:0:0:0:
260,104,39136,1,0,0:0:0:0:
257,117,39207,1,8,0:0:0:0:
348,12,39349,1,0,0:0:0:0:
172,64,39490,2,0,L|116:56,2,46.7500014266968,2|0|0,0:0|0:0|0:0,0:0:0:0:
376,148,39773,5,8,0:0:0:0:
342,137,39843,1,0,0:0:0:0:
308,143,39914,1,0,0:0:0:0:
280,164,39985,1,0,0:0:0:0:
265,196,40056,2,0,B|156:184|200:260|88:248,1,187.000005706787,6|8,0:0|0:0,0:0:0:0:
32,68,40481,1,0,0:0:0:0:
44,64,40551,1,0,0:0:0:0:
56,60,40622,6,0,B|120:80|120:80|220:52,1,140.25000428009,6|0,0:0|0:0,0:0:0:0:
272,16,40905,2,0,L|264:112,1,93.5000028533936,8|0,0:0|0:0,0:0:0:0:
328,160,41117,1,0,0:0:0:0:
328,160,41188,6,0,P|276:144|204:212,1,152.999995330811,6|0,1:2|0:0,0:0:0:0:
319,288,41613,2,0,P|354:246|319:153,1,152.999995330811,0|0,1:0|0:0,0:0:0:0:
230,213,41967,1,0,0:0:0:0:
230,213,42037,6,2,L|280:218,1,50.9999984436036
460,300,42179,2,2,L|409:305,1,50.9999984436036
209,348,42320,5,6,1:2:0:0:
234,350,42390,1,0,0:0:0:0:
261,353,42461,1,0,0:0:0:0:
261,353,42745,6,0,B|213:253|108:288|108:288|145:317|137:365,1,255.000009727478,4|0,1:2|0:0,0:0:0:0:
64,348,43099,1,0,0:0:0:0:
64,348,43169,6,2,L|-12:340,1,63.7500024318696
72,220,43311,2,2,L|-4:212,1,63.7500024318696
80,92,43452,6,2,L|85:25,1,63.75,4|0,0:0|0:0,0:1:0:0:
160,140,43735,1,0,0:0:0:0:
161,105,43805,1,0,0:0:0:0:
163,71,43876,1,0,0:0:0:0:
165,36,43947,1,0,0:0:0:0:
167,2,44018,5,2,1:0:0:0:
448,184,44160,1,2,1:0:0:0:
40,252,44443,6,0,B|136:232|104:300|208:280,1,159.375,2|0,1:0|0:0,0:0:0:0:
256,316,44726,6,0,P|264:272|256:244,1,53.125,2|0,1:0|0:0,0:0:0:0:
183,91,44867,2,0,P|202:131|225:149,1,53.125,2|0,1:0|0:0,0:0:0:0:
373,230,45009,2,0,P|334:209|305:208,1,53.125,0|0,1:0|0:0,0:0:0:0:
138,230,45150,2,0,P|182:224|206:208,1,53.125,2|0,1:0|0:0,0:0:0:0:
328,91,45433,6,0,B|256:80|256:80|212:107|212:107|146:97,1,191.250007295609,12|0,0:0|0:0,0:0:0:0:
28,40,45717,6,0,P|48:100|40:168,1,127.500004863739,4|0,1:2|0:0,0:0:0:0:
0,252,46141,1,0,1:0:0:0:
0,252,47273,1,2,0:0:0:0:
244,288,47415,6,0,P|212:252|132:260,1,127.500004863739,4|0,1:2|0:0,0:0:0:0:
128,268,47698,2,0,P|114:314|129:357,1,85,0|0,1:0|0:0,0:0:0:0:
372,316,47981,6,0,L|360:176,1,127.500004863739,4|0,1:2|0:0,0:0:0:0:
480,96,48405,2,0,P|441:79|399:79,1,85,0|0,1:0|0:0,0:0:0:0:
323,109,48830,1,0,0:0:0:0:
323,109,49113,6,0,B|379:137|435:121|435:121|408:132|395:161,1,170,4|0,1:2|0:0,0:0:0:0:
468,192,49537,1,0,1:0:0:0:
244,44,50245,6,0,P|176:64|112:56,1,127.500004863739,4|0,1:2|0:0,0:0:0:0:
44,32,50669,1,0,1:0:0:0:
44,32,51801,1,2,0:0:0:0:
124,196,51943,6,0,P|124:164|134:111,1,85,4|0,1:2|0:0,0:0:0:0:
12,256,52226,2,0,P|12:224|1:171,1,85,0|0,1:0|0:0,0:0:0:0:
112,320,52509,6,0,B|184:301|163:356|233:336,1,127.500004863739,4|0,1:2|0:0,0:0:0:0:
332,284,52933,2,0,L|328:248,3,21.2500008106232,0|0|0|2,1:0|0:0|0:0|0:0,0:0:0:0:
412,308,53217,2,0,L|401:216,1,85,2|0,0:0|0:0,0:0:0:0:
414,96,53641,6,0,B|454:148|454:148|394:116|338:152,1,170,4|0,1:2|0:0,0:0:0:0:
276,192,54066,1,0,1:0:0:0:
276,192,54490,6,0,L|248:188,6,21.25,0|0|0|0|0|0|0,1:0|1:0|1:0|1:0|1:0|1:0|1:0,1:0:0:0:
184,232,54791,6,0,L|172:128,1,93.5000028533936,4|0,1:2|0:0,0:0:0:0:
256,280,55074,1,0,1:0:0:0:
100,96,55216,1,0,0:0:0:0:
100,96,55286,2,0,B|144:112|144:112|244:92,1,140.25000428009,0|0,1:0|1:0,0:0:0:0:
412,52,55640,1,0,0:0:0:0:
336,40,55711,2,0,L|272:32,2,46.7500014266968,0|0|0,1:0|0:0|1:0,0:0:0:0:
488,64,55923,5,0,0:0:0:0:
492,72,55994,1,0,0:0:0:0:
496,80,56065,2,0,L|504:160,1,63.7500024318696,0|0,1:0|0:0,0:0:0:0:
424,208,56206,2,0,L|416:128,1,63.7500024318696,0|0,1:0|0:0,0:0:0:0:
512,248,56348,1,0,0:0:0:0:
512,248,56418,1,0,0:0:0:0:
512,248,56489,6,0,B|392:224|432:308|332:288,1,191.250007295609,4|0,0:0|0:0,0:0:0:0:
320,284,56772,2,0,P|292:253|308:168,1,127.500004863739,0|0,1:0|0:0,0:0:0:0:
360,128,56985,1,0,0:0:0:0:
360,128,57055,6,0,P|296:160|288:276,1,187.000005706787,0|0,0:0|1:0,0:0:0:0:
376,368,57480,1,0,0:0:0:0:
376,368,57551,2,0,B|316:348|316:348|232:368,1,140.25000428009,0|0,1:0|1:0,0:0:0:0:
92,268,57904,1,0,0:0:0:0:
50,332,57975,2,0,P|71:341|94:344,2,46.7500014266968,0|0|0,1:0|0:0|1:0,0:0:0:0:
28,225,58187,6,0,P|74:195|127:199,1,110.499994941712,0|0,1:0|0:0,0:0:0:0:
192,252,58400,2,0,B|244:248|244:248|256:252|256:252|304:248,1,110.499994941712,0|0,1:0|0:0,0:0:0:0:
376,216,58612,2,0,L|364:152,1,55.2499974708558,0|0,1:0|0:0,0:0:0:0:
312,102,58753,6,0,L|268:87,6,31.8750012159348,2|0|0|0|0|0|0,0:0|0:0|0:0|0:0|0:0|0:0|0:0,0:0:0:0:
390,85,59036,2,0,L|425:54,6,31.8750012159348,2|0|0|0|0|0|0,0:0|0:0|0:0|0:0|0:0|0:0|0:0,0:0:0:0:
356,116,59319,6,0,B|260:96|292:176|188:152,1,170,4|0,0:0|0:0,0:0:0:0:
88,8,59744,1,2,0:0:0:0:
88,8,59815,1,2,0:0:0:0:
88,8,59885,6,0,B|84:68|139:87|139:87|100:124|112:187,1,187.000005706787,4|0,0:0|0:0,0:0:0:0:
276,280,60310,1,2,0:0:0:0:
276,280,60381,1,2,0:0:0:0:
276,280,60451,6,0,B|200:312|144:260|144:260|176:296|168:340,1,203.999993774414,4|0,0:0|0:0,0:0:0:0:
232,128,60876,1,2,0:0:0:0:
232,128,60947,1,2,0:0:0:0:
232,128,61018,6,0,P|180:160|268:164,1,220.999989883423,4|0,0:0|0:0,0:0:0:0:
444,32,61442,1,2,0:0:0:0:
444,32,61513,1,2,0:0:0:0:
443,32,61584,6,0,L|360:20,1,56.6666666666667,4|0,1:2|0:0,0:0:0:0:
448,192,61772,2,0,P|469:148|498:125,1,85.0000032424928,0|0,1:0|0:0,0:0:0:0:
312,105,61961,2,0,P|338:144|344:182,1,85.0000032424928,0|0,1:0|0:0,0:0:0:0:
396,316,62150,5,4,1:2:0:0:
360,304,62244,1,0,1:0:0:0:
320,308,62338,1,0,1:0:0:0:
288,332,62433,1,0,0:0:0:0:
212,300,62527,5,0,1:0:0:0:
188,296,62621,1,0,0:0:0:0:
164,292,62716,2,0,L|76:276,1,85.0000032424928,4|0,1:2|0:0,0:0:0:0:
300,184,62904,2,0,L|212:168,1,85.0000032424928,0|0,1:0|0:0,0:0:0:0:
436,76,63093,2,0,L|348:60,1,85.0000032424928,0|0,1:0|0:0,0:0:0:0:
144,8,63282,5,4,1:2:0:0:
56,152,63423,1,0,0:0:0:0:
78,140,63493,1,0,0:0:0:0:
103,137,63564,1,2,0:1:0:0:
128,141,63635,1,0,0:0:0:0:
151,153,63706,1,2,0:1:0:0:
169,171,63776,1,0,0:0:0:0:
180,192,63848,6,0,L|172:292,1,93.5000028533936,4|0,1:0|0:0,0:0:0:0:
49,231,64060,1,0,0:0:0:0:
49,231,64131,2,0,L|96:236,1,46.7500014266968,4|0,1:0|0:0,0:0:0:0:
303,256,64272,2,0,L|256:251,1,46.7500014266968
189,98,64413,5,2,1:0:0:0:
192,137,64485,1,0,0:0:0:0:
179,172,64555,5,2,0:1:0:0:
182,210,64625,1,0,0:0:0:0:
169,246,64696,5,2,0:1:0:0:
172,285,64768,1,0,0:0:0:0:
96,316,64838,6,0,P|152:296|236:384,1,187.000005706787,6|0,0:0|0:0,0:0:0:0:
235,375,65192,1,0,0:0:0:0:
235,375,65263,2,0,P|262:376|289:369,1,55.2499974708558,2|0,1:2|0:0,0:0:0:0:
336,212,65404,2,0,P|321:235|313:261,1,55.2499974708558,2|0,0:0|0:0,0:0:0:0:
426,380,65546,5,0,0:0:0:0:
426,380,65617,1,0,0:0:0:0:
426,380,65687,1,2,0:0:0:0:
426,380,65758,1,0,0:0:0:0:
426,380,65829,5,8,0:0:0:0:
421,325,65899,1,0,0:0:0:0:
417,270,65970,1,0,0:0:0:0:
413,215,66041,1,0,0:0:0:0:
409,160,66112,5,6,0:0:0:0:
316,116,66253,1,0,0:0:0:0:
316,116,66324,2,0,P|308:146|308:178,1,63.7500024318696,0|8,0:0|0:0,0:0:0:0:
501,204,66466,1,0,0:0:0:0:
501,204,66536,2,0,P|509:173|509:141,1,63.7500024318696
376,24,66678,5,2,0:0:0:0:
351,64,66748,1,0,0:0:0:0:
309,86,66819,1,0,0:0:0:0:
262,85,66890,1,0,0:0:0:0:
222,60,66961,2,0,L|144:68,1,63.7500024318696,8|0,0:0|0:0,0:0:0:0:
8,180,67102,5,0,0:0:0:0:
8,180,67173,1,0,0:0:0:0:
8,180,67244,2,0,B|72:160|72:160|136:196,1,127.500004863739,2|0,0:0|0:0,0:0:0:0:
252,296,67527,2,0,B|236:212|280:256|260:152,1,127.500004863739,8|0,0:0|0:0,0:0:0:0:
260,160,67739,1,0,0:0:0:0:
257,149,67810,6,0,P|225:141|185:153,1,63.7500024318696,2|0,0:0|0:0,0:0:0:0:
124,189,67951,2,0,P|101:212|91:253,1,63.7500024318696
92,324,68093,1,8,0:0:0:0:
328,272,68235,1,0,0:0:0:0:
189,28,68376,6,0,B|169:92|169:92|201:160,1,127.500004863739,6|0,0:0|0:0,0:0:0:0:
402,135,68588,2,0,B|422:71|422:71|390:3,1,127.500004863739
264,84,68801,2,0,L|376:76,1,63.7500024318696
492,232,68942,6,0,P|461:222|430:219,1,63.7500024318696,2|0,0:0|0:0,0:0:0:0:
269,213,69084,2,0,L|285:313,1,63.7500024318696
380,304,69225,2,0,L|369:366,1,63.7500024318696,8|0,0:0|0:0,0:0:0:0:
196,292,69367,1,0,0:0:0:0:
196,292,69437,1,0,0:0:0:0:
196,292,69508,6,0,B|184:212|184:212|204:124,1,127.500004863739,6|0,0:0|0:0,0:0:0:0:
353,197,69720,2,0,B|365:277|365:277|345:365,1,127.500004863739
279,275,69933,2,0,L|269:213,1,63.7500024318696
368,84,70074,6,0,P|332:94|276:88,1,63.7500024318696,2|0,0:0|0:0,0:0:0:0:
132,155,70216,1,0,0:0:0:0:
132,155,70286,1,0,0:0:0:0:
132,155,70357,2,0,P|163:156|194:165,1,63.7500024318696,8|0,0:0|0:0,0:0:0:0:
364,260,70499,2,0,L|353:197,1,63.7500024318696
324,12,70640,5,4,0:0:0:0:
100,160,70829,1,2,0:1:0:0:
340,220,71018,1,2,0:1:0:0:
64,284,71206,5,4,0:0:0:0:
288,136,71395,1,2,0:1:0:0:
48,64,71584,1,2,0:1:0:0:
256,288,71772,5,2,1:0:0:0:
250,214,71867,1,0,1:0:0:0:
182,182,71961,1,2,1:0:0:0:
120,224,72056,1,0,1:0:0:0:
127,299,72150,1,2,1:0:0:0:
195,330,72244,1,0,1:0:0:0:
188,256,72338,5,2,0:1:0:0:
188,256,72621,2,0,L|175:97,1,127.5
104,76,72904,6,0,P|90:104|88:136,1,63.7500024318696,6|0,0:0|0:0,0:0:0:0:
168,219,73046,2,0,P|199:215|228:202,1,63.7500024318696
260,91,73187,2,0,P|241:65|215:46,1,63.7500024318696,8|0,0:0|0:0,0:0:0:0:
177,128,73329,1,0,0:0:0:0:
355,205,73470,5,2,0:0:0:0:
316,179,73540,1,0,0:0:0:0:
269,178,73611,1,0,0:0:0:0:
228,202,73682,1,0,0:0:0:0:
205,243,73753,2,0,L|127:233,1,63.7500024318696,8|0,0:0|0:0,0:0:0:0:
292,328,73895,1,0,0:0:0:0:
292,328,73966,1,0,0:0:0:0:
296,332,74036,6,0,P|300:300|294:269,1,63.7500024318696,2|0,0:0|0:0,0:0:0:0:
275,91,74178,2,0,P|300:110|330:120,1,63.7500024318696
494,193,74319,2,0,P|464:205|440:225,1,63.7500024318696,8|0,0:0|0:0,0:0:0:0:
355,205,74461,1,0,0:0:0:0:
464,340,74602,5,2,0:0:0:0:
464,340,74673,1,0,0:0:0:0:
464,340,74744,2,0,L|384:348,1,63.7500024318696
320,352,74885,1,8,0:0:0:0:
508,272,75027,1,2,0:0:0:0:
281,217,75168,6,0,B|265:249|265:249|268:278,1,63.7500024318696,6|0,0:0|0:0,0:0:0:0:
139,332,75310,2,0,B|119:302|119:302|91:289,1,63.7500024318696
111,151,75451,2,0,B|146:148|146:148|170:131,1,63.7500024318696,8|0,0:0|0:0,0:0:0:0:
177,233,75593,1,0,0:0:0:0:
240,40,75735,5,2,0:0:0:0:
240,40,75805,1,0,0:0:0:0:
240,40,75876,2,0,L|252:128,1,63.7500024318696
400,224,76018,2,0,L|408:148,1,63.7500024318696,8|0,0:0|0:0,0:0:0:0:
177,233,76159,1,0,0:0:0:0:
177,233,76230,1,0,0:0:0:0:
177,233,76301,5,2,0:0:0:0:
217,208,76371,1,0,0:0:0:0:
264,208,76442,1,0,0:0:0:0:
304,233,76513,1,0,0:0:0:0:
324,276,76584,5,8,0:0:0:0:
128,144,76725,1,0,0:0:0:0:
384,96,76867,1,2,0:0:0:0:
264,208,77008,2,0,L|256:164,4,31.8750012159348,0|0|0|0|8,0:0|0:0|0:0|0:0|0:0,0:0:0:0:
236,28,77291,2,0,L|245:91,1,63.7500024318696
282,324,77433,5,4,1:2:0:0:
462,181,77574,5,0,1:0:0:0:
50,203,77857,5,2,1:0:0:0:
356,152,78140,5,2,1:0:0:0:
156,232,78423,5,2,1:0:0:0:
254,176,78706,5,2,1:0:0:0:
256,192,78777,1,0,0:0:0:0:
258,208,78848,1,0,0:0:0:0:
273,308,78989,5,0,1:0:0:0:
239,76,79131,1,2,1:0:0:0:
239,76,79414,2,0,L|232:36,6,31.8750012159348,0|0|0|0|0|0|0,1:0|0:0|0:0|0:0|0:0|0:0|0:0,0:0:0:0:
316,132,79697,6,0,B|243:107|243:107|179:151,1,148.750001418591,6|0,1:0|0:0,0:0:0:0:
84,92,79909,2,0,B|52:64|52:64|76:192,1,148.750001418591,2|0,1:0|0:0,0:0:0:0:
100,296,80121,1,0,1:0:0:0:
100,296,80192,1,0,0:0:0:0:
100,296,80263,6,0,P|112:240|32:260,1,148.750001418591,6|0,1:0|0:0,0:0:0:0:
160,344,80475,2,0,B|188:316|192:276|192:276|216:308|252:320,1,148.750001418591,2|0,1:0|0:0,0:0:0:0:
305,166,80687,1,2,1:0:0:0:
305,166,80758,1,0,0:0:0:0:
305,166,80829,6,0,P|246:194|284:248,1,148.750001418591,6|0,1:0|0:0,0:0:0:0:
374,370,81041,2,0,B|366:314|366:314|374:286|374:286|362:210,1,148.750001418591,2|0,1:0|0:0,0:0:0:0:
472,8,81253,2,0,L|468:82,1,74.3750007092953,2|0,1:0|0:0,0:0:0:0:
496,166,81395,6,2,L|364:152,1,110.499994941712,2|2,1:0|0:0,0:0:0:0:
386,154,81607,1,0,0:0:0:0:
386,154,81678,6,0,B|423:129|387:80|322:71|302:113|280:200|373:227,1,255,8|0,0:0|0:0,0:0:0:0:
496,166,81961,5,4,0:0:0:0:
265,262,82244,5,0,0:0:0:0:
196,229,82385,1,0,0:0:0:0:
123,242,82527,2,0,P|100:253|82:271,1,50.9999984436036
73,286,82668,2,0,L|64:194,2,76.4999976654053,2|0|0,0:0|0:0|0:0,0:0:0:0:
57,134,83093,6,0,L|49:70,2,50.9999984436036,2|2|0,0:0|0:0|0:0,0:0:0:0:
73,286,83376,2,0,L|81:350,2,50.9999984436036,2|2|0,0:0|0:0|0:0,0:0:0:0:
65,210,83659,5,2,0:0:0:0:
65,210,83942,2,0,B|161:174|137:254|261:206,1,165.749992412568,0|0,1:0|0:0,0:0:0:0:
303,164,84225,6,0,L|292:77,1,85,4|0,1:2|0:0,0:0:0:0:
312,257,84508,1,0,0:0:0:0:
396,137,84650,1,2,0:0:0:0:
396,137,84720,1,0,0:0:0:0:
396,137,84791,2,0,L|440:125,6,42.5,2|0|0|0|0|0|0,0:0|0:0|0:0|0:0|0:0|0:0|0:0,0:0:0:0:
312,257,85357,6,0,L|224:245,1,85,0|0,1:0|0:0,0:0:0:0:
215,243,85569,1,0,0:0:0:0:
203,240,85640,2,0,L|196:184,3,42.5,2|0|0|0,0:0|0:0|0:0|0:0,0:0:0:0:
136,144,85923,5,2,0:1:0:0:
265,307,86065,1,2,0:1:0:0:
161,322,86206,5,2,1:1:0:0:
237,128,86348,1,2,0:1:0:0:
369,292,86489,6,0,P|420:308|492:236,1,140.25000428009,6|0,1:2|0:0,0:0:0:0:
492,248,86772,2,0,P|496:224|490:195,1,46.7500014266968,8|0,0:0|0:0,0:0:0:0:
448,104,86914,2,0,B|340:84|380:172|276:152,1,187.000005706787,0|2,0:0|0:0,0:0:0:0:
112,96,87338,1,8,0:0:0:0:
204,220,87480,1,0,0:0:0:0:
204,220,87551,1,0,0:0:0:0:
204,220,87621,6,0,L|188:64,1,140.25000428009,6|0,0:0|0:0,0:0:0:0:
188,66,87904,2,0,L|182:9,1,46.7500014266968,8|0,0:0|0:0,0:0:0:0:
136,276,88046,1,0,0:0:0:0:
136,276,88117,2,0,B|184:248|184:248|292:284,1,140.25000428009,2|2,0:0|0:0,0:0:0:0:
420,320,88470,1,8,0:0:0:0:
408,220,88612,1,0,0:0:0:0:
396,120,88753,6,0,L|280:104,1,110.499994941712,2|0,1:0|1:0,0:0:0:0:
286,104,88942,2,0,P|284:140|312:192,1,73.6666632944744,2|0,0:1|0:0,0:0:0:0:
505,135,89131,2,0,P|507:99|479:47,1,73.6666632944744,2|0,0:1|0:0,0:0:0:0:
381,10,89319,6,0,L|396:120,1,110.499994941712,2|0,1:0|1:0,0:0:0:0:
396,120,89508,2,0,L|322:110,1,73.6666632944744,2|0,0:1|0:0,0:0:0:0:
116,208,89697,2,0,L|190:198,1,73.6666632944744,2|0,0:1|0:0,0:0:0:0:
352,360,89885,5,2,1:0:0:0:
404,284,90027,2,2,B|340:272|340:272|288:296|288:296|220:284,1,187.000005706787,0|0,1:0|0:1,0:1:0:0:
32,344,90451,1,0,1:0:0:0:
138,377,90593,6,0,L|130:301,1,55.2499974708558,0|0,1:0|0:0,0:0:0:0:
126,268,90735,6,0,L|118:191,1,46.7500014266968
116,180,90876,6,0,L|108:107,1,38.2499988327027
108,104,91018,5,4,0:0:0:0:
42,253,91159,1,0,0:0:0:0:
42,253,91230,1,2,0:0:0:0:
204,234,91371,1,0,0:0:0:0:
204,234,91442,1,2,0:0:0:0:
116,180,91584,5,0,0:0:0:0:
118,199,91654,1,0,0:0:0:0:
120,218,91725,2,0,L|124:256,2,38.2499988327027,0|0|2,0:0|0:0|0:0,0:0:0:0:
28,196,92008,5,0,0:0:0:0:
28,196,92079,1,0,0:0:0:0:
28,196,92150,1,2,0:0:0:0:
198,112,92291,1,0,0:0:0:0:
198,112,92362,1,2,0:0:0:0:
44,72,92503,1,0,0:0:0:0:
44,72,92574,1,2,0:0:0:0:
116,180,92716,5,0,0:0:0:0:
118,199,92786,1,0,0:0:0:0:
120,218,92857,2,0,L|125:257,2,38.2499988327027,0|0|2,0:0|0:0|0:0,0:0:0:0:
192,326,93140,5,0,0:0:0:0:
192,326,93211,1,0,0:0:0:0:
192,326,93282,1,2,0:0:0:0:
38,286,93423,1,0,0:0:0:0:
38,286,93494,1,2,0:0:0:0:
208,202,93635,1,0,0:0:0:0:
208,202,93706,1,2,0:0:0:0:
116,180,93848,5,0,0:0:0:0:
118,199,93918,1,0,0:0:0:0:
120,218,93989,2,0,L|124:256,2,38.2499988327027,0|0|2,0:0|0:0|0:0,0:0:0:0:
134,93,94272,5,0,0:0:0:0:
134,93,94343,1,0,0:0:0:0:
134,93,94414,2,0,B|102:90|102:90|72:100,1,63.7500024318696,4|0,1:2|0:0,0:0:0:0:
106,343,94555,2,0,B|137:345|137:345|167:335,1,63.7500024318696,0|0,1:0|0:0,0:0:0:0:
332,224,94697,6,0,L|316:136,1,63.7500024318696,4|0,1:2|0:0,0:0:0:0:
191,161,94838,1,0,1:0:0:0:
191,161,94909,1,0,0:0:0:0:
191,161,94980,2,0,L|180:224,1,63.7500024318696,4|0,1:2|0:0,0:0:0:0:
344,335,95121,6,0,P|434:343|477:263,1,191.250007295609,0|0,1:0|0:0,0:0:0:0:
478,250,95404,2,0,P|471:219|452:193,1,63.7500024318696,8|0,0:0|0:0,0:0:0:0:
206,201,95546,6,0,L|332:224,1,127.500004863739,6|0,0:0|0:0,0:0:0:0:
332,224,95758,2,0,B|356:176|356:176|336:84,1,127.500004863739
256,28,95970,2,0,L|248:100,1,63.7500024318696
422,228,96112,5,2,0:0:0:0:
377,211,96182,1,0,0:0:0:0:
332,224,96253,1,0,0:0:0:0:
304,262,96324,1,0,0:0:0:0:
303,309,96395,1,8,0:0:0:0:
452,96,96536,1,0,0:0:0:0:
452,96,96607,1,0,0:0:0:0:
452,96,96678,6,0,P|380:112|336:64,1,127.500004863739,6|0,0:0|0:0,0:0:0:0:
226,52,96890,2,0,P|284:32|335:67,1,127.500004863739
287,185,97102,2,0,P|273:156|270:124,1,63.7500024318696
363,217,97244,6,0,P|344:243|319:261,1,63.7500024318696,2|0,0:0|0:0,0:0:0:0:
121,205,97385,1,0,0:0:0:0:
121,205,97456,1,0,0:0:0:0:
121,205,97527,2,0,P|107:176|104:144,1,63.7500024318696,8|0,0:0|0:0,0:0:0:0:
171,20,97668,2,0,P|145:38|127:64,1,63.7500024318696
178,265,97810,6,0,P|206:278|242:280,1,67.9999979248048,2|0,1:0|0:0,0:0:0:0:
306,231,97999,2,0,P|280:249|260:279,1,67.9999979248048,2|0,0:1|0:0,0:0:0:0:
271,358,98187,2,0,P|267:326|252:294,1,67.9999979248048,2|0,0:1|0:0,0:0:0:0:
155,249,98376,6,0,P|191:228|208:190,1,85.0000032424928,2|0,1:0|0:0,0:0:0:0:
330,219,98565,2,0,P|330:260|354:295,1,85.0000032424928,2|0,0:1|0:0,0:0:0:0:
268,384,98753,2,0,P|231:363|190:366,1,85.0000032424928,2|0,0:1|0:0,0:0:0:0:
68,168,98942,5,2,1:0:0:0:
129,124,99036,1,0,1:0:0:0:
204,135,99130,1,2,1:0:0:0:
249,196,99225,1,0,1:0:0:0:
294,257,99320,1,2,1:0:0:0:
369,268,99414,1,0,1:0:0:0:
430,224,99508,5,2,0:1:0:0:
430,224,99791,2,0,L|416:80,1,114.749996498108
418,109,100074,6,0,P|391:125|359:127,1,63.7500024318696,6|0,0:0|0:0,0:0:0:0:
184,107,100216,2,0,P|211:123|228:149,1,63.7500024318696
299,311,100357,2,0,P|299:279|313:250,1,63.7500024318696,8|0,0:0|0:0,0:0:0:0:
300,176,100499,1,0,0:0:0:0:
192,292,100640,5,2,0:0:0:0:
192,292,100711,1,0,0:0:0:0:
192,292,100782,2,0,L|100:288,1,63.7500024318696
56,256,100923,1,8,0:0:0:0:
264,325,101065,1,0,0:0:0:0:
184,107,101206,6,0,P|197:135|201:167,1,63.7500024318696,2|0,0:0|0:0,0:0:0:0:
391,202,101348,2,0,P|406:174|429:152,1,63.7500024318696
316,79,101490,2,0,L|304:141,1,63.7500024318696,8|0,0:0|0:0,0:0:0:0:
288,228,101631,1,0,0:0:0:0:
408,72,101772,5,2,0:0:0:0:
363,87,101842,1,0,0:0:0:0:
316,79,101913,1,0,0:0:0:0:
280,49,101984,1,0,0:0:0:0:
264,4,102055,2,0,L|168:12,1,63.7500024318696,8|0,0:0|0:0,0:0:0:0:
8,132,102197,2,0,L|104:140,1,63.7500024318696,2|0,0:0|0:0,0:0:0:0:
140,200,102338,5,4,1:2:0:0:
112,8,102480,1,4,1:2:0:0:
108,24,102551,1,0,0:0:0:0:
104,40,102621,5,2,0:0:0:0:
144,31,102692,1,2,0:0:0:0:
184,22,102763,1,2,0:0:0:0:
224,13,102834,1,2,0:0:0:0:
264,4,102904,5,4,1:2:0:0:
292,196,103046,1,4,1:2:0:0:
296,180,103117,1,0,0:0:0:0:
300,164,103187,5,2,0:0:0:0:
260,173,103258,1,2,0:0:0:0:
220,182,103329,1,2,0:0:0:0:
180,191,103400,1,2,0:0:0:0:
140,200,103470,5,4,1:2:0:0:
356,133,103612,1,4,1:2:0:0:
189,287,103753,2,0,L|160:328,4,31.8750012159348,8|0|0|0|0,0:0|0:0|0:0|0:0|0:0,0:0:0:0:
274,77,104036,1,4,1:2:0:0:
289,303,104178,1,4,1:2:0:0:
176,106,104319,2,0,L|152:76,4,31.8750012159348,8|0|0|0|0,0:0|0:0|0:0|0:0|0:0,0:0:0:0:
363,235,104602,1,4,1:2:0:0:
372,48,104744,5,0,1:0:0:0:
140,336,105027,5,2,1:0:0:0:
280,96,105310,5,0,1:0:0:0:
232,288,105593,5,2,1:0:0:0:
236,188,105876,5,0,1:0:0:0:
256,192,105947,1,0,0:0:0:0:
276,196,106018,1,0,0:0:0:0:
360,172,106159,1,0,1:0:0:0:
152,212,106301,1,2,1:0:0:0:
80,160,106442,5,2,0:0:0:0:
80,160,106513,1,0,0:0:0:0:
80,160,106584,1,8,0:0:0:0:
432,224,106725,1,8,0:0:0:0:
224,264,106867,5,2,0:0:0:0:
224,264,107008,1,0,0:0:0:0:
288,120,107291,1,2,0:0:0:0:
152,212,107574,1,2,0:0:0:0:
360,172,107857,1,2,0:0:0:0:
80,160,108140,5,2,0:0:0:0:
297,184,108282,2,0,L|360:172,1,63.7500024318696,2|0,0:0|0:0,0:0:0:0:
215,200,108565,2,0,L|152:212,1,63.7500024318696,2|0,0:0|0:0,0:0:0:0:
432,224,108848,2,0,L|495:212,1,63.7500024318696,4|0,0:0|0:0,0:0:0:0:
494,212,109131,5,6,1:0:0:0:
247,56,111112,6,0,B|242:87|242:87|224:113,1,63.7500024318696,2|0,0:1|0:0,0:0:0:0:
412,92,111253,2,0,B|387:71|387:71|375:43,1,63.7500024318696,2|0,0:1|0:0,0:0:0:0:
320,116,111395,6,0,L|340:260,1,127.500004863739,6|0,1:0|0:0,0:0:0:0:
420,276,111607,2,0,P|368:276|328:360,1,127.500004863739,2|0,1:0|0:0,0:0:0:0:
236,224,111819,2,0,P|255:248|260:279,1,63.7500024318696,2|0,1:0|0:0,0:0:0:0:
48,252,111961,6,0,B|136:236|100:296|196:280,1,144.500002756119,6|0,1:0|0:0,0:0:0:0:
154,59,112173,2,0,B|132:112|132:112|156:196,1,144.500002756119,2|0,1:0|0:0,0:0:0:0:
291,122,112385,2,0,L|220:116,1,72.2500013780594,2|0,1:0|0:0,0:0:0:0:
220,116,112527,6,0,B|294:140|294:140|372:96,1,161.499995687485,6|0,1:0|0:0,0:0:0:0:
272,312,112739,2,0,B|255:235|255:235|178:190,1,161.499995687485,2|0,1:0|0:0,0:0:0:0:
388,196,112951,2,0,B|358:222|358:222|358:266,1,80.7499978437424,2|0,1:0|0:0,0:0:0:0:
180,292,113093,6,0,L|40:284,1,127.5,6|0,1:0|0:0,0:0:0:0:
28,296,113376,1,8,0:0:0:0:
24,245,113446,1,0,0:0:0:0:
20,195,113517,1,0,0:0:0:0:
16,145,113588,1,0,0:0:0:0:
13,94,113659,6,0,L|10:51,6,26.5625,2|0|0|0|0|0|0,0:0|0:0|0:0|0:0|0:0|0:0|0:0,0:0:0:0:
20,195,113942,1,12,0:0:0:0:
112,104,114084,6,0,B|208:80|176:156|280:132,1,165.749992412568
267,134,114367,1,2,0:0:0:0:
140,184,114508,1,8,0:0:0:0:
248,52,114650,1,0,0:0:0:0:
388,224,114791,6,0,P|336:204|282:211,1,110.499994941712,2|0,0:0|0:0,0:0:0:0:
282,211,115003,1,0,0:0:0:0:
282,211,115074,1,8,0:0:0:0:
425,154,115216,2,0,P|348:124|267:134,1,165.749992412568,2|0,0:0|0:0,0:0:0:0:
267,134,115499,1,2,0:0:0:0:
332,288,115640,1,8,0:0:0:0:
356,88,115782,1,0,0:0:0:0:
146,136,115923,6,0,L|162:248,1,110.499994941712,2|0,0:0|0:0,0:0:0:0:
167,269,116135,1,0,0:0:0:0:
167,269,116206,2,0,L|100:264,1,55.2499974708558,8|0,0:0|0:0,0:0:0:0:
19,74,116348,2,0,B|79:78|79:78|123:50|123:50|177:53,1,165.749992412568
177,53,116631,1,2,0:0:0:0:
111,263,116772,2,0,L|222:273,1,110.499994941712,8|0,0:0|0:0,0:0:0:0:
320,64,117055,6,0,L|328:136,1,55.2499974708558,2|0,0:0|0:0,0:0:0:0:
352,328,117197,2,0,L|344:256,1,55.2499974708558
336,196,117339,1,8,0:0:0:0:
488,157,117480,2,0,B|388:133|424:217|324:193,1,165.749992412568,2|0,0:0|0:0,0:0:0:0:
260,168,117763,1,2,0:0:0:0:
116,268,117904,1,8,0:0:0:0:
152,249,117974,1,0,0:0:0:0:
193,250,118045,1,0,0:0:0:0:
228,272,118116,1,0,0:0:0:0:
248,307,118187,6,0,L|235:223,1,55.2499974708558,6|0,0:0|0:0,0:0:0:0:
272,29,118329,1,0,0:0:0:0:
272,29,118400,1,0,0:0:0:0:
272,29,118470,2,0,L|284:112,1,55.2499974708558,8|0,0:0|0:0,0:0:0:0:
260,167,118612,2,0,P|183:156|176:80,1,165.749992412568
176,80,118895,2,0,P|152:128|80:128,1,110.499994941712,2|8,0:0|0:0,0:0:0:0:
16,104,119178,1,0,0:0:0:0:
80,324,119319,6,0,L|92:208,1,110.499994941712,6|0,0:0|0:0,0:0:0:0:
99,137,119532,1,0,0:0:0:0:
99,137,119602,1,8,0:0:0:0:
332,208,119744,2,0,B|228:192|280:276|156:256,1,165.749992412568,2|0,0:0|0:0,0:0:0:0:
182,258,120027,1,2,0:0:0:0:
413,137,120168,2,0,L|425:253,1,110.499994941712,8|0,0:0|0:0,0:0:0:0:
432,324,120381,1,0,0:0:0:0:
432,324,120451,5,6,0:0:0:0:
196,180,120593,1,0,0:0:0:0:
196,180,120664,1,0,0:0:0:0:
196,180,120735,1,8,0:0:0:0:
404,56,120876,1,2,0:0:0:0:
108,56,121018,5,4,0:0:0:0:
316,180,121159,1,2,0:0:0:0:
316,180,121230,1,0,0:0:0:0:
316,180,121301,1,8,0:0:0:0:
80,324,121441,1,2,0:0:0:0:
36,248,121584,6,0,P|70:236|100:239,1,62.3333352355958,2|0,1:0|0:0,0:0:0:0:
123,247,121772,2,0,P|150:270|162:298,1,62.3333352355958,2|0,1:0|0:0,0:0:0:0:
167,321,121961,2,0,P|160:356|141:381,1,62.3333352355958,2|0,1:0|0:0,0:0:0:0:
23,260,122150,6,0,P|24:217|12:176,1,85.0000032424928,2|0,1:0|0:0,0:0:0:0:
173,47,122338,2,0,P|209:68|251:78,1,85.0000032424928,2|0,1:0|0:0,0:0:0:0:
283,282,122527,2,0,P|246:303|216:334,1,85.0000032424928,2|0,1:0|0:0,0:0:0:0:
160,196,122715,5,2,1:0:0:0:
160,196,122999,5,12,0:0:0:0:
204,210,123069,1,0,0:0:0:0:
250,200,123140,1,0,0:0:0:0:
284,167,123211,1,0,0:0:0:0:
296,121,123282,6,0,L|288:36,1,63.7500024318696,2|0,0:0|0:0,0:0:0:0:
400,200,123423,1,0,0:0:0:0:
400,200,123494,2,0,B|344:192|344:192|316:204|316:204|264:196,1,127.500004863739
353,339,123706,2,0,L|359:275,1,63.7500024318696
460,144,123848,5,2,0:0:0:0:
280,280,123989,1,0,0:0:0:0:
484,364,124131,1,8,0:0:0:0:
481,348,124201,1,0,0:0:0:0:
479,332,124272,1,0,0:0:0:0:
476,316,124343,1,0,0:0:0:0:
474,300,124414,6,0,P|415:278|361:307,1,127.500004863739,2|0,0:0|0:0,0:0:0:0:
316,368,124626,1,0,0:0:0:0:
316,368,124697,2,0,L|240:360,1,63.7500024318696,8|0,0:0|0:0,0:0:0:0:
144,224,124838,2,0,L|220:216,1,63.7500024318696
158,352,124980,6,0,B|78:336|114:392|22:376,1,127.500004863739,6|0,0:0|0:0,0:0:0:0:
20,373,125192,1,0,0:0:0:0:
20,373,125263,2,0,P|20:341|13:310,1,63.7500024318696,8|0,0:0|0:0,0:0:0:0:
207,217,125404,2,0,P|199:247|200:279,1,63.7500024318696
99,242,125546,5,6,0:0:0:0:
80,134,125687,1,0,0:0:0:0:
80,134,125757,1,0,0:0:0:0:
80,134,125828,1,8,0:0:0:0:
14,311,125970,1,0,0:0:0:0:
200,279,126112,6,0,L|268:272,2,63.7500024318696,2|0|0,0:0|0:0|0:0,0:0:0:0:
117,250,126324,1,0,0:0:0:0:
117,250,126395,2,0,B|112:292|112:292|128:332,1,74.3750007092953,8|0,0:0|0:0,0:0:0:0:
346,301,126536,2,0,B|351:259|351:259|335:219,1,74.3750007092953,2|0,0:0|0:0,0:0:0:0:
184,116,126678,6,2,L|92:92,2,85.0000032424928,2|2|2,0:1|0:1|0:1,0:1:0:0:
328,116,126961,2,2,L|420:92,2,85.0000032424928,2|2|2,0:1|0:1|0:1,0:1:0:0:
256,184,127244,5,4,0:0:0:0:
256,48,127527,1,0,0:0:0:0:
256,48,127668,1,0,0:0:0:0:
256,350,127951,5,0,0:0:0:0:
256,350,128021,1,0,0:0:0:0:
256,350,128093,2,2,L|256:183,1,167.025003058319,2|0,1:0|0:0,1:0:0:0:
254,110,128376,5,2,1:0:0:0:
316,145,128470,1,0,1:0:0:0:
316,218,128565,1,0,1:0:0:0:
254,256,128658,1,2,1:0:0:0:
190,218,128753,1,0,1:0:0:0:
190,145,128848,1,0,1:0:0:0:
256,128,128942,5,2,1:0:0:0:
303,154,129036,1,0,1:0:0:0:
303,210,129131,1,0,1:0:0:0:
256,238,129225,1,2,1:0:0:0:
207,210,129319,1,0,1:0:0:0:
207,154,129414,1,0,1:0:0:0:
256,183,129508,6,0,L|256:251,1,55.6750010194397,6|0,0:0|0:0,0:0:0:0:
232,336,129650,1,2,0:0:0:0:
232,336,129720,1,0,0:0:0:0:
231,336,129791,2,0,P|257:329|285:328,1,55.6750010194397,8|0,0:0|0:0,0:0:0:0:
396,224,129933,2,0,P|368:223|341:216,1,55.6750010194397,2|0,0:0|0:0,0:0:0:0:
172,136,130074,5,6,0:0:0:0:
170,122,130144,1,0,0:0:0:0:
169,108,130215,1,2,0:0:0:0:
168,94,130286,1,0,0:0:0:0:
166,80,130357,5,8,0:0:0:0:
210,112,130427,1,2,0:0:0:0:
227,164,130498,1,2,0:0:0:0:
212,216,130569,1,2,0:0:0:0:
169,250,130640,5,2,0:0:0:0:
140,168,130782,1,2,0:1:0:0:
372,168,130923,5,0,0:0:0:0:
357,209,130994,1,0,0:0:0:0:
342,250,131065,1,2,0:1:0:0:
224,84,131206,6,2,L|300:84,1,63.75,2|2,0:1|0:1,0:1:0:0:
270,160,131489,1,2,0:0:0:0:
263,160,131560,1,2,0:0:0:0:
256,160,131631,1,2,0:0:0:0:
249,160,131701,1,2,0:0:0:0:
242,160,131772,5,6,0:0:0:0:
248,232,131914,1,0,0:0:0:0:
254,304,132055,1,2,0:0:0:0:
260,376,132197,1,0,0:0:0:0:
188,344,132338,5,2,0:0:0:0:
182,272,132479,1,0,0:0:0:0:
176,200,132621,1,2,0:0:0:0:
112,244,132763,5,2,0:0:0:0:
118,316,133046,1,2,0:0:0:0:
319,130,133894,5,0,0:0:0:0:
329,129,133965,1,0,0:0:0:0:
339,128,134036,1,2,0:0:0:0:
334,177,134178,1,0,0:0:0:0:
330,226,134319,1,2,0:0:0:0:
326,275,134461,1,0,0:0:0:0:
408,156,134602,5,2,0:0:0:0:
403,205,134744,1,0,0:0:0:0:
399,254,134885,1,2,0:0:0:0:
476,188,135027,5,2,0:0:0:0:
472,237,135310,1,2,0:0:0:0:
326,275,135593,5,0,0:0:0:0:
330,226,135735,2,0,L|339:114,1,101.999996887207
96,84,136301,5,2,0:0:0:0:
107,119,136442,1,0,0:0:0:0:
98,156,136584,1,2,0:0:0:0:
72,182,136725,5,0,0:0:0:0:
96,84,136867,1,2,0:0:0:0:
191,52,137008,1,0,0:0:0:0:
266,119,137150,1,2,0:0:0:0:
246,217,137291,5,2,0:0:0:0:
150,248,137574,1,2,0:0:0:0:
145,145,138423,5,0,0:0:0:0:
158,147,138494,1,0,0:0:0:0:
171,149,138564,1,2,0:0:0:0:
235,98,138706,1,0,0:0:0:0:
317,118,138848,1,2,0:0:0:0:
233,284,138989,5,0,0:0:0:0:
169,230,139131,1,2,0:0:0:0:
171,149,139272,1,0,0:0:0:0:
351,193,139414,5,2,0:0:0:0:
313,267,139555,1,2,0:0:0:0:
256,192,139838,5,2,0:0:0:0:
