osu file format v14

[General]
AudioFilename: gg no re.mp3
AudioLeadIn: 0
PreviewTime: 363
Countdown: 0
SampleSet: Soft
StackLeniency: 0.8
Mode: 0
LetterboxInBreaks: 0
WidescreenStoryboard: 1

[Editor]
DistanceSpacing: 1.9
BeatDivisor: 8
GridSize: 8
TimelineZoom: 3.099999

[Metadata]
Title:Re:End of a Dream
TitleUnicode:Re:End of a Dream
Artist:uma vs. Morimori Atsushi
ArtistUnicode:uma vs. モリモリあつし
Creator:Battle
Version:VINXIS' Insane
Source:BMS
Tags:superalloys masiro vs adaptor hobbes2 toybot vinxis liiraye lasse regraz
BeatmapID:1265438
BeatmapSetID:557039

[Difficulty]
HPDrainRate:6
CircleSize:3.8
OverallDifficulty:7
ApproachRate:9
SliderMultiplier:1.8
SliderTickRate:1

[Events]
//Background and Video events
0,0,"end.jpg",0,0
Video,0,"anime.avi"
//Break Periods
2,27809,32664
2,82161,83625
2,91218,93672
2,107067,108248
2,109331,110512
//Storyboard Layer 0 (Background)
//Storyboard Layer 1 (Fail)
//Storyboard Layer 2 (Pass)
//Storyboard Layer 3 (Foreground)
//Storyboard Sound Samples

[TimingPoints]
434,283.018867924528,4,2,3,60,1,0
8924,-166.666666666667,4,2,3,60,0,0
9207,-125,4,2,3,60,0,0
9490,-111.111111111111,4,2,3,80,0,0
14018,-111.111111111111,4,2,1,80,0,0
18830,-100,4,2,1,80,0,0
27320,-125,4,2,1,70,0,0
27603,-125,4,2,2,60,0,0
33264,-166.666666666667,4,2,3,60,0,0
35245,-142.857142857143,4,2,3,60,0,0
35528,-125,4,2,1,60,0,0
36094,-111.111111111111,4,2,1,60,0,0
36377,-100,4,2,1,60,0,0
36660,-125,4,2,1,60,0,0
36943,-111.111111111111,4,2,1,80,0,0
41188,-90.9090909090908,4,2,1,80,0,0
41613,-111.111111111111,4,2,1,80,0,0
43452,-99.9999999999999,4,2,1,80,0,0
45717,-142.857142857143,4,2,1,60,0,0
54490,-142.857142857143,4,2,3,60,0,0
54791,283.018867924528,4,1,3,80,1,0
54791,-117.647058823529,4,1,3,80,0,0
59319,-117.647058823529,4,2,1,70,0,0
61583,-117.647058823529,4,2,3,70,0,0
61772,-117.647058823529,4,1,3,70,0,0
63423,-117.647058823529,4,2,1,70,0,0
63847,-100,4,2,1,70,0,0
70640,-111.111111111111,4,2,1,70,0,0
72904,-100,4,2,1,70,0,0
85923,-133.333333333333,4,2,1,70,0,0
89319,-105.263157894737,4,2,1,70,0,0
89885,-86.9565217391304,4,2,1,70,0,0
90734,-100,4,2,1,70,0,0
94413,-86.9565217391303,4,2,1,70,0,0
97809,-100,4,2,1,70,0,0
100074,-86.9565217391303,4,2,1,70,0,0
108847,-100,4,2,1,70,0,0
122715,-83.3333333333333,4,2,1,70,0,0
125545,-71.4285714285714,4,2,1,70,0,0
128658,-83.3333333333333,4,2,1,70,0,0
128941,-100,4,2,1,70,0,0
129224,-125,4,2,1,70,0,0
129507,-86.9565217391303,4,2,1,70,0,0
130640,-133.333333333333,4,2,1,70,0,0

[Colours]
Combo1 : 253,153,104
Combo2 : 181,165,254
Combo3 : 152,243,97
Combo4 : 107,192,220

[HitObjects]
144,120,8924,6,0,L|98:125,3,26.9999991760254
292,147,9207,6,0,L|338:152,3,36
208,172,9490,6,0,L|197:278,2,80.9999975280763,2|0|2,3:2|0:0|0:0,0:0:0:0:
241,47,9915,2,0,B|279:27|319:37|319:37|356:20|401:26,1,161.999995056153
398,25,10339,2,0,P|393:73|390:129,1,80.9999975280763
435,240,10622,6,0,L|338:230,2,80.9999975280763,2|0|2,0:0|0:0|0:0,0:0:0:0:
366,337,11047,2,0,B|299:327|299:327|276:300|276:300|181:285,1,161.999995056153
67,273,11471,1,0,0:0:0:0:
128,356,11613,1,0,0:0:0:0:
156,216,11754,6,0,L|165:122,2,80.9999975280763,2|0|2,0:0|0:0|0:0,0:0:0:0:
105,54,12179,2,0,B|161:21|212:49|212:49|242:43|269:11,1,161.999995056153
254,25,12603,2,0,P|262:80|277:108,1,80.9999975280763
381,209,12886,6,0,L|377:250,2,40.4999987640381,2|0|0,0:0|0:0|0:0,0:0:0:0:
393,99,13169,1,2,0:0:0:0:
287,197,13311,2,0,L|273:365,1,161.999995056153
163,266,13735,1,0,0:0:0:0:
163,266,14018,6,0,L|71:268,1,80.9999975280763,8|0,0:0|0:0,0:0:0:0:
256,168,14301,2,0,L|164:166,1,80.9999975280763,8|0,0:0|0:0,0:0:0:0:
352,273,14584,6,0,L|260:275,1,80.9999975280763,8|0,0:0|0:0,0:0:0:0:
445,175,14867,2,0,L|353:173,1,80.9999975280763,8|0,0:0|0:0,0:0:0:0:
271,274,15150,6,0,P|259:312|254:352,1,80.9999975280763,8|0,0:0|0:0,0:0:0:0:
364,173,15433,2,0,P|359:132|347:94,1,80.9999975280763,8|0,0:0|0:0,0:0:0:0:
82,267,15717,6,0,P|70:305|65:345,1,80.9999975280763,8|0,0:0|0:0,0:0:0:0:
175,166,16000,2,0,P|170:125|158:87,1,80.9999975280763,8|0,0:0|0:0,0:0:0:0:
187,267,16283,5,8,0:0:0:0:
308,269,16424,1,8,0:0:0:0:
187,267,16566,5,8,0:0:0:0:
308,269,16707,1,8,0:0:0:0:
366,200,16849,5,8,0:0:0:0:
374,327,16990,1,8,0:0:0:0:
246,336,17132,1,8,0:0:0:0:
238,208,17273,1,8,0:0:0:0:
308,269,17415,6,0,L|445:254,2,107.999996704102,2|2|2,0:0|0:0|0:0,0:0:0:0:
156,113,17981,2,0,L|19:128,2,107.999996704102,2|2|2,0:0|0:0|0:0,0:0:0:0:
288,99,18547,6,0,L|327:96,8,20.2499993820191,0|0|0|0|0|0|0|0|12,0:0|0:0|0:0|0:0|0:0|0:0|0:0|0:0|0:0,0:0:0:0:
232,191,18971,2,0,P|231:237|241:372,1,180,2|2,0:0|0:0,0:0:0:0:
240,370,19396,2,0,L|351:370,1,90,8|0,0:0|0:0,0:0:0:0:
504,228,19679,5,2,0:0:0:0:
344,234,19820,1,0,0:0:0:0:
431,369,19962,1,8,0:0:0:0:
428,276,20103,2,0,P|426:188|430:91,1,180,2|2,0:0|0:0,0:0:0:0:
345,36,20528,2,0,P|337:90|329:126,1,90,8|0,0:0|0:0,0:0:0:0:
251,194,20740,1,0,0:0:0:0:
251,194,20811,6,0,P|173:192|147:187,1,90
209,75,21094,1,8,0:0:0:0:
333,129,21235,2,0,L|512:114,1,180,2|2,0:0|0:0,0:0:0:0:
512,114,21660,2,0,P|499:159|490:204,1,90,8|0,0:0|0:0,0:0:0:0:
402,313,21943,5,2,0:0:0:0:
299,334,22084,1,0,0:0:0:0:
206,278,22226,1,8,0:0:0:0:
145,189,22367,2,0,P|156:103|173:8,1,180,2|2,0:0|0:0,0:0:0:0:
252,65,22792,2,0,L|402:71,1,135,8|0,0:0|0:0,0:0:0:0:
386,70,23075,6,0,P|397:116|399:164,2,90,2|0|8,0:0|0:0|0:0,0:0:0:0:
457,257,23500,2,0,P|473:208|471:74,1,180,2|2,0:0|0:0,0:0:0:0:
438,367,23924,2,0,P|481:342|519:308,1,90,8|0,0:0|0:0,0:0:0:0:
358,236,24207,5,2,0:0:0:0:
215,262,24349,1,0,0:0:0:0:
308,373,24490,1,8,0:0:0:0:
294,290,24632,2,0,P|306:234|293:102,1,180,2|2,0:0|0:0,0:0:0:0:
406,140,25056,1,8,0:0:0:0:
406,140,25198,1,0,0:0:0:0:
479,61,25339,6,0,L|486:11,7,45,8|8|8|8|8|8|8|8,0:0|0:0|0:0|0:0|0:0|0:0|0:0|0:0,0:0:0:0:
379,1,25905,2,0,L|372:51,7,45,8|8|8|8|8|8|8|8,0:0|0:0|0:0|0:0|0:0|0:0|0:0|0:0,0:0:0:0:
304,120,26471,6,0,L|311:213,1,90,2|0,0:0|0:0,0:0:0:0:
404,246,26754,2,0,L|397:339,1,90
245,348,27037,1,0,0:0:0:0:
245,348,27320,6,0,P|195:333|173:332,1,72
101,358,27603,5,4,2:3:0:0:
256,192,33264,12,0,34396,0:0:0:0:
175,85,34679,5,0,0:0:0:0:
175,85,34750,1,0,0:0:0:0:
175,85,34820,1,0,0:0:0:0:
175,85,34891,1,0,0:0:0:0:
175,85,34962,2,0,L|232:80,1,53.9999983520508
386,236,35245,6,0,L|323:230,1,62.9999980773926
271,165,35528,6,0,L|275:137,6,18,2|2|2|2|2|2|2,0:0|0:0|0:0|0:0|0:0|0:0|0:0,0:0:0:0:
323,230,35811,6,0,L|338:342,1,108,6|0,0:0|0:0,0:0:0:0:
202,235,36094,6,0,L|220:369,1,121.499996292114,6|0,0:0|0:0,0:0:0:0:
81,240,36377,6,0,L|99:374,1,135,6|0,0:0|0:0,0:0:0:0:
212,142,36660,6,0,L|101:127,1,108,2|0,0:0|0:0,0:0:0:0:
104,127,36943,5,6,0:0:0:0:
300,112,37084,2,0,L|316:247,1,121.499996292114
314,232,37367,1,0,0:0:0:0:
359,323,37509,1,10,0:0:0:0:
267,307,37650,1,0,0:0:0:0:
403,236,37792,6,0,L|388:115,1,121.499996292114,2|0,0:0|0:0,0:0:0:0:
388,115,38075,1,10,0:0:0:0:
267,307,38217,2,0,L|146:290,1,121.499996292114
146,290,38500,1,0,0:0:0:0:
105,201,38641,2,0,L|112:154,1,40.4999987640381,10|0,0:0|0:0,0:0:0:0:
214,173,38783,2,0,L|208:213,1,40.4999987640381
175,80,38924,6,0,L|296:97,1,121.499996292114,6|0,0:0|0:0,0:0:0:0:
295,96,39207,1,10,0:0:0:0:
20,115,39349,2,0,L|4:250,1,121.499996292114
6,235,39632,1,0,0:0:0:0:
95,319,39773,1,10,0:0:0:0:
14,321,39915,1,0,0:0:0:0:
96,241,40056,6,0,P|148:230|232:218,1,121.499996292114,2|0,0:0|0:0,0:0:0:0:
215,219,40339,2,0,L|210:304,1,80.9999975280763,10|0,0:0|0:0,0:0:0:0:
206,65,40622,1,2,0:0:0:0:
222,80,40693,2,0,L|356:76,1,121.499996292114,2|10,0:0|0:0,0:0:0:0:
439,217,41047,1,2,0:0:0:0:
439,217,41188,6,0,L|237:210,1,198.000006042481,2|0,0:0|0:0,0:0:0:0:
183,338,41613,6,0,L|356:332,1,161.999995056153,2|0,0:0|0:0,0:0:0:0:
434,330,42037,2,0,L|439:363,8,20.2499993820191,2|2|2|2|2|2|2|2|2,0:0|0:0|0:0|0:0|0:0|0:0|0:0|0:0|0:0,0:0:0:0:
471,207,42462,6,0,P|481:132|467:36,1,161.999995056153,0|2,0:0|0:0,0:0:0:0:
470,46,43028,1,0,0:0:0:0:
364,34,43169,1,0,0:0:0:0:
380,146,43311,2,0,L|373:176,2,20.2499993820191
378,156,43452,6,0,L|231:159,1,135,6|0,0:0|0:0,0:0:0:0:
205,161,43735,2,0,L|195:221,1,45,2|2,0:0|0:0,0:0:0:0:
319,285,43877,2,0,L|326:240,1,45,2|2,0:0|0:0,0:0:0:0:
218,289,44018,1,6,0:0:0:0:
248,374,44160,1,2,0:0:0:0:
248,374,44443,6,0,P|181:369|105:384,1,135,6|0,0:0|0:0,0:0:0:0:
114,380,44726,1,2,0:0:0:0:
34,318,44867,2,0,P|38:268|45:229,1,90,2|2,0:0|0:0,0:0:0:0:
90,132,45150,1,6,0:0:0:0:
90,132,45433,2,0,P|109:113|62:125,1,135,8|0,0:0|0:0,0:0:0:0:
195,118,45717,6,0,L|327:112,1,125.999996154785,6|0,0:0|0:0,0:0:0:0:
417,107,46141,1,6,0:0:0:0:
417,107,47415,6,0,L|291:112,1,125.999996154785,6|2,0:0|0:0,0:0:0:0:
195,266,47981,6,0,L|327:272,1,125.999996154785,6|0,0:0|0:0,0:0:0:0:
417,277,48405,1,6,0:0:0:0:
417,277,49113,6,0,L|291:271,1,125.999996154785,6|0,0:0|0:0,0:0:0:0:
256,192,49537,1,6,0:0:0:0:
317,118,50245,6,0,L|185:112,1,125.999996154785,6|0,0:0|0:0,0:0:0:0:
95,107,50669,1,6,0:0:0:0:
95,107,51943,6,0,L|221:112,1,125.999996154785,6|2,0:0|0:0,0:0:0:0:
317,266,52509,6,0,L|185:272,1,125.999996154785,6|0,0:0|0:0,0:0:0:0:
95,277,52933,1,6,0:0:0:0:
95,277,53641,6,0,L|221:271,1,125.999996154785,6|0,0:0|0:0,0:0:0:0:
256,192,54066,1,6,0:0:0:0:
256,192,54490,2,0,L|280:192,6,15.7499995193482,0|0|0|0|0|0|0,1:0|1:0|1:0|1:0|1:0|1:0|1:0,0:0:0:0:
179,134,54791,6,0,L|191:51,2,76.5000014591217,6|0|0,0:2|0:0|0:0,0:0:0:0:
331,271,55216,1,0,0:0:0:0:
331,271,55286,2,0,L|349:397,1,114.750002188683
415,299,55640,2,0,P|420:280|420:261,1,38.2500007295609
241,261,55782,2,0,P|241:280|246:298,1,38.2500007295609
328,177,55923,6,0,L|416:179,1,76.5000014591217
375,63,56206,1,0,0:0:0:0:
271,90,56348,1,0,0:0:0:0:
271,90,56419,1,0,0:0:0:0:
271,90,56489,2,0,L|191:92,1,76.5000014591217
403,43,56772,2,0,L|483:45,1,76.5000014591217
344,164,57055,6,0,P|338:229|339:326,1,153.000002918243,2|0,0:2|0:0,0:0:0:0:
273,374,57480,1,0,0:0:0:0:
273,374,57551,2,0,B|225:376|225:376|206:368|206:368|158:370,1,114.750002188683
108,289,57904,2,0,L|116:252,1,38.2500007295609
203,252,58046,2,0,L|210:289,1,38.2500007295609
163,168,58187,6,0,L|169:50,2,114.750002188683,2|0|0,0:2|0:0|0:0,0:0:0:0:
264,179,58753,2,0,P|266:145|268:87,1,76.5000014591217
399,33,59036,2,0,P|392:54|376:110,1,76.5000014591217
428,285,59319,6,0,P|441:224|452:132,1,153.000002918243,6|0,0:0|0:0,0:0:0:0:
287,329,59744,1,2,0:0:0:0:
287,329,59815,1,2,0:0:0:0:
287,329,59885,6,0,P|274:268|263:176,1,153.000002918243,6|0,0:0|0:0,0:0:0:0:
489,384,60310,1,2,0:0:0:0:
489,384,60381,1,2,0:0:0:0:
489,384,60451,6,0,P|502:323|513:231,1,153.000002918243,6|0,0:0|0:0,0:0:0:0:
207,384,60876,1,2,0:0:0:0:
207,384,60947,1,2,0:0:0:0:
207,384,61018,6,0,P|194:323|183:231,1,153.000002918243,6|0,0:0|0:0,0:0:0:0:
223,72,61442,1,2,0:0:0:0:
223,72,61513,1,2,0:0:0:0:
223,72,61584,6,0,L|104:80,1,102.000001945496,4|0,1:2|1:0,0:0:0:0:
80,115,61867,2,0,L|76:172,2,51.0000009727478
18,236,62150,6,0,L|14:293,2,51.0000009727478
93,334,62433,2,0,L|89:391,2,51.0000009727478
137,243,62716,6,0,P|193:229|210:229,2,51.0000009727478
189,127,62999,2,0,P|244:142|259:151,2,51.0000009727478
292,52,63282,6,0,P|335:75|372:114,1,76.5000014591217
430,165,63565,1,0,0:0:0:0:
492,86,63706,1,0,0:0:0:0:
430,165,63848,6,0,P|429:237|416:311,1,135,2|0,0:0|0:0,0:0:0:0:
392,384,64131,2,0,P|381:317|380:249,1,135,2|0,0:0|0:0,0:0:0:0:
326,175,64414,2,0,P|305:168|283:163,2,45,2|0|2,0:0|0:0|0:0,0:0:0:0:
286,271,64626,1,0,0:0:0:0:
286,271,64697,2,0,P|265:278|244:284,1,45,2|2,0:0|0:0,0:0:0:0:
201,197,64838,6,0,L|15:207,1,180,6|0,0:0|0:0,0:0:0:0:
64,119,65263,2,0,L|165:115,1,90,2|2,0:0|0:0,0:0:0:0:
108,295,65546,2,0,L|64:294,4,45,2|0|0|0|8,0:0|0:0|0:0|0:0|0:0,0:0:0:0:
167,362,65970,1,2,0:0:0:0:
272,384,66112,6,0,P|346:371|429:383,1,135,6|0,0:0|0:0,0:0:0:0:
405,376,66395,2,0,P|427:327|432:273,1,90,8|0,0:0|0:0,0:0:0:0:
425,197,66678,1,2,0:0:0:0:
422,163,66749,1,0,0:0:0:0:
415,130,66819,1,0,0:0:0:0:
405,98,66890,1,0,0:0:0:0:
391,67,66961,1,8,0:0:0:0:
241,124,67102,1,0,0:0:0:0:
241,124,67173,1,0,0:0:0:0:
241,124,67244,6,0,L|352:144,1,90,2|0,0:0|0:0,0:0:0:0:
216,251,67527,2,0,L|105:231,1,90,8|0,0:0|0:0,0:0:0:0:
127,235,67739,1,0,0:0:0:0:
127,235,67810,5,0,0:0:0:0:
44,288,67951,2,0,L|45:325,4,22.5,2|2|2|2|10,0:0|0:0|0:0|0:0|0:0,0:0:0:0:
28,193,68235,1,0,0:0:0:0:
138,244,68376,6,0,P|184:248|286:239,1,135,2|0,0:0|0:0,0:0:0:0:
272,241,68659,2,0,P|262:293|254:338,1,90,8|0,0:0|0:0,0:0:0:0:
342,190,68942,2,0,L|331:131,1,45,2|0,0:0|0:0,0:0:0:0:
393,340,69084,2,0,L|401:384,1,45
365,211,69225,1,8,0:0:0:0:
370,319,69367,1,0,0:0:0:0:
499,208,69508,6,0,P|453:204|351:213,1,135,2|0,0:0|0:0,0:0:0:0:
365,211,69791,2,0,P|374:158|382:113,1,90,8|0,0:0|0:0,0:0:0:0:
290,7,70074,2,0,L|297:63,1,45,2|0,0:0|0:0,0:0:0:0:
391,44,70216,2,0,L|396:-1,1,45,2|0,0:0|0:0,0:0:0:0:
258,25,70357,2,0,L|265:81,1,45,2|0,0:0|0:0,0:0:0:0:
428,60,70499,2,0,L|433:15,1,45,2|0,0:0|0:0,0:0:0:0:
226,42,70640,6,0,P|174:58|120:61,2,107.999996704102,2|0|0,0:0|0:0|0:0,0:0:0:0:
20,174,71206,2,0,P|71:158|125:155,2,107.999996704102,2|0|0,0:0|0:0|0:0,0:0:0:0:
227,139,71772,6,0,P|251:153|272:170,2,53.9999983520508,2|2|2,0:0|0:0|0:0,0:0:0:0:
369,205,72055,2,0,P|382:228|392:253,2,53.9999983520508,2|2|2,0:0|0:0|0:0,0:0:0:0:
461,323,72338,5,2,0:0:0:0:
461,323,72621,2,0,L|483:171,1,121.499996292114
484,171,72904,6,0,P|433:178|322:164,1,135,2|0,0:0|0:0,0:0:0:0:
330,147,73187,1,8,0:0:0:0:
233,306,73329,1,0,0:0:0:0:
161,212,73470,1,2,0:0:0:0:
194,217,73541,1,0,0:0:0:0:
227,221,73612,1,0,0:0:0:0:
260,225,73683,1,0,0:0:0:0:
294,230,73753,1,8,0:0:0:0:
369,145,73895,1,0,0:0:0:0:
369,145,73966,1,0,0:0:0:0:
369,145,74036,6,0,L|532:151,1,135
503,149,74319,2,0,P|485:107|479:63,1,90,8|0,0:0|0:0,0:0:0:0:
434,227,74602,1,2,0:0:0:0:
438,260,74673,1,0,0:0:0:0:
438,294,74744,1,0,0:0:0:0:
435,327,74815,1,0,0:0:0:0:
427,360,74885,1,8,0:0:0:0:
294,251,75027,1,2,0:0:0:0:
195,351,75168,6,0,P|169:288|165:221,1,135,6|0,0:0|0:0,0:0:0:0:
165,221,75451,2,0,P|172:177|191:137,1,90,8|0,0:0|0:0,0:0:0:0:
266,69,75735,1,2,0:0:0:0:
299,68,75805,1,0,0:0:0:0:
333,67,75876,1,0,0:0:0:0:
367,66,75947,1,0,0:0:0:0:
400,66,76018,1,8,0:0:0:0:
509,142,76159,1,0,0:0:0:0:
509,142,76230,1,0,0:0:0:0:
509,142,76301,6,0,L|489:248,1,90,2|0,0:0|0:0,0:0:0:0:
393,358,76584,2,0,L|377:270,1,90,8|0,0:0|0:0,0:0:0:0:
250,176,76867,1,2,0:0:0:0:
156,301,77008,2,0,L|150:339,4,22.5,2|2|2|2|8,0:0|0:0|0:0|0:0|0:0,0:0:0:0:
268,384,77291,1,0,0:0:0:0:
156,301,77433,6,0,L|250:292,1,90,6|6,0:0|0:0,0:0:0:0:
364,30,77857,2,0,L|185:13,1,180,6|6,0:0|0:0,0:0:0:0:
156,301,78423,6,2,P|164:228|125:112,1,180,6|6,0:0|0:0,0:0:0:0:
185,13,78848,2,0,P|187:60|211:102,1,90,0|2,0:0|0:0,0:0:0:0:
259,174,79131,1,2,0:0:0:0:
311,100,79272,1,0,0:0:0:0:
311,100,79343,1,0,0:0:0:0:
311,100,79414,2,0,L|316:62,6,22.5,8|8|8|8|8|0|8,0:0|0:0|0:0|0:0|0:0|0:0|0:0,0:0:0:0:
311,100,79697,6,0,L|457:75,2,135,6|2|2,0:0|0:0|0:0,0:0:0:0:
249,175,80263,2,0,L|103:150,2,135,6|2|2,0:0|0:0|0:0,0:0:0:0:
324,237,80829,6,0,L|349:383,2,135,6|2|2,0:0|0:0|0:0,0:0:0:0:
218,352,81395,2,0,L|250:163,1,180,6|10,0:0|0:0,0:0:0:0:
248,174,81961,5,6,0:0:0:0:
248,174,84225,5,6,0:0:0:0:
248,174,85357,5,6,0:0:0:0:
248,174,85923,6,0,P|266:239|259:306,1,135.000005149842,0|2,0:0|0:0,0:0:0:0:
259,305,86489,6,0,L|332:318,1,67.5000025749208,10|0,0:0|0:0,0:0:0:0:
259,305,86772,2,0,L|186:318,1,67.5000025749208,10|0,0:0|0:0,0:0:0:0:
385,255,87055,6,0,P|384:221|378:188,1,67.5000025749208,10|0,0:0|0:0,0:0:0:0:
126,255,87338,2,0,P|127:221|133:188,1,67.5000025749208,10|8,0:0|0:0,0:0:0:0:
133,188,87551,1,8,0:0:0:0:
133,188,87621,6,0,L|55:184,1,67.5000025749208,10|0,0:0|0:0,0:0:0:0:
386,195,87904,2,0,L|463:191,1,67.5000025749208,10|0,0:0|0:0,0:0:0:0:
453,192,88117,1,2,0:0:0:0:
453,192,88187,6,0,P|451:158|445:125,1,67.5000025749208,10|2,0:0|0:0,0:0:0:0:
65,184,88470,2,0,P|67:150|73:117,1,67.5000025749208,8|0,0:0|0:0,0:0:0:0:
224,19,88753,6,0,L|236:119,2,90.0000034332277,6|0|0,0:0|0:0|0:0,0:0:0:0:
305,145,89319,6,0,L|289:275,2,128.249996575356,6|0|0,0:0|0:0|0:0,0:0:0:0:
204,282,89885,6,0,L|217:391,1,103.500001974106,6|2,0:0|0:0,0:0:0:0:
216,384,90451,6,0,L|203:281,1,103.500001974106,2|2,0:0|0:0,0:0:0:0:
347,268,90735,2,0,L|359:370,1,90
265,204,91018,5,6,0:0:0:0:
331,137,94272,5,0,0:0:0:0:
331,137,94343,1,0,0:0:0:0:
331,137,94414,2,0,L|342:240,1,103.500001974106,2|2,0:0|0:0,0:0:0:0:
121,261,94697,2,0,L|106:137,1,103.500001974106,2|2,0:0|0:0,0:0:0:0:
217,106,94980,1,2,0:0:0:0:
241,263,95121,1,2,0:0:0:0:
241,263,95404,1,2,0:0:0:0:
224,114,95546,6,0,P|255:71|353:48,1,155.250002961159,6|0,0:0|0:0,0:0:0:0:
350,47,95829,2,0,L|467:78,1,103.500001974106,8|0,0:0|0:0,0:0:0:0:
423,225,96112,2,0,L|409:279,1,51.7500009870529,2|0,0:0|0:0,0:0:0:0:
290,234,96253,2,0,L|304:180,1,51.7500009870529
376,136,96395,1,8,0:0:0:0:
336,312,96536,1,0,0:0:0:0:
249,314,96678,6,0,P|187:296|90:320,1,155.250002961159,6|0,0:0|0:0,0:0:0:0:
99,314,96961,2,0,P|108:277|104:209,1,103.500001974106,8|0,0:0|0:0,0:0:0:0:
70,111,97244,2,0,L|18:103,1,51.7500009870529,2|0,0:0|0:0,0:0:0:0:
219,151,97385,2,0,L|250:145,2,25.8750004935265,2|2|2,0:0|0:0|0:0,0:0:0:0:
199,130,97527,2,0,L|206:18,1,103.500001974106,8|0,0:0|0:0,0:0:0:0:
269,230,97810,6,0,P|294:290|306:363,2,135,2|0|0,0:0|0:0|0:0,0:0:0:0:
121,230,98376,2,0,P|96:290|84:363,2,135,2|0|0,0:0|0:0|0:0,0:0:0:0:
322,106,98942,6,0,P|343:126|361:151,2,60,2|2|2,0:0|0:0|0:0,0:0:0:0:
396,225,99225,2,0,P|404:253|407:283,2,60,2|2|2,0:0|0:0|0:0,0:0:0:0:
407,366,99508,1,2,0:0:0:0:
407,18,99791,1,0,0:0:0:0:
407,18,100074,6,0,L|224:32,1,155.250002961159,6|0,0:0|0:0,0:0:0:0:
252,29,100357,2,0,L|130:57,1,103.500001974106,8|0,0:0|0:0,0:0:0:0:
41,93,100640,1,0,0:0:0:0:
27,129,100711,1,0,0:0:0:0:
19,167,100782,1,0,0:0:0:0:
17,205,100852,1,0,0:0:0:0:
22,244,100923,2,0,P|60:287|102:309,1,103.500001974106,8|0,0:0|0:0,0:0:0:0:
199,237,101206,6,0,P|275:229|351:243,1,155.250002961159,2|0,0:0|0:0,0:0:0:0:
351,243,101489,2,0,P|422:288|448:317,1,103.500001974106,8|0,0:0|0:0,0:0:0:0:
487,211,101772,1,2,0:0:0:0:
483,172,101843,1,0,0:0:0:0:
480,133,101914,1,0,0:0:0:0:
476,94,101985,1,0,0:0:0:0:
473,56,102055,1,8,0:0:0:0:
379,111,102197,1,2,0:0:0:0:
376,4,102338,6,0,L|252:17,1,103.500001974106,6|6,0:0|0:0,0:0:0:0:
175,26,102621,1,0,0:0:0:0:
376,380,102904,2,0,L|252:367,1,103.500001974106,6|6,0:0|0:0,0:0:0:0:
175,358,103187,1,0,0:0:0:0:
278,103,103470,6,0,L|154:116,1,103.500001974106,6|6,0:0|0:0,0:0:0:0:
77,125,103753,2,0,L|31:128,4,25.8750004935265,2|2|2|2|2,0:0|0:0|0:0|0:0|0:0,0:0:0:0:
278,281,104036,2,0,L|154:268,1,103.500001974106,6|6,0:0|0:0,0:0:0:0:
77,259,104319,2,0,L|31:256,4,25.8750004935265,2|2|2|2|2,0:0|0:0|0:0|0:0|0:0,0:0:0:0:
184,192,104602,6,0,L|296:192,1,103.500001974106,6|6,0:0|0:0,0:0:0:0:
452,66,105027,2,0,L|287:192,1,207.000003948212,2|2,0:0|0:0,0:0:0:0:
452,317,105593,6,0,L|287:192,1,207.000003948212,2|2,0:0|0:0,0:0:0:0:
216,104,106018,2,0,L|104:104,1,103.500001974106,2|2,0:0|0:0,0:0:0:0:
112,280,106301,2,0,L|216:280,1,103.500001974106,2|2,0:0|0:0,0:0:0:0:
48,192,106584,1,2,0:0:0:0:
165,192,106725,1,2,0:0:0:0:
48,192,106867,5,2,0:0:0:0:
48,192,108848,6,0,L|153:201,1,90,2|0,0:0|0:0,0:0:0:0:
246,263,109131,1,6,0:0:0:0:
246,263,111112,5,0,0:0:0:0:
327,129,111253,1,0,0:0:0:0:
246,263,111395,6,0,L|101:243,2,135,2|2|2,0:0|0:0|0:0,0:0:0:0:
327,129,111961,2,0,L|472:109,2,135,2|2|2,0:0|0:0|0:0,0:0:0:0:
350,235,112527,6,0,L|330:380,2,135,2|2|2,0:0|0:0|0:0,0:0:0:0:
216,154,113093,2,0,L|196:9,1,135,2|2,0:0|0:0,0:0:0:0:
197,20,113376,1,6,0:0:0:0:
249,286,113659,6,0,L|288:289,8,22.5,0|0|0|0|0|0|0|0|12,0:0|0:0|0:0|0:0|0:0|0:0|0:0|0:0|0:0,0:0:0:0:
126,336,114084,2,0,P|125:290|135:155,1,180,2|2,0:0|0:0,0:0:0:0:
207,52,114508,2,0,L|318:52,1,90,8|0,0:0|0:0,0:0:0:0:
440,31,114791,5,2,0:0:0:0:
440,31,114933,1,0,0:0:0:0:
301,141,115074,1,8,0:0:0:0:
389,109,115216,2,0,P|387:197|391:294,1,180,2|2,0:0|0:0,0:0:0:0:
306,349,115640,2,0,P|298:295|290:259,1,90,8|0,0:0|0:0,0:0:0:0:
290,260,115852,1,0,0:0:0:0:
290,260,115923,5,2,0:0:0:0:
179,178,116065,1,0,0:0:0:0:
170,310,116206,1,8,0:0:0:0:
290,260,116348,2,0,L|469:275,1,180,2|2,0:0|0:0,0:0:0:0:
512,188,116772,2,0,P|499:143|490:98,1,90,8|0,0:0|0:0,0:0:0:0:
363,72,117055,5,2,0:0:0:0:
204,38,117197,1,0,0:0:0:0:
276,149,117338,1,8,0:0:0:0:
208,207,117480,2,0,P|219:293|236:388,1,180,2|2,0:0|0:0,0:0:0:0:
327,370,117904,2,0,L|477:364,1,135,8|0,0:0|0:0,0:0:0:0:
461,364,118187,6,0,P|472:318|474:270,2,90,2|0|8,0:0|0:0|0:0,0:0:0:0:
386,273,118612,2,0,P|392:183|370:96,1,180,2|2,0:0|0:0,0:0:0:0:
296,45,119036,2,0,P|339:70|377:104,1,90,8|0,0:0|0:0,0:0:0:0:
192,179,119319,5,2,0:0:0:0:
192,179,119461,1,0,0:0:0:0:
240,290,119602,1,8,0:0:0:0:
298,222,119744,2,0,P|309:133|295:44,1,180,2|2,0:0|0:0,0:0:0:0:
218,9,120168,1,8,0:0:0:0:
218,9,120310,1,0,0:0:0:0:
88,48,120451,6,0,L|95:98,7,45,8|8|8|8|8|8|8|8,0:0|0:0|0:0|0:0|0:0|0:0|0:0|0:0,0:0:0:0:
192,179,121018,2,0,L|185:129,7,45,8|8|8|8|8|8|8|8,0:0|0:0|0:0|0:0|0:0|0:0|0:0|0:0,0:0:0:0:
276,247,121584,6,0,L|268:366,2,120,2|2|2,0:0|0:0|0:0,0:0:0:0:
408,366,122150,2,0,L|398:240,2,120,2|2|2,0:0|0:0|0:0,0:0:0:0:
344,149,122716,5,0,0:0:0:0:
344,149,122999,6,0,L|135:164,1,161.999995056153
182,160,123282,2,0,P|176:234|191:276,1,107.999996704102,2|0,0:0|0:0,0:0:0:0:
84,369,123565,2,0,P|90:295|75:253,1,107.999996704102,8|0,0:0|0:0,0:0:0:0:
201,364,123848,5,2,0:0:0:0:
241,364,123918,1,0,0:0:0:0:
281,363,123989,1,0,0:0:0:0:
322,359,124060,1,0,0:0:0:0:
362,353,124131,2,0,P|385:340|409:326,3,53.9999983520508,8|0|0|0,0:0|0:0|0:0|0:0,0:0:0:0:
403,237,124414,6,0,P|403:210|401:154,2,71.9999978027344,2|2|0,0:0|0:0|0:0,0:0:0:0:
323,143,124697,2,0,P|300:128|250:103,2,71.9999978027344,8|0|0,0:0|0:0|0:0,0:0:0:0:
201,165,124980,6,0,P|177:177|153:191,7,53.9999983520508,2|0|0|0|8|0|0|0,0:0|0:0|0:0|0:0|0:0|0:0|0:0|0:0,0:0:0:0:
280,234,125546,2,0,P|303:246|336:265,7,62.9999980773926,2|0|0|0|8|0|0|0,0:0|0:0|0:0|0:0|0:0|0:0|0:0|0:0,0:0:0:0:
192,316,126112,6,0,L|202:253,3,62.9999980773926,2|2|2|2,0:0|0:0|0:0|0:0,0:0:0:0:
98,321,126395,2,0,L|87:383,3,62.9999980773926,2|2|2|2,0:0|0:0|0:0|0:0,0:0:0:0:
4,313,126678,6,0,L|34:157,2,83.9999974365235,2|0|0,0:0|0:0|0:0,0:0:0:0:
112,170,126961,2,0,L|82:14,2,83.9999974365235,2|0|0,0:0|0:0|0:0,0:0:0:0:
15,31,127244,5,6,0:0:0:0:
19,35,128093,5,6,0:0:0:0:
19,35,128376,6,0,P|50:62|77:94,2,83.9999974365235,2|2|2,0:0|0:0|0:0,0:0:0:0:
162,101,128659,6,0,P|175:140|184:191,2,71.9999978027344,2|2|2,0:0|0:0|0:0,0:0:0:0:
250,217,128942,6,0,P|241:258|227:300,2,60,2|2|2,0:0|0:0|0:0,0:0:0:0:
271,349,129225,6,0,P|242:380|216:405,2,48,2|2|2,0:0|0:0|0:0,0:0:0:0:
367,286,129507,6,0,L|373:238,14,25.8750004935265,10|0|8|0|10|0|10|0|8|0|8|0|8|0|8,0:0|0:0|0:0|0:0|0:0|0:0|0:0|0:0|0:0|0:0|0:0|0:0|0:0|0:0|0:0,0:0:0:0:
343,173,130074,2,8,L|337:125,14,25.8750004935265,8|0|8|0|8|0|8|0|8|0|8|0|8|0|8,0:0|0:0|0:0|0:0|0:0|0:0|0:0|0:0|0:0|0:0|0:0|0:0|0:0|0:0|0:0,0:0:0:0:
384,51,130640,6,0,L|106:78,2,270.000010299683,6|0|6,0:0|0:0|0:0,0:0:0:0:
