osu file format v14

[General]
AudioFilename: gg no re.mp3
AudioLeadIn: 0
PreviewTime: 363
Countdown: 0
SampleSet: Soft
StackLeniency: 0.9
Mode: 0
LetterboxInBreaks: 0
WidescreenStoryboard: 1

[Editor]
Bookmarks: 125534
DistanceSpacing: 1.3
BeatDivisor: 4
GridSize: 4
TimelineZoom: 1.9

[Metadata]
Title:Re:End of a Dream
TitleUnicode:Re:End of a Dream
Artist:uma vs. Morimori Atsushi
ArtistUnicode:uma vs. モリモリあつし
Creator:Battle
Version:Regraz's Hard
Source:BMS
Tags:superalloys masiro vs adaptor hobbes2 toybot vinxis liiraye lasse regraz
BeatmapID:1296695
BeatmapSetID:557039

[Difficulty]
HPDrainRate:5.2
CircleSize:3.4
OverallDifficulty:6
ApproachRate:7.6
SliderMultiplier:1.4
SliderTickRate:1

[Events]
//Background and Video events
0,0,"end.jpg",0,0
Video,0,"anime.avi"
//Break Periods
2,27803,34396
2,82161,85679
2,91218,93604
//Storyboard Layer 0 (Background)
//Storyboard Layer 1 (Fail)
//Storyboard Layer 2 (Pass)
//Storyboard Layer 3 (Foreground)
//Storyboard Sound Samples

[TimingPoints]
434,283.018867924528,4,2,2,80,1,0
434,-100,4,2,2,80,0,0
8924,-100,4,2,1,100,0,0
9490,-100,4,2,1,100,0,0
17415,-100,4,2,1,100,0,0
18547,-100,4,2,1,100,0,1
18830,-100,4,2,1,100,0,1
26471,-100,4,2,2,100,0,1
27320,-100,4,2,2,100,0,0
34679,-100,4,2,1,100,0,0
35811,-100,4,2,1,100,0,0
36660,-100,4,2,1,100,0,1
37792,-100,4,2,1,100,0,1
38004,-100,4,2,1,100,0,1
38924,-100,4,2,1,100,0,1
45150,-100,4,2,1,100,0,0
45717,-100,4,2,2,100,0,0
46141,-100,4,2,1,70,0,0
46212,-100,4,2,1,5,0,0
46566,-100,4,2,1,70,0,0
46636,-100,4,2,1,5,0,0
47273,-100,4,2,2,70,0,0
49537,-100,4,2,1,80,0,0
49608,-100,4,2,1,5,0,0
50245,-100,4,2,2,70,0,0
50669,-100,4,2,1,70,0,0
50740,-100,4,2,1,5,0,0
51094,-100,4,2,1,100,0,0
51165,-100,4,2,1,5,0,0
51801,-100,4,2,2,70,0,0
52509,-100,4,2,2,70,0,0
54066,-100,4,2,1,70,0,0
54136,-100,4,2,1,5,0,0
54490,-100,4,2,3,100,0,0
54791,283.018867924528,4,2,1,100,1,0
54791,-100,4,2,1,100,0,0
59319,-100,4,2,1,100,0,0
61583,-100,4,2,1,100,0,0
66111,-100,4,2,1,100,0,1
70640,-100,4,2,1,100,0,0
72904,-100,4,2,1,100,0,1
81960,-100,4,2,1,100,0,0
82244,-100,4,2,2,100,0,0
86206,-100,4,2,1,100,0,0
86489,-100,4,2,1,100,0,0
88753,-100,4,2,1,100,0,0
91018,-100,4,2,2,100,0,0
94414,-100,4,2,1,100,0,0
95545,-100,4,2,1,100,0,1
106866,-100,4,2,2,100,0,0
111394,-100,4,2,1,100,0,1
113093,-100,4,2,1,100,0,1
113375,-100,4,2,1,100,0,0
113658,-100,4,2,1,100,0,1
113942,-100,4,2,1,100,0,1
121583,-100,4,2,1,100,0,0
122998,-100,4,2,1,100,0,1
127243,-100,4,2,1,100,0,0
128375,-100,4,2,1,100,0,1
131772,-100,4,2,2,100,0,0
135593,-100,4,2,2,100,0,0
136301,-100,4,2,2,100,0,0

[Colours]
Combo1 : 109,123,186
Combo2 : 226,186,146
Combo3 : 203,165,95
Combo4 : 150,173,216

[HitObjects]
96,104,434,6,0,L|16:108,2,70,2|2|2,0:0|0:0|0:0,0:0:0:0:
160,39,858,1,2,0:0:0:0:
232,94,1000,2,0,P|226:147|246:183,1,70,2|2,0:0|0:0,0:0:0:0:
303,217,1283,1,2,0:0:0:0:
347,138,1424,2,0,L|495:153,1,140,2|2,0:0|0:0,0:0:0:0:
24,301,2556,5,0,0:0:0:0:
89,237,2698,2,0,P|85:188|97:149,2,70,2|2|2,0:0|0:0|0:0,0:0:0:0:
177,258,3122,1,2,0:0:0:0:
240,192,3264,2,0,L|329:205,2,70,2|2|2,0:0|0:0|0:0,0:0:0:0:
222,103,3688,2,0,L|369:125,1,140,2|2,0:0|0:0,0:0:0:0:
450,282,4254,1,2,0:0:0:0:
368,322,4396,2,0,P|299:305|224:325,1,140,2|2,0:0|0:0,0:0:0:0:
90,206,4962,6,0,L|80:289,2,70,2|2|2,0:0|0:0|0:0,0:0:0:0:
103,116,5386,1,2,0:0:0:0:
125,27,5528,2,0,P|74:29|53:38,2,70,2|2|2,0:0|0:0|0:0,0:0:0:0:
190,89,5952,2,0,P|279:112|337:75,1,140,2|2,0:0|0:0,0:0:0:0:
439,302,7084,5,0,0:0:0:0:
350,323,7226,2,0,P|297:302|258:308,1,70,2|2,0:0|0:0,0:0:0:0:
199,335,7509,2,0,P|155:359|124:361,1,70,2|2,0:0|0:0,0:0:0:0:
50,328,7792,1,2,0:0:0:0:
95,249,7933,2,0,L|87:162,1,70,2|2,0:0|0:0,0:0:0:0:
33,105,8217,2,0,P|112:149|165:129,1,140,2|2,0:0|0:0,0:0:0:0:
418,69,8924,6,0,P|316:58|267:162,1,210
236,225,9490,6,0,L|153:218,2,70,4|0|8,0:0|0:0|0:0,0:0:0:0:
326,217,9915,2,0,B|369:235|369:235|348:170|364:113,1,140,0|2,0:0|0:0,0:0:0:0:
355,52,10339,2,0,L|436:64,1,70,8|0,0:0|0:0,0:0:0:0:
497,116,10622,2,0,P|509:42|501:26,2,70,2|0|8,0:0|0:0|0:0,0:0:0:0:
494,207,11047,2,0,L|338:189,1,140,0|2,0:0|0:0,0:0:0:0:
270,158,11471,1,8,0:0:0:0:
200,225,11613,1,0,0:0:0:0:
119,183,11754,6,0,P|116:126|136:95,2,70,4|0|8,0:0|0:0|0:0,0:0:0:0:
200,225,12179,2,0,P|154:269|67:259,1,140,0|2,0:0|0:0,0:0:0:0:
31,191,12603,2,0,L|37:111,1,70,8|0,0:0|0:0,0:0:0:0:
76,39,12886,2,0,L|-4:30,2,70,2|0|8,0:0|0:0|0:0,0:0:0:0:
121,117,13311,2,0,P|172:133|263:87,1,140,0|2,0:0|0:0,0:0:0:0:
308,34,13735,1,8,0:0:0:0:
378,92,13877,1,2,0:0:0:0:
454,44,14018,6,0,P|464:99|456:128,1,70,4|0,0:0|0:0,0:0:0:0:
397,177,14301,2,0,P|372:227|349:246,1,70,8|0,0:0|0:0,0:0:0:0:
271,238,14584,2,0,P|221:264|191:265,1,70,8|0,0:0|0:0,0:0:0:0:
127,225,14867,2,0,P|71:217|46:200,1,70,8|0,0:0|0:0,0:0:0:0:
47,120,15150,2,0,P|102:127|127:144,1,70,8|0,0:0|0:0,0:0:0:0:
199,101,15433,2,0,P|239:139|249:167,1,70,8|0,0:0|0:0,0:0:0:0:
337,154,15717,2,0,P|347:209|339:238,1,70,8|0,0:0|0:0,0:0:0:0:
402,293,16000,2,0,P|377:343|354:362,1,70,8|0,0:0|0:0,0:0:0:0:
284,314,16283,5,8,0:0:0:0:
201,351,16424,1,8,0:0:0:0:
117,314,16566,2,0,L|38:320,1,70,8|8,0:0|0:0,0:0:0:0:
73,231,16849,1,8,0:0:0:0:
48,143,16990,1,8,0:0:0:0:
69,54,17132,2,0,L|148:60,1,70,8|8,0:0|0:0,0:0:0:0:
222,22,17415,6,0,L|229:150,1,93.3333333333333,4|4,0:0|1:0,0:0:0:0:
234,236,17792,2,0,L|312:184,1,93.3333333333333,0|0,1:0|1:0,0:0:0:0:
407,108,18169,2,0,L|323:65,1,93.3333333333333,0|0,1:0|1:0,0:0:0:0:
209,107,18547,2,0,P|174:115|137:106,1,70,4|0,1:0|1:0,0:0:0:0:
88,33,18830,5,2,0:0:0:0:
36,107,18971,2,0,B|23:157|23:157|45:261,1,140,4|2,0:1|0:0,0:0:0:0:
132,253,19396,2,0,P|173:246|218:259,1,70,8|0,0:0|0:0,0:0:0:0:
289,230,19679,2,0,L|285:144,2,70,2|0|8,0:0|0:0|0:0,0:0:0:0:
377,250,20103,2,0,L|369:78,1,140,2|2,0:0|0:0,0:0:0:0:
322,32,20528,1,8,0:0:0:0:
488,107,20811,6,0,P|496:153|480:207,2,70,4|0|8,0:0|0:0|0:0,0:0:0:0:
403,140,21235,2,0,L|246:153,1,140,2|2,0:0|0:0,0:0:0:0:
185,103,21660,2,0,L|94:111,1,70,8|2,0:0|0:0,0:0:0:0:
37,156,21943,2,0,P|26:109|37:77,2,70,2|2|8,0:0|0:0|0:0,0:0:0:0:
116,199,22367,2,0,P|114:277|175:333,1,140,2|2,0:0|0:0,0:0:0:0:
225,268,22792,2,0,L|310:271,1,70,8|0,0:0|0:0,0:0:0:0:
306,179,23075,6,0,L|236:176,2,70,4|2|8,0:0|0:0|0:0,0:0:0:0:
383,227,23500,2,0,P|452:204|461:122,1,140,2|2,0:0|0:0,0:0:0:0:
402,82,23924,2,0,L|414:11,1,70,8|2,0:0|0:0,0:0:0:0:
322,18,24207,2,0,L|310:87,2,70,4|0|8,0:0|0:0|0:0,0:0:0:0:
234,44,24632,2,0,P|167:31|92:46,1,140,2|2,0:0|0:0,0:0:0:0:
8,60,25056,1,8,0:0:0:0:
100,217,25339,6,0,L|14:225,2,70,4|2|8,0:0|0:0|0:0,0:0:0:0:
172,161,25764,1,2,0:0:0:0:
253,200,25905,2,0,P|261:162|256:126,2,70,8|8|8,0:0|0:0|0:0,0:0:0:0:
183,259,26330,2,0,P|178:329|190:349,1,70,8|2,0:0|0:0,0:0:0:0:
188,347,27603,5,4,0:3:0:0:
115,75,35528,6,0,P|93:143|126:211,1,140,10|12,0:0|0:0,0:0:0:0:
285,275,36094,2,0,P|310:211|288:146,1,140,8|8,0:0|0:0,0:0:0:0:
118,203,36660,2,0,L|34:194,1,70,4|2,0:0|0:0,0:0:0:0:
40,286,36943,6,0,L|109:293,1,70,8|2,0:0|0:1,0:0:0:0:
192,254,37226,2,0,L|289:247,1,70,2|2,0:0|0:1,0:0:0:0:
334,303,37509,2,0,L|430:322,1,70,8|2,0:0|0:0,0:0:0:0:
485,355,37792,2,0,P|490:309|480:275,1,70,2|0,0:1|0:0,0:0:0:0:
426,215,38075,2,0,L|430:138,1,70,0|2,0:0|0:1,0:0:0:0:
466,61,38358,2,0,P|426:56|391:65,1,70,2|0,0:0|0:0,0:0:0:0:
314,101,38641,2,0,L|218:88,1,70,8|2,0:0|0:0,0:0:0:0:
158,62,38924,6,0,P|158:116|176:142,1,70,2|0,0:1|0:0,0:0:0:0:
241,179,39207,2,0,L|232:276,1,70,8|2,0:0|0:1,0:0:0:0:
324,262,39490,2,0,L|315:359,1,70,2|0,0:0|0:0,0:0:0:0:
407,318,39773,2,0,P|459:319|486:307,1,70,8|2,0:0|0:0,0:0:0:0:
478,221,40056,2,0,L|492:71,1,140,6|8,0:0|0:0,0:0:0:0:
412,35,40481,1,0,0:0:0:0:
334,82,40622,2,0,P|290:91|252:83,1,70,2|2,0:0|0:0,0:0:0:0:
197,26,40905,2,0,L|112:37,1,70,8|0,0:0|0:0,0:0:0:0:
48,80,41188,6,0,P|29:175|58:225,1,140,4|0,0:0|0:0,0:0:0:0:
130,245,41613,2,0,B|166:240|166:240|234:257|234:257|292:247,1,140,4|0,0:1|0:0,0:0:0:0:
354,227,42037,2,0,L|344:329,1,70,8|2,0:0|0:0,0:0:0:0:
416,356,42320,1,4,0:0:0:0:
443,84,42745,2,0,P|368:71|308:114,1,140,4|2,0:1|0:0,0:0:0:0:
243,157,43169,2,0,L|168:144,1,70,8|2,0:0|0:0,0:0:0:0:
101,89,43452,6,0,P|81:146|123:225,1,140,4|8,0:0|0:0,0:0:0:0:
188,264,43877,1,2,0:0:0:0:
266,218,44018,2,0,L|358:232,1,70,8|10,0:0|0:0,0:0:0:0:
476,112,44443,2,0,L|321:124,1,140,6|2,0:0|0:0,0:0:0:0:
250,93,44867,2,0,L|166:82,1,70,8|2,0:0|0:0,0:0:0:0:
96,120,45150,1,8,0:0:0:0:
40,293,45433,1,4,0:0:0:0:
209,224,45717,6,0,P|276:262|354:237,1,140,2|2,0:0|0:0,0:0:0:0:
416,211,46141,1,4,0:1:0:0:
106,57,47273,1,2,0:0:0:0:
106,57,47415,2,0,L|111:154,1,70,4|0,0:0|0:0,0:0:0:0:
197,151,47698,2,0,L|202:248,1,70,2|2,0:0|0:0,0:0:0:0:
146,294,47981,6,0,B|182:277|182:277|295:297,1,140,4|2,0:1|0:0,0:0:0:0:
369,312,48405,1,4,0:1:0:0:
369,312,48688,1,0,0:0:0:0:
443,79,49113,2,0,L|292:95,1,140,4|0,0:1|0:0,0:0:0:0:
223,51,49537,1,4,0:1:0:0:
86,289,50245,6,0,P|170:257|235:284,1,140,4|2,0:0|0:0,0:0:0:0:
289,322,50669,1,4,0:1:0:0:
447,54,51801,1,2,0:0:0:0:
402,132,51943,2,0,L|305:117,1,70,4|0,0:1|0:0,0:0:0:0:
250,80,52226,2,0,L|159:96,1,70,2|2,0:0|0:0,0:0:0:0:
109,35,52509,6,0,P|90:99|135:170,1,140,4|2,0:0|0:0,0:0:0:0:
211,179,52933,1,0,0:0:0:0:
154,249,53075,2,0,L|56:265,1,70,0|2,0:0|0:0,0:0:0:0:
442,330,53641,2,0,P|478:262|477:186,1,140,4|0,0:1|0:0,0:0:0:0:
455,112,54066,1,4,0:0:0:0:
189,172,54490,2,0,L|111:168,1,70,0|0,1:0|1:0,0:0:0:0:
39,123,54791,6,0,P|30:188|41:213,2,70,0|0|0,1:0|0:0|1:0,0:0:0:0:
100,55,55216,1,0,0:0:0:0:
188,75,55357,2,0,L|281:67,1,70,0|0,1:0|1:0,0:0:0:0:
334,118,55640,2,0,L|427:110,1,70,0|0,1:0|1:0,0:0:0:0:
408,203,55923,2,0,L|338:208,2,70,0|0|0,1:0|1:0|1:0,0:0:0:0:
486,156,56348,1,0,0:0:0:0:
492,246,56489,2,0,P|500:299|490:335,1,70,4|0,1:0|0:0,0:0:0:0:
415,354,56772,2,0,L|338:341,1,70,0|0,1:0|1:0,0:0:0:0:
259,314,57055,6,0,L|177:328,2,70,4|0|0,1:0|0:0|1:0,0:0:0:0:
283,226,57480,1,4,1:0:0:0:
213,167,57621,2,0,P|206:122|217:86,1,70,0|0,1:0|1:0,0:0:0:0:
297,67,57904,2,0,P|302:101|295:135,1,70,0|0,1:0|1:0,0:0:0:0:
213,167,58187,2,0,L|95:156,2,105,4|0|0,1:0|1:0|1:0,0:0:0:0:
211,258,58753,2,0,L|121:252,1,70,0|0,1:0|1:0,0:0:0:0:
58,296,59036,1,0,1:0:0:0:
232,346,59319,6,0,P|312:348|352:235,1,210,4|2,0:0|0:0,0:0:0:0:
317,156,59885,2,0,L|100:176,1,210,4|2,0:1|0:0,0:0:0:0:
108,83,60451,2,0,L|317:63,1,210,4|2,0:1|0:0,0:0:0:0:
393,114,61018,2,0,P|356:191|439:289,1,210,4|2,0:1|0:0,0:0:0:0:
500,239,61584,6,0,L|510:357,2,93.3333333333333,4|0|0,0:0|1:0|1:0,0:0:0:0:
478,119,62150,2,0,L|488:1,2,93.3333333333333,0|0|0,1:0|1:0|1:0,0:0:0:0:
394,207,62716,2,0,P|351:219|299:210,2,93.3333333333333,0|0|0,1:0|1:0|1:0,0:0:0:0:
298,131,63282,2,0,P|230:179|283:289,1,210,4|2,1:0|0:0,0:0:0:0:
356,304,63848,6,0,L|447:298,1,70,4|0,0:0|0:0,0:0:0:0:
384,219,64131,2,0,L|475:213,1,70,0|2,0:0|0:0,0:0:0:0:
489,130,64414,2,0,P|493:82|486:57,2,70,0|0|0,1:0|1:0|1:0,0:0:0:0:
404,96,64838,2,0,P|331:68|266:80,1,140,4|2,0:0|0:0,0:0:0:0:
200,134,65263,2,0,P|150:141|123:135,1,70,8|2,1:2|0:0,0:0:0:0:
52,91,65546,1,0,1:0:0:0:
52,91,65687,1,2,0:0:0:0:
12,173,65829,2,0,L|3:266,1,70,6|2,0:0|0:0,0:0:0:0:
62,313,66112,6,0,B|101:306|101:306|160:331|160:331|206:322,1,140,4|0,0:1|1:0,0:0:0:0:
259,259,66536,1,2,0:2:0:0:
349,271,66678,2,0,P|343:320|356:351,1,70,0|2,1:0|0:0,0:0:0:0:
440,341,66961,2,0,P|447:307|440:273,1,70,2|2,0:0|1:2,0:0:0:0:
390,196,67244,2,0,L|401:51,2,140,6|2|2,1:0|1:0|1:0,0:0:0:0:
302,172,67951,2,0,P|246:149|170:173,1,140,2|2,1:0|0:0,0:0:0:0:
113,241,68376,6,0,L|34:228,1,70,4|0,1:0|0:0,0:0:0:0:
40,320,68659,2,0,L|109:331,1,70,0|2,0:0|1:2,0:0:0:0:
191,292,68942,1,0,1:0:0:0:
275,256,69084,1,0,1:0:0:0:
341,318,69225,2,0,L|410:329,1,70,0|0,1:0|1:0,0:0:0:0:
464,256,69508,2,0,P|474:198|465:168,1,70,0|0,1:0|0:0,0:0:0:0:
406,124,69791,1,0,0:0:0:0:
452,45,69933,1,0,1:0:0:0:
365,18,70074,2,0,L|277:25,1,70,0|2,1:0|1:2,0:0:0:0:
213,63,70357,2,0,L|123:51,1,70,10|2,1:2|1:2,0:0:0:0:
131,144,70640,6,0,P|63:175|21:153,2,93.3333333333333,0|0|0,1:0|0:0|0:0,0:0:0:0:
218,168,71206,2,0,L|208:301,2,93.3333333333333,0|0|0,1:0|0:0|0:0,0:0:0:0:
187,82,71772,2,0,B|226:64|292:79|311:151|311:151|367:121|425:158,1,280,0|0,1:0|1:0,0:0:0:0:
446,339,72621,1,0,0:0:0:0:
269,293,72904,6,0,P|227:292|196:310,2,70,4|2|0,1:0|0:0|1:0,0:0:0:0:
337,353,73329,2,0,B|312:298|312:298|324:202,1,140,2|2,0:0|1:2,0:0:0:0:
398,170,73753,2,0,L|394:88,1,70,4|2,0:1|0:0,0:0:0:0:
311,62,74036,2,0,L|314:131,2,70,0|2|0,1:0|0:0|1:0,0:0:0:0:
219,56,74461,2,0,P|136:36|70:55,1,140,2|2,0:0|1:2,0:0:0:0:
43,129,74885,1,4,1:0:0:0:
43,129,75027,1,2,0:0:0:0:
94,203,75168,6,0,P|44:220|15:215,2,70,0|2|0,0:0|0:0|1:0,0:0:0:0:
184,211,75593,2,0,L|170:377,1,140,2|2,0:0|1:2,0:0:0:0:
257,318,76018,2,0,P|318:311|343:324,1,70,4|2,1:0|0:2,0:0:0:0:
413,335,76301,1,0,1:0:0:0:
413,335,76442,1,2,1:2:0:0:
478,271,76584,2,0,L|477:186,1,70,0|0,1:0|1:0,0:0:0:0:
402,148,76867,2,0,P|355:159|322:156,1,70,0|2,1:0|1:2,0:0:0:0:
254,112,77150,2,0,L|165:120,1,70,10|2,1:2|1:2,0:0:0:0:
96,92,77433,6,0,P|96:149|109:181,1,70,6|2,1:0|1:0,0:0:0:0:
271,219,77857,2,0,P|347:198|418:229,1,140,2|2,1:1|1:1,0:0:0:0:
287,357,78423,2,0,L|121:336,1,140,2|2,1:1|1:0,0:0:0:0:
69,292,78848,2,0,P|74:258|71:213,1,70,2|2,1:1|0:0,0:0:0:0:
19,148,79131,2,0,P|100:132|153:176,1,140,2|2,1:1|1:2,0:0:0:0:
216,216,79555,1,2,0:0:0:0:
282,153,79697,6,0,B|294:103|294:103|282:38,2,105,2|2|2,1:0|1:0|1:0,0:0:0:0:
216,216,80263,2,0,B|204:266|204:266|216:331,2,105,2|2|2,1:0|1:0|1:0,0:0:0:0:
304,239,80829,2,0,L|417:221,2,105,2|2|2,1:0|1:0|1:0,0:0:0:0:
282,153,81395,2,0,L|437:129,1,140,2|2,1:0|0:0,0:0:0:0:
500,294,81961,5,4,1:0:0:0:
101,82,86489,6,0,B|83:172|83:172|115:233,1,140,4|8,0:0|0:0,0:0:0:0:
188,176,86914,1,0,0:0:0:0:
255,236,87055,2,0,L|356:229,1,70,2|2,0:0|0:0,0:0:0:0:
396,174,87338,2,0,L|497:167,1,70,8|2,0:0|0:0,0:0:0:0:
496,255,87621,6,0,P|464:331|399:342,1,140,4|8,0:0|0:0,0:0:0:0:
328,311,88046,1,0,0:0:0:0:
238,295,88187,2,0,P|196:284|165:284,1,70,2|2,0:0|0:0,0:0:0:0:
109,349,88470,2,0,P|54:365|17:361,1,70,8|2,0:0|0:0,0:0:0:0:
55,274,88753,6,0,P|35:221|41:146,2,93.3333333333333,4|0|0,0:1|0:1|0:0,0:0:0:0:
151,200,89319,2,0,P|171:147|165:72,2,93.3333333333333,4|0|0,0:1|0:1|0:0,0:0:0:0:
69,61,89885,2,0,P|140:109|254:64,1,210,4|0,0:3|0:0,0:0:0:0:
332,33,90451,1,8,0:0:0:0:
434,186,90735,2,0,P|426:124|475:56,1,140,2|2,0:0|0:0,0:0:0:0:
31,174,94414,6,0,L|19:257,1,70,4|2,0:0|0:0,0:0:0:0:
112,236,94697,2,0,L|122:166,1,70,8|2,0:0|0:0,0:0:0:0:
206,132,94980,1,2,0:0:0:0:
288,169,95121,2,0,P|355:162|386:78,1,140,4|2,0:1|0:0,0:0:0:0:
394,12,95546,6,0,L|484:8,1,70,4|2,0:0|0:0,0:0:0:0:
480,98,95829,2,0,P|477:141|454:186,1,70,8|0,0:0|0:0,0:0:0:0:
413,239,96112,2,0,L|422:320,2,70,2|2|8,0:0|0:0|0:0,0:0:0:0:
332,197,96536,1,2,0:0:0:0:
269,263,96678,2,0,P|194:281|127:245,1,140,4|0,0:0|0:0,0:0:0:0:
93,177,97102,1,2,0:0:0:0:
164,119,97244,2,0,L|150:24,2,70,8|0|0,0:0|1:0|1:0,0:0:0:0:
253,106,97668,1,2,0:0:0:0:
337,140,97810,6,0,L|454:159,2,105,4|0|0,1:1|0:0|0:0,0:0:0:0:
266,197,98376,2,0,L|149:216,2,105,4|0|0,1:1|0:0|0:0,0:0:0:0:
351,229,98942,2,0,P|309:328|141:332,1,280,0|0,1:0|1:0,0:0:0:0:
55,185,99791,1,4,0:0:0:0:
225,121,100074,6,0,P|231:64|222:26,2,70,4|2|0,0:1|0:0|1:0,0:0:0:0:
158,183,100499,2,0,B|209:161|209:161|318:187,1,140,2|0,0:0|1:0,0:0:0:0:
328,263,100923,2,0,P|321:309|329:339,1,70,4|2,0:1|0:0,0:0:0:0:
412,303,101206,2,0,P|419:349|411:379,2,70,0|2|0,1:0|0:0|1:0,0:0:0:0:
399,212,101631,2,0,P|376:155|402:77,1,140,2|0,0:0|1:0,0:0:0:0:
453,10,102055,2,0,L|377:0,1,70,0|2,1:0|0:0,0:0:0:0:
302,42,102338,6,0,L|232:48,1,70,0|2,1:0|0:0,0:0:0:0:
145,18,102621,1,0,1:0:0:0:
65,63,102763,2,0,B|46:109|46:109|61:225,1,140,0|2,1:0|0:0,0:0:0:0:
121,262,103187,2,0,L|214:250,1,70,0|0,1:0|1:0,0:0:0:0:
186,344,103470,2,0,L|116:352,2,70,0|2|0,1:0|0:0|1:0,0:0:0:0:
266,300,103895,1,0,1:0:0:0:
345,344,104036,2,0,L|423:357,1,70,0|2,1:0|0:0,0:0:0:0:
426,265,104319,2,0,L|356:253,1,70,0|0,1:0|1:0,0:0:0:0:
298,182,104602,6,0,L|299:102,1,70,6|2,0:1|0:1,0:0:0:0:
135,29,105027,2,0,P|113:103|134:172,1,140,2|2,0:1|0:1,0:0:0:0:
298,112,105593,2,0,L|450:99,1,140,2|2,0:1|0:1,0:0:0:0:
422,190,106018,2,0,P|374:204|335:193,1,70,2|2,1:0|0:1,0:0:0:0:
277,250,106301,2,0,P|227:227|136:268,1,140,2|0,0:1|1:1,0:0:0:0:
80,310,106725,1,2,0:0:0:0:
149,368,106867,6,0,L|242:355,1,70,2|2,0:0|0:0,0:0:0:0:
398,333,107291,2,0,P|450:290|457:200,1,140,2|2,0:0|0:0,0:0:0:0:
371,64,107857,2,0,L|218:71,1,140,2|2,0:0|0:0,0:0:0:0:
157,123,108282,2,0,L|77:117,1,70,2|0,0:0|0:0,0:0:0:0:
34,192,108565,2,0,P|26:276|72:322,1,140,2|4,0:0|0:0,0:0:0:0:
141,277,108989,1,0,0:0:0:0:
219,324,109131,6,0,L|320:314,1,70,4|0,0:0|0:0,0:0:0:0:
464,108,109697,1,2,0:0:0:0:
464,108,109838,2,0,L|453:15,1,70,2|0,0:0|0:0,0:0:0:0:
369,9,110121,2,0,P|279:11|237:49,1,140,2|2,0:0|0:0,0:0:0:0:
205,123,110546,2,0,L|105:120,1,70,2|2,0:0|0:0,0:0:0:0:
67,182,110829,1,2,0:0:0:0:
216,293,111112,1,2,0:0:0:0:
216,293,111253,1,2,0:0:0:0:
294,246,111395,6,0,L|413:264,2,105,4|2|2,0:0|0:0|0:0,0:0:0:0:
316,157,111961,2,0,L|435:175,2,105,8|2|2,0:0|0:0|0:0,0:0:0:0:
348,71,112527,2,0,L|467:89,2,105,8|2|2,0:0|0:0|0:0,0:0:0:0:
258,67,113093,2,0,P|208:133|145:134,1,140,2|2,0:0|0:1,0:0:0:0:
275,276,113659,6,0,P|310:268|347:277,1,70,4|0,1:0|1:0,0:0:0:0:
413,332,113942,1,8,0:0:0:0:
476,277,114084,2,0,B|489:227|489:227|467:123,1,140,2|2,0:0|0:0,0:0:0:0:
380,131,114508,2,0,P|339:138|294:125,1,70,8|2,0:0|0:0,0:0:0:0:
223,154,114791,2,0,L|227:240,2,70,2|0|8,0:0|0:0|0:0,0:0:0:0:
135,134,115216,2,0,L|143:306,1,140,2|2,0:0|0:0,0:0:0:0:
193,349,115640,1,8,0:0:0:0:
24,277,115923,6,0,P|16:231|32:177,2,70,2|0|8,0:0|0:0|0:0,0:0:0:0:
109,244,116348,2,0,L|266:231,1,140,2|2,0:0|0:0,0:0:0:0:
327,281,116772,2,0,L|418:273,1,70,8|0,0:0|0:0,0:0:0:0:
475,228,117055,2,0,P|486:275|475:307,2,70,2|2|8,0:0|0:0|0:0,0:0:0:0:
396,185,117480,2,0,P|398:107|337:51,1,140,2|2,0:0|0:0,0:0:0:0:
287,116,117904,2,0,L|202:113,1,70,8|0,0:0|0:0,0:0:0:0:
206,205,118187,6,0,L|276:208,2,70,6|2|8,0:0|0:0|0:0,0:0:0:0:
129,157,118612,2,0,P|60:180|51:262,1,140,2|2,0:0|0:0,0:0:0:0:
110,302,119036,2,0,L|98:373,1,70,8|2,0:0|0:0,0:0:0:0:
190,366,119319,2,0,L|202:297,2,70,2|0|8,0:0|0:0|0:0,0:0:0:0:
278,340,119744,2,0,P|345:353|420:338,1,140,2|2,0:0|0:0,0:0:0:0:
503,320,120168,1,8,0:0:0:0:
412,167,120451,6,0,L|498:159,2,70,2|0|8,0:0|0:0|0:0,0:0:0:0:
340,223,120876,1,2,0:0:0:0:
259,184,121018,2,0,P|251:222|256:258,2,70,4|0|10,0:0|0:0|0:0,0:0:0:0:
299,101,121442,1,2,0:0:0:0:
228,43,121584,6,0,L|106:51,2,93.3333333333333,2|2|2,1:0|1:0|1:0,0:0:0:0:
348,22,122150,2,0,L|470:30,2,93.3333333333333,2|2|2,1:0|1:0|1:0,0:0:0:0:
303,135,122716,1,2,1:0:0:0:
237,310,122999,6,0,L|142:300,1,70,4|2,0:0|0:0,0:0:0:0:
118,372,123282,2,0,L|28:376,1,70,8|2,0:0|0:0,0:0:0:0:
32,286,123565,2,0,P|35:243|58:198,1,70,2|2,0:0|0:0,0:0:0:0:
99,145,123848,2,0,L|90:64,2,70,2|2|2,0:0|0:0|0:1,0:0:0:0:
180,187,124272,1,2,0:1:0:0:
243,121,124414,2,0,P|318:103|385:139,1,140,2|10,0:1|0:0,0:0:0:0:
419,207,124838,1,2,0:0:0:0:
348,265,124980,6,0,L|362:360,2,70,2|0|0,0:1|0:0|0:0,0:0:0:0:
270,217,125404,1,2,0:1:0:0:
193,266,125546,1,2,0:1:0:0:
105,241,125687,2,0,P|73:176|105:86,1,140,2|2,0:0|0:1,0:0:0:0:
154,52,126112,2,0,L|250:57,1,70,2|2,0:0|0:0,0:0:0:0:
217,146,126395,2,0,L|313:151,1,70,8|2,0:0|0:0,0:0:0:0:
284,240,126678,2,0,L|380:245,1,70,0|0,1:0|0:0,0:0:0:0:
347,334,126961,2,0,L|443:339,1,70,0|0,1:0|0:0,0:0:0:0:
488,280,127244,5,0,1:0:0:0:
92,54,128376,2,0,B|68:120|68:120|95:211,1,140,4|4,1:0|1:0,0:0:0:0:
247,273,128942,2,0,B|271:207|271:207|244:116,1,140,4|4,1:0|1:0,0:0:0:0:
418,68,129508,6,0,L|505:78,2,70,2|2|2,0:1|0:1|0:1,0:0:0:0:
347,125,129933,2,0,B|337:156|337:156|367:263,1,140,2|2,0:1|0:1,0:0:0:0:
454,280,130357,2,0,P|422:332|398:342,1,70,2|2,0:1|0:1,0:0:0:0:
324,332,130640,2,0,P|266:315|230:319,1,70,2|2,0:1|0:1,0:0:0:0:
167,334,130923,1,2,0:1:0:0:
167,334,131065,1,2,0:1:0:0:
78,312,131206,2,0,P|52:254|82:159,1,140,2|0,0:1|0:0,0:0:0:0:
136,123,131631,1,0,0:0:0:0:
216,163,131772,5,2,0:0:0:0:
