osu file format v14

[General]
AudioFilename: gg no re.mp3
AudioLeadIn: 0
PreviewTime: 363
Countdown: 0
SampleSet: Soft
StackLeniency: 0.7
Mode: 0
LetterboxInBreaks: 0
WidescreenStoryboard: 0

[Editor]
DistanceSpacing: 1.3
BeatDivisor: 4
GridSize: 16
TimelineZoom: 1.7

[Metadata]
Title:Re:End of a Dream
TitleUnicode:Re:End of a Dream
Artist:uma vs. Morimori Atsushi
ArtistUnicode:uma vs. モリモリあつし
Creator:Battle
Version:Re:Vival
Source:BMS
Tags:superalloys masiro vs adaptor hobbes2 toybot vinxis liiraye lasse regraz
BeatmapID:1178810
BeatmapSetID:557039

[Difficulty]
HPDrainRate:5.6
CircleSize:4
OverallDifficulty:9.2
ApproachRate:9.7
SliderMultiplier:1.8
SliderTickRate:1

[Events]
//Background and Video events
Video,0,"anime.avi"
0,0,"end.jpg",0,0
//Break Periods
//Storyboard Layer 0 (Background)
//Storyboard Layer 1 (Fail)
//Storyboard Layer 2 (Pass)
//Storyboard Layer 3 (Foreground)
//Storyboard Sound Samples

[TimingPoints]
434,283.018867924528,4,2,2,80,1,0
434,-133.333333333333,4,2,2,80,0,0
8924,-100,4,2,1,100,0,0
9490,-83.3333333333333,4,2,1,100,0,0
17415,-66.6666666666667,4,2,1,100,0,0
18547,-40,4,2,1,80,0,1
18830,-83.3333333333333,4,2,1,100,0,1
26471,-83.3333333333333,4,2,2,100,0,1
27320,-100,4,2,2,100,0,0
34679,-100,4,2,1,100,0,0
35811,-66.6666666666667,4,2,1,100,0,0
36660,-83.3333333333333,4,2,1,100,0,1
37792,-58.8235294117647,4,2,1,100,0,1
38004,-66.6666666666667,4,2,1,100,0,1
38924,-83.3333333333333,4,2,1,100,0,1
45150,-83.3333333333333,4,2,1,100,0,0
45717,-83.3333333333333,4,2,2,100,0,0
46141,-1000,4,2,1,70,0,0
46212,-1000,4,2,1,5,0,0
46566,-1000,4,2,1,70,0,0
46636,-1000,4,2,1,5,0,0
47273,-200,4,2,2,70,0,0
49537,-1000,4,2,1,80,0,0
49608,-1000,4,2,1,5,0,0
50245,-200,4,2,2,70,0,0
50669,-1000,4,2,1,70,0,0
50740,-1000,4,2,1,5,0,0
51094,-1000,4,2,1,100,0,0
51165,-1000,4,2,1,5,0,0
51801,-200,4,2,2,70,0,0
52509,-166.666666666667,4,2,2,70,0,0
54066,-1000,4,2,1,70,0,0
54136,-1000,4,2,1,5,0,0
54490,-40,4,2,3,100,0,0
54791,283.018867924528,4,2,1,100,1,0
54791,-66.6666666666667,4,2,1,100,0,0
59319,-83.3333333333333,4,2,1,100,0,0
61583,-66.6666666666667,4,2,1,100,0,0
66111,-66.6666666666667,4,2,1,100,0,1
70640,-66.6666666666667,4,2,1,100,0,0
72904,-66.6666666666667,4,2,1,100,0,1
81960,-100,4,2,1,100,0,0
82244,-100,4,2,2,100,0,0
86206,-100,4,2,1,100,0,0
86489,-83.3333333333333,4,2,1,100,0,0
88753,-100,4,2,1,100,0,0
91018,-100,4,2,2,100,0,0
94414,-83.3333333333333,4,2,1,100,0,0
95545,-66.6666666666667,4,2,1,100,0,1
106866,-100,4,2,2,100,0,0
111394,-66.6666666666667,4,2,1,100,0,1
113093,-62.5,4,2,1,100,0,1
113375,-83.3333333333333,4,2,1,100,0,0
113658,-40,4,2,1,100,0,1
113942,-83.3333333333333,4,2,1,100,0,1
121583,-66.6666666666667,4,2,1,100,0,0
121961,-52.6315789473684,4,2,1,100,0,0
122338,-45.4545454545455,4,2,1,100,0,0
122998,-55.5555555555556,4,2,1,100,0,1
127243,-100,4,2,1,100,0,0
128375,-55.5555555555556,4,2,1,100,0,1
131772,-100,4,2,2,80,0,0
135593,-133.333333333333,4,2,2,80,0,0
136301,-100,4,2,2,80,0,0

[Colours]
Combo1 : 253,153,104
Combo2 : 181,165,254
Combo3 : 152,243,97
Combo4 : 107,192,220

[HitObjects]
157,100,434,5,2,0:0:0:0:
176,117,575,1,2,0:0:0:0:
252,35,717,5,2,0:0:0:0:
233,52,858,1,2,0:0:0:0:
289,152,1000,5,2,0:0:0:0:
374,125,1141,1,2,0:0:0:0:
418,207,1283,1,2,0:0:0:0:
357,275,1424,1,2,0:0:0:0:
362,291,1707,1,2,0:0:0:0:
371,302,2556,5,2,0:0:0:0:
371,302,2627,1,2,0:0:0:0:
371,302,2698,1,2,0:0:0:0:
282,229,2839,1,2,0:0:0:0:
261,236,2981,5,2,0:0:0:0:
428,189,3122,1,2,0:0:0:0:
279,84,3264,5,2,0:0:0:0:
190,105,3405,1,2,0:0:0:0:
182,195,3547,1,2,0:0:0:0:
261,236,3688,1,2,0:0:0:0:
277,242,3971,1,2,0:0:0:0:
114,150,4254,5,2,0:0:0:0:
291,96,4396,2,0,L|278:247,1,135.000005149842,2|2,0:0|0:0,0:0:0:0:
279,230,4962,5,2,0:0:0:0:
260,213,5103,1,2,0:0:0:0:
199,325,5245,5,2,0:0:0:0:
218,308,5386,1,2,0:0:0:0:
134,260,5528,5,2,0:0:0:0:
66,202,5669,1,2,0:0:0:0:
112,121,5811,1,2,0:0:0:0:
202,137,5952,1,2,0:0:0:0:
213,124,6235,1,2,0:0:0:0:
224,134,7084,5,2,0:0:0:0:
224,134,7155,1,2,0:0:0:0:
224,134,7226,1,2,0:0:0:0:
321,181,7367,1,2,0:0:0:0:
336,174,7509,5,2,0:0:0:0:
196,245,7650,1,2,0:0:0:0:
376,294,7792,5,2,0:0:0:0:
288,268,7933,1,2,0:0:0:0:
263,356,8075,1,2,0:0:0:0:
351,376,8217,1,2,0:0:0:0:
367,369,8500,1,2,0:0:0:0:
297,178,8924,1,0,0:0:0:0:
293,209,8995,1,0,0:0:0:0:
290,240,9066,1,0,0:0:0:0:
287,272,9136,1,0,0:0:0:0:
284,303,9207,6,0,L|280:358,1,45
193,211,9349,2,0,L|188:265,1,45
376,140,9490,6,0,P|291:94|239:110,1,107.999996704102,4|0,0:0|0:0,0:0:0:0:
207,135,9702,1,0,0:0:0:0:
207,135,9773,1,8,0:0:0:0:
72,18,9915,2,0,B|40:75|40:75|82:191,1,161.999995056153,0|0,0:0|0:0,0:0:0:0:
123,247,10198,1,2,0:0:0:0:
140,113,10339,1,8,0:0:0:0:
17,231,10481,1,0,0:0:0:0:
210,280,10622,6,0,P|199:200|157:164,1,107.999996704102,2|0,0:0|0:0,0:0:0:0:
130,253,10834,1,0,0:0:0:0:
130,253,10905,1,8,0:0:0:0:
260,124,11047,2,0,B|362:108|311:182|462:148,1,161.999995056153
388,80,11330,1,2,0:0:0:0:
363,295,11471,1,8,0:0:0:0:
467,224,11613,1,0,0:0:0:0:
292,246,11754,6,0,B|276:294|276:294|307:384,1,107.999996704102,4|0,0:0|0:0,0:0:0:0:
369,302,11967,1,0,0:0:0:0:
369,302,12037,1,8,0:0:0:0:
181,134,12179,2,0,B|239:184|239:184|278:150|343:177,1,161.999995056153
384,222,12462,1,2,0:0:0:0:
473,45,12603,2,0,P|459:116|456:161,1,107.999996704102,8|0,0:0|0:0,0:0:0:0:
351,5,12886,6,0,P|365:52|368:76,1,53.9999983520508,2|0,0:0|0:0,0:0:0:0:
264,217,13028,2,0,L|283:153,1,53.9999983520508,0|0,0:0|0:0,0:0:0:0:
206,37,13169,1,8,0:0:0:0:
47,155,13311,2,0,B|105:158|105:158|138:137|138:137|224:139,1,161.999995056153,0|0,0:0|0:0,0:0:0:0:
260,37,13594,2,0,L|196:37,1,53.9999983520508,2|0,0:0|0:0,0:0:0:0:
172,222,13735,2,0,L|236:222,1,53.9999983520508,8|0,0:0|0:0,0:0:0:0:
346,137,13877,1,2,0:0:0:0:
331,327,14018,6,0,B|341:277|341:277|305:202,1,107.999996704102,4|0,0:0|0:0,0:0:0:0:
251,304,14231,1,0,0:0:0:0:
251,304,14301,1,8,0:0:0:0:
418,212,14443,1,0,0:0:0:0:
239,79,14584,2,0,L|242:215,1,107.999996704102,8|0,0:0|0:0,0:0:0:0:
326,134,14797,1,0,0:0:0:0:
326,134,14867,2,0,L|325:57,1,53.9999983520508,8|0,0:0|0:0,0:0:0:0:
139,1,15009,2,0,L|139:71,1,53.9999983520508,0|0,0:0|0:0,0:0:0:0:
139,249,15150,6,0,P|58:199|15:193,1,107.999996704102,8|0,0:0|0:0,0:0:0:0:
52,303,15363,1,0,0:0:0:0:
52,303,15433,1,8,0:0:0:0:
196,145,15575,1,0,0:0:0:0:
274,313,15717,2,0,P|201:323|148:343,1,107.999996704102,8|0,0:0|0:0,0:0:0:0:
371,238,16000,2,0,L|311:225,1,53.9999983520508,8|0,0:0|0:0,0:0:0:0:
196,145,16141,2,0,L|256:132,1,53.9999983520508,0|0,0:0|0:0,0:0:0:0:
375,88,16283,6,0,L|361:149,1,53.9999983520508,8|0,0:0|0:0,0:0:0:0:
462,302,16424,2,0,L|449:249,1,53.9999983520508,8|0,0:0|0:0,0:0:0:0:
362,35,16566,2,0,L|376:96,1,53.9999983520508,8|0,0:0|0:0,0:0:0:0:
449,354,16707,2,0,L|461:301,1,53.9999983520508,8|0,0:0|0:0,0:0:0:0:
279,150,16849,1,8,0:0:0:0:
324,177,16919,1,0,0:0:0:0:
344,226,16990,1,8,0:0:0:0:
332,278,17061,1,0,0:0:0:0:
291,312,17132,2,0,P|244:276|229:271,1,53.9999983520508,8|0,0:0|0:0,0:0:0:0:
85,157,17273,2,0,P|132:120|147:115,1,53.9999983520508,8|0,0:0|0:0,0:0:0:0:
320,22,17415,6,0,B|199:35,1,90.0000034332277,4|0,0:0|0:0,0:0:0:0:
141,17,17603,2,0,L|274:38,1,90.0000034332277,4|0,1:0|0:0,0:0:0:0:
409,29,17792,6,0,L|281:18,1,90.0000034332277,0|0,1:0|0:0,0:0:0:0:
51,29,17981,2,0,L|184:10,1,90.0000034332277,0|0,1:0|0:0,0:0:0:0:
268,128,18169,6,0,L|150:112,1,90.0000034332277,0|0,1:0|0:0,0:0:0:0:
18,233,18358,2,0,B|61:211|61:211|140:224,1,90.0000034332277,0|0,1:0|0:0,0:0:0:0:
214,320,18547,6,0,L|206:265,6,56.25,4|0|0|0|0|0|0,1:0|1:0|1:0|1:0|1:0|1:0|1:0,1:0:0:0:
196,184,18830,1,4,0:0:0:0:
446,268,18971,2,0,B|390:266|390:266|346:289|346:289|285:285,1,161.999995056153,0|0,0:1|0:0,0:0:0:0:
323,180,19254,1,2,0:0:0:0:
337,367,19396,2,0,L|238:362,1,53.9999983520508,8|0,0:0|0:0,0:0:0:0:
166,215,19537,2,0,L|265:210,1,53.9999983520508,0|0,0:0|0:0,0:0:0:0:
93,280,19679,6,0,P|77:176|102:139,1,107.999996704102,2|0,0:0|0:0,0:0:0:0:
140,90,19891,1,0,0:0:0:0:
140,90,19962,1,8,0:0:0:0:
339,192,20103,2,0,B|285:204|250:262|250:262|220:223|162:214,1,215.999993408203,2|2,0:0|0:0,0:0:0:0:
120,309,20457,1,0,0:0:0:0:
120,309,20528,2,0,L|194:301,1,53.9999983520508,8|0,0:0|0:0,0:0:0:0:
343,384,20669,2,0,L|269:376,1,53.9999983520508,2|0,0:0|0:0,0:0:0:0:
217,162,20811,6,0,P|244:210|241:309,1,107.999996704102,4|0,0:0|0:0,0:0:0:0:
169,225,21023,1,0,0:0:0:0:
169,225,21094,1,8,0:0:0:0:
367,51,21235,2,0,P|309:124|411:173,1,215.999993408203,2|2,0:0|0:0,0:0:0:0:
491,127,21589,1,0,0:0:0:0:
491,127,21660,2,0,L|414:103,1,53.9999983520508,8|0,0:0|0:0,0:0:0:0:
261,141,21801,1,2,0:0:0:0:
364,271,21943,6,0,B|264:245,1,53.9999983520508,2|0,0:0|0:0,0:0:0:0:
190,32,22084,2,0,L|201:102,1,53.9999983520508,2|0,0:0|0:0,0:0:0:0:
215,231,22226,1,8,0:0:0:0:
76,32,22367,2,0,B|93:129|93:129|65:211,1,161.999995056153,2|0,0:0|0:0,0:0:0:0:
2,114,22650,1,2,0:0:0:0:
128,311,22792,2,0,L|169:207,1,107.999996704102,8|0,0:0|0:0,0:0:0:0:
282,73,23075,5,4,0:0:0:0:
282,73,23146,1,0,0:0:0:0:
282,73,23217,2,0,P|234:48|215:43,1,53.9999983520508,2|0,0:0|0:0,0:0:0:0:
343,212,23358,2,0,L|397:190,1,53.9999983520508,8|0,0:0|0:0,0:0:0:0:
143,117,23500,2,0,P|245:154|256:249,1,215.999993408203,2|2,0:0|0:0,0:0:0:0:
247,372,23853,1,0,0:0:0:0:
247,372,23924,2,0,L|224:318,1,53.9999983520508,8|0,0:0|0:0,0:0:0:0:
338,215,24066,2,0,L|338:284,1,53.9999983520508,2|0,0:0|0:0,0:0:0:0:
155,278,24207,6,0,P|220:248|276:256,1,107.999996704102,4|0,0:0|0:0,0:0:0:0:
182,172,24419,1,0,0:0:0:0:
182,172,24490,1,8,0:0:0:0:
75,370,24632,2,0,P|45:237|21:184,1,161.999995056153,2|0,0:0|0:0,0:0:0:0:
3,131,24915,1,2,0:0:0:0:
155,278,25056,1,8,0:0:0:0:
197,157,25198,1,0,0:0:0:0:
89,29,25339,5,4,0:0:0:0:
78,80,25410,1,0,0:0:0:0:
98,130,25481,1,2,0:0:0:0:
143,158,25551,1,0,0:0:0:0:
196,156,25622,2,0,P|247:112|253:88,1,53.9999983520508,8|0,0:0|0:0,0:0:0:0:
168,10,25764,2,0,L|168:91,1,53.9999983520508,2|0,0:0|0:0,0:0:0:0:
223,238,25905,1,8,0:0:0:0:
270,214,25976,1,8,0:0:0:0:
321,228,26047,1,8,0:0:0:0:
368,251,26117,1,8,0:0:0:0:
419,237,26188,2,0,P|438:200|436:180,1,53.9999983520508,8|0,0:0|0:0,0:0:0:0:
362,109,26330,2,0,P|317:134|308:164,1,53.9999983520508,8|0,0:0|0:0,0:0:0:0:
277,297,26471,5,2,0:0:0:0:
192,226,26613,1,2,0:0:0:0:
117,302,26754,1,2,0:0:0:0:
42,233,26896,1,2,0:0:0:0:
113,155,27037,1,2,0:0:0:0:
113,155,27320,6,0,P|120:100|98:56,1,90,2|2,0:0|0:0,0:0:0:0:
30,123,27603,2,0,B|113:154|113:154|215:115,1,180,4|2,0:3|0:0,0:0:0:0:
282,0,28028,2,0,P|190:69|200:126,1,180,2|2,0:0|0:0,0:0:0:0:
344,131,28452,1,2,0:0:0:0:
269,80,28594,1,2,0:0:0:0:
192,201,28735,6,0,P|244:185|277:145,1,90,2|2,0:0|0:0,0:0:0:0:
197,121,29018,1,2,0:0:0:0:
38,233,29160,2,0,P|79:190|201:209,1,180,2|0,0:0|0:0,0:0:0:0:
95,346,29584,1,2,0:0:0:0:
123,264,29726,1,2,0:0:0:0:
288,298,29867,6,0,B|196:312|196:312|119:262,1,180,2|2,0:0|0:0,0:0:0:0:
254,159,30292,2,0,P|317:221|275:305,1,180,2|0,0:0|0:0,0:0:0:0:
163,261,30717,1,2,0:0:0:0:
242,235,30858,1,2,0:0:0:0:
121,359,31000,6,0,P|66:258|118:199,1,180,2|2,0:0|0:0,0:0:0:0:
175,165,31424,1,2,0:0:0:0:
89,124,31566,2,0,L|95:226,1,90,2|2,0:0|0:0,0:0:0:0:
5,91,31849,2,0,L|11:193,1,90,2|2,0:0|0:0,0:0:0:0:
221,55,32132,6,0,P|137:50|89:140,1,180,2|2,0:0|0:0,0:0:0:0:
249,159,32556,2,0,B|175:178|175:178|87:122,1,180,2|0,0:0|0:0,0:0:0:0:
9,231,32981,2,0,L|107:220,1,90,2|2,0:0|0:0,0:0:0:0:
180,88,33264,6,0,P|103:140|101:229,1,180,2|2,0:0|0:0,0:0:0:0:
139,307,33688,2,0,B|213:267|213:267|323:299,1,180,2|2,0:0|0:0,0:0:0:0:
388,236,34113,2,0,L|287:203,1,90,2|2,0:0|0:0,0:0:0:0:
232,138,34396,6,0,P|205:207|210:244,1,90,2|0,0:0|0:0,0:0:0:0:
166,94,34679,1,0,0:0:0:0:
189,72,34750,1,0,0:0:0:0:
218,61,34820,1,0,0:0:0:0:
249,61,34891,1,0,0:0:0:0:
278,73,34962,2,0,P|303:95|331:105,1,45,2|0,0:0|0:0,0:0:0:0:
452,30,35103,2,0,P|421:53|407:80,1,45,2|0,0:0|0:0,0:0:0:0:
470,229,35245,1,8,0:0:0:0:
391,141,35386,1,0,0:0:0:0:
391,141,35457,1,0,0:0:0:0:
391,141,35528,6,0,L|366:217,1,45,10|0,0:0|0:0,0:0:0:0:
251,320,35669,2,0,L|321:304,1,45
165,217,35811,2,0,B|127:252|127:252|278:226,1,202.500007724762,12|0,0:0|0:0,0:0:0:0:
251,3,36094,2,0,P|190:47|226:155,1,202.500007724762,8|0,0:0|0:0,0:0:0:0:
457,95,36377,2,0,B|306:55|384:126|240:80,1,202.500007724762,8|0,0:0|0:0,0:0:0:0:
184,219,36660,6,0,P|277:200|317:215,1,107.999996704102,4|2,0:0|0:0,0:0:0:0:
236,380,36872,1,2,0:1:0:0:
236,380,36943,2,0,P|247:289|275:267,1,107.999996704102,8|2,0:0|0:1,0:0:0:0:
357,351,37155,1,0,0:0:0:0:
357,351,37226,2,0,L|281:341,1,53.9999983520508,2|0,0:0|0:0,0:0:0:0:
130,226,37367,2,0,L|206:216,1,53.9999983520508,2|0,0:1|0:0,0:0:0:0:
391,101,37509,1,8,0:0:0:0:
385,127,37580,1,0,0:0:0:0:
380,153,37650,2,0,L|363:224,1,53.9999983520508,2|0,0:0|0:0,0:0:0:0:
117,59,37792,6,0,B|155:73|168:93|168:93|198:49|260:56,1,153.000002918243,2|0,0:1|0:0,0:0:0:0:
380,153,38004,2,0,B|312:168|312:168|236:135,1,135.000005149842,2|0,0:1|0:0,0:0:0:0:
154,274,38217,2,0,L|240:257,1,67.5000025749208,2|0,0:1|0:0,0:0:0:0:
403,294,38358,1,2,0:0:0:0:
382,280,38429,2,0,P|298:324|299:391,1,135.000005149842,2|0,0:1|0:0,0:0:0:0:
208,194,38641,2,0,L|222:271,1,67.5000025749208,8|0,0:0|0:0,0:0:0:0:
97,131,38783,2,0,L|111:208,1,67.5000025749208,2|0,0:0|0:0,0:0:0:0:
276,157,38924,6,0,P|208:118|167:126,1,107.999996704102,2|0,0:1|0:0,0:0:0:0:
87,77,39136,1,2,0:1:0:0:
87,77,39207,2,0,L|100:150,1,53.9999983520508,8|0,0:0|0:0,0:0:0:0:
131,375,39349,2,0,L|123:309,1,53.9999983520508,2|0,0:1|0:0,0:0:0:0:
32,212,39490,1,2,0:0:0:0:
32,212,39561,2,0,P|99:243|169:226,1,107.999996704102,2|0,0:1|0:0,0:0:0:0:
233,114,39773,2,0,L|229:189,1,53.9999983520508,8|0,0:0|0:0,0:0:0:0:
353,341,39915,2,0,L|349:266,1,53.9999983520508,2|0,0:0|0:0,0:0:0:0:
128,110,40056,6,0,B|184:126|184:126|241:111,1,107.999996704102,6|2,0:0|0:0,0:1:0:0:
416,51,40339,1,8,0:0:0:0:
323,0,40481,1,0,0:0:0:0:
323,0,40551,1,0,0:0:0:0:
323,0,40622,1,2,0:0:0:0:
308,34,40693,1,2,0:0:0:0:
296,69,40764,2,0,L|314:129,1,53.9999983520508,2|2,0:0|0:0,0:0:0:0:
442,231,40905,2,0,B|366:202|366:202|283:232,1,161.999995056153,8|0,0:0|0:0,0:0:0:0:
217,215,41188,6,0,B|268:236|268:236|331:215,1,107.999996704102,4|0,0:0|0:0,0:0:0:0:
133,154,41471,1,0,0:0:0:0:
251,327,41613,2,0,L|250:88,1,215.999993408203,4|0,0:1|0:0,0:0:0:0:
174,24,41967,1,0,0:0:0:0:
174,24,42037,2,0,P|141:67|138:98,1,53.9999983520508,8|0,0:0|0:0,0:0:0:0:
7,167,42179,2,0,L|78:154,1,53.9999983520508,2|0,0:0|0:0,0:0:0:0:
223,252,42320,6,0,L|163:245,1,53.9999983520508,4|0,0:0|0:0,0:0:0:0:
32,377,42462,2,0,P|50:264|88:252,1,161.999995056153,2|0,0:0|0:0,0:0:0:0:
249,344,42745,2,0,L|81:327,1,161.999995056153,4|0,0:1|0:0,0:0:0:0:
73,199,43028,2,0,L|83:273,1,53.9999983520508,2|0,0:0|0:0,0:0:0:0:
184,68,43169,1,8,0:0:0:0:
180,94,43240,1,0,0:0:0:0:
177,121,43311,1,2,0:0:0:0:
174,148,43382,1,0,0:0:0:0:
171,175,43452,6,0,P|238:121|358:170,1,215.999993408203,4|8,0:0|0:0,0:0:0:0:
300,241,43806,1,0,0:0:0:0:
300,241,43877,2,0,L|256:193,1,53.9999983520508,2|0,0:0|0:0,0:0:0:0:
464,118,44018,1,8,0:0:0:0:
371,359,44160,2,0,P|267:350|199:338,1,161.999995056153,10|0,0:0|0:0,0:0:0:0:
25,248,44443,6,0,P|104:235|185:229,1,161.999995056153,6|0,0:0|0:0,0:0:0:0:
291,156,44726,1,2,0:0:0:0:
165,15,44867,2,0,L|163:88,1,53.9999983520508,8|0,0:0|0:0,0:0:0:0:
174,334,45009,2,0,L|238:296,1,53.9999983520508,2|0,0:0|0:0,0:0:0:0:
422,154,45150,1,8,0:0:0:0:
422,154,45433,6,0,P|383:200|439:163,1,161.999995056153,4|0,0:0|0:0,0:0:0:0:
350,91,45717,5,2,0:0:0:0:
253,98,45858,1,2,0:0:0:0:
156,110,46000,1,2,0:0:0:0:
156,110,46141,6,0,L|162:179,1,67.5,4|0,0:1|0:0,0:0:0:0:
170,264,47273,1,2,0:0:0:0:
343,189,47415,2,0,B|296:177|296:177|241:191,1,90,4|2,0:0|0:0,0:0:0:0:
294,260,47839,1,2,0:0:0:0:
446,88,47981,5,4,0:1:0:0:
431,176,48122,1,2,0:0:0:0:
412,264,48264,1,2,0:0:0:0:
412,264,48405,2,0,L|393:358,1,90,4|0,0:1|0:0,0:0:0:0:
319,284,48830,1,0,0:0:0:0:
147,123,49113,6,0,P|215:153|257:137,1,112.5,4|0,0:1|0:0,0:0:0:0:
329,64,49537,2,0,L|327:105,1,40.5,4|0,0:1|0:0,0:0:0:0:
322,185,50245,5,4,0:0:0:0:
405,140,50386,1,0,0:0:0:0:
254,17,50528,1,2,0:0:0:0:
254,17,50669,6,0,L|251:84,1,67.5,4|0,0:1|0:0,0:0:0:0:
242,162,51801,1,2,0:0:0:0:
73,93,51943,2,0,B|114:81|114:81|175:95,1,90,4|2,0:1|0:0,0:0:0:0:
114,169,52367,1,2,0:0:0:0:
60,21,52509,6,0,B|114:7|114:7|179:23,1,107.999996704102,4|2,0:0|0:0,0:0:0:0:
309,102,52933,1,0,0:0:0:0:
309,102,53004,1,2,0:0:0:0:
309,102,53075,1,0,0:0:0:0:
267,21,53217,2,0,P|232:57|224:136,1,107.999996704102,2|0,0:0|0:0,0:0:0:0:
389,188,53641,6,0,B|337:221|337:221|262:222,1,134.999995880127,4|0,0:1|0:0,0:0:0:0:
168,176,54066,2,0,L|192:176,1,22.5,4|0,0:0|0:0,0:0:0:0:
301,125,54490,6,0,B|276:139|276:139|280:108,6,56.25,0|0|0|0|0|0|0,1:0|1:0|1:0|1:0|1:0|1:0|1:0,1:0:0:0:
208,42,54791,6,0,L|188:190,1,135.000005149842,0|0,1:0|0:0,0:0:0:0:
107,298,55074,1,0,1:0:0:0:
37,157,55216,1,0,0:0:0:0:
37,157,55286,1,0,0:0:0:0:
37,157,55357,2,0,L|118:179,1,67.5000025749208,0|0,1:0|0:0,0:0:0:0:
251,313,55499,1,0,1:0:0:0:
342,96,55639,1,0,1:0:0:0:
287,113,55710,1,0,1:0:0:0:
260,162,55781,1,0,1:0:0:0:
275,217,55851,1,0,0:0:0:0:
316,252,55922,6,0,P|378:234|431:223,1,67.5000025749208,0|0,1:0|0:0,0:0:0:0:
413,29,56064,2,0,P|350:11|298:0,1,67.5000025749208,0|0,1:0|0:0,0:0:0:0:
484,208,56205,1,0,1:0:0:0:
251,37,56348,1,0,0:0:0:0:
251,37,56418,1,0,0:0:0:0:
251,37,56489,2,0,P|270:118|277:186,1,135.000005149842,4|0,1:0|0:0,0:0:0:0:
155,277,56701,1,0,0:0:0:0:
163,253,56772,2,0,P|183:201|202:176,1,67.5000025749208,0|0,1:0|0:0,0:0:0:0:
316,366,56914,2,0,L|222:342,1,67.5000025749208,0|0,1:0|0:0,0:0:0:0:
82,155,57055,5,4,1:0:0:0:
288,127,57197,1,0,0:0:0:0:
104,4,57338,1,0,1:0:0:0:
235,230,57480,2,0,P|304:215|385:206,1,135.000005149842,4|0,1:0|1:0,0:0:0:0:
457,137,57692,1,0,0:0:0:0:
435,126,57763,2,0,P|377:104|346:102,1,67.5000025749208,0|0,1:0|0:0,0:0:0:0:
207,38,57904,2,0,P|265:16|296:14,1,67.5000025749208,0|0,1:0|1:0,0:0:0:0:
149,176,58046,1,0,1:0:0:0:
149,176,58117,1,0,1:0:0:0:
149,176,58187,6,0,B|106:114|106:114|118:33,1,135.000005149842,4|0,1:0|0:0,0:0:0:0:
209,113,58400,2,0,P|233:188|212:240,1,135.000005149842,0|0,1:0|0:0,0:0:0:0:
64,287,58612,2,0,L|145:263,1,67.5000025749208,0|0,1:0|0:0,0:0:0:0:
368,320,58753,1,0,1:0:0:0:
334,324,58824,1,0,0:0:0:0:
301,329,58895,1,0,1:0:0:0:
267,333,58966,1,0,0:0:0:0:
234,338,59036,2,0,L|184:342,4,33.7500012874604,0|0|0|0|0,1:0|1:0|1:0|1:0|1:0,1:0:0:0:
325,204,59319,6,0,P|369:274|383:156,1,269.999991760254,4|0,0:0|0:0,0:0:0:0:
258,166,59744,2,0,P|296:129|321:125,1,53.9999983520508,2|0,0:0|0:0,0:0:0:0:
227,23,59885,6,0,P|236:107|98:43,1,269.999991760254,4|0,0:1|0:0,0:0:0:0:
15,46,60310,2,0,P|34:27|58:14,1,53.9999983520508,2|0,0:0|0:0,0:0:0:0:
218,230,60451,6,0,P|92:250|178:346,1,269.999991760254,4|0,0:1|0:0,0:0:0:0:
288,178,60876,2,0,P|268:157|244:146,1,53.9999983520508,2|0,0:0|0:0,0:0:0:0:
363,381,61018,6,0,P|371:246|411:118,1,269.999991760254,4|0,0:1|0:0,0:0:0:0:
512,276,61442,2,0,P|483:267|440:257,1,53.9999983520508,2|0,0:0|0:0,0:0:0:0:
197,190,61584,6,0,P|241:184|324:177,1,90.0000034332277,4|0,0:0|0:0,0:0:0:0:
107,59,61772,2,0,P|151:65|250:73,1,90.0000034332277,0|0,1:0|0:0,0:0:0:0:
414,35,61961,1,0,1:0:0:0:
412,61,62055,1,0,1:0:0:0:
407,87,62150,2,0,P|390:198|392:216,1,90.0000034332277,0|0,1:0|0:0,0:0:0:0:
350,369,62338,2,0,P|336:317|329:281,1,90.0000034332277,0|0,1:0|0:0,0:0:0:0:
253,110,62527,2,0,L|232:198,1,90.0000034332277,0|0,1:0|0:0,0:0:0:0:
113,325,62716,6,0,L|214:309,1,90.0000034332277,0|0,1:0|1:0,0:0:0:0:
350,219,62904,1,0,1:0:0:0:
321,211,62999,2,0,L|220:195,1,90.0000034332277,0|0,1:0|1:0,0:0:0:0:
96,104,63187,1,0,1:0:0:0:
131,86,63282,2,0,P|191:78|288:71,1,135.000005149842,4|0,1:0|0:0,0:0:0:0:
370,114,63494,1,0,0:0:0:0:
370,114,63565,2,0,P|367:76|358:29,1,67.5000025749208,2|0,0:0|0:0,0:0:0:0:
473,259,63706,2,0,P|476:221|485:174,1,67.5000025749208,2|0,0:0|0:0,0:0:0:0:
374,301,63848,6,0,P|325:284|233:265,1,135.000005149842,4|0,0:0|0:0,0:0:0:0:
105,191,64060,2,0,P|154:174|246:155,1,135.000005149842,2|0,0:0|0:0,0:0:0:0:
191,327,64272,1,2,0:0:0:0:
380,169,64414,1,0,1:0:0:0:
406,162,64485,1,0,0:0:0:0:
433,156,64555,2,0,L|488:141,4,33.7500012874604,0|0|0|0|0,1:0|1:0|1:0|1:0|1:0,1:0:0:0:
249,19,64838,6,0,B|305:100|305:100|279:220,1,202.500007724762,4|0,0:0|0:0,0:0:0:0:
155,145,65121,2,0,P|210:126|238:122,1,67.5000025749208,2|0,0:0|0:0,0:0:0:0:
341,369,65263,2,0,L|233:347,1,67.5000025749208,8|0,1:2|0:0,0:0:0:0:
137,291,65404,1,2,0:0:0:0:
399,64,65546,1,0,1:0:0:0:
392,97,65617,1,0,0:0:0:0:
385,130,65687,1,2,0:0:0:0:
378,163,65758,1,0,0:0:0:0:
371,196,65829,2,0,L|353:276,1,67.5000025749208,6|2,0:0|0:0,0:0:0:0:
122,29,65970,2,0,L|220:2,1,67.5000025749208,2|0,0:0|1:0,0:0:0:0:
262,251,66112,6,0,B|79:262,1,135.000005149842,4|0,0:1|0:0,0:0:0:0:
28,221,66324,1,0,0:0:0:0:
28,221,66395,2,0,P|75:166|120:155,1,67.5000025749208,0|0,1:0|0:0,0:0:0:0:
135,346,66536,1,2,0:2:0:0:
196,121,66678,1,0,1:0:0:0:
191,167,66749,1,0,0:0:0:0:
214,207,66819,1,2,0:0:0:0:
256,228,66890,1,0,0:0:0:0:
302,220,66961,2,0,P|371:227|401:244,1,67.5000025749208,2|0,0:0|0:0,0:0:0:0:
508,47,67102,2,0,L|487:150,1,67.5000025749208,2|0,1:2|1:0,0:0:0:0:
323,302,67244,6,0,B|342:156,1,135.000005149842,6|0,1:0|0:0,0:0:0:0:
255,88,67456,1,0,1:0:0:0:
255,88,67527,2,0,P|311:38|389:64,1,135.000005149842,2|0,1:0|0:0,0:0:0:0:
256,188,67739,1,0,1:0:0:0:
256,188,67810,2,0,L|162:170,1,67.5000025749208,2|0,1:0|0:0,0:0:0:0:
16,16,67951,2,0,L|61:15,4,33.7500012874604,2|0|0|0|0,1:0|1:0|1:0|1:0|1:0,1:0:0:0:
50,236,68235,1,2,0:0:0:0:
210,42,68376,6,0,P|192:146|188:184,1,135.000005149842,4|0,1:0|0:0,0:0:0:0:
352,293,68588,2,0,P|343:226|330:159,1,135.000005149842,0|0,1:0|0:0,0:0:0:0:
246,260,68801,1,2,1:2:0:0:
433,52,68942,2,0,L|335:39,1,67.5000025749208,0|0,1:0|0:0,0:0:0:0:
157,118,69084,2,0,L|236:132,1,67.5000025749208,0|0,1:0|0:0,0:0:0:0:
489,227,69225,2,0,L|371:207,1,67.5000025749208,0|0,1:0|0:0,0:0:0:0:
244,62,69367,1,0,1:0:0:0:
244,62,69437,1,0,1:0:0:0:
244,62,69508,6,0,P|218:184|219:242,1,135.000005149842,0|0,1:0|0:0,0:0:0:0:
33,334,69720,2,0,P|96:295|179:275,1,135.000005149842,0|0,1:0|0:0,0:0:0:0:
242,293,69933,2,0,L|237:376,1,67.5000025749208,0|0,1:0|1:0,0:0:0:0:
73,201,70074,2,0,L|150:172,1,67.5000025749208,0|0,1:0|0:0,0:0:0:0:
323,24,70216,2,0,L|367:32,4,33.7500012874604,0|0|0|0|0,1:0|1:0|1:0|1:0|1:0,1:0:0:0:
319,236,70499,1,2,1:2:0:0:
128,27,70640,6,0,P|171:113|191:129,1,90.0000034332277,0|0,1:0|0:0,0:0:0:0:
91,56,70829,2,0,P|213:125|238:130,1,90.0000034332277,0|0,1:0|0:0,0:0:0:0:
84,165,71018,2,0,P|224:175|249:170,1,90.0000034332277,0|0,1:0|0:0,0:0:0:0:
129,271,71206,2,0,P|260:221|280:205,1,90.0000034332277,0|0,1:0|0:0,0:0:0:0:
232,351,71395,2,0,P|330:250|342:227,1,90.0000034332277,0|0,1:0|0:0,0:0:0:0:
388,372,71584,2,0,P|434:239|435:213,1,90.0000034332277,0|0,1:0|0:0,0:0:0:0:
277,98,71772,5,0,1:0:0:0:
283,184,71867,1,0,1:0:0:0:
355,232,71961,1,0,1:0:0:0:
437,204,72055,1,0,1:0:0:0:
465,122,72150,1,0,1:0:0:0:
418,50,72244,1,0,1:0:0:0:
331,43,72338,1,0,1:0:0:0:
331,43,72621,6,0,B|299:127|299:127|340:270,1,202.500007724762,0|0,0:0|0:0,0:0:0:0:
449,153,72904,6,0,L|370:140,1,67.5000025749208,4|0,1:0|0:0,0:0:0:0:
173,232,73046,2,0,L|252:219,1,67.5000025749208,2|0,0:0|0:0,0:0:0:0:
512,142,73187,2,0,L|433:155,1,67.5000025749208,0|0,1:0|0:0,0:0:0:0:
106,221,73329,2,0,L|185:234,1,67.5000025749208,2|0,0:0|0:0,0:0:0:0:
333,74,73470,5,0,1:0:0:0:
296,102,73541,1,0,1:0:0:0:
275,144,73612,1,2,1:2:0:0:
273,191,73683,1,0,1:0:0:0:
292,234,73753,2,0,L|386:243,1,67.5000025749208,4|0,0:1|0:0,0:0:0:0:
201,20,73895,2,0,L|200:107,1,67.5000025749208,2|0,0:0|0:0,0:0:0:0:
275,310,74036,6,0,P|204:301|177:313,1,67.5000025749208,0|0,1:0|0:0,0:0:0:0:
69,285,74178,2,0,P|137:292|164:281,1,67.5000025749208,2|0,0:0|0:0,0:0:0:0:
340,318,74319,2,0,P|305:318|273:308,1,67.5000025749208,0|0,1:0|0:0,0:0:0:0:
5,276,74461,2,0,P|38:274|69:284,1,67.5000025749208,2|0,0:0|0:0,0:0:0:0:
188,359,74602,5,0,1:0:0:0:
176,313,74673,1,0,1:0:0:0:
186,267,74744,1,2,1:2:0:0:
216,231,74815,1,0,1:0:0:0:
258,211,74885,2,0,L|300:280,1,67.5000025749208,4|0,1:0|0:0,0:0:0:0:
327,32,75027,2,0,L|333:119,1,67.5000025749208,2|0,0:0|0:0,0:0:0:0:
433,212,75168,6,0,B|398:198|398:198|349:203,1,67.5000025749208,0|0,1:0|0:0,0:0:0:0:
185,84,75310,2,0,B|220:98|220:98|269:93,1,67.5000025749208,2|0,0:0|0:0,0:0:0:0:
497,201,75451,2,0,B|462:215|462:215|413:210,1,67.5000025749208,0|0,1:0|0:0,0:0:0:0:
120,94,75593,2,0,B|155:80|155:80|204:85,1,67.5000025749208,2|0,0:0|0:0,0:0:0:0:
323,311,75735,6,0,L|322:229,1,67.5000025749208,0|0,1:0|0:0,0:0:0:0:
321,65,75876,1,2,1:2:0:0:
321,65,75947,1,0,1:0:0:0:
321,65,76018,2,0,P|268:24|244:24,1,67.5000025749208,4|0,1:0|0:0,0:0:0:0:
104,280,76159,2,0,L|200:253,1,67.5000025749208,2|0,0:2|0:0,0:0:0:0:
391,188,76301,5,0,1:0:0:0:
358,182,76371,1,0,0:0:0:0:
324,185,76442,1,2,1:2:0:0:
294,199,76513,1,0,0:0:0:0:
269,220,76584,2,0,P|219:167|207:162,1,67.5000025749208,0|0,1:0|0:0,0:0:0:0:
140,140,76725,2,0,P|76:157|61:169,1,67.5000025749208,0|0,1:0|0:0,0:0:0:0:
162,328,76867,6,0,L|171:230,1,67.5000025749208,0|0,1:0|0:0,0:0:0:0:
272,41,77008,2,0,L|278:108,1,67.5000025749208,2|0,1:2|0:0,0:0:0:0:
375,253,77149,2,0,L|429:256,4,33.7500012874604,0|0|0|0|0,1:0|1:0|1:0|1:0|1:0,1:0:0:0:
127,128,77433,6,0,P|202:123|244:119,1,67.5000025749208,6|0,1:0|0:0,0:0:0:0:
345,329,77574,2,0,P|270:324|228:320,1,67.5000025749208,2|0,1:0|0:0,0:0:0:0:
129,143,77857,6,0,P|204:138|246:134,1,67.5000025749208,2|0,1:1|0:0,0:0:0:0:
345,356,78140,2,0,P|270:351|228:347,1,67.5000025749208,2|0,1:1|0:0,0:0:0:0:
448,136,78423,6,0,P|441:215|438:358,1,202.500007724762,2|0,1:1|0:0,0:0:0:0:
344,189,78706,2,0,P|356:279|354:295,1,67.5000025749208,2|0,1:0|1:0,0:0:0:0:
270,39,78848,2,0,P|258:129|260:145,1,67.5000025749208,2|0,1:1|0:0,0:0:0:0:
239,302,78989,1,2,0:0:0:0:
147,177,79131,2,0,L|-14:151,1,135.000005149842,2|0,1:1|1:0,0:0:0:0:
21,68,79343,1,0,1:0:0:0:
21,68,79414,2,0,L|89:54,1,67.5000025749208,2|0,1:2|1:0,1:0:0:0:
126,266,79555,2,0,L|58:252,1,67.5000025749208,2|0,0:0|1:0,0:0:0:0:
248,99,79697,6,0,P|302:172|292:228,1,135.000005149842,2|0,1:0|1:0,0:0:0:0:
291,19,79909,2,0,P|273:107|306:154,1,135.000005149842,2|0,1:0|1:0,0:0:0:0:
157,192,80121,2,0,L|231:183,1,67.5000025749208,2|0,1:0|1:0,0:0:0:0:
420,265,80263,6,0,P|366:338|376:394,1,135.000005149842,2|0,1:0|1:0,0:0:0:0:
380,179,80475,2,0,P|399:267|366:314,1,135.000005149842,2|0,1:0|1:0,0:0:0:0:
511,358,80687,2,0,L|437:349,1,67.5000025749208,2|0,1:0|1:0,0:0:0:0:
244,294,80829,6,0,P|171:264|96:282,1,135.000005149842,2|0,1:0|1:0,0:0:0:0:
20,137,81041,2,0,P|93:167|168:149,1,135.000005149842,2|0,1:0|1:0,0:0:0:0:
224,81,81253,2,0,P|148:50|138:51,1,67.5000025749208,2|0,1:0|1:0,0:0:0:0:
266,200,81395,1,2,1:0:0:0:
266,200,81678,2,0,L|311:207,6,33.7500012874604,2|0|0|0|0|0|0,0:0|0:0|0:0|0:0|0:0|0:0|0:0,0:0:0:0:
349,112,81961,6,0,P|414:210|392:262,1,180,4|2,1:0|0:0,0:0:0:0:
306,320,82385,1,2,0:0:0:0:
240,211,82527,1,2,0:0:0:0:
240,211,82621,2,0,P|289:202|330:195,1,60,2|2,0:0|0:0,0:0:0:0:
264,117,82810,2,0,P|215:126|162:133,1,90,2|2,0:0|0:0,0:0:0:0:
107,70,83093,6,0,P|83:126|86:150,2,60,2|2|2,0:0|0:0|0:0,0:0:0:0:
6,160,83376,2,0,P|30:216|27:240,2,60,2|2|2,0:0|0:0|0:0,0:0:0:0:
83,314,83659,2,0,P|115:255|204:251,1,135,2|0,0:0|0:0,0:0:0:0:
166,322,83942,1,8,0:3:0:0:
166,322,84225,6,0,P|156:206|149:117,1,180,4|2,0:0|0:0,0:0:0:0:
248,56,84650,1,2,0:0:0:0:
248,56,84791,2,0,P|241:109|239:142,3,45,2|2|2|2,0:0|0:0|0:0|0:0,0:0:0:0:
358,183,85074,2,0,L|278:177,3,45,2|2|2|2,0:0|0:0|0:0|0:0,0:0:0:0:
156,284,85357,6,0,P|225:200|269:348,1,315,4|0,0:0|0:0,0:0:0:0:
233,279,85923,5,2,0:1:0:0:
123,170,86065,1,2,0:1:0:0:
317,79,86206,2,0,P|297:173|291:225,1,135,2|0,0:1|0:0,0:0:0:0:
197,23,86489,6,0,P|210:81|215:139,1,107.999996704102,4|0,0:0|0:0,0:0:0:0:
150,262,86772,1,8,0:0:0:0:
2,158,86914,2,0,P|66:132|120:123,1,107.999996704102,0|2,0:0|0:0,0:0:0:0:
150,262,87197,1,2,0:0:0:0:
296,193,87338,2,0,P|220:181|213:183,1,53.9999983520508,8|0,0:0|0:0,0:0:0:0:
209,347,87480,2,0,L|282:312,1,53.9999983520508,2|0,0:0|0:0,0:0:0:0:
395,137,87621,6,0,P|370:235|368:287,1,107.999996704102,4|0,0:0|0:0,0:0:0:0:
346,373,87904,1,8,0:0:0:0:
246,236,88046,1,0,0:0:0:0:
246,236,88117,1,2,0:0:0:0:
246,236,88187,1,2,0:0:0:0:
453,196,88329,1,2,0:0:0:0:
299,43,88470,2,0,L|289:96,1,53.9999983520508,8|0,0:0|0:0,0:0:0:0:
164,274,88612,2,0,L|154:220,1,53.9999983520508,2|0,0:0|0:0,0:0:0:0:
29,61,88753,6,0,P|114:77|143:147,2,120,4|0|0,0:1|0:1|0:1,0:0:0:0:
279,212,89319,2,0,P|194:228|165:298,2,120,4|0|0,0:1|0:0|0:0,0:0:0:0:
369,100,89885,5,4,0:3:0:0:
369,100,90027,2,0,L|358:300,1,180,4|0,0:1|0:0,0:0:0:0:
445,206,90451,1,8,0:0:0:0:
266,127,90593,1,0,0:0:0:0:
266,127,90664,1,2,0:0:0:0:
266,127,90735,2,0,L|194:121,1,45,2|0,0:0|0:0,0:0:0:0:
138,32,90876,2,0,L|210:26,1,45,2|0,0:0|0:0,0:0:0:0:
67,118,91018,6,0,P|90:181|86:227,1,90,2|0,0:0|0:0,0:0:0:0:
139,276,91230,2,0,P|183:280|224:299,1,90,2|0,0:0|0:0,0:0:0:0:
161,363,91442,1,2,0:0:0:0:
291,201,91584,1,2,0:0:0:0:
292,223,91654,1,2,0:0:0:0:
293,245,91725,1,2,0:0:0:0:
296,268,91796,1,2,0:0:0:0:
297,290,91867,2,0,L|301:357,1,45,2|0,0:0|0:0,0:0:0:0:
382,228,92008,2,0,L|386:295,1,45,2|2,0:0|0:0,0:0:0:0:
224,148,92150,6,0,P|274:121|339:129,1,90,2|0,0:0|0:0,0:0:0:0:
384,135,92362,2,0,P|416:154|474:160,1,90,2|0,0:0|0:0,0:0:0:0:
445,77,92574,1,2,0:0:0:0:
287,199,92716,1,2,0:0:0:0:
281,166,92786,1,2,0:0:0:0:
275,135,92857,1,2,0:0:0:0:
270,104,92928,1,2,0:0:0:0:
265,73,92999,2,0,L|256:20,1,45,2|0,0:0|0:0,0:0:0:0:
182,169,93140,2,0,L|173:116,1,45,2|2,0:0|0:0,0:0:0:0:
76,22,93282,6,0,P|83:93|87:130,1,90,2|0,0:0|0:0,0:0:0:0:
33,188,93494,2,0,P|92:222|108:262,1,90,2|0,0:0|0:0,0:0:0:0:
26,267,93706,1,2,0:0:0:0:
192,180,93848,1,2,0:0:0:0:
182,209,93918,1,2,0:0:0:0:
177,241,93989,1,2,0:0:0:0:
177,272,94060,1,2,0:0:0:0:
182,303,94131,2,0,L|185:375,1,45,2|0,0:0|0:0,0:0:0:0:
352,273,94272,1,2,0:0:0:0:
352,273,94343,1,2,0:0:0:0:
352,273,94414,6,0,B|264:262,1,53.9999983520508,4|0,0:0|0:0,0:0:0:0:
139,187,94555,2,0,B|227:176,1,53.9999983520508,2|0,0:0|0:0,0:0:0:0:
400,114,94697,2,0,P|326:108|254:99,1,107.999996704102,8|2,0:0|0:0,0:0:0:0:
233,25,94909,1,0,0:0:0:0:
233,25,94980,2,0,P|292:8|305:8,1,53.9999983520508,2|0,0:0|0:0,0:0:0:0:
414,190,95121,2,0,P|416:75|461:34,1,161.999995056153,4|0,0:1|0:0,0:0:0:0:
492,133,95404,1,2,0:0:0:0:
375,305,95546,6,0,B|307:268|307:268|222:278,1,135.000005149842,4|2,0:0|0:0,0:0:0:0:
148,189,95758,1,0,0:0:0:0:
148,189,95829,2,0,P|207:143|221:139,1,67.5000025749208,8|0,0:0|0:0,0:0:0:0:
153,331,95970,1,0,0:0:0:0:
44,244,96112,1,2,0:0:0:0:
37,210,96183,1,0,0:0:0:0:
28,178,96253,1,2,0:0:0:0:
17,146,96324,1,0,0:0:0:0:
5,115,96395,2,0,P|20:82|49:48,1,67.5000025749208,8|0,0:0|0:0,0:0:0:0:
172,219,96536,2,0,L|152:148,1,67.5000025749208,2|0,0:0|0:0,0:0:0:0:
346,21,96678,6,0,P|291:103|286:184,1,135.000005149842,4|0,0:0|0:0,0:0:0:0:
477,206,96890,2,0,P|412:130|349:105,1,135.000005149842,2|0,0:0|0:0,0:0:0:0:
354,224,97102,1,2,0:0:0:0:
208,64,97244,2,0,P|197:141|197:153,1,67.5000025749208,8|0,0:0|0:0,0:0:0:0:
166,332,97385,2,0,L|181:367,4,33.7500012874604,0|0|0|0|0,1:0|1:0|1:0|1:0|1:0,1:0:0:0:
33,180,97668,1,2,0:0:0:0:
127,241,97810,6,0,P|44:295|-1:294,1,90.0000034332277,4|0,1:1|0:0,0:0:0:0:
194,200,97999,2,0,P|99:228|71:263,1,90.0000034332277,4|0,1:1|0:0,0:0:0:0:
303,315,98187,2,0,P|292:271|268:233,1,90.0000034332277,4|0,1:1|0:0,0:0:0:0:
450,128,98376,2,0,P|420:230|421:253,1,90.0000034332277,4|0,1:1|0:0,0:0:0:0:
341,2,98565,2,0,L|365:113,1,90.0000034332277,4|0,1:1|0:0,0:0:0:0:
213,176,98753,2,0,P|270:155|315:166,1,90.0000034332277,4|0,1:1|0:0,0:0:0:0:
448,326,98942,5,0,1:0:0:0:
359,334,99036,1,0,1:0:0:0:
278,297,99131,1,0,1:0:0:0:
227,224,99225,1,0,1:0:0:0:
220,135,99319,1,0,1:0:0:0:
259,55,99414,1,0,1:0:0:0:
333,6,99508,1,0,1:0:0:0:
333,6,99791,6,0,B|371:99|371:99|336:220,1,202.500007724762,4|0,0:0|0:0,0:0:0:0:
209,118,100074,6,0,L|286:108,1,67.5000025749208,4|0,0:1|0:0,0:0:0:0:
397,320,100216,2,0,L|320:310,1,67.5000025749208,2|0,0:0|0:0,0:0:0:0:
142,109,100357,2,0,L|219:119,1,67.5000025749208,0|0,1:0|0:0,0:0:0:0:
463,311,100499,2,0,L|386:321,1,67.5000025749208,2|0,0:0|0:0,0:0:0:0:
241,363,100640,5,0,1:0:0:0:
227,332,100711,1,0,1:0:0:0:
225,298,100782,1,0,1:0:0:0:
235,266,100852,1,0,1:0:0:0:
256,240,100923,2,0,P|213:210|201:179,1,67.5000025749208,4|0,0:1|0:0,0:0:0:0:
393,29,101065,2,0,L|392:115,1,67.5000025749208,2|0,0:0|0:0,0:0:0:0:
148,138,101206,6,0,P|193:115|225:119,1,67.5000025749208,0|0,1:0|0:0,0:0:0:0:
319,306,101348,2,0,P|274:329|242:325,1,67.5000025749208,2|0,0:0|0:0,0:0:0:0:
87,115,101489,2,0,P|132:138|164:134,1,67.5000025749208,0|0,1:0|0:0,0:0:0:0:
379,328,101631,2,0,P|334:305|302:309,1,67.5000025749208,2|0,0:0|0:0,0:0:0:0:
111,384,101772,5,0,1:0:0:0:
103,351,101843,1,0,1:0:0:0:
103,317,101914,1,0,1:0:0:0:
111,284,101985,1,0,1:0:0:0:
127,255,102055,2,0,L|207:235,1,67.5000025749208,0|0,1:0|0:0,0:0:0:0:
372,149,102197,2,0,L|283:135,1,67.5000025749208,2|0,0:0|0:0,0:0:0:0:
140,22,102338,5,0,1:0:0:0:
246,332,102480,1,2,0:0:0:0:
400,72,102621,2,0,L|349:68,6,33.7500012874604,0|0|0|0|0|0|0,1:0|1:0|1:0|1:0|1:0|1:0|1:0,1:0:0:0:
235,82,102904,5,0,1:0:0:0:
367,327,103046,1,2,0:0:0:0:
41,171,103187,2,0,L|7:173,6,33.7500012874604,0|0|0|0|0|0|0,1:0|1:0|1:0|1:0|1:0|1:0|1:0,1:0:0:0:
118,282,103470,5,0,1:0:0:0:
473,110,103612,1,2,0:0:0:0:
272,349,103753,2,0,L|268:407,6,33.7500012874604,0|0|0|0|0|0|0,1:0|1:0|1:0|1:0|1:0|1:0|1:0,1:0:0:0:
283,173,104036,5,0,1:0:0:0:
491,368,104178,1,2,0:0:0:0:
128,173,104319,2,0,L|121:114,6,33.7500012874604,0|0|0|0|0|0|0,1:0|1:0|1:0|1:0|1:0|1:0|1:0,1:0:0:0:
228,33,104602,6,0,P|221:86|214:142,1,67.5000025749208,2|0,0:1|0:0,0:0:0:0:
386,337,104744,2,0,P|381:303|377:270,1,67.5000025749208,2|0,0:1|0:0,0:0:0:0:
247,44,105027,6,0,P|240:97|233:153,1,67.5000025749208,2|0,0:1|0:0,0:0:0:0:
412,356,105310,2,0,P|407:322|403:289,1,67.5000025749208,2|0,0:1|0:0,0:0:0:0:
144,195,105593,6,0,P|210:219|342:198,1,202.500007724762,2|0,0:1|0:0,0:0:0:0:
403,144,105876,2,0,P|351:112|329:110,1,67.5000025749208,2|0,0:1|0:0,0:0:0:0:
272,325,106018,2,0,P|331:296|350:294,1,67.5000025749208,2|0,1:0|0:0,0:0:0:0:
494,255,106159,2,0,L|417:235,1,67.5000025749208,2|0,0:1|0:0,0:0:0:0:
235,43,106301,1,2,0:1:0:0:
233,76,106371,1,0,0:0:0:0:
232,110,106442,1,2,0:0:0:0:
231,144,106513,1,0,0:0:0:0:
229,177,106584,2,0,L|227:262,1,67.5000025749208,0|0,1:1|0:0,0:0:0:0:
131,53,106725,2,0,L|129:138,1,67.5000025749208,2|0,0:0|0:0,0:0:0:0:
121,295,106867,5,2,0:0:0:0:
121,295,107008,2,0,P|104:209|46:183,1,135,2|0,0:0|0:0,0:0:0:0:
51,262,107291,2,0,B|117:249|117:249|185:271,1,135,2|0,0:0|0:0,0:0:0:0:
268,312,107574,1,2,0:0:0:0:
259,216,107716,1,0,0:0:0:0:
222,372,107857,6,0,P|289:385|342:303,1,135,2|0,0:0|0:0,0:0:0:0:
333,254,108140,1,2,0:0:0:0:
399,198,108282,2,0,P|421:261|414:288,1,90,2|0,0:0|0:0,0:0:0:0:
335,151,108565,2,0,P|387:122|431:129,1,90,2|0,0:0|0:0,0:0:0:0:
287,229,108848,1,4,0:0:0:0:
230,140,108989,1,0,0:0:0:0:
176,323,109131,6,0,P|129:307|65:316,1,90,4|0,0:0|0:0,0:0:0:0:
37,204,109414,2,0,P|84:220|148:211,1,90
211,143,109697,1,2,0:0:0:0:
211,143,109838,2,0,P|205:200|202:256,1,90,2|0,0:0|0:0,0:0:0:0:
318,90,110121,6,0,P|323:139|327:203,1,90,2|0,0:0|0:0,0:0:0:0:
339,297,110404,1,2,0:0:0:0:
484,250,110546,2,0,P|435:239|388:231,1,90,2|2,0:0|0:0,0:0:0:0:
250,154,110829,2,0,P|299:143|346:135,1,90,2|0,0:0|0:0,0:0:0:0:
428,90,111041,1,0,0:0:0:0:
428,90,111112,2,0,L|423:149,1,45,2|0,0:0|0:0,0:0:0:0:
321,316,111253,2,0,L|317:271,1,45,2|0,0:0|0:0,0:0:0:0:
149,19,111395,6,0,B|174:60|174:60|162:167,1,135.000005149842,4|0,0:0|0:0,0:0:0:0:
179,273,111607,2,0,B|154:232|154:232|171:88,1,135.000005149842,2|0,0:0|0:0,0:0:0:0:
249,92,111819,2,0,L|241:181,1,67.5000025749208,2|0,0:0|0:0,0:0:0:0:
52,278,111961,6,0,P|137:257|196:286,1,135.000005149842,8|0,0:0|0:0,0:0:0:0:
305,267,112173,2,0,P|220:288|161:259,1,135.000005149842,2|0,0:0|0:0,0:0:0:0:
90,354,112385,2,0,L|171:353,1,67.5000025749208,2|0,0:0|0:0,0:0:0:0:
238,179,112527,6,0,B|297:159|297:159|395:192,1,135.000005149842,8|0,0:0|0:0,0:0:0:0:
493,185,112739,2,0,B|434:205|434:205|336:172,1,135.000005149842,2|0,0:0|0:0,0:0:0:0:
315,68,112951,2,0,L|408:101,1,67.5000025749208,2|0,0:0|0:0,0:0:0:0:
493,185,113093,6,0,B|435:205|435:205|300:160|300:160|280:162|280:162,1,216,2|0,0:0|0:0,0:0:0:0:
151,81,113376,2,0,L|162:157,1,53.9999983520508,2|0,0:1|0:0,0:0:0:0:
95,282,113518,2,0,L|87:228,1,53.9999983520508,2|0,0:1|0:0,0:0:0:0:
9,144,113659,6,0,L|89:134,6,56.25,4|0|0|0|0|0|0,1:0|1:0|1:0|1:0|1:0|1:0|1:0,1:0:0:0:
29,61,113942,1,8,0:0:0:0:
170,216,114084,2,0,B|259:216|259:216|284:163|337:155,1,161.999995056153,2|0,0:0|0:0,0:0:0:0:
341,242,114367,1,2,0:0:0:0:
262,89,114508,2,0,P|312:78|347:88,1,53.9999983520508,8|0,0:0|0:0,0:0:0:0:
393,231,114650,2,0,P|343:242|308:232,1,53.9999983520508,2|0,0:0|0:0,0:0:0:0:
456,43,114791,6,0,B|425:93|425:93|446:191,1,107.999996704102,2|0,0:0|0:0,0:0:0:0:
492,234,115003,1,0,0:0:0:0:
492,234,115074,1,8,0:0:0:0:
295,147,115216,2,0,P|275:273|268:388,1,215.999993408203,2|2,0:0|0:0,0:0:0:0:
138,322,115569,1,0,0:0:0:0:
138,322,115640,2,0,P|191:307|216:302,1,53.9999983520508,8|0,0:0|0:0,0:0:0:0:
410,262,115782,2,0,P|357:247|332:242,1,53.9999983520508,2|0,0:0|0:0,0:0:0:0:
207,71,115923,6,0,P|201:131|192:204,1,107.999996704102,2|0,0:0|0:0,0:0:0:0:
107,163,116135,1,0,0:0:0:0:
107,163,116206,1,8,0:0:0:0:
262,354,116348,2,0,B|212:303|245:242|245:242|181:279|131:230,1,215.999993408203,2|2,0:0|0:0,0:0:0:0:
84,218,116701,1,0,0:0:0:0:
84,218,116772,2,0,P|120:178|141:171,1,53.9999983520508,8|0,0:0|0:0,0:0:0:0:
276,147,116914,1,0,0:0:0:0:
180,336,117055,6,0,L|180:261,1,53.9999983520508,2|0,0:0|0:0,0:0:0:0:
126,101,117197,2,0,L|206:101,1,53.9999983520508,2|0,0:0|0:0,0:0:0:0:
270,225,117338,1,8,0:0:0:0:
391,26,117480,2,0,B|425:108|425:108|396:213,1,161.999995056153,2|0,0:0|0:0,0:0:0:0:
360,264,117763,1,2,0:0:0:0:
219,144,117904,2,0,L|341:141,1,107.999996704102,8|0,0:0|0:0,0:0:0:0:
391,307,118187,5,6,0:0:0:0:
391,307,118258,1,0,0:0:0:0:
391,307,118329,2,0,P|354:259|335:248,1,53.9999983520508,2|0,0:0|0:0,0:0:0:0:
207,66,118470,2,0,L|282:66,1,53.9999983520508,8|0,0:0|0:0,0:0:0:0:
262,241,118612,2,0,B|176:207|176:207|54:245,1,215.999993408203,2|2,0:0|0:0,0:0:0:0:
22,172,118966,1,0,0:0:0:0:
22,172,119036,2,0,L|106:149,1,53.9999983520508,8|0,0:0|0:0,0:0:0:0:
165,358,119178,2,0,L|167:284,1,53.9999983520508,2|0,0:0|0:0,0:0:0:0:
165,103,119319,6,0,P|208:71|300:81,1,107.999996704102,2|0,0:0|0:0,0:0:0:0:
242,153,119532,1,0,0:0:0:0:
242,153,119602,1,8,0:0:0:0:
416,30,119744,2,0,P|403:134|401:213,1,161.999995056153,2|0,0:0|0:0,0:0:0:0:
399,292,120027,1,2,0:0:0:0:
483,177,120168,1,8,0:0:0:0:
303,306,120310,1,0,0:0:0:0:
215,97,120451,6,0,P|271:140|291:215,1,107.999996704102,2|0,0:0|0:0,0:0:0:0:
193,181,120664,1,0,0:0:0:0:
193,181,120735,1,8,0:0:0:0:
381,74,120876,2,0,L|308:71,1,53.9999983520508,2|0,0:0|0:0,0:0:0:0:
117,5,121018,2,0,P|115:90|114:157,1,107.999996704102,4|0,0:0|0:0,0:0:0:0:
11,227,121230,1,0,0:0:0:0:
11,227,121301,2,0,P|8:162|7:139,1,53.9999983520508,10|0,0:0|0:0,0:0:0:0:
98,367,121442,2,0,P|101:302|102:279,1,53.9999983520508,2|0,0:0|0:0,0:0:0:0:
186,189,121584,6,0,B|241:219|241:219|300:205,1,90.0000034332277,2|0,1:0|0:0,0:0:0:0:
356,228,121772,2,0,L|250:209,1,90.0000034332277,2|0,1:0|0:0,0:0:0:0:
74,185,121961,6,0,B|155:198|155:198|256:165,1,113.999996955872,2|0,1:0|0:0,0:0:0:0:
465,240,122150,2,0,B|415:220|415:220|343:229,1,113.999996955872,2|0,1:0|0:0,0:0:0:0:
258,83,122338,6,0,P|357:98|405:106,1,132.00000402832,2|0,1:0|0:0,0:0:0:0:
478,324,122527,2,0,P|377:324|327:327,1,132.00000402832,2|0,1:0|0:0,0:0:0:0:
191,186,122716,5,2,1:0:0:0:
191,186,122999,5,4,0:0:0:0:
137,203,123069,1,0,0:0:0:0:
105,248,123140,1,2,0:0:0:0:
105,303,123211,1,0,0:0:0:0:
137,348,123282,6,0,L|230:336,1,80.9999975280763,8|0,0:0|0:0,0:0:0:0:
376,223,123423,2,0,L|283:210,1,80.9999975280763,2|0,0:0|0:0,0:0:0:0:
79,93,123565,1,2,0:0:0:0:
124,125,123635,1,0,0:0:0:0:
179,137,123706,1,2,0:0:0:0:
234,124,123777,1,0,0:0:0:0:
279,90,123848,6,0,P|339:70|377:79,1,80.9999975280763,2|0,0:0|0:0,0:0:0:0:
443,323,123989,2,0,L|326:306,1,80.9999975280763,2|0,0:0|0:0,0:0:0:0:
113,234,124131,1,2,0:1:0:0:
193,224,124201,1,0,0:0:0:0:
273,214,124272,2,0,L|362:207,1,80.9999975280763,2|0,0:1|0:0,0:0:0:0:
508,79,124414,6,0,P|349:67|314:24,1,161.999995056153,2|2,0:1|0:0,0:0:0:0:
251,85,124626,1,2,0:0:0:0:
251,85,124697,2,0,P|268:9|286:-10,1,80.9999975280763,10|2,0:0|0:0,0:0:0:0:
299,238,124838,2,0,L|280:341,1,80.9999975280763,2|0,0:0|0:0,0:0:0:0:
64,181,124980,6,0,B|153:209|153:209|229:187,1,161.999995056153,2|0,0:1|0:0,0:0:0:0:
451,176,125192,2,0,P|352:136|280:166,1,161.999995056153,2|0,0:1|0:0,0:0:0:0:
298,237,125404,2,0,L|379:242,1,80.9999975280763,2|0,0:1|0:0,0:0:0:0:
189,38,125546,5,2,0:1:0:0:
181,118,125617,1,0,0:0:0:0:
174,199,125687,2,0,B|182:243|182:243|165:312,1,80.9999975280763,2|2,0:0|0:1,0:0:0:0:
58,371,125829,2,0,B|50:328|50:328|67:259,1,80.9999975280763,2|0,0:0|0:0,0:0:0:0:
260,202,125970,2,0,L|257:282,1,80.9999975280763,2|0,0:1|0:0,0:0:0:0:
137,105,126112,6,0,L|234:108,1,80.9999975280763,2|0,0:0|0:0,0:0:0:0:
412,252,126253,1,2,0:0:0:0:
412,252,126324,1,0,0:0:0:0:
412,252,126395,2,0,L|313:249,1,80.9999975280763,8|0,0:0|0:0,0:0:0:0:
163,180,126536,1,2,0:0:0:0:
137,105,126607,1,0,0:0:0:0:
173,35,126678,6,0,P|247:13|291:27,1,107.999996704102,0|0,1:0|1:0,1:0:0:0:
433,161,126867,1,0,1:0:0:0:
386,156,126961,2,0,L|237:139,1,107.999996704102,0|0,1:0|1:0,1:0:0:0:
162,280,127150,1,0,1:0:0:0:
193,268,127244,5,0,1:0:0:0:
183,271,128376,6,0,P|193:217|155:126,2,107.999996704102,4|0|0,1:0|1:0|1:0,0:0:0:0:
43,191,128659,2,0,P|32:138|44:85,2,107.999996704102,4|0|0,1:0|1:0|1:0,0:0:0:0:
167,31,128942,5,4,1:0:0:0:
243,90,129036,1,0,1:0:0:0:
322,33,129131,1,0,1:0:0:0:
426,176,129225,5,4,1:0:0:0:
350,117,129319,1,0,1:0:0:0:
271,174,129414,1,0,1:0:0:0:
357,254,129508,6,0,L|452:259,1,80.9999975280763,2|0,0:1|0:0,0:0:0:0:
268,97,129650,2,0,L|364:99,1,80.9999975280763,2|0,0:1|0:0,0:0:0:0:
160,279,129791,2,0,L|255:284,1,80.9999975280763,2|0,0:1|0:0,0:0:0:0:
53,140,129933,2,0,L|148:145,1,80.9999975280763,2|0,0:1|0:0,0:0:0:0:
207,0,130074,6,0,L|203:99,1,80.9999975280763,2|0,0:1|0:0,0:0:0:0:
74,359,130216,2,0,L|77:264,1,80.9999975280763,2|0,0:1|0:0,0:0:0:0:
28,61,130357,2,0,L|175:66,1,80.9999975280763,2|0,0:1|0:0,0:0:0:0:
288,317,130499,2,0,L|143:308,1,80.9999975280763,2|0,0:1|0:0,0:0:0:0:
60,203,130640,5,2,0:1:0:0:
344,52,130782,1,2,0:1:0:0:
288,317,130923,2,0,L|289:214,1,80.9999975280763,2|0,0:1|0:0,0:0:0:0:
179,53,131065,2,0,L|176:164,1,80.9999975280763,2|0,0:1|0:0,0:0:0:0:
407,313,131206,1,2,0:1:0:0:
407,313,131489,5,0,0:0:0:0:
408,296,131560,1,0,0:0:0:0:
410,280,131631,1,0,0:0:0:0:
411,264,131701,1,0,0:0:0:0:
413,248,131772,5,2,0:0:0:0:
360,186,131914,1,2,0:0:0:0:
283,211,132055,1,2,0:0:0:0:
276,292,132197,1,2,0:0:0:0:
216,346,132338,1,2,0:0:0:0:
150,297,132480,1,2,0:0:0:0:
190,227,132621,1,2,0:0:0:0:
121,182,132763,1,2,0:0:0:0:
109,197,133046,1,2,0:0:0:0:
119,208,133895,5,2,0:0:0:0:
119,208,133966,1,2,0:0:0:0:
119,208,134036,1,2,0:0:0:0:
149,133,134178,1,2,0:0:0:0:
224,162,134319,1,2,0:0:0:0:
198,239,134461,1,2,0:0:0:0:
239,308,134602,1,2,0:0:0:0:
316,282,134744,1,2,0:0:0:0:
337,204,134885,1,2,0:0:0:0:
274,152,135027,1,2,0:0:0:0:
259,164,135310,1,2,0:0:0:0:
376,104,135593,5,2,0:0:0:0:
174,120,135735,2,0,P|179:196|187:262,1,135,2|2,0:0|0:0,0:0:0:0:
186,258,136301,5,2,0:0:0:0:
249,307,136442,1,2,0:0:0:0:
313,256,136584,1,2,0:0:0:0:
279,182,136725,1,2,0:0:0:0:
310,107,136867,1,2,0:0:0:0:
388,89,137008,1,2,0:0:0:0:
430,158,137150,1,2,0:0:0:0:
395,230,137291,1,2,0:0:0:0:
398,248,137574,1,2,0:0:0:0:
408,259,138423,5,2,0:0:0:0:
408,259,138494,1,2,0:0:0:0:
408,259,138565,1,2,0:0:0:0:
335,222,138706,1,2,0:0:0:0:
291,290,138848,1,2,0:0:0:0:
215,260,138989,1,2,0:0:0:0:
239,182,139131,1,2,0:0:0:0:
186,120,139272,1,2,0:0:0:0:
109,147,139414,1,2,0:0:0:0:
108,227,139555,1,2,0:0:0:0:
112,246,139838,1,2,0:0:0:0:
