osu file format v14

[General]
AudioFilename: gg no re.mp3
AudioLeadIn: 0
PreviewTime: 363
Countdown: 0
SampleSet: Soft
StackLeniency: 0.9
Mode: 0
LetterboxInBreaks: 0
WidescreenStoryboard: 0

[Editor]
Bookmarks: 125534
DistanceSpacing: 0.9
BeatDivisor: 3
GridSize: 4
TimelineZoom: 1.2

[Metadata]
Title:Re:End of a Dream
TitleUnicode:Re:End of a Dream
Artist:uma vs. Morimori Atsushi
ArtistUnicode:uma vs. モリモリあつし
Creator:Battle
Version:Normal
Source:BMS
Tags:superalloys masiro vs adaptor hobbes2 toybot vinxis liiraye lasse regraz
BeatmapID:1207342
BeatmapSetID:557039

[Difficulty]
HPDrainRate:4
CircleSize:3.4
OverallDifficulty:3.5
ApproachRate:4.5
SliderMultiplier:1
SliderTickRate:1

[Events]
//Background and Video events
Video,0,"anime.avi"
0,0,"end.jpg",0,0
//Break Periods
2,82160,84662
2,91217,93153
2,107066,110134
//Storyboard Layer 0 (Background)
//Storyboard Layer 1 (Fail)
//Storyboard Layer 2 (Pass)
//Storyboard Layer 3 (Foreground)
//Storyboard Sound Samples

[TimingPoints]
434,283.018867924528,4,2,2,80,1,0
434,-100,4,2,2,80,0,0
8924,-100,4,2,1,100,0,0
9490,-100,4,2,1,100,0,0
17415,-100,4,2,1,100,0,0
18547,-100,4,2,1,80,0,1
18830,-100,4,2,1,100,0,1
26471,-100,4,2,2,100,0,1
27320,-100,4,2,2,100,0,0
34679,-100,4,2,1,100,0,0
35811,-100,4,2,1,100,0,0
36660,-100,4,2,1,100,0,1
37792,-100,4,2,1,100,0,1
38004,-100,4,2,1,100,0,1
38924,-100,4,2,1,100,0,1
45150,-100,4,2,1,100,0,0
45717,-100,4,2,2,100,0,0
46141,-100,4,2,1,70,0,0
46212,-100,4,2,1,5,0,0
46566,-100,4,2,1,70,0,0
46636,-100,4,2,1,5,0,0
47273,-100,4,2,2,70,0,0
49537,-100,4,2,1,80,0,0
49608,-100,4,2,1,5,0,0
50245,-100,4,2,2,70,0,0
50669,-100,4,2,1,70,0,0
50740,-100,4,2,1,5,0,0
51094,-100,4,2,1,100,0,0
51165,-100,4,2,1,5,0,0
51801,-100,4,2,2,70,0,0
52509,-100,4,2,2,70,0,0
54066,-100,4,2,1,70,0,0
54136,-100,4,2,1,5,0,0
54490,-100,4,2,3,100,0,0
54791,283.018867924528,4,2,1,100,1,0
54791,-100,4,2,1,100,0,0
59318,-100,4,2,1,100,0,0
61583,-100,4,2,1,100,0,0
66111,-100,4,2,1,100,0,1
70640,-100,4,2,1,100,0,0
72904,-100,4,2,1,100,0,1
81960,-100,4,2,1,100,0,0
82244,-100,4,2,2,100,0,0
86206,-100,4,2,1,100,0,0
86489,-100,4,2,1,100,0,0
88753,-100,4,2,1,100,0,0
91018,-100,4,2,2,100,0,0
94414,-100,4,2,1,100,0,0
95545,-100,4,2,1,100,0,1
106866,-100,4,2,2,100,0,0
111394,-100,4,2,1,100,0,1
113092,-100,4,2,1,100,0,1
113375,-100,4,2,1,100,0,0
113658,-100,4,2,1,100,0,1
113941,-100,4,2,1,100,0,1
121583,-100,4,2,1,100,0,0
122998,-100,4,2,1,100,0,1
127243,-100,4,2,1,100,0,0
128375,-100,4,2,1,100,0,1
131772,-100,4,2,2,80,0,0
135592,-100,4,2,2,80,0,0
136300,-100,4,2,2,80,0,0

[Colours]
Combo1 : 253,153,104
Combo2 : 181,165,254
Combo3 : 152,243,97
Combo4 : 107,192,220

[HitObjects]
43,118,434,6,0,P|33:47|55:13,2,99.9999999999999,2|2|2,0:0|0:0|0:0,0:0:0:0:
107,181,1283,2,0,L|179:180,1,50,2|2,0:0|0:0,0:0:0:0:
223,118,1707,1,2,0:0:0:0:
223,118,2698,6,0,P|273:94|334:103,2,99.9999999999999,2|2|2,0:0|0:0|0:0,0:0:0:0:
181,198,3547,2,0,P|176:236|180:261,1,50,2|2,0:0|0:0,0:0:0:0:
233,317,3971,1,2,0:0:0:0:
233,317,4962,6,0,P|298:339|336:319,2,99.9999999999999,2|2|2,0:0|0:0|0:0,0:0:0:0:
176,247,5811,2,0,P|141:241|115:247,1,50,2|2,0:0|0:0,0:0:0:0:
50,290,6235,1,2,0:0:0:0:
50,290,7226,6,0,P|39:233|56:188,2,100,2|2|2,0:0|0:0|0:0,0:0:0:0:
127,244,8075,2,0,L|186:244,1,50,2|2,0:0|0:0,0:0:0:0:
267,244,8500,1,2,0:0:0:0:
392,293,8924,2,0,P|397:210|381:180,1,99.9999999999999,0|0,0:0|0:0,0:0:0:0:
324,136,9490,6,0,B|250:154|250:154|171:118,2,150,4|0|8,0:0|0:0|0:0,0:0:0:0:
409,164,10622,2,0,P|406:88|343:46,2,150,2|0|8,0:0|0:0|0:0,0:0:0:0:
335,216,11754,6,0,B|337:373,2,150,4|0|8,0:0|0:0|0:0,0:0:0:0:
330,126,12886,2,0,B|416:148|416:148|494:123,2,150,2|0|8,0:0|0:0|0:0,0:0:0:0:
240,115,14018,6,0,P|201:154|188:204,1,99.9999999999999,4|8,0:0|0:0,0:0:0:0:
248,263,14584,2,0,L|355:263,1,99.9999999999999,8|8,0:0|0:0,0:0:0:0:
329,350,15150,2,0,L|222:350,1,99.9999999999999,8|8,0:0|0:0,0:0:0:0:
138,348,15717,1,8,0:0:0:0:
106,263,16000,1,8,0:0:0:0:
179,206,16283,6,0,B|193:164|193:164|167:104,1,99.9999999999999,8|8,0:0|0:0,0:0:0:0:
211,32,16849,1,8,0:0:0:0:
285,83,17132,1,8,0:0:0:0:
368,48,17415,6,0,B|416:-16|514:15|506:102|506:102|460:158|460:158|487:195|466:233,1,333.333333333333,4|0,0:0|1:0,0:0:0:0:
443,261,18547,6,0,P|363:243|328:255,1,99.9999999999999,4|4,1:0|0:0,0:0:0:0:
310,273,18971,2,0,P|232:298|159:261,1,150,0|8,0:1|0:0,0:0:0:0:
104,213,19679,2,0,B|101:110,1,99.9999999999999,2|8,0:0|0:0,0:0:0:0:
98,68,20103,2,0,P|157:34|223:69,1,150,2|8,0:0|0:0,0:0:0:0:
262,151,20811,6,0,P|312:82|297:18,2,150,4|2|8,0:0|0:0|0:0,0:0:0:0:
177,182,21943,2,0,P|145:229|151:280,1,99.9999999999999,2|8,0:0|0:0,0:0:0:0:
169,309,22367,2,0,B|219:295|219:295|281:316,1,99.9999999999999,2|2,0:0|0:0,0:0:0:0:
298,339,22792,1,8,0:0:0:0:
379,300,23075,6,0,P|423:248|415:200,1,99.9999999999999,4|8,0:0|0:0,0:0:0:0:
402,178,23500,2,0,B|310:181|310:181|242:137,1,150,2|8,0:0|0:0,0:0:0:0:
189,94,24207,2,0,P|109:106|87:132,1,99.9999999999999,4|8,0:0|0:0,0:0:0:0:
77,158,24632,2,0,P|89:237|115:259,1,99.9999999999999,2|2,0:0|0:0,0:0:0:0:
141,267,25056,1,8,0:0:0:0:
218,221,25339,6,0,P|277:210|317:223,2,99.9999999999999,4|8|8,0:0|0:0|0:0,0:0:0:0:
141,267,26188,1,8,0:0:0:0:
91,191,26471,2,0,L|93:83,1,100,2|2,0:0|0:0,0:0:0:0:
175,54,27037,2,0,L|173:162,1,99.9999999999999,2|2,0:0|0:0,0:0:0:0:
237,217,27603,6,0,B|301:237|301:237|384:218,2,150,4|2|2,0:3|0:0|0:0,0:0:0:0:
166,272,28735,2,0,P|152:188|201:133,2,150,2|2|2,0:0|0:0|0:0,0:0:0:0:
229,336,29867,2,0,L|401:335,2,150,2|2|2,0:0|0:0|0:0,0:0:0:0:
140,355,31000,2,0,P|135:257|43:223,1,200,2|2,0:0|0:0,0:0:0:0:
3,144,31849,1,2,0:0:0:0:
68,81,32132,6,0,B|133:100|133:100|226:68,2,150,2|2|2,0:0|0:0|0:0,0:0:0:0:
23,159,33264,2,0,P|1:216|19:311,2,150,2|2|2,0:0|0:0|0:0,0:0:0:0:
98,207,34396,2,0,L|207:208,1,99.9999999999999,2|0,0:0|0:0,0:0:0:0:
267,150,34962,2,0,P|288:213|270:260,1,100,2|8,0:0|0:0,0:0:0:0:
229,320,35528,2,0,L|129:319,2,99.9999999999999,10|12|8,0:0|0:0|0:0,0:0:0:0:
302,371,36377,1,8,0:0:0:0:
381,325,36660,6,0,P|398:286|381:221,1,99.9999999999999,4|8,0:0|0:0,0:0:0:0:
359,195,37084,2,0,B|260:212|260:212|204:189,1,150,2|8,0:1|0:0,0:0:0:0:
162,117,37792,2,0,P|123:185|142:250,2,150,2|2|8,0:1|0:1|0:0,0:0:0:0:
241,71,38924,6,0,B|292:85|292:85|351:68,1,99.9999999999999,2|8,0:1|0:0,0:0:0:0:
378,53,39349,2,0,P|451:82|458:165,1,150,2|8,0:1|0:0,0:0:0:0:
398,206,40056,2,0,L|398:312,1,99.9999999999999,6|8,0:0|0:0,0:0:0:0:
318,347,40622,2,0,L|318:241,1,99.9999999999999,2|8,0:0|0:0,0:0:0:0:
246,192,41188,6,0,B|149:206|149:206|97:179,1,150,4|4,0:0|0:1,0:0:0:0:
16,77,42037,1,8,0:0:0:0:
96,37,42320,2,0,B|142:13|142:13|239:27,1,150,4|4,0:0|0:1,0:0:0:0:
340,116,43169,1,8,0:0:0:0:
261,159,43452,6,0,P|210:223|245:337,1,200,4|8,0:0|0:0,0:0:0:0:
274,355,44160,1,10,0:0:0:0:
333,287,44443,2,0,L|488:288,1,150,6|8,0:0|0:0,0:0:0:0:
508,201,45150,1,8,0:0:0:0:
436,146,45433,1,4,0:0:0:0:
362,198,45717,6,0,L|193:196,1,150,2|4,0:0|0:1,0:0:0:0:
46,235,47415,2,0,P|22:161|62:98,1,150,4|2,0:0|0:0,0:0:0:0:
94,78,47981,6,0,P|160:110|233:84,1,150,4|4,0:1|0:1,0:0:0:0:
299,31,48688,1,0,0:0:0:0:
426,74,49113,2,0,P|463:126|432:211,1,150,4|4,0:1|0:1,0:0:0:0:
335,357,50245,6,0,P|260:324|192:353,1,150,4|4,0:0|0:1,0:0:0:0:
34,158,51943,2,0,P|83:183|176:160,1,150,4|2,0:1|0:0,0:0:0:0:
203,130,52509,6,0,P|271:78|339:95,1,150,4|0,0:0|0:0,0:0:0:0:
391,154,53217,1,2,0:0:0:0:
492,65,53641,2,0,P|525:139|507:219,1,150,4|4,0:1|0:0,0:0:0:0:
420,305,54490,1,0,1:0:0:0:
348,250,54791,6,0,B|268:219|268:219|196:236,2,150,0|0|0,1:0|0:0|1:0,0:0:0:0:
420,305,55923,2,0,P|437:247|419:192,1,100,0|0,1:0|1:0,0:0:0:0:
370,140,56489,2,0,L|370:27,1,99.9999999999999,4|0,1:0|1:0,0:0:0:0:
286,5,57054,6,0,L|287:160,2,150,4|4|0,1:0|1:0|1:0,0:0:0:0:
205,44,58186,2,0,P|152:57|101:43,1,99.9999999999999,4|0,1:0|0:0,0:0:0:0:
64,125,58752,2,0,P|76:172|66:221,1,99.9999999999999,0|0,1:0|1:0,0:0:0:0:
121,292,59318,6,0,P|183:264|284:332,1,200,4|4,0:0|0:1,0:0:0:0:
373,175,60450,2,0,P|311:203|210:135,1,200,4|4,0:1|0:1,0:0:0:0:
61,34,61583,6,0,B|44:75|68:105|68:105|23:146|23:146|64:203|25:255|25:255|90:266|95:316|95:316|145:272|191:312|191:312|239:282|290:299|290:299|324:321,1,600,4|4,0:0|1:0,0:0:0:0:
298,135,63847,6,0,L|176:135,1,99.9999999999999,4|0,0:0|0:0,0:0:0:0:
125,81,64413,2,0,P|110:127|128:188,1,99.9999999999999,0|0,1:0|1:0,0:0:0:0:
155,204,64837,2,0,L|154:360,1,150,4|8,0:0|1:2,0:0:0:0:
237,320,65545,2,0,L|237:210,1,99.9999999999999,0|6,1:0|0:0,0:0:0:0:
236,130,66111,6,0,P|283:141|318:177,2,99.9999999999999,4|0|0,0:1|1:0|1:0,0:0:0:0:
161,179,66960,1,2,0:0:0:0:
205,256,67243,2,0,L|321:258,1,99.9999999999999,6|2,1:0|1:0,0:0:0:0:
394,262,67809,2,0,P|402:207|390:153,1,100,2|0,1:0|1:0,0:0:0:0:
320,112,68375,6,0,P|316:38|336:-1,2,99.9999999999999,4|0|0,1:0|0:0|1:0,0:0:0:0:
301,202,69224,1,0,1:0:0:0:
226,152,69507,2,0,P|161:137|120:159,2,99.9999999999999,0|0|0,1:0|0:0|1:0,0:0:0:0:
301,202,70356,1,10,1:2:0:0:
276,287,70639,6,0,B|220:282|188:324|188:324|163:278|89:268,1,200,0|0,1:0|1:0,0:0:0:0:
111,91,71771,2,0,B|167:96|199:54|199:54|224:100|298:110,1,200,0|0,1:0|1:0,0:0:0:0:
362,70,72620,1,0,0:0:0:0:
420,138,72903,6,0,P|437:201|425:232,2,99.9999999999999,4|0|0,1:0|1:0|1:0,0:0:0:0:
342,184,73752,1,4,0:1:0:0:
275,123,74035,2,0,L|275:18,2,99.9999999999999,0|0|0,1:0|1:0|1:0,0:0:0:0:
231,201,74884,1,4,1:0:0:0:
153,156,75167,6,0,P|97:160|66:207,1,99.9999999999999,0|0,1:0|1:0,0:0:0:0:
71,281,75734,2,0,P|105:315|153:316,1,99.9999999999999,0|4,1:0|1:0,0:0:0:0:
234,275,76300,2,0,L|339:273,2,99.9999999999999,0|0|0,1:0|1:0|1:0,0:0:0:0:
165,216,77149,1,10,1:2:0:0:
235,160,77432,6,0,P|255:103|194:19,1,150,6|2,1:0|1:1,0:0:0:0:
126,8,78139,1,2,1:1:0:0:
102,94,78422,2,0,L|102:207,1,99.9999999999999,2|2,1:1|1:0,0:0:0:0:
109,328,79130,2,0,P|161:347|221:331,1,99.9999999999999,2|2,1:1|1:2,0:0:0:0:
274,283,79696,6,0,P|364:243|451:298,1,200,2|2,1:0|1:0,0:0:0:0:
449,109,80828,2,0,P|364:155|277:115,1,200,2|2,1:0|1:0,0:0:0:0:
204,62,81677,1,2,0:0:0:0:
119,93,81960,5,4,1:0:0:0:
128,218,85922,6,0,P|121:171|146:126,1,99.9999999999999,2|2,0:1|0:1,0:0:0:0:
209,63,86488,2,0,B|263:88|263:88|353:70,2,150,4|0|8,0:0|0:0|0:0,0:0:0:0:
123,35,87620,2,0,P|70:52|51:107,1,99.9999999999999,4|8,0:0|0:0,0:0:0:0:
67,130,88045,2,0,L|66:290,1,150,0|8,0:0|0:0,0:0:0:0:
106,360,88752,6,0,B|173:367|200:326|200:326|227:366|295:359,1,200,4|4,0:1|0:1,0:0:0:0:
362,197,89884,2,0,B|295:190|268:231|268:231|241:191|173:198,1,200,4|8,0:3|0:0,0:0:0:0:
107,243,90734,2,0,P|95:194|116:136,1,99.9999999999999,2|2,0:0|0:0,0:0:0:0:
33,188,94413,6,0,P|22:143|55:84,1,99.9999999999999,4|8,0:0|0:0,0:0:0:0:
111,38,94979,1,2,0:0:0:0:
210,188,95545,6,0,B|259:202|259:202|327:184,2,99.9999999999999,4|8|2,0:0|0:0|0:0,0:0:0:0:
150,120,96394,1,8,0:0:0:0:
80,177,96677,2,0,P|62:237|72:278,2,99.9999999999999,4|0|8,0:0|0:0|0:0,0:0:0:0:
150,120,97526,1,0,1:0:0:0:
210,188,97809,6,0,B|304:205|304:205|412:141,1,200,4|4,1:1|1:1,0:0:0:0:
259,31,98941,2,0,B|165:14|165:14|57:78,1,200,0|0,1:0|1:0,0:0:0:0:
34,147,99790,1,4,0:0:0:0:
99,208,100073,6,0,B|114:255|114:255|100:309,2,99.9999999999999,4|0|0,0:1|1:0|1:0,0:0:0:0:
152,135,100922,1,4,0:1:0:0:
223,189,101205,2,0,P|267:202|322:183,2,99.9999999999999,0|0|0,1:0|1:0|1:0,0:0:0:0:
152,135,102054,1,0,1:0:0:0:
68,167,102337,6,0,P|31:239|55:316,1,150,0|0,1:0|1:0,0:0:0:0:
90,312,102903,2,0,B|163:297|163:297|244:318,1,150,0|0,1:0|1:0,0:0:0:0:
279,329,103469,2,0,P|372:338|402:291,1,150,0|0,1:0|1:0,0:0:0:0:
399,254,104035,2,0,P|358:207|315:208,1,99.9999999999999,0|0,1:0|1:0,0:0:0:0:
237,229,104601,6,0,P|217:172|278:88,1,150,2|2,0:1|0:1,0:0:0:0:
210,21,105309,1,2,0:1:0:0:
141,79,105592,2,0,L|33:81,1,99.9999999999999,2|2,0:1|0:1,0:0:0:0:
20,219,106300,2,0,L|132:217,1,99.9999999999999,2|0,0:1|1:1,0:0:0:0:
209,211,106866,5,2,0:0:0:0:
209,211,111394,6,0,P|187:142|292:82,1,200,4|8,0:0|0:0,0:0:0:0:
450,133,112526,2,0,P|481:221|405:276,1,200,8|2,0:0|0:0,0:0:0:0:
347,207,113375,1,2,0:1:0:0:
313,290,113658,6,0,P|254:332|170:315,2,150,4|2|8,1:0|0:0|0:0,0:0:0:0:
347,207,114790,2,0,L|354:106,1,99.9999999999999,2|8,0:0|0:0,0:0:0:0:
361,62,115215,2,0,P|298:24|223:50,1,150,2|8,0:0|0:0,0:0:0:0:
180,122,115922,6,0,P|141:130|70:101,1,99.9999999999999,2|8,0:0|0:0,0:0:0:0:
57,77,116347,2,0,L|57:241,1,150,2|8,0:0|0:0,0:0:0:0:
65,316,117054,2,0,P|111:331|169:313,1,99.9999999999999,2|8,0:0|0:0,0:0:0:0:
199,295,117479,2,0,P|267:276|299:291,1,99.9999999999999,2|2,0:0|0:0,0:0:0:0:
326,314,117903,1,8,0:0:0:0:
403,267,118186,6,0,P|461:300|485:387,2,150,6|2|8,0:0|0:0|0:0,0:0:0:0:
344,198,119318,2,0,L|341:88,1,99.9999999999999,2|8,0:0|0:0,0:0:0:0:
333,53,119743,2,0,B|261:74|261:74|178:53,1,150,2|8,0:0|0:0,0:0:0:0:
100,33,120450,6,0,P|48:68|45:152,1,150,2|2,0:0|0:0,0:0:0:0:
89,149,121017,2,0,B|106:226|106:226|87:302,1,150,4|2,0:0|0:0,0:0:0:0:
74,338,121583,6,0,B|140:318|140:318|177:342|177:342|236:327|236:327|283:351|283:351|345:336|345:336|392:357|392:357|460:325,1,400,2|2,1:0|1:0,0:0:0:0:
492,256,122998,6,0,P|503:202|479:152,2,100,4|8|2,0:0|0:0|0:0,0:0:0:0:
413,212,123847,2,0,L|307:211,1,99.9999999999999,2|2,0:0|0:1,0:0:0:0:
237,261,124413,2,0,B|184:244|184:244|127:260,1,99.9999999999999,2|10,0:1|0:0,0:0:0:0:
80,189,124979,6,0,P|70:130|104:88,1,99.9999999999999,2|0,0:1|0:0,0:0:0:0:
145,27,125545,2,0,P|204:17|246:51,1,99.9999999999999,2|2,0:1|0:0,0:0:0:0:
271,119,126111,2,0,L|381:121,2,99.9999999999999,2|8|0,0:0|0:0|1:0,0:0:0:0:
193,164,126960,1,0,1:0:0:0:
238,241,127243,5,0,1:0:0:0:
238,241,128375,6,0,B|328:270|338:335|338:335|387:278|484:311,1,300,4|4,1:0|1:0,0:0:0:0:
499,221,129507,6,0,L|510:107,2,99.9999999999999,2|2|2,0:1|0:1|0:1,0:0:0:0:
421,174,130356,1,2,0:1:0:0:
352,232,130639,2,0,P|293:249|241:232,1,99.9999999999999,2|2,0:1|0:1,0:0:0:0:
246,151,131205,2,0,P|292:134|341:142,1,99.9999999999999,2|0,0:1|0:0,0:0:0:0:
421,174,131771,6,0,L|421:69,2,99.9999999999999,2|2|2,0:0|0:0|0:0,0:0:0:0:
419,263,132620,2,0,P|375:265|352:260,1,50,2|2,0:0|0:0,0:0:0:0:
296,210,133045,1,2,0:0:0:0:
296,210,134035,6,0,L|190:207,2,99.9999999999999,2|2|2,0:0|0:0|0:0,0:0:0:0:
371,160,134884,2,0,P|376:122|373:98,1,50,2|2,0:0|0:0,0:0:0:0:
318,39,135309,1,2,0:0:0:0:
318,39,136300,6,0,B|268:48|268:48|201:35,2,99.9999999999999,2|2|2,0:0|0:0|0:0,0:0:0:0:
405,16,137149,2,0,P|426:44|430:74,1,50,2|2,0:0|0:0,0:0:0:0:
404,144,137573,1,2,0:0:0:0:
404,144,138564,6,0,L|405:252,2,99.9999999999999,2|2|2,0:0|0:0|0:0,0:0:0:0:
335,85,139413,2,0,P|297:78|272:85,1,50,2|2,0:0|0:0,0:0:0:0:
223,144,139837,1,2,0:0:0:0:
