osu file format v14

[General]
AudioFilename: gg no re.mp3
AudioLeadIn: 0
PreviewTime: 363
Countdown: 0
SampleSet: Soft
StackLeniency: 0.7
Mode: 0
LetterboxInBreaks: 0
WidescreenStoryboard: 1

[Editor]
Bookmarks: 43726,57453,93482
DistanceSpacing: 0.3
BeatDivisor: 4
GridSize: 16
TimelineZoom: 6.099998

[Metadata]
Title:Re:End of a Dream
TitleUnicode:Re:End of a Dream
Artist:uma vs. Morimori Atsushi
ArtistUnicode:uma vs. モリモリあつし
Creator:Battle
Version:Liiraye's Extra
Source:BMS
Tags:superalloys masiro vs adaptor hobbes2 toybot vinxis liiraye lasse regraz
BeatmapID:1321943
BeatmapSetID:557039

[Difficulty]
HPDrainRate:6
CircleSize:4
OverallDifficulty:8
ApproachRate:9.2
SliderMultiplier:1.6
SliderTickRate:1

[Events]
//Background and Video events
Video,0,"anime.avi"
0,0,"end.jpg",0,0
//Break Periods
2,82161,85353
//Storyboard Layer 0 (Background)
//Storyboard Layer 1 (Fail)
//Storyboard Layer 2 (Pass)
//Storyboard Layer 3 (Foreground)
//Storyboard Sound Samples

[TimingPoints]
434,283.018867924528,4,2,2,80,1,0
434,-133.333333333333,4,2,2,80,0,0
8924,-100,4,2,1,100,0,0
9490,-100,4,2,1,100,0,0
17415,-66.6666666666667,4,2,1,100,0,0
17556,-66.6666666666667,4,2,1,5,0,0
17603,-66.6666666666667,4,2,1,100,0,0
17745,-66.6666666666667,4,2,1,5,0,0
17792,-66.6666666666667,4,2,1,100,0,0
17933,-66.6666666666667,4,2,1,5,0,0
17981,-66.6666666666667,4,2,1,100,0,0
18122,-66.6666666666667,4,2,1,5,0,0
18169,-66.6666666666667,4,2,1,100,0,0
18311,-66.6666666666667,4,2,1,5,0,0
18358,-50,4,2,1,100,0,0
18500,-66.6666666666667,4,2,1,5,0,0
18547,-100,4,2,1,80,0,1
18830,-100,4,2,1,100,0,1
26471,-100,4,2,2,100,0,1
27320,-100,4,2,2,100,0,0
34679,-100,4,2,1,100,0,0
35811,-100,4,2,1,100,0,0
36094,-66.6666666666667,4,2,1,100,0,0
36377,-50,4,2,1,100,0,0
36660,-133.333333333333,4,2,1,100,0,1
36943,-80,4,2,1,100,0,1
37226,-100,4,2,1,100,0,1
37509,-80,4,2,1,100,0,1
37792,-80,4,2,1,100,0,1
38004,-80,4,2,1,100,0,1
38217,-100,4,2,1,100,0,1
38429,-66.6666666666667,4,2,1,100,0,1
38924,-80,4,2,1,100,0,1
39349,-100,4,2,1,100,0,1
39561,-80,4,2,1,100,0,1
41613,-133.333333333333,4,2,1,100,0,1
42037,-80,4,2,1,100,0,1
45150,-133.333333333333,4,2,1,100,0,0
45717,-133.333333333333,4,2,2,100,0,0
46141,-133.333333333333,4,2,1,70,0,0
46212,-133.333333333333,4,2,1,5,0,0
46566,-133.333333333333,4,2,1,70,0,0
46636,-133.333333333333,4,2,1,5,0,0
47273,-133.333333333333,4,2,2,70,0,0
49113,-80,4,2,2,70,0,0
49537,-66.6666666666667,4,2,1,80,0,0
49608,-66.6666666666667,4,2,1,5,0,0
50245,-133.333333333333,4,2,2,70,0,0
50669,-133.333333333333,4,2,1,70,0,0
50740,-133.333333333333,4,2,1,5,0,0
51094,-133.333333333333,4,2,1,100,0,0
51165,-133.333333333333,4,2,1,5,0,0
51801,-133.333333333333,4,2,2,70,0,0
52509,-133.333333333333,4,2,2,70,0,0
53641,-80,4,2,2,70,0,0
54066,-66.6666666666667,4,2,1,70,0,0
54136,-66.6666666666667,4,2,1,5,0,0
54490,-100,4,2,3,100,0,0
54791,283.018867924528,4,2,1,100,1,0
54791,-100,4,2,1,100,0,0
59319,-100,4,2,1,100,0,0
61584,-100,4,2,1,100,0,0
66111,-80,4,2,1,100,0,1
70640,-80,4,2,1,100,0,0
72904,-100,4,2,1,100,0,1
79697,-66.6666666666667,4,2,1,100,0,1
79909,-80,4,2,1,100,0,1
80263,-66.6666666666667,4,2,1,100,0,1
80475,-80,4,2,1,100,0,1
80829,-66.6666666666667,4,2,1,100,0,1
81394,-57.1428571428571,4,2,1,100,0,1
81960,-100,4,2,1,100,0,0
82244,-100,4,2,2,100,0,0
86206,-100,4,2,1,100,0,0
86489,-100,4,2,1,100,0,0
88753,-100,4,2,1,100,0,0
91018,-100,4,2,2,100,0,0
94414,-66.6666666666667,4,2,1,100,0,0
95121,-133.333333333333,4,2,1,100,0,0
95545,-80,4,2,1,100,0,1
106866,-100,4,2,2,100,0,0
111394,-100,4,2,1,100,0,1
113092,-100,4,2,1,100,0,1
113375,-66.6666666666667,4,2,1,100,0,0
113658,-100,4,2,1,100,0,1
113942,-100,4,2,1,100,0,1
121583,-80,4,2,1,100,0,0
121724,-80,4,2,1,5,0,0
121772,-80,4,2,1,100,0,0
121913,-80,4,2,1,5,0,0
121960,-80,4,2,1,100,0,0
122102,-80,4,2,1,5,0,0
122150,-66.6666666666667,4,2,1,100,0,0
122290,-66.6666666666667,4,2,1,5,0,0
122338,-66.6666666666667,4,2,1,100,0,0
122479,-66.6666666666667,4,2,1,5,0,0
122527,-50,4,2,1,100,0,0
122668,-50,4,2,1,5,0,0
122715,-50,4,2,1,100,0,0
122857,-50,4,2,1,5,0,0
122998,-100,4,2,1,100,0,1
127243,-100,4,2,1,100,0,0
128375,-100,4,2,1,100,0,1
131772,-100,4,2,2,80,0,0
135593,-100,4,2,2,80,0,0
136301,-100,4,2,2,80,0,0

[Colours]
Combo1 : 109,123,186
Combo2 : 226,186,146
Combo3 : 203,165,95
Combo4 : 150,173,216

[HitObjects]
139,127,434,5,2,0:0:0:0:
208,164,575,1,2,0:0:0:0:
287,143,717,2,0,P|293:100|290:63,1,60.0000022888184,2|2,0:0|0:0,0:0:0:0:
187,236,1000,2,0,P|158:226|131:212,2,60.0000022888184,2|2|2,0:0|0:0|0:0,0:0:0:0:
300,269,1424,1,2,0:0:0:0:
141,325,1707,1,2,0:0:0:0:
141,325,2556,5,2,0:0:0:0:
141,325,2627,1,2,0:0:0:0:
141,325,2698,2,0,P|179:321|213:322,1,60.0000022888184,2|2,0:0|0:0,0:0:0:0:
289,249,2981,2,0,P|244:248|217:243,1,60.0000022888184,2|2,0:0|0:0,0:0:0:0:
168,109,3264,1,2,0:0:0:0:
233,161,3405,1,2,0:0:0:0:
168,109,3547,1,2,0:0:0:0:
357,163,3688,1,2,0:0:0:0:
168,109,3971,1,2,0:0:0:0:
85,326,4254,1,2,0:0:0:0:
85,326,4396,2,0,P|81:265|86:189,1,120.000004577637,2|2,0:0|0:0,0:0:0:0:
253,268,4962,5,2,0:0:0:0:
335,252,5103,1,2,0:0:0:0:
365,173,5245,2,0,P|368:143|354:104,1,60.0000022888184,2|2,0:0|0:0,0:0:0:0:
208,148,5528,2,0,P|237:156|266:154,2,60.0000022888184,2|2|2,0:0|0:0|0:0,0:0:0:0:
248,74,5952,1,2,0:0:0:0:
335,252,6235,1,2,0:0:0:0:
356,141,7084,5,0,0:0:0:0:
356,141,7155,1,0,0:0:0:0:
356,141,7226,2,0,P|307:137|280:140,1,60.0000022888184,2|2,0:0|0:0,0:0:0:0:
413,233,7509,2,0,P|383:236|353:236,1,60.0000022888184,2|2,0:0|0:0,0:0:0:0:
270,222,7792,1,2,0:0:0:0:
215,286,7933,1,2,0:0:0:0:
260,357,8075,1,2,0:0:0:0:
342,338,8217,1,2,0:0:0:0:
348,327,8500,1,2,0:0:0:0:
341,315,8924,5,0,0:0:0:0:
336,308,8995,1,0,0:0:0:0:
332,300,9066,1,0,0:0:0:0:
330,292,9136,1,0,0:0:0:0:
329,283,9207,1,0,0:0:0:0:
331,267,9278,1,0,0:0:0:0:
340,245,9349,1,0,0:0:0:0:
356,217,9419,1,0,0:0:0:0:
364,177,9490,6,0,P|292:162|257:168,1,80,4|0,0:0|0:0,0:0:0:0:
186,190,9702,1,0,0:0:0:0:
186,190,9773,2,0,L|180:136,1,40,8|0,0:0|0:0,0:0:0:0:
245,59,9915,2,0,L|94:41,1,120,0|0,0:0|0:0,0:0:0:0:
48,101,10198,1,2,0:0:0:0:
91,186,10339,1,8,0:0:0:0:
181,150,10481,1,0,0:0:0:0:
140,63,10622,5,2,0:0:0:0:
173,250,10764,1,0,0:0:0:0:
173,250,10834,1,0,0:0:0:0:
173,250,10905,1,8,0:0:0:0:
344,100,11047,2,0,P|295:68|236:75,1,120,0|0,0:0|0:0,0:0:0:0:
277,155,11330,2,0,L|287:235,1,80,2|8,0:0|0:0,0:0:0:0:
181,235,11613,1,0,0:0:0:0:
382,171,11754,6,0,P|422:166|465:168,1,80,4|0,0:0|0:0,0:0:0:0:
485,257,11967,1,0,0:0:0:0:
485,257,12037,2,0,P|458:260|423:257,1,40,8|0,0:0|0:0,0:0:0:0:
354,302,12179,2,0,P|401:351|470:357,1,120,0|0,0:0|0:0,0:0:0:0:
450,360,12462,1,2,0:0:0:0:
380,149,12603,2,0,L|374:261,1,80,8|0,0:0|0:0,0:0:0:0:
217,176,12886,6,0,L|175:167,2,40,2|0|0,0:0|0:0|0:0,0:0:0:0:
293,120,13169,1,8,0:0:0:0:
84,104,13311,2,0,B|76:164|76:164|91:263,1,160,0|2,0:0|0:0,0:0:0:0:
188,298,13735,2,0,L|184:333,4,26.6666666666667,8|0|0|2|0,0:0|0:0|0:0|0:0|0:0,0:0:0:0:
193,283,14018,6,0,L|296:275,1,80,4|0,0:0|0:0,0:0:0:0:
139,215,14231,1,0,0:0:0:0:
139,215,14301,2,0,L|242:207,1,80,8|0,0:0|0:0,0:0:0:0:
388,122,14584,2,0,L|292:114,1,80,8|0,0:0|0:0,0:0:0:0:
429,52,14797,1,0,0:0:0:0:
429,52,14867,2,0,L|333:44,1,80,8|0,0:0|0:0,0:0:0:0:
191,126,15150,6,0,P|190:178|197:213,1,80,8|0,0:0|0:0,0:0:0:0:
215,218,15363,1,0,0:0:0:0:
234,231,15433,2,0,L|339:220,1,80,8|0,0:0|0:0,0:0:0:0:
457,154,15717,2,0,P|473:203|468:241,1,80,8|0,0:0|0:0,0:0:0:0:
307,319,16000,2,0,L|313:224,1,80,8|0,0:0|0:0,0:0:0:0:
457,154,16283,6,0,L|487:129,1,40,8|0,0:0|0:0,0:0:0:0:
462,135,16424,2,0,L|486:102,1,40,8|0,0:0|0:0,0:0:0:0:
464,116,16566,2,0,L|479:78,1,40,8|0,0:0|0:0,0:0:0:0:
460,95,16707,2,0,L|465:55,1,40,8|0,0:0|0:0,0:0:0:0:
390,23,16849,2,0,L|346:28,3,40,8|0|8|0,0:0|0:0|0:0|0:0,0:0:0:0:
329,109,17132,2,0,L|284:95,3,40,8|0|8|0,0:0|0:0|0:0|0:0,0:0:0:0:
224,32,17415,6,0,B|200:63|197:108|197:108|180:84|151:69,1,120.000004577637,4|0,1:0|0:0,0:0:0:0:
170,80,17603,6,0,B|194:111|197:157|197:157|214:133|243:117,1,120.000004577637,4|0,1:0|0:0,0:0:0:0:
222,130,17792,6,0,B|198:161|195:207|195:207|178:183|149:167,1,120.000004577637,0|0,1:0|0:0,0:0:0:0:
169,180,17981,6,0,B|193:211|196:257|196:257|213:233|242:217,1,120.000004577637,0|0,1:0|0:0,0:0:0:0:
221,230,18169,6,0,B|197:260|196:300|196:300|175:277|148:266,1,120.000004577637,0|0,1:0|0:0,0:0:0:0:
161,272,18358,6,0,B|172:278|194:297|194:297|247:256|309:273,1,160,0|0,1:0|0:0,0:0:0:0:
398,330,18547,6,0,L|411:304,6,20,4|0|0|0|0|0|0,1:0|1:0|1:0|1:0|1:0|1:0|1:0,0:0:0:0:
374,233,18830,2,0,L|367:194,1,40,4|0,0:0|0:0,0:0:0:0:
346,85,18971,2,0,L|473:72,1,120,0|0,0:1|0:0,0:0:0:0:
465,73,19254,1,2,0:0:0:0:
221,171,19396,2,0,P|218:131|219:91,1,80,8|0,0:0|0:0,0:0:0:0:
350,296,19679,6,0,P|352:256|351:216,1,80,2|0,0:0|0:0,0:0:0:0:
351,216,19891,1,0,0:0:0:0:
351,216,19962,1,8,0:0:0:0:
115,218,20103,2,0,P|156:269|219:285,1,120,2|0,0:0|0:0,0:0:0:0:
206,285,20386,1,2,0:0:0:0:
47,308,20528,1,8,0:0:0:0:
221,171,20669,1,2,0:0:0:0:
225,361,20811,6,0,P|223:327|194:270,1,80,4|0,0:0|0:0,0:0:0:0:
183,295,21023,1,0,0:0:0:0:
161,305,21094,1,8,0:0:0:0:
337,338,21235,2,0,L|472:346,1,120,2|0,0:0|0:0,0:0:0:0:
456,345,21518,1,2,0:0:0:0:
492,206,21660,1,8,0:0:0:0:
353,169,21801,1,2,0:0:0:0:
317,307,21943,5,2,0:0:0:0:
317,307,22014,1,0,0:0:0:0:
317,307,22084,1,2,0:0:0:0:
209,203,22226,1,8,0:0:0:0:
447,142,22367,2,0,L|439:261,1,120,2|0,0:0|0:0,0:0:0:0:
439,261,22650,1,2,0:0:0:0:
323,298,22792,2,0,L|318:255,3,40,8|0|0|0,0:0|0:0|0:0|0:0,0:0:0:0:
216,291,23075,6,0,P|139:298|99:293,1,80,4|2,0:0|0:0,0:0:0:0:
114,210,23287,1,0,0:0:0:0:
114,210,23358,2,0,P|133:244|140:305,1,80,8|2,0:0|0:0,0:0:0:0:
224,176,23641,2,0,L|234:73,1,80,0|2,0:0|0:0,0:0:0:0:
229,92,23853,1,0,0:0:0:0:
226,87,23924,2,0,L|126:80,1,80,8|2,0:0|0:0,0:0:0:0:
284,268,24207,6,0,P|322:229|329:170,1,80,4|0,0:0|0:0,0:0:0:0:
377,126,24419,1,0,0:0:0:0:
377,126,24490,2,0,L|445:129,1,40,8|0,0:0|0:0,0:0:0:0:
449,212,24632,2,0,L|321:205,1,120,2|0,0:0|0:0,0:0:0:0:
269,279,24915,2,0,L|229:276,1,40,2|0,0:0|0:0,0:0:0:0:
200,157,25056,2,0,L|268:161,1,40,8|0,0:0|0:0,0:0:0:0:
411,313,25198,2,0,L|372:311,1,40,0|0,0:0|0:0,0:0:0:0:
151,319,25339,6,0,P|162:280|189:251,1,80,4|2,0:0|0:0,0:0:0:0:
209,264,25551,1,0,0:0:0:0:
229,276,25622,2,0,P|250:288|286:293,3,40,8|0|2|0,0:0|0:0|0:0|0:0,0:0:0:0:
325,213,25905,1,8,0:0:0:0:
313,191,25976,1,8,0:0:0:0:
295,175,26047,1,8,0:0:0:0:
274,166,26117,1,8,0:0:0:0:
249,166,26188,1,8,0:0:0:0:
228,153,26259,1,0,0:0:0:0:
217,131,26330,1,8,0:0:0:0:
213,107,26400,1,0,0:0:0:0:
219,83,26471,6,0,P|221:49|218:0,2,80,2|2|2,0:0|0:0|0:0,0:0:0:0:
248,249,26896,1,2,0:0:0:0:
437,210,27037,1,2,0:0:0:0:
437,210,27320,5,2,0:0:0:0:
342,229,27462,1,2,0:0:0:0:
248,249,27603,1,4,0:3:0:0:
437,210,27886,1,2,0:0:0:0:
248,249,28028,1,2,0:0:0:0:
437,210,28311,5,2,0:0:0:0:
373,138,28452,1,2,0:0:0:0:
309,65,28594,1,2,0:0:0:0:
248,249,28735,1,2,0:0:0:0:
277,157,28877,1,2,0:0:0:0:
183,176,29018,1,2,0:0:0:0:
248,249,29160,1,2,0:0:0:0:
301,62,29584,5,2,0:0:0:0:
205,51,29726,1,2,0:0:0:0:
123,102,29867,1,2,0:0:0:0:
301,62,30150,1,2,0:0:0:0:
123,102,30292,1,2,0:0:0:0:
172,270,30575,5,0,0:0:0:0:
183,176,30717,1,2,0:0:0:0:
123,102,30858,1,2,0:0:0:0:
92,262,31000,2,0,L|172:270,1,80,2|0,0:0|0:0,0:0:0:0:
245,355,31283,1,2,0:0:0:0:
342,256,31424,1,2,0:0:0:0:
342,256,31566,2,0,P|349:220|352:128,1,120,2|2,0:0|0:0,0:0:0:0:
379,176,31849,2,0,P|347:144|331:112,1,80,2|2,0:0|0:0,0:0:0:0:
351,34,32132,5,2,0:0:0:0:
136,77,32415,1,2,0:0:0:0:
252,113,32556,1,2,0:0:0:0:
188,324,32839,1,0,0:0:0:0:
278,292,32981,1,2,0:0:0:0:
368,260,33122,1,2,0:0:0:0:
355,355,33264,5,2,0:0:0:0:
246,121,33547,1,2,0:0:0:0:
278,292,33688,1,2,0:0:0:0:
485,82,33971,1,2,0:0:0:0:
348,58,34113,1,2,0:0:0:0:
214,36,34254,1,2,0:0:0:0:
214,36,34396,6,0,L|202:142,1,80,2|0,0:0|0:0,0:0:0:0:
283,339,34679,1,0,0:0:0:0:
283,339,34750,1,0,0:0:0:0:
283,339,34820,2,0,L|294:269,1,40,0|0,0:0|0:0,0:0:0:0:
375,215,34962,2,0,P|319:115|204:115,1,240,2|0,0:0|0:0,0:0:0:0:
75,144,35457,1,0,0:0:0:0:
75,144,35528,2,0,L|65:220,3,40,10|0|0|0,0:0|0:0|0:0|0:0,0:0:0:0:
75,198,35811,2,0,L|161:190,1,80,12|0,0:0|0:0,0:0:0:0:
46,275,36094,6,0,L|185:263,1,120.000004577637,8|0,0:0|0:0,0:0:0:0:
18,353,36377,6,0,L|186:338,1,160,8|0,0:0|0:0,0:0:0:0:
337,250,36660,6,0,P|339:208|321:171,1,60.0000022888184,4|2,0:0|0:0,0:0:0:0:
245,109,36872,1,2,0:1:0:0:
243,127,36943,6,0,L|361:114,1,100,8|2,0:0|0:1,0:0:0:0:
233,242,37155,1,0,0:0:0:0:
235,225,37226,6,0,L|244:108,1,80,2|2,0:0|0:1,0:0:0:0:
128,181,37509,1,8,0:0:0:0:
385,256,37650,1,2,0:0:0:0:
288,335,37792,6,0,B|240:350|240:350|189:335,1,100,2|0,0:1|0:0,0:0:0:0:
228,144,38004,6,0,L|242:242,1,100,2|0,0:1|0:0,0:0:0:0:
146,230,38217,6,0,B|186:225|186:225|224:237,1,80,2|2,0:1|0:0,0:0:0:0:
354,43,38429,6,0,L|328:160,1,120.000004577637,2|0,0:1|0:0,0:0:0:0:
423,201,38641,1,8,0:0:0:0:
428,203,38712,1,0,0:0:0:0:
433,205,38783,1,2,0:0:0:0:
438,207,38853,1,0,0:0:0:0:
442,209,38924,6,0,P|472:159|468:94,1,100,2|0,0:1|0:0,0:0:0:0:
370,120,39136,6,0,L|262:102,1,100,2|0,0:1|0:0,0:0:0:0:
201,224,39349,6,0,L|281:217,1,80,2|2,0:1|0:0,0:0:0:0:
471,307,39561,6,0,L|363:289,1,100,2|0,0:1|0:0,0:0:0:0:
266,307,39773,1,8,0:0:0:0:
271,277,39844,1,0,0:0:0:0:
276,247,39915,1,2,0:0:0:0:
281,217,39985,1,0,0:0:0:0:
286,187,40056,6,0,L|117:202,1,150,6|0,0:0|0:0,0:0:0:0:
136,200,40339,1,8,0:0:0:0:
350,78,40481,1,0,0:0:0:0:
234,82,40622,1,2,0:0:0:0:
230,96,40693,1,2,0:0:0:0:
110,97,40834,1,2,0:0:0:0:
106,111,40905,1,8,0:0:0:0:
140,339,41047,1,0,0:0:0:0:
140,339,41188,6,0,P|174:274|241:243,1,150,4|0,0:0|0:0,0:0:0:0:
240,252,41471,1,0,0:0:0:0:
313,346,41613,6,0,P|262:317|240:262,1,120.000004577637,4|0,0:1|0:0,0:0:0:0:
445,115,42037,1,8,0:0:0:0:
416,120,42108,1,0,0:0:0:0:
387,125,42179,1,2,0:0:0:0:
358,129,42250,1,0,0:0:0:0:
329,133,42320,2,0,L|311:80,2,50,4|0|2,0:0|0:0|0:0,0:0:0:0:
303,329,42745,6,0,B|320:260|320:260|315:199|315:199|329:132,1,200,4|2,0:1|0:0,0:0:0:0:
409,232,43169,1,8,0:0:0:0:
328,233,43240,1,0,0:0:0:0:
247,234,43311,2,0,L|156:236,1,50,2|0,0:0|0:0,0:0:0:0:
135,163,43452,6,0,P|120:101|131:42,1,100,4|0,0:0|0:0,0:0:0:0:
198,241,43735,1,8,0:0:0:0:
199,245,43806,1,0,0:0:0:0:
200,249,43877,1,2,0:0:0:0:
201,253,43948,1,0,0:0:0:0:
202,257,44018,2,0,L|195:313,1,50,8|0,0:0|0:0,0:0:0:0:
135,163,44160,2,0,L|248:134,1,100,10|0,0:0|0:0,0:0:0:0:
492,252,44443,6,0,L|335:297,1,150,6|0,0:0|0:0,0:0:0:0:
348,294,44726,1,2,0:0:0:0:
453,159,44867,1,8,0:0:0:0:
212,238,45009,1,2,0:0:0:0:
437,165,45150,1,8,0:0:0:0:
93,83,45433,1,4,0:0:0:0:
217,223,45717,6,0,P|226:187|215:77,1,120.000004577637,2|2,0:0|0:0,0:0:0:0:
93,83,46141,1,4,0:1:0:0:
452,227,47273,5,2,0:0:0:0:
452,227,47415,2,0,P|392:219|310:222,1,120.000004577637,4|2,0:0|0:0,0:0:0:0:
244,336,47981,6,0,P|206:290|196:231,1,120.000004577637,4|2,0:1|0:0,0:0:0:0:
332,219,48405,1,4,0:1:0:0:
95,299,48688,1,0,0:0:0:0:
209,58,49113,6,0,L|221:168,1,100,4|0,0:1|0:0,0:0:0:0:
353,104,49537,6,0,L|331:237,1,120.000004577637,4|0,0:1|0:0,0:0:0:0:
333,222,50245,6,0,P|245:224|198:248,1,120.000004577637,4|2,0:0|0:0,0:0:0:0:
292,344,50669,1,4,0:1:0:0:
106,190,51801,5,2,0:0:0:0:
106,190,51943,2,0,L|113:118,1,60.0000022888184,4|0,0:1|0:0,0:0:0:0:
259,83,52226,2,0,L|262:150,1,60.0000022888184,2|2,0:0|0:0,0:0:0:0:
33,61,52509,2,0,P|76:33|151:36,1,120.000004577637,4|2,0:0|0:0,0:0:0:0:
357,112,52933,1,0,0:0:0:0:
363,106,53004,1,2,0:0:0:0:
369,100,53075,2,0,L|452:89,1,60.0000022888184,0|2,0:0|0:0,0:0:0:0:
329,331,53641,6,0,L|340:227,1,100,4|0,0:1|0:0,0:0:0:0:
194,268,54066,6,0,L|181:140,1,120.000004577637,4|0,0:0|0:0,0:0:0:0:
292,118,54490,6,0,L|300:86,6,20,0|0|0|0|0|0|0,1:0|1:0|1:0|1:0|1:0|1:0|1:0,0:0:0:0:
352,176,54791,2,0,L|448:176,1,80,0|0,1:0|0:0,0:0:0:0:
407,70,55074,1,0,1:0:0:0:
345,294,55216,1,0,0:0:0:0:
345,294,55286,1,0,0:0:0:0:
345,294,55357,1,0,1:0:0:0:
448,270,55499,1,0,1:0:0:0:
214,204,55640,1,0,1:0:0:0:
202,206,55711,1,0,1:0:0:0:
190,208,55782,1,0,1:0:0:0:
178,210,55852,1,0,0:0:0:0:
166,212,55923,6,0,L|97:225,1,40,0|0,1:0|0:0,0:0:0:0:
70,127,56065,2,0,L|80:83,1,40,0|0,1:0|0:0,0:0:0:0:
224,40,56206,2,0,L|215:79,1,40,0|0,1:0|0:0,0:0:0:0:
347,238,56348,1,0,0:0:0:0:
347,238,56418,1,0,0:0:0:0:
347,238,56489,2,0,L|330:130,1,80,4|0,1:0|0:0,0:0:0:0:
334,158,56772,2,0,L|397:150,1,40,0|0,1:0|0:0,0:0:0:0:
424,48,56914,2,0,L|384:42,1,40,0|0,1:0|0:0,0:0:0:0:
215,79,57055,6,0,B|205:118|205:118|212:159,1,80,4|0,1:0|0:0,0:0:0:0:
347,238,57338,1,0,1:0:0:0:
187,252,57480,2,0,L|364:236,1,160,4|0,1:0|1:0,0:0:0:0:
211,157,57904,1,0,1:0:0:0:
200,162,57975,1,0,1:0:0:0:
189,167,58046,1,0,1:0:0:0:
178,172,58117,1,0,1:0:0:0:
167,177,58187,6,0,L|157:72,1,80,4|0,1:0|0:0,0:0:0:0:
268,105,58400,2,0,L|258:13,1,80,0|0,1:0|0:0,0:0:0:0:
62,40,58612,2,0,L|70:103,1,40,0|0,1:0|0:0,0:0:0:0:
159,97,58753,2,0,P|91:85|69:85,1,80,0|0,1:0|1:0,0:0:0:0:
79,274,59036,2,0,P|89:226|110:177,1,80,0|0,1:0|1:0,0:0:0:0:
355,251,59319,6,0,L|184:268,1,160,4|0,0:0|0:0,0:0:0:0:
190,188,59744,1,2,0:0:0:0:
190,188,59815,1,0,0:0:0:0:
190,188,59885,2,0,L|198:287,1,80,4|0,0:1|0:0,0:0:0:0:
410,285,60310,1,2,0:0:0:0:
410,285,60381,1,0,0:0:0:0:
410,285,60451,6,0,P|460:203|426:133,1,160,4|0,0:1|0:0,0:0:0:0:
130,215,60876,1,2,0:0:0:0:
130,215,60947,1,0,0:0:0:0:
130,215,61018,2,0,P|178:216|226:222,1,80,4|0,0:1|0:0,0:0:0:0:
309,345,61442,1,2,0:0:0:0:
309,345,61513,1,0,0:0:0:0:
309,345,61584,6,0,L|317:255,1,80,4|0,0:0|0:0,0:0:0:0:
209,219,61772,2,0,L|203:272,1,53.3333333333333,0|0,1:0|0:0,0:0:0:0:
319,248,61961,1,0,1:0:0:0:
390,227,62055,1,0,1:0:0:0:
460,252,62150,2,0,L|516:274,2,53.3333333333333,0|0|0,1:0|0:0|1:0,0:0:0:0:
449,177,62433,1,0,0:0:0:0:
441,102,62527,1,0,1:0:0:0:
426,28,62621,1,0,0:0:0:0:
497,50,62716,5,0,1:0:0:0:
448,107,62810,1,0,1:0:0:0:
376,87,62904,1,0,1:0:0:0:
300,89,62999,1,0,1:0:0:0:
256,149,63093,1,0,1:0:0:0:
329,159,63187,1,0,1:0:0:0:
374,98,63282,1,4,1:0:0:0:
174,74,63423,5,0,0:0:0:0:
168,84,63494,1,0,0:0:0:0:
162,94,63565,1,2,0:0:0:0:
156,104,63635,1,0,0:0:0:0:
150,114,63706,1,2,0:0:0:0:
144,124,63777,1,0,0:0:0:0:
137,134,63848,6,0,L|151:281,1,120,4|0,0:1|0:0,0:0:0:0:
274,214,64131,2,0,L|283:309,1,80,0|2,0:1|0:0,0:0:0:0:
347,74,64414,1,0,1:0:0:0:
358,77,64485,1,0,0:0:0:0:
369,81,64555,2,0,L|401:73,6,20,0|0|0|0|0|0|0,1:0|1:0|1:0|1:0|1:0|0:0|0:0,0:0:0:0:
267,16,64838,6,0,P|246:91|283:159,1,160,4|2,0:0|0:0,0:0:0:0:
400,239,65192,1,0,0:0:0:0:
400,239,65263,2,0,L|393:318,1,80,8|2,1:2|0:0,0:0:0:0:
164,269,65546,1,0,1:0:0:0:
187,266,65617,1,0,0:0:0:0:
210,263,65687,1,2,0:0:0:0:
234,260,65758,1,0,0:0:0:0:
257,257,65829,2,0,L|329:246,1,40,6|2,0:0|0:0,0:0:0:0:
440,138,65970,1,2,0:0:0:0:
440,138,66041,1,0,1:0:0:0:
440,138,66112,6,0,P|403:98|295:97,1,150,4|0,0:1|0:0,0:0:0:0:
262,162,66395,2,0,L|192:160,1,50,0|0,1:0|0:0,0:0:0:0:
96,39,66536,2,0,L|174:32,1,50,2|0,0:2|0:0,0:0:0:0:
252,75,66678,1,0,1:0:0:0:
255,104,66749,1,0,0:0:0:0:
258,132,66819,1,2,0:0:0:0:
262,162,66890,1,0,0:0:0:0:
266,191,66961,1,2,0:0:0:0:
128,326,67102,1,2,1:2:0:0:
136,297,67173,1,0,1:0:0:0:
156,274,67244,6,0,P|231:259|274:274,1,100,6|0,1:0|0:0,0:0:0:0:
435,335,67527,2,0,L|305:327,1,100,2|0,1:0|0:0,0:0:0:0:
232,359,67739,1,0,1:0:0:0:
232,359,67810,2,0,P|253:305|248:250,1,100,2|2,1:0|1:0,0:0:0:0:
338,204,68022,2,0,L|398:197,1,50,0|0,1:0|1:0,0:0:0:0:
168,231,68235,1,2,0:0:0:0:
305,62,68376,6,0,B|288:80|288:80|214:95,1,100,4|0,1:0|0:0,0:0:0:0:
123,62,68588,2,0,B|141:80|141:80|215:95,1,100,4|0,1:0|0:0,0:0:0:0:
214,15,68801,1,2,1:2:0:0:
273,162,68942,1,0,1:0:0:0:
268,192,69013,1,0,0:0:0:0:
255,219,69084,1,0,1:0:0:0:
238,243,69154,1,0,0:0:0:0:
215,262,69225,1,0,1:0:0:0:
195,238,69296,1,0,0:0:0:0:
168,224,69367,1,0,1:0:0:0:
139,217,69437,1,0,1:0:0:0:
108,218,69508,6,0,P|151:257|212:258,1,100,4|0,1:0|0:0,0:0:0:0:
199,359,69720,2,0,P|205:309|190:262,1,100,4|0,1:0|0:0,0:0:0:0:
96,329,69933,1,0,1:0:0:0:
342,322,70074,1,0,1:0:0:0:
370,280,70145,1,0,0:0:0:0:
376,230,70216,2,0,L|368:175,2,50,2|2|10,1:2|1:2|1:2,0:0:0:0:
289,218,70428,1,0,0:0:0:0:
221,197,70499,1,2,1:2:0:0:
194,133,70569,1,0,0:0:0:0:
202,63,70640,5,0,1:0:0:0:
358,94,70829,1,0,1:0:0:0:
45,148,71018,1,0,1:0:0:0:
128,24,71206,1,0,1:0:0:0:
355,280,71395,1,0,1:0:0:0:
60,336,71584,1,0,1:0:0:0:
177,192,71772,5,0,1:0:0:0:
245,163,71867,1,0,1:0:0:0:
312,189,71961,1,0,1:0:0:0:
245,163,72055,1,0,1:0:0:0:
238,89,72150,1,0,1:0:0:0:
245,163,72244,1,0,1:0:0:0:
180,198,72338,1,0,1:0:0:0:
306,310,72621,1,0,0:0:0:0:
306,310,72904,5,4,1:0:0:0:
233,123,73046,1,2,0:0:0:0:
162,221,73187,2,0,P|222:239|255:237,1,80,0|2,1:0|0:0,0:0:0:0:
340,186,73470,2,0,L|330:137,3,40,0|0|2|0,1:0|1:0|1:2|1:0,0:0:0:0:
435,143,73753,2,0,L|448:44,1,80,4|2,0:1|0:0,0:0:0:0:
241,56,74036,5,0,1:0:0:0:
325,139,74178,1,2,0:0:0:0:
144,184,74319,2,0,L|64:178,1,80,0|2,1:0|0:0,0:0:0:0:
270,288,74602,2,0,L|256:347,3,40,0|0|2|0,1:0|1:0|1:2|1:0,0:0:0:0:
359,270,74885,2,0,P|341:226|288:203,1,80,4|2,1:0|0:0,0:0:0:0:
136,335,75168,5,0,1:0:0:0:
100,250,75310,1,2,0:0:0:0:
255,125,75451,1,0,1:0:0:0:
219,210,75593,1,2,0:0:0:0:
61,58,75735,1,0,1:0:0:0:
113,142,75876,2,0,L|170:135,2,40,2|0|4,1:2|1:0|1:0,0:0:0:0:
201,26,76159,1,2,0:2:0:0:
224,30,76230,1,0,0:0:0:0:
247,34,76301,5,0,1:0:0:0:
270,38,76371,1,0,0:0:0:0:
293,42,76442,1,2,1:2:0:0:
316,46,76513,1,0,0:0:0:0:
339,51,76584,1,0,1:0:0:0:
258,221,76725,1,0,1:0:0:0:
363,246,76867,2,0,L|349:133,1,80,0|2,1:0|1:2,0:0:0:0:
353,166,77079,1,0,0:0:0:0:
353,166,77150,2,0,L|441:153,1,80,10|0,1:2|0:0,0:0:0:0:
205,98,77433,5,6,1:0:0:0:
445,255,77574,1,2,1:0:0:0:
99,244,77857,1,2,1:1:0:0:
442,72,78140,1,2,1:1:0:0:
135,73,78423,6,0,P|114:70|145:97,1,120,2|0,1:1|0:0,0:0:0:0:
271,106,78706,2,0,L|280:184,1,40,2|0,1:0|1:0,0:0:0:0:
379,332,78848,2,0,L|374:292,1,40,2|0,1:1|0:0,0:0:0:0:
245,230,78989,2,0,L|284:225,1,40,2|0,0:0|0:0,0:0:0:0:
364,214,79131,1,2,1:1:0:0:
374,94,79272,2,0,L|368:54,2,40,0|0|2,1:0|1:0|1:2,0:0:0:0:
503,165,79555,1,2,0:0:0:0:
220,124,79697,6,0,L|65:111,1,120.000004577637,2|0,1:0|1:0,0:0:0:0:
265,229,79909,6,0,L|139:237,1,100,2|0,1:0|1:0,0:0:0:0:
165,235,80121,1,2,1:0:0:0:
165,235,80192,1,0,1:0:0:0:
165,235,80263,6,0,L|174:386,1,120.000004577637,2|0,1:0|1:0,0:0:0:0:
313,171,80475,6,0,L|307:270,1,100,2|0,1:0|1:0,0:0:0:0:
307,270,80687,1,2,1:0:0:0:
307,270,80758,1,0,1:0:0:0:
307,270,80829,6,0,L|314:132,1,120.000004577637,2|0,1:0|1:0,0:0:0:0:
421,66,81041,2,0,L|415:185,1,120.000004577637,2|0,1:0|1:0,0:0:0:0:
230,58,81253,2,0,L|304:60,1,60.0000022888184,2|0,1:0|1:0,0:0:0:0:
201,168,81395,6,0,B|8:234|8:234|77:154,1,280.000002670288,2|2,1:0|0:0,0:0:0:0:
57,176,81961,5,4,1:0:0:0:
151,198,85923,5,2,0:1:0:0:
151,198,86065,1,2,0:1:0:0:
252,84,86206,1,2,0:1:0:0:
252,84,86348,1,2,0:1:0:0:
329,256,86489,6,0,P|323:311|301:349,1,80,4|0,0:0|0:0,0:0:0:0:
118,276,86772,2,0,L|213:269,1,80,8|0,0:0|0:0,0:0:0:0:
205,74,87055,2,0,L|202:163,1,80,2|2,0:0|0:0,0:0:0:0:
388,149,87338,1,8,0:0:0:0:
399,151,87409,1,0,0:0:0:0:
410,153,87480,1,2,0:0:0:0:
421,155,87551,1,0,0:0:0:0:
432,157,87621,6,0,L|424:59,1,80,4|0,0:0|0:0,0:0:0:0:
202,153,87904,2,0,P|262:151|304:126,1,80,8|0,0:0|0:0,0:0:0:0:
307,337,88187,2,0,L|296:239,1,80,2|2,0:0|0:0,0:0:0:0:
124,98,88470,1,8,0:0:0:0:
121,121,88541,1,0,0:0:0:0:
118,144,88612,1,2,0:0:0:0:
115,167,88683,1,0,0:0:0:0:
113,190,88753,6,0,L|130:310,2,106.666666666667,4|0|0,0:1|0:1|0:1,0:0:0:0:
339,104,89319,2,0,L|322:224,2,106.666666666667,4|0|0,0:1|0:0|0:0,0:0:0:0:
410,311,89885,6,0,P|263:341|182:214,1,320,4|8,0:3|0:0,0:0:0:0:
261,231,90593,2,0,L|259:191,1,40,0|2,0:0|0:0,0:0:0:0:
183,215,90735,2,0,L|181:175,1,40,2|0,0:0|0:0,0:0:0:0:
106,196,90876,2,0,L|103:129,1,40,2|0,0:0|0:0,0:0:0:0:
200,67,91018,6,0,B|258:52|258:52|333:62,2,120,2|2|2,0:0|0:0|0:0,0:0:0:0:
361,200,91584,1,2,0:0:0:0:
361,200,91654,1,2,0:0:0:0:
361,200,91725,1,2,0:0:0:0:
361,200,91796,1,2,0:0:0:0:
361,200,91867,1,2,0:0:0:0:
210,295,92008,1,2,0:0:0:0:
186,300,92079,1,2,0:0:0:0:
162,305,92150,6,0,B|146:269|146:269|160:228,1,80,2|0,0:0|0:0,0:0:0:0:
161,155,92362,2,0,B|175:194|175:194|159:230,1,80,2|0,0:0|0:0,0:0:0:0:
159,230,92574,1,2,0:0:0:0:
51,184,92716,1,2,0:0:0:0:
49,176,92786,1,2,0:0:0:0:
47,168,92857,1,2,0:0:0:0:
45,160,92928,1,2,0:0:0:0:
43,152,92999,1,2,0:0:0:0:
283,155,93140,1,2,0:0:0:0:
306,151,93211,1,2,0:0:0:0:
329,147,93282,6,0,L|342:260,1,80,2|0,0:0|0:0,0:0:0:0:
406,95,93494,2,0,L|419:208,1,80,2|0,0:0|0:0,0:0:0:0:
415,174,93706,1,2,0:0:0:0:
250,79,93848,1,2,0:0:0:0:
251,71,93918,1,2,0:0:0:0:
252,63,93989,1,2,0:0:0:0:
253,55,94060,1,2,0:0:0:0:
254,47,94131,1,2,0:0:0:0:
146,261,94272,1,2,0:0:0:0:
146,261,94343,1,2,0:0:0:0:
146,261,94414,6,0,L|239:271,1,60.0000022888184,4|0,0:0|0:0,0:0:0:0:
344,183,94555,2,0,L|284:176,1,60.0000022888184,2|0,0:0|0:0,0:0:0:0:
180,102,94697,2,0,L|175:161,1,60.0000022888184,8|0,0:0|0:0,0:0:0:0:
308,344,94838,1,2,0:0:0:0:
308,344,94909,1,0,0:0:0:0:
308,344,94980,2,0,L|312:284,1,60.0000022888184,2|0,0:0|0:0,0:0:0:0:
172,160,95121,6,0,L|28:144,1,120.000004577637,4|2,0:1|0:0,0:0:0:0:
277,224,95546,6,0,P|294:174|278:105,1,100,4|2,0:0|0:0,0:0:0:0:
405,108,95758,2,0,L|306:125,1,100,0|0,0:0|0:0,0:0:0:0:
220,50,95970,2,0,P|203:69|191:91,1,50,0|0,0:0|0:0,0:0:0:0:
114,211,96112,1,2,0:0:0:0:
120,240,96183,1,0,0:0:0:0:
125,269,96253,1,2,0:0:0:0:
131,298,96324,1,0,0:0:0:0:
138,327,96395,2,0,L|77:307,3,50,8|0|2|0,0:0|0:0|0:0|0:0,0:0:0:0:
257,258,96678,6,0,P|308:237|388:262,1,100,4|0,0:0|0:0,0:0:0:0:
330,127,96890,2,0,L|347:225,1,100,2|0,0:0|0:0,0:0:0:0:
214,166,97102,2,0,L|205:107,1,50,2|0,0:0|0:0,0:0:0:0:
383,10,97244,1,8,0:0:0:0:
427,35,97315,1,0,0:0:0:0:
452,78,97385,1,0,1:0:0:0:
456,128,97456,1,0,1:0:0:0:
440,175,97527,2,0,L|350:181,1,50,0|0,1:0|0:0,0:0:0:0:
220,246,97668,2,0,L|275:250,1,50,2|0,0:0|0:0,0:0:0:0:
374,252,97810,6,0,L|422:387,2,133.333333333333,4|4|4,1:1|1:1|1:1,0:0:0:0:
117,176,98376,2,0,L|162:51,2,133.333333333333,4|4|4,1:1|1:1|1:1,0:0:0:0:
251,304,98942,5,0,1:0:0:0:
312,278,99036,1,0,1:0:0:0:
374,252,99131,1,0,1:0:0:0:
310,233,99225,1,0,1:0:0:0:
245,214,99319,1,0,1:0:0:0:
181,195,99414,1,0,1:0:0:0:
117,176,99508,1,0,1:0:0:0:
251,53,99791,1,4,0:0:0:0:
251,53,100074,5,4,0:1:0:0:
333,166,100216,1,2,0:0:0:0:
133,147,100357,2,0,L|23:160,1,100,0|2,1:0|0:0,0:0:0:0:
157,309,100640,2,0,P|164:348|166:379,3,50,0|0|0|0,1:0|1:0|1:0|1:0,0:0:0:0:
57,361,100923,2,0,P|43:312|58:254,1,100,4|2,0:1|0:0,0:0:0:0:
133,147,101206,5,0,1:0:0:0:
298,271,101348,1,2,0:0:0:0:
376,155,101489,2,0,P|379:96|371:35,1,100,0|2,1:0|0:0,0:0:0:0:
235,37,101772,2,0,P|205:31|183:28,3,50,0|0|0|0,1:0|1:0|1:0|1:0,0:0:0:0:
98,88,102055,2,0,P|132:123|180:132,1,100,0|2,1:0|0:0,0:0:0:0:
289,296,102338,6,0,L|295:357,1,50,0|0,1:0|0:0,0:0:0:0:
207,300,102480,2,0,L|213:361,1,50,2|0,0:0|0:0,0:0:0:0:
125,303,102621,2,0,L|129:344,3,33.3333333333333,0|0|0|0,1:0|0:0|0:0|1:0,0:0:0:0:
166,229,102833,1,0,1:0:0:0:
166,229,102904,2,0,L|161:175,1,50,0|0,1:0|0:0,0:0:0:0:
89,33,103046,1,2,0:0:0:0:
89,33,103117,1,0,0:0:0:0:
89,33,103187,2,0,L|79:65,3,33.3333333333333,0|0|0|0,1:0|0:0|0:0|1:0,0:0:0:0:
152,93,103400,1,0,1:0:0:0:
166,104,103470,6,0,L|240:99,1,50,0|0,1:0|0:0,0:0:0:0:
375,163,103612,2,0,L|325:159,1,50,2|0,0:0|0:0,0:0:0:0:
166,229,103753,2,0,L|218:223,1,50,0|0,1:0|1:0,0:0:0:0:
339,269,103895,1,0,1:0:0:0:
342,288,103966,1,0,1:0:0:0:
345,307,104036,1,0,1:0:0:0:
461,250,104178,1,2,0:0:0:0:
462,229,104249,1,0,0:0:0:0:
463,209,104319,2,0,L|457:164,6,25,0|0|0|0|0|0|0,1:0|1:0|1:0|1:0|1:0|1:0|1:0,0:0:0:0:
360,169,104602,6,0,L|273:165,1,50,2|0,0:1|0:0,0:0:0:0:
214,79,104744,2,0,L|347:73,1,100,2|0,0:1|0:0,0:0:0:0:
225,268,105027,2,0,L|217:150,1,100,2|0,0:1|0:0,0:0:0:0:
14,23,105310,2,0,L|10:122,1,100,2|0,0:1|0:0,0:0:0:0:
225,268,105593,6,0,L|64:262,1,150,2|0,0:1|0:0,0:0:0:0:
93,173,105876,2,0,L|172:176,1,50,2|0,0:1|0:0,0:0:0:0:
372,273,106018,2,0,L|323:271,1,50,2|0,1:0|0:0,0:0:0:0:
156,350,106159,2,0,L|206:352,1,50,2|0,0:1|0:0,0:0:0:0:
300,177,106301,1,2,0:1:0:0:
307,163,106371,1,0,0:0:0:0:
315,150,106442,1,2,0:0:0:0:
323,137,106513,1,0,0:0:0:0:
332,123,106584,2,0,L|220:114,1,100,0|2,1:1|0:0,0:0:0:0:
34,206,106867,6,0,L|114:213,1,80,2|2,0:0|0:0,0:0:0:0:
114,213,107291,1,2,0:0:0:0:
158,286,107574,1,2,0:0:0:0:
107,348,107857,1,2,0:0:0:0:
66,279,108140,5,2,0:0:0:0:
158,286,108282,1,2,0:0:0:0:
236,340,108423,1,0,0:0:0:0:
332,333,108565,1,2,0:0:0:0:
233,127,108706,1,0,0:0:0:0:
233,127,108777,1,0,0:0:0:0:
233,127,108848,1,4,0:0:0:0:
278,238,108989,1,0,0:0:0:0:
378,50,109131,5,4,0:0:0:0:
256,192,109201,12,0,110970,0:0:0:0:
430,243,111112,6,0,P|352:239|315:249,1,80,2|2,0:0|0:0,0:0:0:0:
351,240,111324,1,0,0:0:0:0:
351,240,111395,2,0,L|359:143,1,80,4|0,0:0|0:0,0:0:0:0:
260,70,111607,2,0,L|253:138,1,40,2|0,0:0|0:0,0:0:0:0:
164,135,111749,1,0,0:0:0:0:
164,135,111819,2,0,L|158:174,1,40,2|0,0:0|0:0,0:0:0:0:
119,320,111961,2,0,P|156:306|196:304,1,80,8|0,0:0|0:0,0:0:0:0:
305,349,112173,2,0,L|309:288,1,40,2|0,0:0|0:0,0:0:0:0:
404,325,112315,1,0,0:0:0:0:
404,325,112385,2,0,L|408:264,1,40,2|0,0:0|0:0,0:0:0:0:
366,160,112527,5,8,0:0:0:0:
335,148,112598,1,0,0:0:0:0:
303,148,112668,1,0,0:0:0:0:
274,162,112739,1,2,0:0:0:0:
252,186,112810,1,0,0:0:0:0:
242,155,112881,1,0,0:0:0:0:
244,123,112951,1,2,0:0:0:0:
256,93,113022,1,0,0:0:0:0:
259,61,113093,2,0,L|108:72,1,120,2|0,0:0|0:0,0:0:0:0:
81,177,113376,6,0,P|64:117|88:172,1,180.000006866455,2|0,0:1|0:0,0:0:0:0:
149,242,113659,6,0,L|137:272,6,20,4|0|0|0|0|0|0,1:0|1:0|1:0|1:0|1:0|1:0|1:0,0:0:0:0:
239,272,113942,6,0,L|245:329,1,40,8|0,0:0|0:0,0:0:0:0:
136,338,114084,2,0,P|192:318|248:338,1,120,2|0,0:0|0:0,0:0:0:0:
349,354,114367,2,0,L|357:286,1,40,2|0,0:0|0:0,0:0:0:0:
400,217,114508,2,0,L|320:225,1,80,8|2,0:0|0:0,0:0:0:0:
215,92,114791,6,0,L|223:193,1,80,2|0,0:0|0:0,0:0:0:0:
221,171,115003,1,0,0:0:0:0:
221,171,115074,1,8,0:0:0:0:
106,41,115216,2,0,L|120:179,1,120,2|0,0:0|0:0,0:0:0:0:
118,160,115499,1,2,0:0:0:0:
215,92,115640,1,8,0:0:0:0:
19,65,115782,1,2,0:0:0:0:
76,285,115923,6,0,P|114:294|153:289,1,80,2|0,0:0|0:0,0:0:0:0:
153,289,116135,1,0,0:0:0:0:
153,289,116206,1,8,0:0:0:0:
290,245,116348,2,0,L|301:334,1,80,2|0,0:0|0:0,0:0:0:0:
457,314,116631,2,0,L|406:310,1,40,2|0,0:0|0:0,0:0:0:0:
290,245,116772,2,0,L|393:236,1,80,8|0,0:0|0:0,0:0:0:0:
299,60,117055,5,2,0:0:0:0:
308,91,117126,1,0,0:0:0:0:
318,123,117197,1,2,0:0:0:0:
439,79,117338,1,8,0:0:0:0:
182,47,117480,2,0,L|40:36,1,120,2|0,0:0|0:0,0:0:0:0:
116,128,117763,2,0,L|71:123,1,40,2|0,0:0|0:0,0:0:0:0:
134,213,117904,2,0,L|105:210,3,26.6666666666667,8|0|0|0,0:0|0:0|0:0|0:0,0:0:0:0:
339,232,118187,6,0,P|341:192|328:155,1,80,6|2,0:0|0:0,0:0:0:0:
237,174,118400,1,0,0:0:0:0:
237,174,118470,2,0,L|336:162,1,80,8|2,0:0|0:0,0:0:0:0:
448,333,118753,2,0,L|332:324,1,80,0|2,0:0|0:0,0:0:0:0:
358,335,118966,1,0,0:0:0:0:
349,342,119036,2,0,L|260:335,1,80,8|2,0:0|0:0,0:0:0:0:
134,358,119319,6,0,P|127:314|143:261,1,80,2|0,0:0|0:0,0:0:0:0:
232,211,119532,1,0,0:0:0:0:
232,211,119602,2,0,L|225:133,1,40,8|0,0:0|0:0,0:0:0:0:
255,77,119744,2,0,L|121:65,1,120,2|0,0:0|0:0,0:0:0:0:
77,153,120027,2,0,L|116:158,1,40,2|0,0:0|0:0,0:0:0:0:
257,307,120168,2,0,L|217:301,1,40,8|0,0:0|0:0,0:0:0:0:
86,312,120310,2,0,L|91:272,1,40,0|0,0:0|0:0,0:0:0:0:
279,184,120451,6,0,L|387:195,1,80,2|0,0:0|0:0,0:0:0:0:
358,192,120664,1,0,0:0:0:0:
358,192,120735,1,8,0:0:0:0:
238,25,120876,2,0,L|234:79,1,40,2|0,0:0|0:0,0:0:0:0:
128,91,121018,2,0,L|117:194,1,80,4|0,0:0|0:0,0:0:0:0:
119,170,121230,1,0,0:0:0:0:
119,170,121301,2,0,L|185:177,1,40,10|0,0:0|0:0,0:0:0:0:
313,280,121442,2,0,L|246:287,1,40,2|0,0:0|0:0,0:0:0:0:
146,343,121584,6,0,B|137:301|137:301|145:228,1,100,2|0,1:0|0:0,0:0:0:0:
256,132,121772,2,0,L|256:232,1,100,2|0,1:0|0:0,0:0:0:0:
366,123,121961,2,0,B|375:81|375:81|369:25,1,100,2|0,1:0|0:0,0:0:0:0:
179,28,122150,6,0,L|177:147,1,120.000004577637,2|0,1:0|0:0,0:0:0:0:
335,346,122338,2,0,L|336:226,1,120.000004577637,2|0,1:0|0:0,0:0:0:0:
96,185,122527,6,0,B|178:197|178:197|256:185,1,160,2|0,1:0|0:0,0:0:0:0:
412,186,122716,2,0,B|338:174|338:174|252:186,1,160,2|0,1:0|0:0,0:0:0:0:
114,262,122999,6,0,P|101:225|96:185,1,80,4|2,0:0|0:0,0:0:0:0:
158,52,123211,1,0,0:0:0:0:
158,52,123282,2,0,L|57:42,1,80,8|2,0:0|0:0,0:0:0:0:
209,193,123494,1,0,0:0:0:0:
209,193,123565,2,0,L|263:186,1,40,2|0,0:0|0:0,0:0:0:0:
435,304,123706,2,0,L|377:294,1,40,2|0,0:0|0:0,0:0:0:0:
361,179,123848,6,0,L|377:115,1,40,2|0,0:0|0:0,0:0:0:0:
272,68,123989,2,0,L|288:4,1,40,2|0,0:0|0:0,0:0:0:0:
152,40,124131,1,2,0:1:0:0:
128,43,124201,1,0,0:0:0:0:
104,46,124272,1,2,0:1:0:0:
80,49,124343,1,0,0:0:0:0:
56,52,124414,1,2,0:1:0:0:
183,220,124555,1,2,0:0:0:0:
183,220,124626,1,2,0:0:0:0:
183,220,124697,2,0,P|230:205|265:166,1,80,10|2,0:0|0:0,0:0:0:0:
422,272,124909,1,0,0:0:0:0:
422,272,124980,6,0,L|311:259,1,80,2|0,0:1|0:0,0:0:0:0:
403,148,125192,1,2,0:1:0:0:
403,148,125263,2,0,L|331:139,1,40,0|0,0:0|0:0,0:0:0:0:
214,17,125404,2,0,L|289:5,1,40,2|0,0:1|0:0,0:0:0:0:
266,141,125546,2,0,L|274:186,2,40,2|0|2,0:1|0:0|0:0,0:0:0:0:
116,165,125758,1,2,0:1:0:0:
116,165,125829,2,0,L|20:156,1,80,2|2,0:0|0:1,0:0:0:0:
159,307,126112,5,2,0:0:0:0:
161,303,126183,1,0,0:0:0:0:
163,299,126253,1,2,0:0:0:0:
165,295,126324,1,0,0:0:0:0:
167,291,126395,1,8,0:0:0:0:
169,287,126466,1,0,0:0:0:0:
171,283,126536,1,2,0:0:0:0:
173,279,126607,1,0,0:0:0:0:
175,275,126678,6,0,L|181:198,2,53.3333333333333,0|0|0,1:0|1:0|1:0,0:0:0:0:
249,286,126961,1,0,1:0:0:0:
322,295,127055,1,0,1:0:0:0:
366,234,127150,1,0,1:0:0:0:
292,225,127244,5,0,1:0:0:0:
292,225,127527,2,0,L|286:142,1,80,0|0,0:0|0:0,0:0:0:0:
126,54,127951,1,0,0:0:0:0:
126,54,128022,1,0,0:0:0:0:
126,54,128092,1,0,0:0:0:0:
279,137,128235,1,0,0:0:0:0:
74,234,128376,5,4,1:0:0:0:
74,234,128470,2,0,P|108:241|128:241,1,53.3333333333333,0|0,1:0|1:0,0:0:0:0:
320,354,128659,1,4,1:0:0:0:
320,354,128753,2,0,P|309:320|299:303,1,53.3333333333333,0|0,1:0|1:0,0:0:0:0:
311,95,128942,1,4,1:0:0:0:
311,95,129036,2,0,P|287:120|277:138,1,53.3333333333333,0|0,1:0|1:0,0:0:0:0:
218,197,129225,1,4,1:0:0:0:
286,223,129319,1,0,1:0:0:0:
358,251,129414,1,0,1:0:0:0:
427,224,129508,6,0,L|434:180,3,40,2|0|2|0,0:1|0:0|0:1|0:0,0:0:0:0:
330,62,129791,1,2,0:1:0:0:
283,71,129862,1,0,0:0:0:0:
236,81,129933,2,0,L|229:41,3,40,2|0|2|0,0:1|0:0|0:1|0:0,0:0:0:0:
184,217,130216,2,0,L|144:210,1,40,2|0,0:1|0:0,0:0:0:0:
5,112,130357,2,0,L|52:104,1,40,2|0,0:1|0:0,0:0:0:0:
149,66,130499,2,0,L|155:105,1,40,2|0,0:1|0:0,0:0:0:0:
48,243,130640,6,0,L|41:203,1,40,2|0,0:1|0:0,0:0:0:0:
258,120,130782,2,0,L|250:163,1,40,2|0,0:1|0:0,0:0:0:0:
261,314,130923,1,2,0:1:0:0:
309,305,130994,1,0,0:0:0:0:
357,296,131065,2,0,L|428:285,1,40,2|0,0:1|0:0,0:0:0:0:
480,156,131206,2,0,L|357:138,1,120,2|0,0:1|0:0,0:0:0:0:
325,59,131489,2,0,L|319:19,3,40,0|0|0|0,0:0|0:0|0:0|0:0,0:0:0:0:
221,57,131772,6,0,L|235:140,1,80,2|2,0:0|0:0,0:0:0:0:
105,120,132055,2,0,L|118:198,1,80,2|2,0:0|0:0,0:0:0:0:
304,218,132338,1,2,0:0:0:0:
269,325,132480,2,0,L|189:320,1,80,2|2,0:0|0:0,0:0:0:0:
234,135,132763,2,0,P|306:105|376:138,1,160,2|2,0:0|0:0,0:0:0:0:
376,138,133895,5,0,0:0:0:0:
376,138,133966,1,0,0:0:0:0:
376,138,134036,2,0,P|390:183|381:247,1,80,2|2,0:0|0:0,0:0:0:0:
174,194,134319,2,0,P|212:183|252:183,1,80,2|2,0:0|0:0,0:0:0:0:
394,219,134602,1,2,0:0:0:0:
252,183,134744,1,2,0:0:0:0:
268,350,134885,1,2,0:0:0:0:
268,351,135027,2,0,L|258:191,1,160,2|2,0:0|0:0,0:0:0:0:
81,93,135593,1,2,0:0:0:0:
81,93,135735,2,0,P|137:126|206:60,1,160,2|2,0:0|0:0,0:0:0:0:
51,251,136301,6,0,L|62:360,1,80,2|2,0:0|0:0,0:0:0:0:
197,189,136584,2,0,L|186:298,1,80,2|2,0:0|0:0,0:0:0:0:
51,251,136867,1,2,0:0:0:0:
66,172,137008,1,2,0:0:0:0:
36,97,137150,1,2,0:0:0:0:
197,189,137291,1,2,0:0:0:0:
243,44,137574,1,2,0:0:0:0:
318,224,138423,5,0,0:0:0:0:
318,224,138494,1,0,0:0:0:0:
318,224,138565,2,0,P|276:199|260:152,1,80,2|2,0:0|0:0,0:0:0:0:
370,49,138848,2,0,L|359:134,1,80,2|2,0:0|0:0,0:0:0:0:
220,247,139131,1,2,0:0:0:0:
177,179,139272,1,2,0:0:0:0:
210,106,139414,1,2,0:0:0:0:
289,97,139555,1,2,0:0:0:0:
289,97,139838,5,2,0:0:0:0:
