osu file format v14

[General]
AudioFilename: gg no re.mp3
AudioLeadIn: 0
PreviewTime: 363
Countdown: 0
SampleSet: Soft
StackLeniency: 0.7
Mode: 0
LetterboxInBreaks: 0
WidescreenStoryboard: 0

[Editor]
DistanceSpacing: 0.3
BeatDivisor: 4
GridSize: 8
TimelineZoom: 4.499998

[Metadata]
Title:Re:End of a Dream
TitleUnicode:Re:End of a Dream
Artist:uma vs. Morimori Atsushi
ArtistUnicode:uma vs. モリモリあつし
Creator:Battle
Version:Lasse's Insane
Source:BMS
Tags:superalloys masiro vs adaptor hobbes2 toybot vinxis liiraye lasse regraz
BeatmapID:1219193
BeatmapSetID:557039

[Difficulty]
HPDrainRate:6
CircleSize:3.8
OverallDifficulty:7.5
ApproachRate:9
SliderMultiplier:1.6
SliderTickRate:1

[Events]
//Background and Video events
0,0,"end.jpg",0,0
Video,0,"anime.avi"
//Break Periods
2,27803,32664
2,45916,46673
2,50445,51201
2,82160,83341
2,107066,108247
2,109330,110511
//Storyboard Layer 0 (Background)
//Storyboard Layer 1 (Fail)
//Storyboard Layer 2 (Pass)
//Storyboard Layer 3 (Foreground)
//Storyboard Sound Samples

[TimingPoints]
434,283.018867924528,4,2,2,80,1,0
434,-133.333333333333,4,2,2,80,0,0
8924,-100,4,2,1,100,0,0
9490,-90.9090909090909,4,2,1,100,0,0
17415,-76.9230769230769,4,2,1,100,0,0
18547,-133.333333333333,4,2,1,100,0,1
18830,-86.9565217391304,4,2,1,100,0,1
26471,-83.3333333333333,4,2,2,100,0,1
27037,-83.3333333333333,4,2,2,100,0,0
27320,-100,4,2,2,100,0,0
34679,-100,4,2,1,100,0,0
35811,-71.4285714285714,4,2,1,100,0,0
36660,-83.3333333333333,4,2,1,100,0,0
36943,-83.3333333333333,4,2,1,100,0,1
38924,-83.3333333333333,4,2,1,100,0,1
41188,-66.6666666666667,4,2,1,100,0,1
41613,-58.8235294117647,4,2,1,100,0,1
42037,-83.3333333333333,4,2,1,100,0,1
42745,-66.6666666666667,4,2,1,100,0,1
43169,-83.3333333333333,4,2,1,100,0,1
45150,-83.3333333333333,4,2,1,100,0,0
45433,-58.8235294117647,4,2,1,100,0,0
45717,-83.3333333333333,4,2,2,100,0,0
46141,-1000,4,2,1,70,0,0
46212,-1000,4,2,1,5,0,0
46566,-1000,4,2,1,70,0,0
46636,-1000,4,2,1,5,0,0
47273,-117.647058823529,4,2,2,70,0,0
49113,-200,4,2,2,70,0,0
49537,-1000,4,2,1,80,0,0
49608,-1000,4,2,1,5,0,0
50245,-117.647058823529,4,2,2,70,0,0
50669,-1000,4,2,1,70,0,0
50740,-1000,4,2,1,5,0,0
51094,-1000,4,2,1,100,0,0
51165,-1000,4,2,1,5,0,0
51801,-117.647058823529,4,2,2,70,0,0
52509,-173.913043478261,4,2,2,70,0,0
53641,-200,4,2,2,70,0,0
54066,-1000,4,2,1,70,0,0
54136,-1000,4,2,1,5,0,0
54490,-100,4,2,1,100,0,0
54791,283.018867924528,4,2,1,100,1,0
54791,-100,4,2,1,100,0,0
59319,-83.3333333333333,4,2,1,100,0,0
61583,-66.6666666666667,4,2,1,100,0,0
63564,-80,4,2,1,100,0,0
63847,-100,4,2,1,100,0,0
66111,-83.3333333333333,4,2,1,100,0,1
67243,-66.6666666666667,4,2,1,100,0,1
68375,-83.3333333333333,4,2,1,100,0,1
70640,-100,4,2,1,100,0,0
71772,-83.3333333333333,4,2,1,100,0,0
72621,-166.666666666667,4,2,1,100,0,0
72904,-80,4,2,1,100,0,1
76583,-68.9655172413793,4,2,1,100,0,1
77432,-75.187969924812,4,2,1,100,0,1
77467,-75.187969924812,4,2,1,5,0,1
77574,-75.187969924812,4,2,1,100,0,1
77609,-75.187969924812,4,2,1,5,0,1
77857,-75.187969924812,4,2,1,100,0,1
77893,-75.187969924812,4,2,1,5,0,1
78140,-75.187969924812,4,2,1,100,0,1
78176,-75.187969924812,4,2,1,5,0,1
78423,-75.187969924812,4,2,1,100,0,1
78459,-75.187969924812,4,2,1,5,0,1
78706,-75.187969924812,4,2,1,100,0,1
78742,-75.187969924812,4,2,1,5,0,1
78848,-75.187969924812,4,2,1,100,0,1
78883,-75.187969924812,4,2,1,5,0,1
78989,-75.187969924812,4,2,1,100,0,1
79025,-75.187969924812,4,2,1,5,0,1
79131,-75.187969924812,4,2,1,100,0,1
79166,-75.187969924812,4,2,1,5,0,1
79414,-75.187969924812,4,2,1,100,0,1
79696,-65.359477124183,4,2,1,100,0,1
80262,-61.3496932515337,4,2,1,100,0,1
80828,-57.8034682080925,4,2,1,100,0,1
81677,-100,4,2,1,100,0,1
81960,-100,4,2,1,100,0,0
83941,-800,4,2,1,100,0,0
84154,-800,4,2,0,5,0,0
84224,-76.9230769230769,4,2,1,100,0,0
84296,-800,4,2,0,5,0,0
85357,-76.9230769230769,4,2,1,100,0,0
85428,-800,4,2,0,5,0,0
85923,-200,4,2,1,100,0,0
86206,-133.333333333333,4,2,1,100,0,0
86489,-100,4,2,1,100,0,0
87338,-90.9090909090909,4,2,1,100,0,0
87621,-83.3333333333333,4,2,1,100,0,0
88470,-76.9230769230769,4,2,1,100,0,0
88753,-71.4285714285714,4,2,1,100,0,0
89885,-83.3333333333333,4,2,1,100,0,0
90592,-100,4,2,1,100,0,0
91017,-133.333333333333,4,2,2,100,0,0
94413,-100,4,2,1,100,0,0
95545,-76.9230769230769,4,2,1,100,0,1
97809,-66.6666666666667,4,2,1,100,0,1
99224,-58.8235294117647,4,2,1,100,0,1
99507,-133.333333333333,4,2,1,100,0,0
100074,-80,4,2,1,100,0,1
103046,-80,4,2,2,100,0,1
103329,-80,4,2,1,100,0,1
104602,-75.187969924812,4,2,1,100,0,1
104638,-75.187969924812,4,2,1,5,0,1
104744,-75.187969924812,4,2,1,100,0,1
104779,-75.187969924812,4,2,1,5,0,1
105027,-75.187969924812,4,2,1,100,0,1
105062,-75.187969924812,4,2,1,5,0,1
105310,-75.187969924812,4,2,1,100,0,1
105345,-75.187969924812,4,2,1,5,0,1
105593,-75.187969924812,4,2,1,100,0,1
105628,-75.187969924812,4,2,1,5,0,1
105876,-75.187969924812,4,2,1,100,0,1
105911,-75.187969924812,4,2,1,5,0,1
106018,-75.187969924812,4,2,1,100,0,1
106053,-75.187969924812,4,2,1,5,0,1
106159,-75.187969924812,4,2,1,100,0,1
106194,-75.187969924812,4,2,1,5,0,1
106301,-75.187969924812,4,2,1,100,0,1
106336,-75.187969924812,4,2,1,5,0,1
106442,-75.187969924812,4,2,1,100,0,1
106619,-75.187969924812,4,2,1,5,0,1
106725,-75.187969924812,4,2,1,100,0,1
106760,-75.187969924812,4,2,1,5,0,1
106866,-100,4,2,2,100,0,0
111111,-75.0000000000019,4,2,2,100,0,0
111394,-65.359477124183,4,2,1,100,0,1
111960,-61.3496932515337,4,2,1,100,0,1
112526,-57.8034682080925,4,2,1,100,0,1
113093,-62.5,4,2,1,100,0,1
113375,-83.3333333333333,4,2,1,100,0,0
113658,-125,4,2,1,100,0,1
113942,-83.3333333333333,4,2,1,100,0,1
121583,-74.0740740740741,4,2,1,100,0,0
122149,-66.6666666666667,4,2,1,100,0,0
122244,-75.187969924812,4,2,1,5,0,0
122338,-60.6060606060606,4,2,1,100,0,0
122433,-75.187969924812,4,2,1,5,0,0
122526,-55.5555555555556,4,2,1,100,0,0
122621,-75.187969924812,4,2,1,5,0,0
122715,-51.2820512820513,4,2,1,100,0,0
122810,-75.187969924812,4,2,1,5,0,0
122998,-71.4285714285714,4,2,1,100,0,1
126677,-58.8235294117647,4,2,1,100,0,1
126960,-50,4,2,1,100,0,1
127243,-100,4,2,1,100,0,0
128375,-55.5555555555556,4,2,1,100,0,1
129507,-66.6666666666667,4,2,1,100,0,1
131772,-133.333333333333,4,2,2,80,0,0
135593,-133.333333333333,4,2,2,80,0,0
136301,-133.333333333333,4,2,2,80,0,0

[Colours]
Combo1 : 253,153,104
Combo2 : 181,165,254
Combo3 : 152,243,97
Combo4 : 107,192,220

[HitObjects]
136,64,434,6,0,P|106:67|75:58,1,60.0000022888184,2|2,0:0|0:0,0:0:0:0:
211,99,717,2,0,P|192:122|164:138,1,60.0000022888184,2|2,0:0|0:0,0:0:0:0:
211,285,1000,6,0,P|192:261|164:245,2,60.0000022888184,2|2|2,0:0|0:0|0:0,0:0:0:0:
256,352,1424,1,2,0:0:0:0:
256,192,1707,1,2,0:0:0:0:
263,199,2556,5,0,0:0:0:0:
263,199,2627,1,0,0:0:0:0:
263,199,2698,2,0,P|316:208|338:199,1,60.0000022888184,2|2,0:0|0:0,0:0:0:0:
368,125,2981,2,0,P|315:116|293:125,1,60.0000022888184,2|2,0:0|0:0,0:0:0:0:
445,73,3264,6,0,P|425:50|398:37,2,60.0000022888184,2|2|2,0:0|0:0|0:0,0:0:0:0:
497,150,3688,1,2,0:0:0:0:
320,206,3971,1,2,0:0:0:0:
456,331,4254,5,2,0:0:0:0:
382,357,4396,2,0,B|346:354|346:354|299:335|299:335|262:332,1,120.000004577637,2|2,0:0|0:0,0:0:0:0:
113,366,4962,6,0,P|83:369|52:360,1,60.0000022888184,2|2,0:0|0:0,0:0:0:0:
136,288,5245,2,0,P|165:284|196:293,1,60.0000022888184,2|2,0:0|0:0,0:0:0:0:
278,245,5528,6,0,P|290:217|312:194,2,60.0000022888184,2|2|2,0:0|0:0|0:0,0:0:0:0:
265,332,5952,1,2,0:0:0:0:
193,193,6235,1,2,0:0:0:0:
201,201,7084,5,0,0:0:0:0:
201,201,7155,1,0,0:0:0:0:
201,201,7226,2,0,P|196:171|206:132,1,60.0000022888184,2|2,0:0|0:0,0:0:0:0:
281,93,7509,2,0,P|311:98|350:88,1,60.0000022888184,2|2,0:0|0:0,0:0:0:0:
426,169,7792,6,0,P|395:163|356:173,2,60.0000022888184,2|2|2,0:0|0:0|0:0,0:0:0:0:
490,223,8216,1,2,0:0:0:0:
431,78,8499,1,2,0:0:0:0:
359,328,8924,5,0,0:0:0:0:
356,331,8995,1,0,0:0:0:0:
353,334,9066,1,0,0:0:0:0:
350,337,9136,1,0,0:0:0:0:
347,340,9207,2,0,P|310:341|279:336,3,40,0|0|0|0,0:0|0:0|0:0|0:0,0:0:0:0:
225,353,9490,6,0,L|108:343,1,88.000002685547,4|0,0:0|0:0,0:0:0:0:
115,343,9702,1,0,0:0:0:0:
93,341,9773,1,8,0:0:0:0:
155,234,9915,2,0,B|173:178|173:178|178:110|178:110|194:164,1,176.000005371094,0|2,0:0|0:0,0:0:0:0:
227,38,10339,2,0,B|184:23|184:23|141:32,1,88.000002685547,8|0,0:0|0:0,0:0:0:0:
191,156,10622,6,0,B|234:171|234:171|276:161,1,88.000002685547,2|0,0:0|0:0,0:0:0:0:
295,152,10834,2,0,L|358:156,1,44.0000013427735,0|8,0:0|0:0,0:0:0:0:
459,34,11047,2,0,B|455:89|455:89|435:144|435:144|430:216,1,176.000005371094,0|2,0:0|0:0,0:0:0:0:
436,333,11471,1,8,0:0:0:0:
436,333,11613,1,0,0:0:0:0:
323,259,11754,6,0,B|280:244|280:244|238:254,1,88.000002685547,4|0,0:0|0:0,0:0:0:0:
217,261,11966,1,0,0:0:0:0:
197,270,12037,1,8,0:0:0:0:
97,343,12179,2,0,B|78:382|78:382|60:304|60:304|68:247,1,176.000005371094,0|2,0:0|0:0,0:0:0:0:
125,145,12603,2,0,B|83:155|83:155|40:140,1,88.000002685547,8|0,0:0|0:0,0:0:0:0:
195,45,12886,6,0,B|237:35|237:35|280:50,2,88.000002685547,2|0|8,0:0|0:0|0:0,0:0:0:0:
267,166,13311,2,0,B|237:123|237:123|228:259,1,176.000005371094,0|2,0:0|0:0,0:0:0:0:
289,353,13735,2,0,L|328:355,3,29.3333342285157,8|0|0|2,0:0|0:0|0:0|0:0,0:0:0:0:
413,275,14018,6,0,L|530:265,1,88.000002685547,4|0,0:0|0:0,0:0:0:0:
504,245,14231,1,0,0:0:0:0:
509,223,14301,1,8,0:0:0:0:
438,121,14443,2,0,B|428:80|428:80|441:6,1,88.000002685547,0|8,0:0|0:0,0:0:0:0:
436,34,14726,1,0,0:0:0:0:
330,97,14867,2,0,L|213:87,1,88.000002685547,8|0,0:0|0:0,0:0:0:0:
86,37,15150,6,0,L|203:27,1,88.000002685547,8|0,0:0|0:0,0:0:0:0:
194,21,15363,1,0,0:0:0:0:
214,13,15433,1,8,0:0:0:0:
158,123,15575,2,0,B|148:164|148:164|161:238,1,88.000002685547,0|8,0:0|0:0,0:0:0:0:
262,272,15858,2,0,B|272:231|272:231|259:157,2,88.000002685547,0|8|0,0:0|0:0|0:0,0:0:0:0:
151,357,16283,5,8,0:0:0:0:
55,280,16424,2,0,L|50:216,2,44.0000013427735,8|0|8,0:0|0:0|0:0,0:0:0:0:
155,209,16707,2,0,L|165:92,1,88.000002685547,8|8,0:0|0:0,0:0:0:0:
205,24,16990,1,8,0:0:0:0:
311,13,17132,1,8,0:0:0:0:
371,102,17273,1,8,0:0:0:0:
380,122,17344,1,0,0:0:0:0:
389,142,17415,6,0,B|414:143|437:154|437:154|461:153|481:138|481:138|505:134|539:148,2,138.666660319011,4|0|0,0:0|0:0|0:0,0:0:0:0:
123,142,17981,6,0,B|98:143|75:154|75:154|51:153|31:138|31:138|7:134|-27:148,2,138.666660319011,0|0|0,1:0|0:0|0:0,0:0:0:0:
256,272,18547,6,0,L|256:288,8,15.0000005722046,4|0|0|0|0|0|0|0|2,1:0|1:0|1:0|1:0|1:0|1:0|1:0|0:0|0:0,0:0:0:0:
161,360,18971,2,0,P|241:320|329:345,1,184.000003509522,4|2,0:1|0:0,0:0:0:0:
435,269,19396,1,8,0:0:0:0:
435,269,19537,1,0,0:0:0:0:
329,180,19679,6,0,P|319:135|329:91,1,92.0000017547608,2|0,0:0|0:0,0:0:0:0:
348,79,19891,2,0,L|411:74,1,46.0000008773804,0|8,0:0|0:0,0:0:0:0:
435,269,20103,2,0,P|417:187|324:184,1,184.000003509522,2|2,0:0|0:0,0:0:0:0:
219,247,20528,2,0,P|174:257|129:246,1,92.0000017547608,8|2,0:0|0:0,0:0:0:0:
39,77,20811,6,0,P|70:110|83:155,1,92.0000017547608,4|0,0:0|0:0,0:0:0:0:
77,176,21023,1,0,0:0:0:0:
65,196,21094,1,8,0:0:0:0:
39,77,21235,2,0,P|119:36|206:61,1,184.000003509522,2|2,0:0|0:0,0:0:0:0:
271,172,21660,1,8,0:0:0:0:
271,172,21801,1,2,0:0:0:0:
403,100,21943,6,0,P|413:55|403:11,2,92.0000017547608,2|2|8,0:0|0:0|0:0,0:0:0:0:
343,213,22367,2,0,P|429:188|510:228,1,184.000003509522,2|2,0:0|0:0,0:0:0:0:
420,320,22792,2,0,L|418:359,3,30.6666672515869,8|0|0|0,0:0|0:0|0:0|0:0,0:0:0:0:
510,228,23075,6,0,P|520:183|510:139,1,92.0000017547608,4|2,0:0|0:0,0:0:0:0:
497,119,23287,1,0,0:0:0:0:
480,102,23357,1,8,0:0:0:0:
384,190,23500,2,0,B|290:205|302:151|204:166,1,184.000003509522,2|2,0:0|0:0,0:0:0:0:
151,294,23924,1,8,0:0:0:0:
242,257,24066,1,2,0:0:0:0:
114,203,24207,6,0,P|108:157|123:114,1,92.0000017547608,4|0,0:0|0:0,0:0:0:0:
138,97,24419,2,0,L|141:51,1,46.0000008773804,0|8,0:0|0:0,0:0:0:0:
151,294,24632,2,0,P|105:300|62:285,1,92.0000017547608,2|0,0:0|0:0,0:0:0:0:
242,257,24915,2,0,P|288:251|331:266,2,92.0000017547608,2|8|0,0:0|0:0|0:0,0:0:0:0:
334,150,25339,6,0,P|348:106|342:61,1,92.0000017547608,4|2,0:0|0:0,0:0:0:0:
334,40,25551,1,0,0:0:0:0:
316,24,25622,1,8,0:0:0:0:
334,150,25764,2,0,P|377:164|422:158,1,92.0000017547608,2|8,0:0|0:0,0:0:0:0:
444,150,25976,1,8,0:0:0:0:
460,132,26047,1,8,0:0:0:0:
511,229,26188,1,8,0:0:0:0:
451,321,26330,1,8,0:0:0:0:
341,315,26471,6,0,B|291:307|291:307|230:346|230:346|135:331|135:331|116:247|116:247|227:264,1,383.99998828125,2|2,0:0|0:0,0:0:0:0:
194,259,27603,5,4,0:3:0:0:
256,192,33264,12,2,34396,0:0:0:0:
419,297,34820,5,0,0:0:0:0:
427,279,34891,1,0,0:0:0:0:
435,261,34962,2,0,B|439:206|439:206|449:182|449:182|442:158|442:158|447:94,1,160,2|8,0:0|0:0,0:0:0:0:
378,35,35386,5,0,0:0:0:0:
361,46,35457,1,0,0:0:0:0:
344,57,35528,2,0,L|321:55,4,20,10|0|0|0|0,0:0|0:0|0:0|0:0|0:0,0:0:0:0:
309,140,35811,6,0,B|293:267|293:267|268:207,1,167.999994873047,12|0,0:0|0:0,0:0:0:0:
325,176,36094,6,0,B|309:303|309:303|293:266,1,167.999994873047,8|0,0:0|0:0,0:0:0:0:
341,212,36377,6,0,B|325:339|325:339|309:302,1,167.999994873047,8|0,0:0|0:0,0:0:0:0:
198,285,36660,6,0,L|62:275,1,95.9999970703126,4|2,0:0|0:0,0:0:0:0:
79,286,36872,1,2,0:1:0:0:
57,296,36943,1,8,0:0:0:0:
154,190,37084,2,0,P|171:141|160:85,1,95.9999970703126,2|2,0:1|0:0,0:0:0:0:
150,80,37297,2,0,L|94:76,1,47.9999985351563,0|2,0:0|0:1,0:0:0:0:
258,39,37509,2,0,L|394:49,1,95.9999970703126,8|2,0:0|0:0,0:0:0:0:
377,38,37721,1,0,0:0:0:0:
399,28,37792,6,0,P|382:77|393:133,1,95.9999970703126,2|0,0:1|0:0,0:0:0:0:
466,177,38004,2,0,P|483:128|472:72,1,95.9999970703126,2|0,0:1|0:0,0:0:0:0:
387,119,38217,6,0,P|370:168|381:224,1,95.9999970703126,2|2,0:1|0:0,0:0:0:0:
454,268,38429,2,0,P|471:219|460:163,1,95.9999970703126,2|0,0:1|0:0,0:0:0:0:
375,210,38641,6,0,P|352:214|328:213,1,47.9999985351563,8|0,0:0|0:0,0:0:0:0:
454,268,38783,2,0,P|477:263|501:264,1,47.9999985351563,2|0,0:0|0:0,0:0:0:0:
373,321,38924,6,0,P|324:304|268:315,1,95.9999970703126,2|0,0:1|0:0,0:0:0:0:
263,325,39136,2,0,L|207:321,1,47.9999985351563,2|8,0:1|0:0,0:0:0:0:
77,354,39349,2,0,P|94:305|83:249,1,95.9999970703126,2|2,0:1|0:0,0:0:0:0:
73,244,39561,2,0,L|77:188,1,47.9999985351563,2|0,0:1|0:0,0:0:0:0:
128,69,39773,1,8,0:0:0:0:
39,106,39915,1,2,0:0:0:0:
165,159,40056,6,2,B|208:155|208:155|305:182|305:182|369:177,1,191.999994140625,6|8,0:0|0:0,0:1:0:0:
368,193,40622,5,2,0:0:0:0:
368,193,40693,1,2,0:0:0:0:
368,193,40764,1,2,0:0:0:0:
368,193,40834,1,2,0:0:0:0:
368,193,40905,2,0,B|381:147|381:147|371:91,1,95.9999970703126,8|0,0:0|0:0,0:0:0:0:
184,32,41188,6,0,B|16:20|16:20|52:27|80:51,1,240.000009155274,4|0,0:0|0:0,0:0:0:0:
273,65,41613,6,0,B|79:51|79:51|121:60|154:87,1,272.000005187988,4|0,0:1|0:0,0:0:0:0:
157,103,41967,1,0,0:0:0:0:
166,124,42037,5,8,0:0:0:0:
184,238,42179,1,2,0:0:0:0:
274,166,42320,2,0,P|299:162|340:163,2,47.9999985351563,4|0|2,0:0|0:0|0:0,0:0:0:0:
274,166,42745,6,2,B|347:191|347:191|445:154|445:154|500:172,1,240.000009155274,6|2,0:1|0:0,0:1:0:0:
449,291,43169,6,0,P|443:255|445:216,1,47.9999985351563,8|0,0:0|0:0,0:0:0:0:
500,172,43311,2,0,P|506:136|504:97,1,47.9999985351563,2|0,0:0|0:0,0:0:0:0:
469,33,43452,6,2,B|419:47|419:47|316:35,1,143.999995605469,4|0,0:0|0:0,0:1:0:0:
305,27,43735,2,0,L|257:23,1,47.9999985351563,8|0,0:0|0:0,0:0:0:0:
181,64,43877,2,0,L|133:60,1,47.9999985351563,2|0,0:0|0:0,0:0:0:0:
57,101,44018,1,8,0:0:0:0:
60,15,44160,1,10,0:0:0:0:
107,288,44443,6,2,B|122:339|122:339|171:287|155:211,1,191.999994140625,6|2,0:0|0:0,0:1:0:0:
57,101,44867,1,8,0:0:0:0:
11,241,45009,1,2,0:0:0:0:
155,211,45150,1,8,0:0:0:0:
325,326,45433,6,2,B|373:318|412:335|385:350|452:366|488:357|512:316|508:280|484:260|449:257|426:271|426:307,1,272.000005187988,4|2,0:0|0:0,0:1:0:0:
204,96,47273,5,2,0:0:0:0:
204,96,47415,2,0,B|174:101|145:92|160:85|121:75|98:84|98:84|116:101|148:102,2,136.000002593994,4|2|4,0:0|0:0|0:1,0:0:0:0:
467,34,49113,6,0,L|458:157,1,120,4|4,0:1|0:1,0:0:0:0:
256,328,50245,5,4,0:0:0:0:
204,96,51801,5,2,0:0:0:0:
204,96,51943,2,0,B|174:101|145:92|160:85|121:75|98:84|98:84|116:101|148:102,1,136.000002593994,4|2,0:1|0:0,0:0:0:0:
160,190,52367,5,2,0:0:0:0:
160,190,52509,2,0,B|190:185|219:194|204:201|243:211|266:202|266:202|251:184|223:185,1,138.000002632141,4|0,0:0|0:0,0:0:0:0:
45,350,53641,6,0,L|53:230,1,120,4|4,0:1|0:0,0:0:0:0:
45,34,54490,6,0,L|38:1,6,20,0|0|0|0|0|0|0,1:0|1:0|1:0|1:0|1:0|1:0|1:0,0:0:0:0:
39,69,54791,1,0,0:0:0:0:
57,234,55073,1,0,1:0:0:0:
57,234,55215,2,0,P|117:215|222:244,1,160,0|0,0:0|1:0,0:0:0:0:
292,320,55639,5,0,1:0:0:0:
292,320,55710,1,0,1:0:0:0:
292,320,55781,1,0,1:0:0:0:
292,320,55851,1,0,0:0:0:0:
292,320,55922,2,0,L|347:323,1,40,0|0,1:0|0:0,0:0:0:0:
410,368,56064,2,0,L|415:288,1,80,0|0,1:0|1:0,0:0:0:0:
449,181,56347,5,0,0:0:0:0:
449,181,56417,1,0,0:0:0:0:
449,181,56488,2,0,L|451:141,2,40,4|0|0,1:0|0:0|0:0,0:0:0:0:
355,97,56771,2,0,L|352:57,2,40,0|0|0,1:0|0:0|1:0,0:0:0:0:
256,24,57054,5,4,1:0:0:0:
159,192,57337,1,0,1:0:0:0:
159,192,57479,2,0,B|75:201|84:155|3:166,1,160,4|0,1:0|1:0,0:0:0:0:
145,113,57903,5,0,1:0:0:0:
145,113,57974,1,0,1:0:0:0:
145,113,58045,1,0,1:0:0:0:
145,113,58115,1,0,1:0:0:0:
145,113,58186,2,0,B|155:74|150:36|150:36|159:61|178:80,2,120,4|0|0,1:0|1:0|1:0,0:0:0:0:
61,222,58752,6,0,L|59:245,6,20,0|0|0|0|0|0|0,1:0|0:0|0:0|0:0|1:0|0:0|0:0,0:0:0:0:
118,303,59035,2,0,L|119:326,6,20,0|0|0|0|0|0|0,1:0|1:0|1:0|1:0|1:0|0:0|0:0,0:0:0:0:
195,364,59319,6,0,P|303:340|384:349,1,191.999994140625,4|0,0:0|0:0,0:0:0:0:
490,193,59743,5,2,0:0:0:0:
490,193,59814,1,0,0:0:0:0:
490,193,59884,2,0,P|415:274|382:349,1,191.999994140625,4|0,0:1|0:0,0:0:0:0:
211,267,60309,5,2,0:0:0:0:
211,267,60380,1,0,0:0:0:0:
211,267,60450,2,0,P|316:300|382:348,1,191.999994140625,4|0,0:1|0:0,0:0:0:0:
396,159,60875,5,2,0:0:0:0:
396,159,60946,1,0,0:0:0:0:
396,159,61017,2,0,P|372:267|381:348,1,191.999994140625,4|0,0:1|0:0,0:0:0:0:
508,162,61441,5,2,0:0:0:0:
508,162,61512,1,0,0:0:0:0:
508,162,61583,2,0,P|437:206|395:155,1,160.000006103516,4|0,0:0|1:0,0:0:0:0:
305,26,61960,6,0,P|312:62|304:115,1,80.0000030517579,0|0,1:0|1:0,0:0:0:0:
271,176,62149,2,0,P|265:214|273:253,1,80.0000030517579,0|0,1:0|0:0,0:0:0:0:
234,342,62337,5,0,1:0:0:0:
173,289,62431,1,0,0:0:0:0:
92,294,62526,1,0,1:0:0:0:
38,354,62620,1,0,0:0:0:0:
82,286,62715,6,0,P|89:238|78:177,1,80.0000030517579,0|0,1:0|1:0,0:0:0:0:
6,122,62903,2,0,P|54:129|115:118,1,80.0000030517579,0|0,1:0|1:0,0:0:0:0:
180,72,63092,5,0,1:0:0:0:
256,48,63186,1,0,1:0:0:0:
332,72,63281,2,0,B|376:83|387:130|387:130|408:146|424:160,1,120.000004577637,4|0,0:1|0:0,0:0:0:0:
440,195,63493,1,0,0:0:0:0:
450,211,63564,6,0,P|479:206|520:210,1,50,2|0,0:0|0:0,0:0:0:0:
460,227,63705,2,0,P|489:222|530:226,1,50,2|0,0:0|0:0,0:0:0:0:
470,243,63847,6,0,P|487:291|476:334,1,80,4|0,0:0|0:0,0:0:0:0:
420,363,64059,2,0,P|395:354|359:349,1,40,2|0,0:0|0:0,0:0:0:0:
239,363,64271,1,2,0:0:0:0:
141,272,64413,6,0,P|136:252|137:225,1,40,0|0,1:0|0:0,0:0:0:0:
154,258,64554,2,0,P|149:238|150:211,1,40,0|0,1:0|1:0,0:0:0:0:
167,244,64696,2,0,P|162:224|163:197,1,40,0|0,1:0|0:0,0:0:0:0:
180,229,64837,6,0,P|232:201|332:222,1,160,4|2,0:0|0:0,0:0:0:0:
364,290,65191,2,0,L|368:353,1,40,0|8,0:0|1:2,0:0:0:0:
473,179,65403,1,2,0:0:0:0:
416,92,65545,5,0,1:0:0:0:
413,88,65616,1,0,0:0:0:0:
410,85,65686,1,2,0:0:0:0:
407,82,65757,1,0,0:0:0:0:
404,79,65828,2,0,P|376:74|353:75,2,40,6|2|2,0:0|0:0|0:0,0:0:0:0:
336,226,66111,6,0,B|286:236|286:236|243:221,1,95.9999970703126,4|0,0:1|0:0,0:0:0:0:
243,221,66323,1,0,0:0:0:0:
243,221,66394,2,0,L|234:348,1,95.9999970703126,0|2,1:0|0:2,0:0:0:0:
109,360,66677,5,0,1:0:0:0:
109,360,66748,1,0,0:0:0:0:
109,360,66818,1,2,0:0:0:0:
109,360,66889,1,0,0:0:0:0:
109,360,66960,2,0,L|100:232,1,95.9999970703126,2|2,0:0|1:2,0:0:0:0:
53,104,67243,6,0,P|99:134|157:101,1,120.000004577637,6|0,1:0|0:0,0:0:0:0:
249,227,67526,2,0,P|299:200|348:230,1,120.000004577637,2|0,1:0|0:0,0:0:0:0:
348,230,67738,1,0,1:0:0:0:
348,230,67809,2,0,L|357:94,2,120.000004577637,2|2|0,1:0|1:0|1:0,0:0:0:0:
334,363,68234,1,2,0:0:0:0:
469,297,68375,6,0,B|480:249|480:249|473:201,1,95.9999970703126,4|0,1:0|0:0,0:0:0:0:
473,202,68587,1,0,1:0:0:0:
473,202,68658,2,0,L|472:97,1,95.9999970703126,0|2,0:0|1:2,0:0:0:0:
352,43,68941,6,2,P|375:48|398:45,1,47.9999985351563,0|0,1:0|0:0,0:1:0:0:
334,68,69083,2,2,P|340:90|355:109,1,47.9999985351563,0|0,1:0|0:0,0:1:0:0:
292,73,69224,2,2,P|289:96|277:117,1,47.9999985351563,0|0,1:0|0:0,0:1:0:0:
270,52,69366,2,2,P|247:62|223:63,1,47.9999985351563,0|0,1:0|1:0,0:1:0:0:
326,184,69507,6,0,L|327:289,1,95.9999970703126,0|0,1:0|0:0,0:0:0:0:
326,279,69719,2,0,P|302:280|280:290,1,47.9999985351563,0|0,1:0|0:0,0:0:0:0:
182,371,69932,1,0,1:0:0:0:
80,362,70073,6,2,P|81:338|91:316,1,47.9999985351563,0|0,1:0|0:0,0:1:0:0:
26,309,70215,2,2,P|46:296|70:293,1,47.9999985351563,2|2,1:2|1:2,0:1:0:0:
34,230,70356,2,2,P|52:245|75:251,1,47.9999985351563,10|0,1:2|0:0,0:1:0:0:
99,187,70498,2,2,P|95:210|100:234,1,47.9999985351563,2|0,1:2|0:0,0:1:0:0:
217,212,70640,6,0,B|211:184|227:161|227:161|221:157|221:157|229:133|224:111,2,106.666666666667,0|0|0,1:0|1:0|1:0,0:0:0:0:
37,122,71205,6,0,B|43:94|27:71|27:71|33:67|33:67|25:43|29:21,2,106.666666666667,0|0|0,1:0|1:0|1:0,0:0:0:0:
224,111,71772,6,0,P|258:112|305:92,2,63.9999980468751,0|0|0,1:0|1:0|1:0,0:0:0:0:
132,179,72054,5,0,1:0:0:0:
126,256,72149,1,0,1:0:0:0:
120,333,72243,1,0,1:0:0:0:
200,294,72337,5,0,1:0:0:0:
33,26,72620,6,0,B|28:46|35:65|35:65|29:63|29:63|35:76|32:88,1,71.9999978027344,0|0,0:0|0:0,0:0:0:0:
31,88,72904,6,0,L|150:79,1,100,4|2,1:0|0:0,0:0:0:0:
270,66,73186,2,0,L|369:60,1,100,0|2,1:0|0:0,0:0:0:0:
293,178,73469,1,0,1:0:0:0:
290,181,73540,1,0,1:0:0:0:
287,184,73611,1,2,1:2:0:0:
284,187,73682,1,0,1:0:0:0:
281,190,73752,2,0,L|182:196,1,100,4|2,0:1|0:0,0:0:0:0:
328,305,74035,5,0,1:0:0:0:
386,177,74177,1,2,0:0:0:0:
383,180,74248,1,0,0:0:0:0:
380,183,74318,2,0,L|281:189,1,100,0|2,1:0|0:0,0:0:0:0:
179,315,74601,2,0,L|243:311,3,50,0|0|2|0,1:0|1:0|1:2|1:0,0:0:0:0:
228,311,74884,2,0,L|327:305,1,100,4|2,1:0|0:0,0:0:0:0:
181,196,75167,6,0,L|82:202,1,100,0|2,0:0|0:0,0:0:0:0:
78,205,75380,1,0,0:0:0:0:
75,208,75450,2,0,L|-24:214,1,100,0|2,1:0|0:0,0:0:0:0:
84,326,75734,2,0,L|183:320,1,100,0|2,1:0|1:2,0:0:0:0:
183,319,75947,1,0,1:0:0:0:
183,319,76017,2,0,L|282:313,1,100,4|2,1:0|0:2,0:0:0:0:
448,271,76300,5,0,1:0:0:0:
448,271,76370,1,0,0:0:0:0:
448,271,76441,1,2,1:2:0:0:
448,271,76512,1,0,0:0:0:0:
448,271,76583,2,0,B|450:231|450:231|445:198|445:198|448:155,2,116.000003540039,0|0|0,1:0|1:0|1:0,0:0:0:0:
338,169,77007,1,2,0:0:0:0:
335,172,77055,2,0,P|319:164|299:160,1,38.6666678466797
332,175,77149,2,0,B|329:135|329:135|334:102|334:102|331:59,1,116.000003540039,10|2,1:2|1:2,0:0:0:0:
162,18,77432,6,0,L|160:44,1,26.5999989041138,6|0,1:0|0:0,0:0:0:0:
151,147,77573,2,0,L|147:173,1,26.5999989041138,2|0,1:0|0:0,0:0:0:0:
350,366,77856,6,0,L|351:339,1,26.5999989041138,2|0,1:1|0:0,0:0:0:0:
82,286,78139,6,0,L|108:287,1,26.5999989041138,2|0,1:1|0:0,0:0:0:0:
430,98,78422,6,0,L|403:96,1,26.5999989041138,2|0,1:1|0:0,0:0:0:0:
162,18,78705,6,0,L|160:44,1,26.5999989041138,2|0,1:0|0:0,0:0:0:0:
151,147,78846,2,0,L|147:173,1,26.5999989041138,2|0,1:1|0:0,0:0:0:0:
82,286,78988,6,0,L|108:287,1,26.5999989041138,2|0,0:0|0:0,0:0:0:0:
211,297,79130,2,0,L|237:300,1,26.5999989041138,2|0,1:1|0:0,0:0:0:0:
430,98,79413,6,0,L|403:96,6,26.5999989041138,2|0|0|0|2|0|0,1:2|0:0|1:0|0:0|0:0|0:0|1:0,0:0:0:0:
316,102,79696,6,0,P|230:105|151:20,2,183.600008264466,2|2|2,1:0|1:0|1:0,0:0:0:0:
303,288,80262,6,0,P|352:206|444:184,2,195.599999850769,2|2|2,1:0|1:0|1:0,0:0:0:0:
146,183,80828,6,0,P|194:272|159:367,2,207.600005068359,2|2|2,1:0|1:0|1:0,0:0:0:0:
74,283,81394,5,2,1:0:0:0:
40,56,81677,6,0,L|40:24,8,20,2|0|0|0|0|0|0|0|4,0:0|0:0|0:0|0:0|0:0|0:0|0:0|0:0|1:0,0:0:0:0:
40,328,83941,6,0,L|40:342,1,15,8|4,0:3|0:0,0:0:0:0:
48,352,84224,6,0,L|60:262,1,51.999997619629,4|0,0:0|0:0,0:0:0:0:
464,107,85357,6,0,L|472:56,1,51.999997619629,4|0,0:0|0:0,0:0:0:0:
472,328,85923,6,2,L|417:328,1,40,2|2,0:1|0:1,0:1:0:0:
307,328,86206,6,2,L|224:328,1,60.0000022888184,2|0,0:1|0:0,0:1:0:0:
101,328,86489,6,2,B|101:206|101:206|74:262,1,160,4|8,0:0|0:0,0:1:0:0:
247,328,86913,2,2,B|246:206|246:206|273:262,1,160,0|2,0:0|0:0,0:1:0:0:
424,232,87338,6,2,L|424:176,1,44.0000013427735,8|0,0:0|0:0,0:1:0:0:
424,188,87479,2,2,L|424:132,1,44.0000013427735,2|0,0:0|0:0,0:1:0:0:
424,144,87621,6,2,B|425:14|425:14|396:73,1,191.999994140625,4|8,0:0|0:0,0:1:0:0:
276,144,88045,2,2,B|275:14|275:14|304:73,1,191.999994140625,0|2,0:0|0:0,0:1:0:0:
313,248,88470,6,2,P|282:240|254:241,1,51.999997619629,8|0,0:0|0:0,0:1:0:0:
262,239,88611,2,2,P|236:239|211:247,1,51.999997619629,2|0,0:0|0:0,0:1:0:0:
211,246,88753,6,0,B|188:247|166:234|166:234|152:245|129:249|129:249|103:228|65:238,2,149.333328776042,4|0|0,0:1|0:1|0:1,0:0:0:0:
336,344,89319,6,0,B|358:345|380:332|380:332|394:343|417:347|417:347|443:326|481:336,2,149.333328776042,4|0|0,0:1|0:0|0:0,0:0:0:0:
233,123,89885,6,0,P|85:158|211:245,1,383.99998828125,4|8,0:3|0:0,0:0:0:0:
324,204,90592,6,0,L|419:210,2,80,0|2|2,0:0|0:0|0:0,0:0:0:0:
168,174,91017,6,0,L|73:168,2,90.0000034332277,2|2|2,0:0|0:0|0:0,0:0:0:0:
235,104,91583,2,0,P|237:83|236:66,4,30.0000011444092,2|2|2|2|2,0:0|0:0|0:0|0:0|0:0,0:0:0:0:
175,181,92007,5,2,0:0:0:0:
175,181,92078,1,2,0:0:0:0:
174,181,92149,2,0,P|167:209|169:239,1,60.0000022888184,2|0,0:0|0:0,0:0:0:0:
200,276,92361,2,0,P|202:305|195:334,1,60.0000022888184,2|0,0:0|0:0,0:0:0:0:
156,364,92573,1,2,0:0:0:0:
83,300,92715,2,0,P|62:298|29:299,4,30.0000011444092,2|2|2|2|2,0:0|0:0|0:0|0:0|0:0,0:0:0:0:
208,284,93139,5,2,0:0:0:0:
208,284,93210,1,2,0:0:0:0:
208,284,93281,2,2,P|236:277|266:279,1,60.0000022888184
307,303,93493,2,0,P|335:310|365:308,1,60.0000022888184,2|0,0:0|0:0,0:0:0:0:
402,276,93705,1,2,0:0:0:0:
343,199,93847,2,0,P|341:184|340:169,4,30.0000011444092,2|2|2|2|2,0:0|0:0|0:0|0:0|0:0,0:0:0:0:
314,311,94271,5,2,0:0:0:0:
314,311,94342,1,2,0:0:0:0:
314,311,94413,2,0,B|310:364|310:364|278:320,1,80,4|2,0:0|0:0,0:0:0:0:
348,176,94696,2,0,B|352:123|352:123|384:167,1,80,8|2,0:0|0:0,0:0:0:0:
367,144,94908,1,0,0:0:0:0:
367,144,94979,2,0,B|409:153|409:153|466:136,1,80,2|4,0:0|0:1,0:0:0:0:
256,24,95403,1,2,0:0:0:0:
176,96,95545,6,0,B|173:127|173:127|179:160|179:160|176:208,1,103.999995239258,4|2,0:0|0:0,0:0:0:0:
167,223,95757,2,0,L|87:228,1,51.999997619629,0|8,0:0|0:0,0:0:0:0:
26,101,95969,5,0,0:0:0:0:
26,101,96040,1,0,0:0:0:0:
26,101,96111,2,0,L|29:152,1,51.999997619629,2|0,0:0|0:0,0:0:0:0:
36,232,96253,2,0,L|39:283,1,51.999997619629,2|0,0:0|0:0,0:0:0:0:
111,320,96394,2,0,B|142:313|142:313|184:324|184:324|212:317,1,103.999995239258,8|2,0:0|0:0,0:0:0:0:
236,307,96607,1,0,0:0:0:0:
260,299,96677,6,0,B|291:292|291:292|333:303|333:303|361:296,1,103.999995239258,4|0,0:0|0:0,0:0:0:0:
381,280,96890,2,0,L|384:331,1,51.999997619629,2|0,0:0|0:0,0:0:0:0:
251,219,97101,1,2,0:0:0:0:
348,146,97243,6,0,B|362:97|362:97|342:32,1,103.999995239258,8|0,0:0|1:0,0:0:0:0:
321,38,97455,2,0,L|277:34,2,25.9999988098145,0|0|0,1:0|1:0|1:0,0:0:0:0:
473,1,97667,1,2,0:0:0:0:
445,136,97809,6,0,B|440:169|451:191|451:191|441:204|439:231|439:231|462:259|454:293,2,160.000006103516,4|4|4,1:1|1:1|1:1,0:0:0:0:
345,46,98375,6,0,P|305:57|266:52,1,80.0000030517579,4|0,1:1|0:0,0:0:0:0:
229,123,98564,2,0,P|191:143|168:174,1,80.0000030517579,4|0,1:1|0:0,0:0:0:0:
99,211,98752,2,0,P|57:211|21:196,1,80.0000030517579,4|0,1:1|0:0,0:0:0:0:
41,78,98941,5,0,1:0:0:0:
109,36,99035,1,0,1:0:0:0:
187,55,99130,1,0,1:0:0:0:
229,123,99224,6,0,P|266:133|321:112,2,90.6666683959961,0|0|0,1:0|1:0|1:0,0:0:0:0:
109,36,99507,5,0,1:0:0:0:
0,273,99790,6,0,B|-4:297|2:316|2:316|-4:313|-4:313|6:339|0:369,1,90.0000034332277,4|0,0:0|0:0,0:0:0:0:
2,351,100074,6,0,P|51:340|114:360,1,100,4|2,0:1|0:0,0:0:0:0:
106,359,100285,1,0,0:0:0:0:
106,359,100356,2,0,P|154:369|202:359,1,100,0|2,1:0|0:0,0:0:0:0:
249,236,100639,1,0,1:0:0:0:
249,236,100710,1,0,1:0:0:0:
249,236,100781,1,0,1:0:0:0:
249,236,100852,1,0,1:0:0:0:
249,236,100922,2,0,P|201:226|153:236,1,100,4|2,0:1|0:0,0:0:0:0:
212,366,101205,6,0,P|260:376|308:366,1,100,0|2,1:0|0:0,0:0:0:0:
309,365,101418,1,0,0:0:0:0:
309,365,101488,2,0,P|357:354|406:364,1,100,0|2,1:0|0:0,0:0:0:0:
494,254,101771,2,0,L|498:190,3,50,0|0|0|0,1:0|1:0|1:0|1:0,0:0:0:0:
497,204,102054,2,0,P|449:215|400:205,1,100,0|2,1:0|0:0,0:0:0:0:
295,72,102337,5,0,1:0:0:0:
256,176,102479,2,0,L|253:209,8,25,2|0|0|0|0|0|0|0|0,1:0|1:0|1:0|1:0|1:0|1:0|1:0|1:0|1:0,1:0:0:0:
176,24,102903,5,0,1:0:0:0:
137,128,103045,2,2,L|134:161,3,33.3333333333333,2|2|2|2,2:2|2:2|2:2|2:2,2:2:0:0:
295,72,103328,6,0,P|319:67|363:73,1,50,0|0,1:0|1:0,0:0:0:0:
383,206,103469,5,0,1:0:0:0:
256,176,103611,1,2,0:0:0:0:
294,301,103752,2,0,L|297:334,4,25,0|0|0|0|0,1:0|1:0|1:0|1:0|1:0,0:0:0:0:
256,176,104035,5,0,1:0:0:0:
181,275,104177,1,2,0:0:0:0:
133,161,104318,2,0,L|130:128,4,25,0|0|0|0|0,1:0|1:0|1:0|1:0|1:0,0:0:0:0:
70,283,104601,6,0,L|96:281,1,26.5999989041138,2|0,0:1|0:0,0:0:0:0:
181,275,104743,2,0,L|207:273,1,26.5999989041138,2|0,0:1|0:0,0:0:0:0:
460,98,105026,6,0,L|434:100,1,26.5999989041138,2|0,0:1|0:0,0:0:0:0:
133,161,105309,6,0,L|159:159,1,26.5999989041138,2|0,0:1|0:0,0:0:0:0:
460,224,105592,6,0,L|434:226,1,26.5999989041138,2|0,0:1|0:0,0:0:0:0:
133,35,105875,6,0,L|159:33,1,26.5999989041138,2|0,0:1|0:0,0:0:0:0:
244,27,106017,2,0,L|270:25,1,26.5999989041138,2|0,1:0|0:0,0:0:0:0:
330,114,106158,6,0,L|356:112,1,26.5999989041138,2|0,0:1|0:0,0:0:0:0:
441,106,106300,2,0,L|467:104,1,26.5999989041138,2|0,0:1|0:0,0:0:0:0:
486,221,106441,5,2,0:0:0:0:
486,221,106512,1,0,0:0:0:0:
486,221,106583,2,0,L|460:223,1,26.5999989041138,0|0,1:1|0:0,0:0:0:0:
375,229,106725,2,0,L|349:231,1,26.5999989041138,2|0,0:0|0:0,0:0:0:0:
256,192,106866,5,2,0:0:0:0:
182,56,108847,6,0,B|222:67|251:50|251:50|268:62|268:62|298:46|333:57,1,160,4|4,0:0|0:0,0:0:0:0:
333,57,111111,6,0,B|298:46|268:62|268:62|251:50|251:50|222:67|182:56,1,160,2|0,0:0|0:0,0:0:0:0:
82,55,111394,6,0,P|127:137|100:229,2,183.600008264466,4|2|2,0:0|0:0|0:0,0:0:0:0:
335,58,111960,6,0,P|308:148|224:194,2,195.599999850769,8|2|2,0:0|0:0|0:0,0:0:0:0:
512,238,112526,6,0,P|432:286|336:257,2,207.600005068359,8|2|2,0:0|0:0|0:0,0:0:0:0:
414,155,113092,5,2,0:0:0:0:
207,45,113375,5,2,0:1:0:0:
185,55,113445,1,0,0:0:0:0:
162,59,113516,1,2,0:1:0:0:
138,57,113587,1,0,0:0:0:0:
116,47,113658,6,0,P|100:45|87:48,8,16,4|0|0|0|0|0|0|0|8,1:0|1:0|1:0|1:0|1:0|1:0|1:0|0:0|0:0,0:0:0:0:
10,131,114083,2,0,B|42:221|-14:222|12:321,1,191.999994140625,2|2,0:0|0:0,0:0:0:0:
143,366,114508,1,8,0:0:0:0:
143,366,114649,1,2,0:0:0:0:
247,253,114790,6,0,P|194:245|152:261,1,95.9999970703126,2|0,0:0|0:0,0:0:0:0:
137,275,115003,2,0,L|88:271,1,47.9999985351563,0|8,0:0|0:0,0:0:0:0:
10,131,115215,2,0,P|99:157|170:95,1,191.999994140625,2|2,0:0|0:0,0:0:0:0:
247,252,115639,2,0,P|286:227|334:223,1,95.9999970703126,8|2,0:0|0:0,0:0:0:0:
465,91,115922,6,0,P|418:81|382:50,1,95.9999970703126,2|0,0:0|0:0,0:0:0:0:
367,31,116135,1,0,0:0:0:0:
355,10,116206,1,8,0:0:0:0:
465,91,116347,2,0,B|490:187|433:188|466:279,1,191.999994140625,2|2,0:0|0:0,0:0:0:0:
368,371,116772,1,8,0:0:0:0:
368,371,116913,1,0,0:0:0:0:
247,252,117054,6,0,P|204:231|156:234,2,95.9999970703126,2|2|8,0:0|0:0|0:0,0:0:0:0:
317,91,117479,2,0,P|250:157|246:251,1,191.999994140625,2|2,0:0|0:0,0:0:0:0:
375,211,117904,2,0,P|390:209|413:210,3,31.9999990234375,8|0|0|0,0:0|0:0|0:0|0:0,0:0:0:0:
246,251,118186,6,0,P|198:253|155:233,1,95.9999970703126,6|2,0:0|0:0,0:0:0:0:
140,213,118399,1,0,0:0:0:0:
134,189,118469,1,8,0:0:0:0:
321,96,118611,2,0,B|370:89|412:122|412:122|450:130|504:104,1,191.999994140625,2|2,0:0|0:0,0:0:0:0:
395,18,119036,1,8,0:0:0:0:
321,96,119178,1,2,0:0:0:0:
188,45,119318,6,0,P|145:24|97:27,1,95.9999970703126,2|0,0:0|0:0,0:0:0:0:
81,45,119531,2,0,L|77:93,1,47.9999985351563,0|8,0:0|0:0,0:0:0:0:
260,165,119743,2,0,P|299:138|320:95,1,95.9999970703126,2|0,0:0|0:0,0:0:0:0:
120,167,120026,2,0,P|123:214|149:254,2,95.9999970703126,2|8|0,0:0|0:0|0:0,0:0:0:0:
349,182,120450,6,0,P|345:134|320:95,1,95.9999970703126,2|0,0:0|0:0,0:0:0:0:
298,83,120663,1,0,0:0:0:0:
273,81,120734,1,8,0:0:0:0:
349,182,120875,6,0,P|396:178|436:152,1,95.9999970703126,2|4,0:0|0:0,0:0:0:0:
443,128,121088,1,0,0:0:0:0:
446,104,121158,2,0,P|442:57|416:17,1,95.9999970703126,0|10,0:0|0:0,0:0:0:0:
273,81,121441,2,0,L|199:77,1,47.9999985351563,2|0,0:0|0:0,0:0:0:0:
138,29,121583,6,0,B|116:19|92:23|92:23|69:38|49:38|49:38|24:26|-2:29,2,144.000000549316,2|0|0,1:0|0:0|0:0,0:0:0:0:
36,279,122149,6,2,P|26:240|33:201,1,80.0000030517579,2|0,1:1|0:0,0:1:0:0:
114,236,122338,6,2,P|126:194|168:147,1,88.0000008392334,2|0,0:1|0:0,0:1:0:0:
203,236,122526,6,2,P|237:204|287:189,1,95.9999970703126,2|0,0:1|0:0,0:1:0:0:
279,282,122715,6,2,P|335:268|389:288,1,104.000000396729,2|0,1:1|0:0,0:1:0:0:
512,114,122998,5,4,0:0:0:0:
484,108,123068,1,0,0:0:0:0:
459,96,123139,1,2,0:0:0:0:
438,78,123210,1,0,0:0:0:0:
422,55,123281,2,0,P|381:47|352:51,3,55.9999982910157,8|0|2|0,0:0|0:0|0:0|0:0,0:0:0:0:
281,90,123564,2,0,P|225:107|172:89,1,111.999996582031,2|2,0:0|0:0,0:0:0:0:
68,0,123847,5,2,0:0:0:0:
42,138,123988,1,2,0:0:0:0:
192,107,124130,1,2,0:1:0:0:
192,107,124200,1,0,0:0:0:0:
192,107,124271,1,2,0:1:0:0:
192,107,124342,1,0,0:0:0:0:
192,107,124413,2,0,B|230:104|230:104|262:115|262:115|317:109,1,111.999996582031,2|2,0:1|0:0,0:0:0:0:
326,97,124625,2,0,L|373:91,2,27.9999991455078,2|0|10,0:0|0:0|0:0,0:0:0:0:
222,188,124837,1,2,0:0:0:0:
366,249,124979,6,0,P|384:299|367:357,1,111.999996582031,2|0,0:1|0:0,0:0:0:0:
340,354,125191,1,2,0:1:0:0:
311,353,125262,2,0,B|273:350|273:350|241:361|241:361|186:355,1,111.999996582031,0|2,0:0|0:1,0:0:0:0:
173,356,125474,1,0,0:0:0:0:
145,352,125545,2,0,B|107:349|107:349|75:360|75:360|20:354,1,111.999996582031,2|2,0:1|0:0,0:0:0:0:
22,330,125757,1,2,0:1:0:0:
10,304,125828,1,2,0:0:0:0:
80,192,125969,1,2,0:1:0:0:
223,256,126111,6,0,P|241:203|225:150,1,111.999996582031,2|2,0:0|0:0,0:0:0:0:
155,49,126394,1,8,0:0:0:0:
155,49,126465,1,0,0:0:0:0:
155,49,126535,1,2,0:0:0:0:
155,49,126606,1,0,0:0:0:0:
155,49,126677,6,0,B|132:53|111:40|111:40|108:45|108:45|87:38|68:43,2,90.6666683959961,0|0|0,1:0|1:0|1:0,0:0:0:0:
298,28,126960,6,0,B|324:23|349:38|349:38|353:32|353:32|377:40|400:35,2,106.666666666667,0|0|0,1:0|1:0|1:0,0:0:0:0:
225,150,127243,5,0,1:0:0:0:
225,150,128375,6,0,B|200:145|179:159|179:159|175:154|175:154|154:161|134:156,2,95.9999970703126,4|0|0,1:0|1:0|1:0,0:0:0:0:
328,201,128658,6,0,B|352:205|373:191|373:191|377:196|377:196|398:189|418:194,2,95.9999970703126,4|0|0,1:0|1:0|1:0,0:0:0:0:
233,265,128941,5,4,1:0:0:0:
186,252,129035,1,0,1:0:0:0:
140,267,129130,1,0,1:0:0:0:
95,331,129224,5,4,1:0:0:0:
49,346,129319,1,0,1:0:0:0:
2,333,129413,1,0,1:0:0:0:
56,259,129507,6,0,P|75:204|62:146,1,120.000004577637,2|2,0:1|0:1,0:0:0:0:
61,145,129719,1,0,0:0:0:0:
61,145,129790,2,0,P|118:158|174:138,1,120.000004577637,2|2,0:1|0:1,0:0:0:0:
174,137,130002,1,0,0:0:0:0:
174,137,130073,5,2,0:1:0:0:
295,38,130215,1,2,0:1:0:0:
394,158,130356,1,2,0:1:0:0:
274,257,130498,1,2,0:1:0:0:
295,38,130639,6,0,B|333:34|356:54|356:54|382:57|409:39,1,120.000004577637,2|2,0:1|0:1,0:0:0:0:
512,92,130922,1,2,0:1:0:0:
512,122,130993,1,0,0:0:0:0:
512,152,131064,1,2,0:1:0:0:
444,245,131205,6,2,B|383:238|350:271|350:271|303:278|260:248,1,180.000006866455,2|0,0:1|0:0,0:1:0:0:
232,184,131488,5,0,0:0:0:0:
231,176,131558,1,0,0:0:0:0:
230,169,131629,1,0,0:0:0:0:
230,161,131700,1,0,0:0:0:0:
229,154,131772,6,0,P|199:157|168:148,1,60.0000022888184,2|2,0:0|0:0,0:0:0:0:
123,219,132054,2,0,P|99:199|84:171,1,60.0000022888184,2|2,0:0|0:0,0:0:0:0:
110,93,132337,6,0,P|133:74|148:48,2,60.0000022888184,2|2|2,0:0|0:0|0:0,0:0:0:0:
27,111,132762,1,2,0:0:0:0:
170,149,133045,1,2,0:0:0:0:
178,157,133893,5,0,0:0:0:0:
178,157,133964,1,0,0:0:0:0:
178,157,134035,2,0,P|184:186|179:218,1,60.0000022888184,2|2,0:0|0:0,0:0:0:0:
252,258,134318,2,0,P|274:238|304:226,1,60.0000022888184,2|2,0:0|0:0,0:0:0:0:
385,236,134601,6,0,P|414:242|446:237,2,60.0000022888184,2|2|2,0:0|0:0|0:0,0:0:0:0:
413,157,135025,1,2,0:0:0:0:
412,329,135308,1,2,0:0:0:0:
302,227,135591,5,2,0:0:0:0:
228,256,135733,2,0,B|192:253|192:253|145:234|145:234|108:231,1,120.000004577637,2|2,0:0|0:0,0:0:0:0:
33,82,136299,6,0,P|28:52|35:20,1,60.0000022888184,2|2,0:0|0:0,0:0:0:0:
112,58,136583,2,0,P|116:87|109:119,1,60.0000022888184,2|2,0:0|0:0,0:0:0:0:
111,231,136866,6,0,P|134:212|165:202,2,60.0000022888184,2|2|2,0:0|0:0|0:0,0:0:0:0:
84,309,137289,1,2,0:0:0:0:
19,154,137574,1,2,0:0:0:0:
27,162,138423,5,0,0:0:0:0:
27,162,138492,1,0,0:0:0:0:
27,162,138564,2,0,P|35:132|30:92,1,60.0000022888184,2|2,0:0|0:0,0:0:0:0:
98,49,138847,2,0,P|127:57|167:52,1,60.0000022888184,2|2,0:0|0:0,0:0:0:0:
222,108,139130,6,0,P|251:106|280:114,2,60.0000022888184,2|2|2,0:0|0:0|0:0,0:0:0:0:
240,189,139555,1,2,0:0:0:0:
235,21,139838,1,2,0:0:0:0:
