osu file format v14

[General]
AudioFilename: gg no re.mp3
AudioLeadIn: 0
PreviewTime: 363
Countdown: 0
SampleSet: Soft
StackLeniency: 0.4
Mode: 0
LetterboxInBreaks: 0
WidescreenStoryboard: 1

[Editor]
Bookmarks: 13034,125534
DistanceSpacing: 0.7
BeatDivisor: 4
GridSize: 8
TimelineZoom: 1.8

[Metadata]
Title:Re:End of a Dream
TitleUnicode:Re:End of a Dream
Artist:uma vs. Morimori Atsushi
ArtistUnicode:uma vs. モリモリあつし
Creator:Battle
Version:Hobbes2's Another
Source:BMS
Tags:superalloys masiro vs adaptor hobbes2 toybot vinxis liiraye lasse regraz
BeatmapID:1319345
BeatmapSetID:557039

[Difficulty]
HPDrainRate:5.7
CircleSize:3.8
OverallDifficulty:7.5
ApproachRate:8.8
SliderMultiplier:1.5
SliderTickRate:1

[Events]
//Background and Video events
0,0,"end.jpg",0,0
Video,0,"anime.avi"
//Break Periods
2,27803,33767
2,82160,83312
2,91217,93784
2,107066,108218
2,109330,110482
//Storyboard Layer 0 (Background)
//Storyboard Layer 1 (Fail)
//Storyboard Layer 2 (Pass)
//Storyboard Layer 3 (Foreground)
//Storyboard Sound Samples

[TimingPoints]
434,283.018867924528,4,2,2,80,1,0
434,-100,4,2,2,80,0,0
8924,-100,4,2,1,100,0,0
9490,-90.9090909090909,4,2,1,100,0,0
17415,-100,4,2,1,100,0,0
18547,-100,4,2,1,100,0,1
18830,-83.3333333333333,4,2,1,100,0,1
26471,-133.333333333333,4,2,2,100,0,1
27320,-100,4,2,2,100,0,0
34679,-100,4,2,1,100,0,0
35811,-100,4,2,1,100,0,0
36660,-83.3333333333333,4,2,1,100,0,1
37792,-83.3333333333333,4,2,1,100,0,1
38004,-83.3333333333333,4,2,1,100,0,1
38924,-83.3333333333333,4,2,1,100,0,1
45150,-100,4,2,1,100,0,0
45717,-133.333333333333,4,2,2,100,0,0
46141,-100,4,2,1,70,0,0
46212,-100,4,2,1,5,0,0
46566,-100,4,2,1,70,0,0
46636,-100,4,2,1,5,0,0
47273,-133.333333333333,4,2,2,70,0,0
49537,-100,4,2,1,80,0,0
49608,-100,4,2,1,5,0,0
50245,-133.333333333333,4,2,2,70,0,0
50669,-100,4,2,1,70,0,0
50740,-100,4,2,1,5,0,0
51094,-100,4,2,1,100,0,0
51165,-100,4,2,1,5,0,0
51801,-133.333333333333,4,2,2,70,0,0
52509,-133.333333333333,4,2,2,70,0,0
54066,-100,4,2,1,70,0,0
54136,-100,4,2,1,5,0,0
54490,-100,4,2,3,100,0,0
54791,283.018867924528,4,2,1,100,1,0
54791,-100,4,2,1,100,0,0
59319,-100,4,2,1,100,0,0
61583,-90.9090909090909,4,2,1,100,0,0
66111,-83.3333333333333,4,2,1,100,0,1
70640,-100,4,2,1,100,0,0
72904,-83.3333333333333,4,2,1,100,0,1
81960,-100,4,2,1,100,0,0
82244,-100,4,2,2,100,0,0
86206,-133.333333333333,4,2,1,100,0,0
86489,-100,4,2,1,100,0,0
88753,-100,4,2,1,100,0,0
91018,-100,4,2,2,100,0,0
94413,-90.9090909090909,4,2,1,100,0,0
95545,-83.3333333333333,4,2,1,100,0,1
106866,-100,4,2,2,100,0,0
111394,-83.3333333333333,4,2,1,100,0,1
113093,-100,4,2,1,100,0,1
113375,-100,4,2,1,100,0,0
113658,-100,4,2,1,100,0,1
113941,-80,4,2,1,100,0,1
121583,-100,4,2,1,100,0,0
122998,-76.9230769230769,4,2,1,100,0,1
127243,-100,4,2,1,100,0,0
128375,-76.9230769230769,4,2,1,100,0,1
130640,-90.9090909090909,4,2,1,100,0,1
131772,-100,4,2,2,100,0,0
135593,-100,4,2,2,100,0,0
136301,-100,4,2,2,100,0,0

[Colours]
Combo1 : 109,123,186
Combo2 : 226,186,146
Combo3 : 203,165,95
Combo4 : 150,173,216

[HitObjects]
100,80,434,6,0,P|107:117|109:155,2,75,2|2|2,0:0|0:0|0:0,0:0:0:0:
197,212,858,2,0,P|199:174|205:137,2,75,2|2|2,0:0|0:0|0:0,0:0:0:0:
239,53,1283,1,2,0:0:0:0:
256,38,1424,1,2,0:0:0:0:
273,23,1707,1,2,0:0:0:0:
382,167,2556,1,2,0:0:0:0:
382,167,2627,1,2,0:0:0:0:
382,167,2698,6,0,P|345:173|307:175,2,75,2|2|2,0:0|0:0|0:0,0:0:0:0:
250,263,3122,2,0,P|287:265|324:271,2,75,2|2|2,0:0|0:0|0:0,0:0:0:0:
409,305,3547,1,2,0:0:0:0:
424,322,3688,1,2,0:0:0:0:
439,339,3971,1,2,0:0:0:0:
231,116,4254,5,2,0:0:0:0:
231,115,4396,2,0,P|233:189|249:262,1,150,2|2,0:0|0:0,0:0:0:0:
34,283,4962,6,0,B|40:259|40:259|32:209,2,75,2|2|2,0:0|0:0|0:0,0:0:0:0:
125,111,5386,2,0,B|119:135|119:135|127:185,2,75,2|2|2,0:0|0:0|0:0,0:0:0:0:
146,273,5811,1,2,0:0:0:0:
152,294,5952,1,2,0:0:0:0:
158,315,6235,1,2,0:0:0:0:
259,45,7084,1,2,0:0:0:0:
259,45,7155,1,2,0:0:0:0:
259,45,7226,6,0,B|283:51|283:51|332:43,2,75,2|2|2,0:0|0:0|0:0,0:0:0:0:
430,136,7650,2,0,B|406:130|406:130|357:138,2,75,2|2|2,0:0|0:0|0:0,0:0:0:0:
269,157,8075,1,2,0:0:0:0:
248,163,8217,1,2,0:0:0:0:
227,169,8500,1,2,0:0:0:0:
37,310,8924,6,0,P|42:283|39:261,3,37.5,0|0|0|0,0:0|0:0|0:0|0:0,0:0:0:0:
41,239,9207,5,0,0:0:0:0:
34,209,9278,1,0,0:0:0:0:
32,179,9349,1,0,0:0:0:0:
34,149,9419,1,0,0:0:0:0:
40,119,9490,6,0,P|62:90|103:62,1,82.5000025177003,4|0,0:0|0:0,0:0:0:0:
195,39,9773,1,8,0:0:0:0:
280,88,9915,2,0,P|312:163|317:245,1,165.000005035401,0|2,0:0|0:0,0:0:0:0:
416,245,10339,2,0,P|415:205|424:156,1,82.5000025177003,8|0,0:0|0:0,0:0:0:0:
365,330,10622,6,0,P|323:343|284:337,2,82.5000025177003,2|0|8,0:0|0:0|0:0,0:0:0:0:
317,245,11047,2,0,P|237:252|190:318,1,165.000005035401,0|2,0:0|0:0,0:0:0:0:
97,287,11471,2,0,P|92:328|104:366,1,82.5000025177003,8|0,0:0|0:0,0:0:0:0:
146,201,11754,6,0,L|146:118,1,82.5000025177003,4|0,0:0|0:0,0:0:0:0:
92,33,12037,1,8,0:0:0:0:
200,33,12179,2,0,P|302:24|390:-12,1,165.000005035401,0|2,0:0|0:0,0:0:0:0:
426,77,12603,2,0,P|466:86|504:102,1,82.5000025177003,8|0,0:0|0:0,0:0:0:0:
360,150,12886,5,2,0:0:0:0:
360,150,12957,1,0,0:0:0:0:
360,150,13028,1,0,0:0:0:0:
426,77,13169,1,8,0:0:0:0:
364,154,13311,6,0,B|350:197|350:197|365:318,1,165.000005035401,0|2,0:0|0:0,0:0:0:0:
477,283,13735,2,0,P|465:276|452:272,3,27.5000008392334,8|0|2|0,0:0|0:0|0:0|0:0,0:0:0:0:
267,294,14018,6,0,P|212:351|198:375,1,82.5000025177003,12|0,0:0|0:0,0:0:0:0:
65,246,14301,2,0,P|96:273|122:306,1,82.5000025177003,8|0,0:0|0:0,0:0:0:0:
274,286,14584,6,0,P|243:313|218:345,1,82.5000025177003,8|0,0:0|0:0,0:0:0:0:
58,239,14867,2,0,P|89:266|114:298,1,82.5000025177003,8|0,0:0|0:0,0:0:0:0:
264,122,15150,6,0,L|240:201,1,82.5000025177003,8|0,0:0|0:0,0:0:0:0:
67,74,15433,2,0,L|91:152,1,82.5000025177003,8|0,0:0|0:0,0:0:0:0:
272,114,15717,6,0,L|247:192,1,82.5000025177003,8|0,0:0|0:0,0:0:0:0:
59,66,16000,2,0,L|83:144,1,82.5000025177003,8|0,0:0|0:0,0:0:0:0:
247,192,16283,5,8,0:0:0:0:
247,192,16424,1,8,0:0:0:0:
174,124,16566,1,8,0:0:0:0:
174,124,16707,1,8,0:0:0:0:
174,260,16849,6,0,L|174:308,3,41.2500012588501,8|0|8|0,0:0|0:0|0:0|0:0,0:0:0:0:
205,339,17132,1,8,0:0:0:0:
236,350,17202,1,0,0:0:0:0:
268,354,17273,1,8,0:0:0:0:
301,352,17344,1,0,0:0:0:0:
333,342,17415,6,0,L|351:235,2,100,4|0|0,1:0|1:0|1:0,0:0:0:0:
174,124,17981,2,0,L|191:222,2,100,0|0|0,1:0|1:0|1:0,0:0:0:0:
350,3,18547,6,0,L|344:32,6,18.75,4|0|0|0|0|0|0,1:0|1:0|1:0|1:0|1:0|1:0|1:0,0:0:0:0:
391,101,18830,6,0,P|370:185|288:212,1,179.999994506836,2|0,0:0|0:0,0:0:0:0:
307,127,19254,1,2,0:0:0:0:
435,242,19396,2,0,P|456:285|453:328,1,89.9999972534181,8|0,0:0|0:0,0:0:0:0:
279,314,19679,6,0,L|368:302,1,89.9999972534181,2|0,0:0|0:0,0:0:0:0:
368,301,19891,1,0,0:0:0:0:
368,301,19962,1,8,0:0:0:0:
210,371,20103,2,0,B|154:297|234:269|176:198,1,179.999994506836,2|2,0:0|0:0,0:0:0:0:
20,270,20528,2,0,L|109:258,1,89.9999972534181,8|2,0:0|0:0,0:0:0:0:
180,109,20811,6,0,P|137:120|103:148,1,89.9999972534181,4|0,0:0|0:0,0:0:0:0:
104,148,21023,1,0,0:0:0:0:
104,148,21094,1,8,0:0:0:0:
251,50,21235,2,0,B|279:86|270:135|270:135|318:128|355:158,1,179.999994506836,2|2,0:0|0:0,0:0:0:0:
417,0,21660,2,0,L|351:62,1,89.9999972534181,8|2,0:0|0:0,0:0:0:0:
237,166,21943,6,0,L|270:135,2,44.999998626709,2|0|2,0:0|0:0|0:0,0:0:0:0:
351,62,22226,1,8,0:0:0:0:
265,254,22367,2,0,B|239:168|239:168|153:138,1,179.999994506836,2|2,0:0|0:0,0:0:0:0:
68,189,22792,2,0,P|11:198|0:194,3,44.999998626709,8|0|0|0,0:0|0:0|0:0|0:0,0:0:0:0:
3,244,23075,6,0,P|42:290|57:330,1,89.9999972534181,4|2,0:0|0:0,0:0:0:0:
53,316,23287,1,0,0:0:0:0:
53,316,23358,1,8,0:0:0:0:
180,246,23500,2,0,P|269:237|359:239,1,179.999994506836,2|2,0:0|0:0,0:0:0:0:
489,327,23924,2,0,P|444:329|399:328,1,89.9999972534181,8|2,0:0|0:0,0:0:0:0:
463,140,24207,6,0,L|456:230,1,89.9999972534181,4|0,0:0|0:0,0:0:0:0:
456,229,24419,1,0,0:0:0:0:
456,229,24490,1,8,0:0:0:0:
345,59,24632,2,0,L|359:239,1,179.999994506836,2|2,0:0|0:0,0:0:0:0:
241,157,25056,2,0,L|261:244,1,89.9999972534181,8|0,0:0|0:0,0:0:0:0:
367,334,25339,6,0,L|363:289,3,44.999998626709,4|0|2|0,0:0|0:0|0:0|0:0,0:0:0:0:
359,239,25622,2,0,L|355:194,3,44.999998626709,8|0|2|0,0:0|0:0|0:0|0:0,0:0:0:0:
351,144,25905,2,0,L|347:99,3,44.999998626709,8|8|8|8,0:0|0:0|0:0|0:0,0:0:0:0:
343,49,26188,1,8,0:0:0:0:
309,60,26259,1,0,0:0:0:0:
273,64,26330,1,8,0:0:0:0:
237,60,26400,1,0,0:0:0:0:
203,48,26471,6,0,P|209:105|128:47,1,225.000008583069,2|2,0:0|0:0,0:0:0:0:
359,239,27320,6,0,L|350:313,1,75,0|0,0:0|0:0,0:0:0:0:
448,172,27603,1,4,0:3:0:0:
256,192,34396,12,0,35386,0:0:0:0:
439,81,35528,6,0,L|444:63,6,18.75,10|0|0|0|0|0|0,0:0|0:0|0:0|0:0|0:0|0:0|0:0,0:0:0:0:
371,140,35811,6,0,L|259:128,1,112.5,12|0,0:0|0:0,0:0:0:0:
280,164,36094,2,0,L|168:175,1,112.5,8|0,0:0|0:0,0:0:0:0:
195,206,36377,2,0,L|87:240,1,112.5,8|0,0:0|0:0,0:0:0:0:
120,264,36660,5,4,0:0:0:0:
120,264,36943,6,0,P|102:221|112:159,1,89.9999972534181,8|2,0:0|0:1,0:0:0:0:
149,89,37226,2,0,P|177:51|235:29,1,89.9999972534181,2|2,0:0|0:1,0:0:0:0:
315,26,37509,2,0,P|361:31|409:71,1,89.9999972534181,8|2,0:0|0:0,0:0:0:0:
446,141,37792,6,0,L|437:258,1,89.9999972534181,2|0,0:1|0:0,0:0:0:0:
448,279,38004,2,0,L|358:272,1,89.9999972534181,2|0,0:1|0:0,0:0:0:0:
310,281,38217,2,0,L|316:191,1,89.9999972534181,2|2,0:1|0:0,0:0:0:0:
308,143,38429,2,0,L|397:149,1,89.9999972534181,2|0,0:1|0:0,0:0:0:0:
446,141,38641,6,0,L|441:199,2,44.999998626709,8|0|2,0:0|0:0|0:0,0:0:0:0:
310,281,38924,6,0,P|253:289|198:318,1,89.9999972534181,2|0,0:1|0:0,0:0:0:0:
188,329,39136,2,0,L|149:230,1,89.9999972534181,2|0,0:1|0:0,0:0:0:0:
167,201,39349,2,0,P|110:209|55:238,1,89.9999972534181,2|2,0:1|0:0,0:0:0:0:
45,249,39561,2,0,L|6:150,1,89.9999972534181,2|0,0:1|0:0,0:0:0:0:
0,121,39773,1,8,0:0:0:0:
58,40,39915,1,2,0:0:0:0:
155,22,40056,6,0,P|255:55|333:99,1,179.999994506836,6|8,0:0|0:0,0:0:0:0:
374,174,40481,1,0,0:0:0:0:
310,249,40622,1,2,0:0:0:0:
310,249,40693,1,2,0:0:0:0:
310,249,40764,1,2,0:0:0:0:
397,166,40905,2,0,P|447:154|503:170,1,89.9999972534181,8|0,0:0|0:0,0:0:0:0:
419,330,41188,6,0,P|424:256|481:303,1,179.999994506836,4|0,0:0|0:0,0:0:0:0:
303,305,41613,2,0,P|326:219|396:166,1,179.999994506836,4|0,0:1|0:0,0:0:0:0:
463,67,42037,5,8,0:0:0:0:
428,74,42108,1,0,0:0:0:0:
392,71,42179,1,2,0:0:0:0:
359,57,42250,1,0,0:0:0:0:
332,33,42320,6,0,P|322:8|321:-12,2,44.999998626709,4|0|2,0:0|0:0|0:0,0:0:0:0:
332,33,42745,2,0,B|365:118|365:118|327:198,1,179.999994506836,4|2,0:1|0:0,0:0:0:0:
220,116,43169,2,0,L|265:117,3,44.999998626709,8|0|2|0,0:0|0:0|0:0|0:0,0:0:0:0:
158,35,43452,6,0,B|121:116|121:116|154:201,1,179.999994506836,4|8,0:0|0:0,0:0:0:0:
155,236,43806,1,0,0:0:0:0:
146,271,43877,1,2,0:0:0:0:
127,302,43948,1,0,0:0:0:0:
101,326,44018,1,8,0:0:0:0:
37,223,44160,1,10,0:0:0:0:
37,223,44443,6,0,P|123:199|204:159,1,179.999994506836,6|2,0:0|0:0,0:0:0:0:
89,112,44867,1,8,0:0:0:0:
71,310,45009,1,2,0:0:0:0:
240,249,45150,1,8,0:0:0:0:
270,244,45433,5,4,0:0:0:0:
300,238,45717,6,0,P|315:185|323:129,1,112.500004291535,2|2,0:0|0:0,0:0:0:0:
301,50,46141,1,4,0:1:0:0:
454,62,47415,6,0,P|407:52|378:55,1,56.2500021457673,4|0,0:0|0:0,0:0:0:0:
338,111,47698,2,0,P|309:109|283:101,1,56.2500021457673,2|2,0:0|0:0,0:0:0:0:
236,30,47981,6,0,P|228:114|195:146,1,112.500004291535,4|2,0:1|0:0,0:0:0:0:
135,168,48405,1,4,0:1:0:0:
355,295,49113,5,4,0:1:0:0:
355,295,49537,1,4,0:1:0:0:
65,100,50245,6,0,P|49:153|41:209,1,112.500004291535,4|2,0:0|0:0,0:0:0:0:
64,288,50669,1,4,0:1:0:0:
278,338,51943,2,0,B|283:321|283:321|285:281,1,56.2500021457673,4|0,0:1|0:0,0:0:0:0:
227,220,52226,2,0,B|222:203|222:203|220:163,1,56.2500021457673,2|2,0:0|0:0,0:0:0:0:
282,107,52509,6,0,L|150:122,1,112.500004291535,4|2,0:0|0:0,0:0:0:0:
87,133,52933,1,0,0:0:0:0:
278,338,53641,6,0,L|410:353,1,112.500004291535,4|0,0:1|0:0,0:0:0:0:
473,364,54066,1,4,0:0:0:0:
110,67,54490,6,0,L|116:89,6,18.75,0|0|0|0|0|0|0,1:0|1:0|1:0|1:0|1:0|1:0|1:0,0:0:0:0:
192,28,54791,6,0,L|198:102,1,75,0|0,1:0|0:0,0:0:0:0:
288,192,55073,2,0,L|294:118,1,75,0|0,1:0|0:0,0:0:0:0:
335,100,55285,2,0,P|391:96|431:104,1,75,0|0,0:0|0:0,0:0:0:0:
451,128,55498,2,0,P|455:184|447:224,1,75,0|0,1:0|1:0,0:0:0:0:
439,244,55710,1,0,1:0:0:0:
354,272,55851,1,0,0:0:0:0:
354,272,55922,6,0,L|316:267,2,37.5,0|0|0,1:0|0:0|1:0,0:0:0:0:
301,103,56205,2,0,L|292:178,1,75,0|0,1:0|0:0,0:0:0:0:
240,315,56488,2,0,P|227:280|230:242,1,75,4|0,1:0|0:0,0:0:0:0:
375,223,56771,2,0,P|350:252|317:267,1,75,0|0,1:0|1:0,0:0:0:0:
373,132,57054,6,0,P|409:138|441:159,2,75,4|0|0,1:0|0:0|1:0,0:0:0:0:
292,177,57479,1,4,1:0:0:0:
292,177,57550,2,0,L|226:90,1,75,0|0,0:0|0:0,0:0:0:0:
208,83,57762,2,0,P|170:92|131:80,1,75,0|0,1:0|1:0,0:0:0:0:
98,117,57974,2,0,L|53:177,1,75,0|0,1:0|1:0,0:0:0:0:
66,224,58186,6,0,B|100:243|100:243|16:284,2,112.5,4|0|0,1:0|1:0|1:0,0:0:0:0:
168,296,58752,2,0,P|185:263|184:223,1,75,0|0,1:0|1:0,0:0:0:0:
122,150,59035,2,0,L|119:131,4,18.75,0|0|0|0|0,1:0|1:0|1:0|1:0|1:0,0:0:0:0:
237,99,59318,6,0,P|249:149|227:116,1,150,4|0,0:0|0:0,0:0:0:0:
370,97,59743,1,2,0:0:0:0:
370,97,59814,1,0,0:0:0:0:
370,97,59884,6,0,B|385:186|340:165|355:244,1,150,4|0,0:1|0:0,0:0:0:0:
496,318,60309,1,2,0:0:0:0:
496,318,60380,1,0,0:0:0:0:
496,318,60450,6,0,B|457:319|431:290|431:290|407:329|357:333,1,150,4|0,0:1|0:0,0:0:0:0:
206,239,60875,1,2,0:0:0:0:
206,239,60946,1,0,0:0:0:0:
206,239,61017,6,0,P|280:234|355:242,1,150,4|0,0:1|0:0,0:0:0:0:
160,323,61441,1,2,0:0:0:0:
160,323,61512,1,0,0:0:0:0:
160,323,61583,6,0,P|118:278|117:211,1,110.000003356934,4|0,0:0|1:0,0:0:0:0:
196,130,61866,1,0,0:0:0:0:
196,130,61960,2,0,P|193:102|187:75,1,55.0000016784668,0|0,1:0|0:0,0:0:0:0:
278,123,62149,2,0,P|272:150|269:178,1,55.0000016784668,0|0,1:0|0:0,0:0:0:0:
360,125,62338,2,0,P|365:98|368:70,1,55.0000016784668,0|0,1:0|0:0,0:0:0:0:
441,118,62526,2,0,P|444:146|450:173,1,55.0000016784668,0|0,1:0|0:0,0:0:0:0:
502,259,62715,6,0,P|474:257|447:260,1,55.0000016784668,0|0,1:0|1:0,0:0:0:0:
406,332,62904,2,0,P|382:317|357:306,1,55.0000016784668,0|0,1:0|1:0,0:0:0:0:
286,347,63093,2,0,P|273:322|256:300,1,55.0000016784668,0|0,1:0|1:0,0:0:0:0:
174,299,63281,1,4,1:0:0:0:
305,208,63847,6,0,B|220:210|220:210|186:190,2,123.75000377655,4|2|2,0:0|0:0|0:0,0:0:0:0:
387,152,64413,1,0,1:0:0:0:
387,152,64484,1,0,0:0:0:0:
387,152,64554,2,0,L|390:131,4,20.6250006294251,0|0|0|0|0,1:0|1:0|1:0|1:0|1:0,0:0:0:0:
411,41,64837,6,0,B|375:33|349:49|349:49|308:4|223:28,1,165.000005035401,4|2,0:0|0:0,0:0:0:0:
256,21,65191,1,0,0:0:0:0:
256,21,65262,1,8,1:2:0:0:
172,72,65403,1,2,0:0:0:0:
133,163,65545,2,0,P|142:198|150:212,3,41.2500012588501,0|0|2|0,1:0|0:0|0:0|0:0,0:0:0:0:
175,240,65828,1,6,0:0:0:0:
277,211,65969,1,2,0:0:0:0:
277,211,66111,6,0,P|321:204|366:204,1,89.9999972534181,4|0,0:1|0:0,0:0:0:0:
406,234,66323,2,0,P|390:113|406:69,1,134.999995880127,0|2,0:0|0:2,0:0:0:0:
491,69,66677,2,0,P|500:13|498:2,3,44.999998626709,0|0|2|0,1:0|0:0|0:0|0:0,0:0:0:0:
454,1,66960,2,0,P|405:-12|361:-9,1,89.9999972534181,2|2,0:0|1:2,0:0:0:0:
210,57,67243,6,0,L|300:63,1,89.9999972534181,6|0,1:0|0:0,0:0:0:0:
430,147,67526,2,0,L|341:153,1,89.9999972534181,2|0,1:0|0:0,0:0:0:0:
341,153,67738,1,0,1:0:0:0:
341,153,67809,1,2,1:0:0:0:
215,263,67950,2,0,P|254:192|182:155,1,179.999994506836,2|2,1:0|0:0,0:0:0:0:
169,323,68375,6,0,P|214:318|258:324,1,89.9999972534181,4|0,1:0|0:0,0:0:0:0:
296,355,68587,2,0,L|453:344,1,134.999995880127,0|2,1:0|1:2,0:0:0:0:
495,270,68941,2,0,L|501:224,3,44.999998626709,0|0|0|0,1:0|0:0|1:0|0:0,0:0:0:0:
471,185,69224,2,0,L|477:139,3,44.999998626709,0|0|0|0,1:0|0:0|1:0|1:0,0:0:0:0:
447,100,69507,6,0,P|402:105|358:99,1,89.9999972534181,0|0,1:0|0:0,0:0:0:0:
320,68,69719,2,0,L|163:79,1,134.999995880127,0|0,1:0|1:0,0:0:0:0:
86,63,70073,1,0,1:0:0:0:
46,153,70215,1,2,1:2:0:0:
46,153,70285,1,2,1:2:0:0:
46,153,70356,2,0,P|58:225|66:251,1,89.9999972534181,10|2,1:2|1:2,0:0:0:0:
210,275,70640,6,0,B|253:300|253:300|299:280,2,100,0|0|0,1:0|1:0|1:0,0:0:0:0:
135,158,71206,2,0,B|92:133|92:133|45:152,2,100,0|0|0,1:0|1:0|1:0,0:0:0:0:
209,274,71772,6,0,P|233:284|257:290,2,50,0|0|0,1:0|1:0|1:0,0:0:0:0:
368,217,72055,2,0,P|344:223|321:233,2,50,0|0|0,1:0|1:0|1:0,0:0:0:0:
298,359,72338,1,0,1:0:0:0:
298,359,72621,6,0,L|353:360,1,37.5
235,187,72904,6,0,P|235:106|237:74,1,89.9999972534181,4|2,1:0|0:0,0:0:0:0:
265,56,73116,1,0,0:0:0:0:
265,56,73187,2,0,P|309:57|354:56,1,89.9999972534181,0|2,1:0|0:0,0:0:0:0:
439,109,73470,2,0,P|454:144|455:160,3,44.999998626709,0|0|2|0,1:0|1:0|1:2|1:0,0:0:0:0:
465,199,73753,2,0,P|466:243|465:288,1,89.9999972534181,4|2,0:1|0:0,0:0:0:0:
281,269,74035,6,0,P|324:258|369:263,1,89.9999972534181,0|2,1:0|0:0,0:0:0:0:
378,312,74248,1,0,0:0:0:0:
378,312,74318,2,0,P|334:323|290:318,1,89.9999972534181,0|2,1:0|0:0,0:0:0:0:
192,299,74601,2,0,P|188:253|192:226,3,44.999998626709,0|0|2|0,1:0|1:0|1:2|1:0,0:0:0:0:
202,206,74884,1,4,1:0:0:0:
159,116,75026,1,2,0:0:0:0:
339,84,75167,6,0,L|257:122,1,89.9999972534181,0|2,0:0|0:0,0:0:0:0:
289,161,75380,1,0,0:0:0:0:
288,160,75450,2,0,P|301:207|290:253,1,89.9999972534181,0|2,1:0|0:0,0:0:0:0:
202,206,75734,1,0,1:0:0:0:
252,338,75875,2,0,P|296:346|339:333,2,89.9999972534181,2|4|2,1:2|1:0|0:2,0:0:0:0:
395,254,76300,5,0,1:0:0:0:
418,276,76370,1,0,0:0:0:0:
432,304,76441,1,2,1:2:0:0:
437,335,76512,1,0,0:0:0:0:
432,366,76583,2,0,P|462:333|504:318,1,89.9999972534181,0|0,1:0|1:0,0:0:0:0:
395,254,76866,2,0,P|353:238|323:206,1,89.9999972534181,0|2,1:0|1:2,0:0:0:0:
306,159,77078,1,0,0:0:0:0:
306,159,77149,2,0,L|199:187,1,89.9999972534181,10|2,1:2|1:2,0:0:0:0:
149,110,77432,5,6,1:0:0:0:
194,279,77573,1,2,1:0:0:0:
194,279,77856,5,2,1:1:0:0:
194,279,78139,5,2,1:1:0:0:
194,279,78422,5,2,1:1:0:0:
194,279,78705,5,2,1:0:0:0:
198,283,78847,2,0,P|258:293|290:309,1,89.9999972534181,2|2,1:1|0:0,0:0:0:0:
367,251,79130,2,0,P|427:241|459:225,1,89.9999972534181,2|0,1:1|1:0,0:0:0:0:
495,202,79342,1,0,1:0:0:0:
495,202,79413,2,0,L|491:163,4,22.4999993133545,2|0|0|0|2,1:2|0:0|1:0|0:0|0:0,0:0:0:0:
436,76,79696,6,0,L|323:71,1,89.9999972534181,2|0,1:0|1:0,0:0:0:0:
305,100,79908,2,0,L|192:95,1,89.9999972534181,2|0,1:0|1:0,0:0:0:0:
174,124,80120,1,2,1:0:0:0:
238,230,80262,6,0,P|256:270|265:314,1,89.9999972534181,2|0,1:0|1:0,0:0:0:0:
309,337,80474,2,0,P|317:292|336:252,1,89.9999972534181,2|0,1:0|1:0,0:0:0:0:
382,233,80686,1,2,1:0:0:0:
238,230,80828,6,0,L|111:251,1,89.9999972534181,2|0,1:0|1:0,0:0:0:0:
140,293,81040,2,0,L|13:272,1,89.9999972534181,2|0,1:0|1:0,0:0:0:0:
42,230,81252,1,2,1:0:0:0:
130,81,81394,2,0,P|176:159|155:229,1,134.999995880127,2|0,1:0|0:0,0:0:0:0:
149,244,81677,1,2,0:0:0:0:
319,37,81960,5,4,1:0:0:0:
253,294,83941,5,8,0:3:0:0:
253,294,84224,1,4,0:0:0:0:
253,294,85356,5,4,0:0:0:0:
377,61,86206,6,0,P|387:111|385:146,1,84.3750032186509,2|0,0:1|0:0,0:0:0:0:
381,185,86489,6,0,P|316:148|236:152,1,150,4|8,0:0|0:0,0:0:0:0:
204,232,86913,2,0,P|268:268|349:265,1,150,0|2,0:0|0:0,0:0:0:0:
381,185,87337,1,8,0:0:0:0:
374,35,87479,1,2,0:0:0:0:
374,35,87550,1,0,0:0:0:0:
374,35,87620,6,0,P|380:177|384:207,1,150,4|8,0:0|0:0,0:0:0:0:
270,283,88045,2,0,P|276:208|277:134,1,150,0|2,0:0|0:0,0:0:0:0:
223,62,88469,1,8,0:0:0:0:
117,125,88611,1,2,0:0:0:0:
117,125,88682,1,0,0:0:0:0:
117,125,88752,6,0,L|3:85,2,100,4|0|0,0:1|0:1|0:1,0:0:0:0:
270,283,89318,2,0,L|175:316,2,100,4|0|0,0:1|0:0|0:0,0:0:0:0:
321,168,89884,6,0,P|450:169|399:51,1,300,4|8,0:3|0:0,0:0:0:0:
109,306,91017,5,2,0:0:0:0:
88,73,94413,6,0,P|105:124|107:162,1,82.5000025177003,4|2,0:0|0:0,0:0:0:0:
42,227,94696,2,0,P|25:278|23:316,1,82.5000025177003,8|2,0:0|0:0,0:0:0:0:
22,306,94908,1,0,0:0:0:0:
22,306,94979,1,2,0:0:0:0:
149,342,95120,2,0,P|231:334|313:337,1,165.000005035401,4|2,0:1|0:0,0:0:0:0:
403,295,95545,6,0,P|408:216|412:177,1,89.9999972534181,4|2,0:0|0:0,0:0:0:0:
445,170,95757,2,0,P|379:180|323:146,1,134.999995880127
179,86,96111,2,0,P|157:84|135:83,3,44.999998626709,2|0|2|0,0:0|0:0|0:0|0:0,0:0:0:0:
230,110,96394,2,0,P|227:154|220:199,1,89.9999972534181,8|2,0:0|0:0,0:0:0:0:
311,344,96677,6,0,P|304:299|302:255,1,89.9999972534181,4|0,0:0|0:0,0:0:0:0:
341,224,96889,2,0,P|407:214|463:248,1,134.999995880127,2|2,0:0|0:0,0:0:0:0:
431,342,97243,1,8,0:0:0:0:
311,344,97384,1,0,1:0:0:0:
311,344,97455,1,0,1:0:0:0:
311,344,97526,2,0,P|248:341|207:346,1,89.9999972534181,0|2,1:0|0:0,0:0:0:0:
132,247,97809,6,0,B|140:297|140:297|118:336|135:380,2,119.999996337891,4|4|4,1:1|1:1|1:1,0:0:0:0:
341,224,98375,2,0,B|353:196|331:157|331:157|339:107,2,119.999996337891,4|4|4,1:1|1:1|1:1,0:0:0:0:
132,247,98941,6,0,L|143:309,2,59.9999981689454,0|0|0,1:0|1:0|1:0,1:0:0:0:
65,194,99224,2,0,L|75:134,2,59.9999981689454,0|0|0,1:0|1:0|1:0,1:0:0:0:
47,276,99507,1,0,1:0:0:0:
47,276,99790,6,0,L|47:323,1,44.999998626709,4|0,0:0|0:0,0:0:0:0:
268,46,100073,6,0,P|271:90|283:134,1,89.9999972534181,4|2,0:1|0:0,0:0:0:0:
320,166,100285,1,0,0:0:0:0:
320,166,100356,2,0,P|316:210|304:254,1,89.9999972534181,0|2,1:0|0:0,0:0:0:0:
183,324,100639,2,0,P|161:329|140:337,3,44.999998626709,0|0|0|0,1:0|1:0|1:0|1:0,0:0:0:0:
226,361,100922,2,0,L|207:274,1,89.9999972534181,4|2,0:1|0:0,0:0:0:0:
404,274,101206,6,0,L|385:361,1,89.9999972534181,0|2,1:0|0:0,0:0:0:0:
430,349,101417,1,0,0:0:0:0:
430,349,101488,2,0,P|483:311|498:285,1,89.9999972534181,0|2,1:0|0:0,0:0:0:0:
491,92,101771,2,0,L|504:50,3,44.999998626709,0|0|0|0,1:0|1:0|1:0|1:0,0:0:0:0:
444,108,102054,2,0,L|464:196,1,89.9999972534181,0|2,1:0|0:0,0:0:0:0:
401,273,102337,5,0,1:0:0:0:
401,273,102479,1,2,0:0:0:0:
308,307,102620,2,0,L|268:307,6,22.4999993133545,0|0|0|0|0|0|0,1:0|1:0|1:0|1:0|1:0|1:0|1:0,0:0:0:0:
223,353,102903,5,0,1:0:0:0:
223,353,103045,1,2,0:0:0:0:
189,260,103186,2,0,L|189:220,6,22.4999993133545,0|0|0|0|0|0|0,1:0|1:0|1:0|1:0|1:0|1:0|1:0,0:0:0:0:
143,175,103469,5,0,1:0:0:0:
143,175,103611,1,2,0:0:0:0:
236,141,103752,2,0,L|276:141,6,22.4999993133545,0|0|0|0|0|0|0,1:0|1:0|1:0|1:0|1:0|1:0|1:0,0:0:0:0:
321,95,104035,5,0,1:0:0:0:
321,95,104177,1,2,0:0:0:0:
355,188,104318,2,0,L|355:228,6,22.4999993133545,0|0|0|0|0|0|0,1:0|1:0|1:0|1:0|1:0|1:0|1:0,0:0:0:0:
389,303,104601,5,2,0:1:0:0:
321,95,104743,1,2,0:1:0:0:
321,95,105026,5,2,0:1:0:0:
321,95,105309,5,2,0:1:0:0:
321,95,105592,5,2,0:1:0:0:
325,99,105875,5,2,0:1:0:0:
325,99,106017,2,0,P|237:89|212:75,1,89.9999972534181,2|2,1:0|0:1,0:0:0:0:
174,166,106300,2,0,P|86:176|61:190,1,89.9999972534181,2|2,0:1|0:0,0:0:0:0:
19,103,106583,1,0,1:1:0:0:
19,103,106724,1,2,0:0:0:0:
174,166,106866,5,2,0:0:0:0:
330,267,108847,5,4,0:0:0:0:
330,267,109130,1,4,0:0:0:0:
358,71,111111,5,2,0:0:0:0:
358,71,111394,6,0,L|363:173,1,89.9999972534181,4|0,0:0|0:0,0:0:0:0:
313,166,111606,2,0,L|317:255,1,89.9999972534181,2|0,0:0|0:0,0:0:0:0:
268,261,111818,1,2,0:0:0:0:
166,145,111960,6,0,P|100:140|49:171,1,89.9999972534181,8|0,0:0|0:0,0:0:0:0:
41,180,112172,2,0,P|46:114|15:63,1,89.9999972534181,2|0,0:0|0:0,0:0:0:0:
6,55,112384,1,2,0:0:0:0:
166,145,112526,6,0,P|176:211|174:238,1,89.9999972534181,8|0,0:0|0:0,0:0:0:0:
222,220,112738,2,0,P|212:263|213:308,1,89.9999972534181,2|0,0:0|0:0,0:0:0:0:
226,356,112950,1,2,0:0:0:0:
327,326,113092,1,2,0:0:0:0:
166,145,113375,6,0,P|126:159|118:159,3,37.5,2|0|2|0,0:1|0:0|0:1|0:0,0:0:0:0:
56,180,113658,6,0,L|55:209,6,18.75,4|0|0|0|0|0|0,1:0|1:0|1:0|1:0|1:0|1:0|1:0,0:0:0:0:
52,81,113941,6,0,P|133:70|246:6,1,187.5,8|0,0:0|0:0,0:0:0:0:
329,11,114366,1,2,0:0:0:0:
398,86,114507,2,0,P|418:163|418:197,1,93.75,8|2,0:0|0:0,0:0:0:0:
298,297,114790,6,0,P|303:251|319:207,1,93.75,2|0,0:0|0:0,0:0:0:0:
319,206,115002,1,0,0:0:0:0:
319,206,115073,1,8,0:0:0:0:
376,380,115215,2,0,P|293:336|201:321,1,187.5,2|2,0:0|0:0,0:0:0:0:
100,338,115639,2,0,P|54:348|7:346,1,93.75,8|2,0:0|0:0,0:0:0:0:
120,150,115922,6,0,L|134:243,1,93.75,2|0,0:0|0:0,0:0:0:0:
134,243,116134,1,0,0:0:0:0:
134,243,116205,1,8,0:0:0:0:
30,103,116347,2,0,B|108:50|108:50|195:81,1,187.5,2|2,0:0|0:0,0:0:0:0:
321,192,116771,2,0,P|274:192|231:177,1,93.75,8|0,0:0|0:0,0:0:0:0:
355,287,117054,6,0,L|371:336,2,46.875,2|0|2,0:0|0:0|0:0,0:0:0:0:
321,192,117337,1,8,0:0:0:0:
461,343,117479,2,0,P|369:331|294:384,1,187.5,2|2,0:0|0:0,0:0:0:0:
321,192,117903,2,0,L|302:141,3,46.875,8|0|0|0,0:0|0:0|0:0|0:0,0:0:0:0:
329,102,118186,6,0,P|242:100|212:81,1,93.75,6|2,0:0|0:0,0:0:0:0:
237,98,118399,1,0,0:0:0:0:
237,98,118469,1,8,0:0:0:0:
421,49,118611,2,0,B|444:89|431:130|431:130|438:140|438:140|435:155|435:155|456:192|436:240,1,187.5,2|2,0:0|0:0,0:0:0:0:
251,225,119035,2,0,P|292:203|339:200,1,93.75,8|2,0:0|0:0,0:0:0:0:
238,328,119318,6,0,L|144:322,1,93.75,2|0,0:0|0:0,0:0:0:0:
144,322,119531,1,0,0:0:0:0:
144,322,119601,1,8,0:0:0:0:
338,264,119743,2,0,P|252:226|192:156,1,187.5,2|2,0:0|0:0,0:0:0:0:
106,36,120167,2,0,P|103:83|93:129,1,93.75,8|0,0:0|0:0,0:0:0:0:
267,60,120450,6,0,P|274:82|283:103,3,46.875,2|0|0|0,0:0|0:0|0:0|0:0,0:0:0:0:
335,111,120734,2,0,P|330:133|327:157,3,46.875,8|0|2|0,0:0|0:0|0:0|0:0,0:0:0:0:
368,189,121017,2,0,P|352:206|338:225,3,46.875,4|0|0|0,0:0|0:0|0:0|0:0,0:0:0:0:
357,273,121300,1,10,0:0:0:0:
311,264,121370,1,0,0:0:0:0:
264,271,121441,1,2,0:0:0:0:
222,291,121512,1,0,0:0:0:0:
189,324,121583,6,0,B|153:338|153:338|128:333|94:309,2,100,2|2|2,1:0|1:0|1:0,0:0:0:0:
368,189,122149,2,0,B|404:175|404:175|429:180|463:204,2,100,2|2|2,1:0|1:0|1:0,0:0:0:0:
278,256,122715,1,2,1:0:0:0:
278,256,122998,6,0,L|242:208,3,48.7499977684022,4|0|2|0,0:0|0:0|0:0|0:0,0:0:0:0:
251,163,123281,2,0,L|215:115,3,48.7499977684022,8|0|2|0,0:0|0:0|0:0|0:0,0:0:0:0:
223,70,123564,2,0,P|256:43|319:27,1,97.4999955368044,2|2,0:0|0:0,0:0:0:0:
409,63,123847,5,2,0:0:0:0:
456,161,123988,1,2,0:0:0:0:
419,263,124130,2,0,P|373:268|360:269,3,48.7499977684022,2|0|2|0,0:1|0:0|0:1|0:0,0:0:0:0:
330,232,124413,2,0,P|258:232|212:241,1,97.4999955368044,2|2,0:1|0:0,0:0:0:0:
191,270,124625,1,2,0:0:0:0:
191,270,124696,2,0,P|142:275|93:273,1,97.4999955368044,10|2,0:0|0:0,0:0:0:0:
48,73,124979,6,0,L|64:170,1,97.4999955368044,2|0,0:1|0:0,0:0:0:0:
103,133,125191,1,2,0:1:0:0:
103,133,125262,2,0,P|154:96|208:81,1,97.4999955368044,0|2,0:0|0:1,0:0:0:0:
376,121,125545,2,0,L|279:136,1,97.4999955368044,2|2,0:1|0:0,0:0:0:0:
316,176,125757,1,2,0:1:0:0:
316,176,125828,2,0,P|353:227|368:281,1,97.4999955368044,2|2,0:0|0:1,0:0:0:0:
471,344,126111,6,0,P|464:321|464:297,3,48.7499977684022,2|0|2|0,0:0|0:0|0:0|0:0,0:0:0:0:
489,249,126394,2,0,P|496:225|496:201,3,48.7499977684022,8|0|2|0,0:0|0:0|0:0|0:0,0:0:0:0:
468,155,126677,6,0,P|513:151|554:131,2,64.9999970245363,0|0|0,1:0|1:0|1:0,0:0:0:0:
393,195,126960,2,0,P|360:193|329:184,2,64.9999970245363,0|0|0,1:0|1:0|1:0,0:0:0:0:
253,143,127243,5,0,1:0:0:0:
233,101,128375,6,0,L|156:109,2,64.9999970245363,4|0|0,1:0|1:0|1:0,0:0:0:0:
305,144,128658,2,0,L|382:152,2,64.9999970245363,4|0|0,1:0|1:0|1:0,0:0:0:0:
233,187,128941,5,4,1:0:0:0:
220,230,129036,1,0,1:0:0:0:
207,273,129130,1,0,1:0:0:0:
176,240,129224,5,4,1:0:0:0:
163,283,129318,1,0,1:0:0:0:
150,326,129413,1,0,1:0:0:0:
119,293,129507,6,0,P|66:306|60:309,3,48.7499977684022,2|0|2|0,0:1|0:0|0:1|0:0,0:0:0:0:
22,281,129790,2,0,P|14:257|11:233,3,48.7499977684022,2|0|2|0,0:1|0:0|0:1|0:0,0:0:0:0:
18,180,130073,2,0,P|5:127|2:121,3,48.7499977684022,2|0|2|0,0:1|0:0|0:1|0:0,0:0:0:0:
12,79,130356,1,2,0:1:0:0:
49,87,130427,1,0,0:0:0:0:
88,87,130498,1,2,0:1:0:0:
126,79,130568,1,0,0:0:0:0:
162,63,130639,6,0,P|222:39|265:41,1,97.4999955368044,2|2,0:1|0:1,0:0:0:0:
334,76,130922,2,0,P|362:50|372:42,2,41.2500012588501,2|0|2,0:1|0:0|0:1,0:0:0:0:
280,159,131205,2,0,P|283:249|277:332,1,165.000005035401,2|0,0:1|0:0,0:0:0:0:
277,323,131559,1,0,0:0:0:0:
277,323,131630,1,0,0:0:0:0:
277,323,131700,1,0,0:0:0:0:
292,338,131772,6,0,P|329:331|367:329,2,75,2|2|2,0:0|0:0|0:0,0:0:0:0:
425,242,132196,2,0,P|387:240|350:234,2,75,2|2|2,0:0|0:0|0:0,0:0:0:0:
266,200,132620,1,2,0:0:0:0:
251,183,132762,1,2,0:0:0:0:
236,166,133045,1,2,0:0:0:0:
104,262,133894,1,2,0:0:0:0:
104,262,133965,1,2,0:0:0:0:
104,262,134035,6,0,P|141:256|179:254,2,75,2|2|2,0:0|0:0|0:0,0:0:0:0:
236,166,134460,2,0,P|199:164|162:158,2,75,2|2|2,0:0|0:0|0:0,0:0:0:0:
77,124,134884,1,2,0:0:0:0:
62,107,135026,1,2,0:0:0:0:
47,90,135309,1,2,0:0:0:0:
255,313,135592,5,2,0:0:0:0:
255,314,135734,2,0,P|253:240|237:167,1,150,2|2,0:0|0:0,0:0:0:0:
357,53,136300,6,0,B|333:59|333:59|283:51,2,75,2|2|2,0:0|0:0|0:0,0:0:0:0:
185,144,136724,2,0,B|209:138|209:138|259:146,2,75,2|2|2,0:0|0:0|0:0,0:0:0:0:
347,165,137149,1,2,0:0:0:0:
368,171,137290,1,2,0:0:0:0:
389,177,137573,1,2,0:0:0:0:
282,237,138422,1,2,0:0:0:0:
282,237,138493,1,2,0:0:0:0:
282,237,138564,6,0,B|258:231|258:231|209:239,2,75,2|2|2,0:0|0:0|0:0,0:0:0:0:
111,146,138988,2,0,B|135:152|135:152|184:144,2,75,2|2|2,0:0|0:0|0:0,0:0:0:0:
272,125,139413,1,2,0:0:0:0:
293,119,139554,1,2,0:0:0:0:
314,113,139837,1,2,0:0:0:0:
