osu file format v14

[General]
AudioFilename: gg no re.mp3
AudioLeadIn: 0
PreviewTime: 363
Countdown: 0
SampleSet: Soft
StackLeniency: 0.9
Mode: 0
LetterboxInBreaks: 0
WidescreenStoryboard: 1

[Editor]
Bookmarks: 125534
DistanceSpacing: 0.9
BeatDivisor: 4
GridSize: 4
TimelineZoom: 1.2

[Metadata]
Title:Re:End of a Dream
TitleUnicode:Re:End of a Dream
Artist:uma vs. Morimori Atsushi
ArtistUnicode:uma vs. モリモリあつし
Creator:Battle
Version:Advanced
Source:BMS
Tags:superalloys masiro vs adaptor hobbes2 toybot vinxis liiraye lasse regraz
BeatmapID:1319344
BeatmapSetID:557039

[Difficulty]
HPDrainRate:4.5
CircleSize:3.6
OverallDifficulty:5
ApproachRate:6
SliderMultiplier:1.2
SliderTickRate:1

[Events]
//Background and Video events
Video,0,"anime.avi"
0,0,"end.jpg",0,0
//Break Periods
2,27803,33346
2,82161,85439
2,91218,93364
2,107067,108081
2,109331,110345
//Storyboard Layer 0 (Background)
//Storyboard Layer 1 (Fail)
//Storyboard Layer 2 (Pass)
//Storyboard Layer 3 (Foreground)
//Storyboard Sound Samples

[TimingPoints]
434,283.018867924528,4,2,2,80,1,0
434,-100,4,2,2,80,0,0
8924,-100,4,2,1,100,0,0
9490,-100,4,2,1,100,0,0
17415,-100,4,2,1,100,0,0
18547,-100,4,2,1,80,0,1
18830,-100,4,2,1,100,0,1
26471,-100,4,2,2,100,0,1
27320,-100,4,2,2,100,0,0
34679,-100,4,2,1,100,0,0
35811,-100,4,2,1,100,0,0
36660,-100,4,2,1,100,0,1
37792,-100,4,2,1,100,0,1
38004,-100,4,2,1,100,0,1
38924,-100,4,2,1,100,0,1
45150,-100,4,2,1,100,0,0
45717,-100,4,2,2,100,0,0
46141,-100,4,2,1,70,0,0
46212,-100,4,2,1,5,0,0
46566,-100,4,2,1,70,0,0
46636,-100,4,2,1,5,0,0
47273,-100,4,2,2,70,0,0
49537,-100,4,2,1,80,0,0
49608,-100,4,2,1,5,0,0
50245,-100,4,2,2,70,0,0
50669,-100,4,2,1,70,0,0
50740,-100,4,2,1,5,0,0
51094,-100,4,2,1,100,0,0
51165,-100,4,2,1,5,0,0
51801,-100,4,2,2,70,0,0
52509,-100,4,2,2,70,0,0
54066,-100,4,2,1,70,0,0
54136,-100,4,2,1,5,0,0
54490,-100,4,2,3,100,0,0
54791,283.018867924528,4,2,1,100,1,0
54791,-100,4,2,1,100,0,0
59319,-100,4,2,1,100,0,0
61584,-100,4,2,1,100,0,0
66111,-100,4,2,1,100,0,1
70640,-100,4,2,1,100,0,0
72904,-100,4,2,1,100,0,1
81960,-100,4,2,1,100,0,0
82244,-100,4,2,2,100,0,0
86206,-100,4,2,1,100,0,0
86489,-100,4,2,1,100,0,0
88753,-100,4,2,1,100,0,0
91018,-100,4,2,2,100,0,0
94414,-100,4,2,1,100,0,0
95545,-100,4,2,1,100,0,1
106866,-100,4,2,2,100,0,0
111394,-100,4,2,1,100,0,1
113093,-100,4,2,1,100,0,1
113375,-100,4,2,1,100,0,0
113658,-100,4,2,1,100,0,1
113942,-100,4,2,1,100,0,1
121583,-100,4,2,1,100,0,0
122998,-100,4,2,1,100,0,1
127243,-100,4,2,1,100,0,0
128375,-100,4,2,1,100,0,1
131772,-100,4,2,2,80,0,0
135593,-100,4,2,2,80,0,0
136301,-100,4,2,2,80,0,0

[Colours]
Combo1 : 253,153,104
Combo2 : 181,165,254
Combo3 : 152,243,97
Combo4 : 107,192,220

[HitObjects]
34,152,434,6,0,P|19:103|54:33,2,120,2|2|2,0:0|0:0|0:0,0:0:0:0:
69,192,1141,1,2,0:0:0:0:
69,192,1283,2,0,L|148:192,1,60,2|2,0:0|0:0,0:0:0:0:
207,266,1707,1,2,0:0:0:0:
354,20,2698,6,0,P|330:73|346:130,1,120,2|2,0:0|0:0,0:0:0:0:
394,165,3122,1,2,0:0:0:0:
394,165,3264,2,0,P|414:242|389:299,1,120,2|2,0:0|0:0,0:0:0:0:
372,323,3688,1,2,0:0:0:0:
273,366,3971,1,2,0:0:0:0:
194,203,4962,6,0,P|116:162|77:172,2,120,2|2|2,0:0|0:0|0:0,0:0:0:0:
246,215,5669,1,2,0:0:0:0:
246,215,5811,2,0,L|306:215,1,60,2|2,0:0|0:0,0:0:0:0:
413,215,6235,1,2,0:0:0:0:
244,3,7226,6,0,P|219:76|235:134,1,120,2|2,0:0|0:0,0:0:0:0:
212,168,7650,1,2,0:0:0:0:
212,168,7792,2,0,P|134:156|80:171,1,120,2|2,0:0|0:0,0:0:0:0:
43,183,8217,1,2,0:0:0:0:
14,287,8500,1,2,0:0:0:0:
160,356,8924,2,0,B|222:341|222:341|286:364,1,120,0|0,0:0|0:0,0:0:0:0:
327,372,9349,1,0,0:0:0:0:
327,372,9490,6,0,P|315:307|334:249,1,120,4|8,0:0|0:0,0:0:0:0:
367,217,9915,1,0,0:0:0:0:
452,151,10198,2,0,L|527:152,2,60,2|8|0,0:0|0:0|0:0,0:0:0:0:
427,103,10622,2,0,P|334:67|305:85,1,120,2|8,0:0|0:0,0:0:0:0:
278,102,11047,2,0,P|198:125|162:100,1,120,0|2,0:0|0:0,0:0:0:0:
129,74,11471,1,8,0:0:0:0:
37,131,11754,6,0,P|-3:213|9:259,1,120,4|8,0:0|0:0,0:0:0:0:
24,286,12179,1,0,0:0:0:0:
125,323,12462,2,0,L|127:399,2,60,2|8|0,0:0|0:0|0:0,0:0:0:0:
138,270,12886,2,0,P|175:237|261:245,1,120,2|8,0:0|0:0,0:0:0:0:
282,272,13311,1,0,0:0:0:0:
355,192,13594,2,0,L|420:195,2,60,2|8|2,0:0|0:0|0:0,0:0:0:0:
301,185,14018,6,0,B|287:120|287:120|303:69,1,120,4|8,0:0|0:0,0:0:0:0:
195,72,14584,2,0,B|211:122|211:122|197:187,1,120,8|8,0:0|0:0,0:0:0:0:
89,191,15150,2,0,P|17:204|-4:266,1,120,8|8,0:0|0:0,0:0:0:0:
43,338,15717,2,0,P|115:325|136:263,1,120,8|8,0:0|0:0,0:0:0:0:
210,210,16283,2,0,L|207:136,2,60,8|8|8,0:0|0:0|0:0,0:0:0:0:
255,238,16707,2,0,L|258:312,2,60,8|8|8,0:0|0:0|0:0,0:0:0:0:
299,207,17132,2,0,P|333:199|381:205,1,60,8|8,0:0|0:0,0:0:0:0:
410,212,17415,6,0,P|344:133|440:99,1,240,4|0,0:0|1:0,0:0:0:0:
492,158,18169,2,0,L|491:249,1,80,0|0,1:0|1:0,0:0:0:0:
474,316,18547,6,0,B|345:314,1,120,4|4,1:0|0:0,0:0:0:0:
301,303,18971,2,0,P|282:247|295:184,1,120,0|2,0:1|0:0,0:0:0:0:
313,138,19396,1,8,0:0:0:0:
258,43,19679,2,0,P|199:25|125:47,1,120,2|8,0:0|0:0,0:0:0:0:
101,70,20103,2,0,P|79:125|99:208,1,120,2|2,0:0|0:0,0:0:0:0:
109,233,20528,1,8,0:0:0:0:
195,297,20811,6,0,L|194:363,2,60,4|0|8,0:0|0:0|0:0,0:0:0:0:
230,256,21235,2,0,P|299:242|347:273,1,120,2|2,0:0|0:0,0:0:0:0:
375,305,21660,1,8,0:0:0:0:
464,245,21943,2,0,P|474:143|455:114,1,120,2|8,0:0|0:0,0:0:0:0:
427,96,22367,2,0,B|370:121|370:121|289:107,1,120,2|2,0:0|0:0,0:0:0:0:
261,95,22792,1,8,0:0:0:0:
187,16,23075,6,0,P|112:35|70:18,1,120,4|8,0:0|0:0,0:0:0:0:
20,11,23500,2,0,P|22:75|20:136,1,120,2|2,0:0|0:0,0:0:0:0:
9,183,23924,1,8,0:0:0:0:
67,273,24207,2,0,P|75:308|65:357,2,60,4|0|8,0:0|0:0|0:0,0:0:0:0:
105,235,24632,2,0,P|146:247|237:206,1,120,2|2,0:0|0:0,0:0:0:0:
262,194,25056,1,8,0:0:0:0:
309,96,25339,6,0,P|362:43|413:49,1,120,4|8,0:0|0:0,0:0:0:0:
449,72,25764,1,2,0:0:0:0:
449,72,25905,2,0,L|451:210,1,120,8|8,0:0|0:0,0:0:0:0:
343,177,26471,1,2,0:0:0:0:
322,283,26754,1,2,0:0:0:0:
426,311,27037,1,2,0:0:0:0:
339,375,27320,6,0,L|265:374,2,60,2|2|4,0:0|0:0|0:3,0:0:0:0:
79,230,34396,6,0,P|68:137|140:96,1,180,2|0,0:0|0:0,0:0:0:0:
184,113,34962,2,0,L|177:307,1,180,2|0,0:0|0:0,0:0:0:0:
175,347,35528,1,10,0:0:0:0:
282,346,35811,2,0,P|312:309|307:224,1,120,12|8,0:0|0:0,0:0:0:0:
250,151,36377,1,8,0:0:0:0:
329,78,36660,6,0,B|383:97|383:97|459:72,1,120,4|8,0:0|0:0,0:0:0:0:
491,55,37084,2,0,P|452:136|462:176,1,120,2|2,0:1|0:1,0:0:0:0:
483,209,37509,1,8,0:0:0:0:
439,306,37792,2,0,L|295:303,1,120,2|2,0:1|0:0,0:0:0:0:
264,302,38217,2,0,P|254:201|271:168,1,120,2|2,0:1|0:0,0:0:0:0:
284,138,38641,1,8,0:0:0:0:
196,75,38924,6,0,P|126:50|74:72,1,120,2|8,0:1|0:0,0:0:0:0:
47,103,39349,2,0,L|52:239,1,120,2|2,0:1|0:0,0:0:0:0:
54,276,39773,1,8,0:0:0:0:
142,337,40056,2,0,B|201:345|201:345|273:317,1,120,6|8,0:0|0:0,0:0:0:0:
247,215,40622,2,0,B|188:207|188:207|116:235,1,120,2|8,0:0|0:0,0:0:0:0:
57,150,41188,6,0,L|181:91,1,120,4|0,0:0|0:0,0:0:0:0:
211,69,41613,2,0,P|301:96|321:137,1,120,4|0,0:1|0:0,0:0:0:0:
333,162,42037,1,8,0:0:0:0:
253,234,42320,2,0,P|240:333|254:367,1,120,4|0,0:0|0:0,0:0:0:0:
296,367,42745,2,0,B|355:351|355:351|438:368,1,120,4|2,0:1|0:0,0:0:0:0:
466,363,43169,1,8,0:0:0:0:
502,261,43452,6,0,L|505:123,2,120,4|8|8,0:0|0:0|0:0,0:0:0:0:
498,315,44160,1,10,0:0:0:0:
397,275,44443,2,0,P|332:236|283:251,1,120,6|2,0:0|0:0,0:0:0:0:
248,275,44867,2,0,P|194:283|169:266,1,60,8|2,0:0|0:0,0:0:0:0:
141,258,45150,1,8,0:0:0:0:
90,162,45433,1,4,0:0:0:0:
174,93,45717,6,0,B|228:112|228:112|311:92,1,120,2|2,0:0|0:0,0:0:0:0:
338,76,46141,1,4,0:1:0:0:
468,181,47273,5,2,0:0:0:0:
468,181,47415,2,0,P|490:253|459:294,1,120,4|2,0:0|0:0,0:0:0:0:
361,302,47981,6,0,B|303:285|303:285|219:308,1,120,4|2,0:1|0:0,0:0:0:0:
201,331,48405,1,4,0:1:0:0:
114,266,48688,1,0,0:0:0:0:
233,156,49113,6,0,P|270:103|186:32,1,180,4|4,0:1|0:1,0:0:0:0:
188,299,50245,6,0,P|284:295|312:262,1,120,4|2,0:0|0:0,0:0:0:0:
332,241,50669,1,4,0:1:0:0:
446,71,51801,1,2,0:0:0:0:
446,71,51943,2,0,L|442:202,1,120,4|2,0:1|0:0,0:0:0:0:
422,297,52509,6,0,P|355:278|305:301,1,120,4|2,0:0|0:0,0:0:0:0:
267,328,52933,2,0,P|217:348|141:315,1,120,0|2,0:0|0:0,0:0:0:0:
110,299,53358,1,0,0:0:0:0:
62,201,53641,2,0,P|65:99|125:60,1,180,4|4,0:1|0:0,0:0:0:0:
285,61,54490,2,0,P|320:64|360:58,1,60,0|0,1:0|1:0,0:0:0:0:
398,52,54791,6,0,B|373:113|373:113|391:183,1,120,0|0,1:0|1:0,0:0:0:0:
411,213,55216,2,0,P|434:266|410:330,1,120,0|0,0:0|1:0,0:0:0:0:
372,354,55640,1,0,1:0:0:0:
295,277,55923,2,0,L|296:189,2,60,0|0|0,1:0|1:0|1:0,0:0:0:0:
246,301,56348,1,0,0:0:0:0:
246,301,56489,2,0,P|171:279|126:295,1,120,4|0,1:0|1:0,0:0:0:0:
45,353,57055,6,0,P|31:256|49:219,1,120,4|0,1:0|1:0,0:0:0:0:
74,198,57480,2,0,L|74:68,1,120,4|0,1:0|1:0,0:0:0:0:
74,24,57904,1,0,1:0:0:0:
164,83,58187,2,0,L|165:181,2,90,4|0|0,1:0|1:0|1:0,0:0:0:0:
193,37,58753,2,0,P|256:20|307:48,1,120,0|0,1:0|1:0,0:0:0:0:
347,141,59319,6,0,L|333:335,1,180,4|2,0:0|0:0,0:0:0:0:
325,374,59885,2,0,P|260:290|185:290,1,180,4|2,0:1|0:0,0:0:0:0:
140,302,60451,2,0,P|82:217|105:143,1,180,4|2,0:1|0:0,0:0:0:0:
131,103,61018,2,0,B|213:136|213:136|310:103,1,180,4|2,0:1|0:0,0:0:0:0:
346,79,61584,6,0,L|342:-6,2,80,4|0|0,0:0|1:0|1:0,0:0:0:0:
418,116,62150,2,0,P|465:109|497:123,2,80,0|0|0,1:0|1:0|1:0,0:0:0:0:
363,175,62716,2,0,L|364:279,2,80,0|0|0,1:0|1:0|1:0,0:0:0:0:
284,147,63282,2,0,L|288:299,1,120,4|2,1:0|0:0,0:0:0:0:
279,374,63848,6,0,P|187:336|155:353,1,120,4|0,0:0|0:0,0:0:0:0:
67,352,64414,2,0,P|71:259|66:212,1,120,0|0,1:0|1:0,0:0:0:0:
48,182,64838,2,0,P|106:185|152:148,1,120,4|2,0:0|0:0,0:0:0:0:
177,100,65263,1,8,1:2:0:0:
281,71,65546,2,0,L|278:8,2,60,0|2|6,1:0|0:0|0:0,0:0:0:0:
363,141,66112,6,0,P|389:217|371:261,1,120,4|0,0:1|1:0,0:0:0:0:
328,275,66536,1,2,0:2:0:0:
328,275,66678,2,0,B|269:253|269:253|196:268,1,120,0|2,1:0|0:0,0:0:0:0:
123,203,67244,2,0,P|106:259|120:317,2,120,6|2|2,1:0|1:0|1:0,0:0:0:0:
161,165,67951,2,0,P|176:99|155:30,1,120,2|2,1:0|0:0,0:0:0:0:
114,29,68376,6,0,L|-12:28,1,120,4|0,1:0|0:0,0:0:0:0:
0,135,68942,2,0,P|-8:167|0:209,2,60,0|0|0,1:0|1:0|1:0,0:0:0:0:
52,121,69367,1,0,1:0:0:0:
52,121,69508,2,0,B|175:121,1,120,0|0,1:0|0:0,0:0:0:0:
278,102,70074,2,0,P|273:58|290:28,2,60,0|2|10,1:0|1:2|1:2,0:0:0:0:
322,133,70499,1,2,1:2:0:0:
359,171,70640,6,0,P|371:230|359:270,2,80,0|0|0,1:0|1:0|1:0,0:0:0:0:
291,217,71206,2,0,P|290:277|309:314,2,80,0|0|0,1:0|1:0|1:0,0:0:0:0:
241,155,71772,2,0,P|192:181|176:47,1,240,0|0,1:0|1:0,0:0:0:0:
263,50,72621,1,0,0:0:0:0:
339,126,72904,6,0,P|373:117|410:127,2,60,4|2|0,1:0|0:0|1:0,0:0:0:0:
315,174,73329,2,0,P|322:272|319:318,1,120,2|2,0:0|1:2,0:0:0:0:
292,338,73753,1,4,0:1:0:0:
184,325,74036,2,0,P|185:370|190:391,2,60,0|2|0,1:0|0:0|1:0,0:0:0:0:
205,275,74461,2,0,P|100:285|66:273,1,120,2|2,0:0|1:2,0:0:0:0:
57,237,74885,1,4,1:0:0:0:
36,131,75168,6,0,P|30:83|32:58,2,60,0|2|0,1:0|0:0|1:0,0:0:0:0:
80,162,75593,2,0,P|164:154|219:160,1,120,2|2,0:0|1:2,0:0:0:0:
245,184,76018,1,4,1:0:0:0:
330,249,76301,2,0,P|326:282|335:329,2,60,0|2|0,1:0|1:2|1:0,0:0:0:0:
355,204,76725,1,0,1:0:0:0:
355,204,76867,2,0,P|427:178|481:199,1,120,0|10,1:0|1:2,0:0:0:0:
422,287,77433,6,0,L|430:365,1,60,6|2,1:0|1:0,0:0:0:0:
320,348,77857,1,2,1:1:0:0:
212,346,78140,1,2,1:1:0:0:
104,346,78423,2,0,P|149:260|181:242,1,120,2|2,1:1|1:0,0:0:0:0:
217,232,78848,2,0,P|247:236|289:234,1,60,2|2,1:1|0:0,0:0:0:0:
330,227,79131,2,0,P|347:158|327:103,1,120,2|2,1:1|1:2,0:0:0:0:
231,77,79697,6,0,P|221:29|242:-15,2,90,2|2|2,1:0|1:0|1:0,0:0:0:0:
158,111,80263,2,0,P|165:157|149:196,2,90,2|2|2,1:0|1:0|1:0,0:0:0:0:
81,91,80829,2,0,P|74:44|90:6,2,90,2|2|2,1:0|1:0|1:0,0:0:0:0:
29,151,81395,1,2,1:0:0:0:
69,251,81678,1,2,0:0:0:0:
152,187,81961,5,4,1:0:0:0:
123,282,86489,6,0,P|109:211|141:158,1,120,4|8,0:0|0:0,0:0:0:0:
169,134,86914,2,0,B|231:159|231:159|307:140,1,120,0|2,0:0|0:0,0:0:0:0:
332,126,87338,1,8,0:0:0:0:
384,31,87621,2,0,P|436:92|437:152,1,120,4|8,0:0|0:0,0:0:0:0:
412,175,88046,2,0,P|387:253|407:293,1,120,0|2,0:0|0:0,0:0:0:0:
367,327,88470,2,0,L|287:330,1,60,8|2,0:0|0:0,0:0:0:0:
252,327,88753,6,0,P|250:279|251:218,2,80,4|0|0,0:1|0:1|0:1,0:0:0:0:
170,301,89319,2,0,P|168:253|169:192,2,80,4|0|0,0:1|0:0|0:0,0:0:0:0:
169,384,89885,2,0,P|129:288|36:349,1,240,4|8,0:3|0:0,0:0:0:0:
6,239,90735,1,2,0:0:0:0:
62,146,91018,5,2,0:0:0:0:
41,228,94414,6,0,P|33:185|43:148,1,60,4|2,0:0|0:0,0:0:0:0:
60,121,94697,1,8,0:0:0:0:
162,170,94980,1,2,0:0:0:0:
162,170,95121,2,0,P|224:183|283:160,1,120,4|2,0:1|0:0,0:0:0:0:
319,132,95546,6,0,P|385:121|441:147,1,120,4|8,0:0|0:0,0:0:0:0:
476,181,95970,1,0,0:0:0:0:
476,181,96112,2,0,L|470:261,2,60,2|2|8,0:0|0:0|0:0,0:0:0:0:
379,229,96678,2,0,L|372:373,1,120,4|0,0:0|0:0,0:0:0:0:
320,360,97102,1,2,0:0:0:0:
320,360,97244,2,0,P|269:352|241:359,2,60,8|0|0,0:0|1:0|1:0,0:0:0:0:
377,268,97810,6,0,P|389:236|378:177,2,80,4|4|4,1:1|1:1|1:1,0:0:0:0:
308,221,98376,2,0,L|194:221,2,80,4|4|4,1:1|1:1|1:1,0:0:0:0:
384,191,98942,2,0,P|362:140|461:182,1,240,0|0,1:0|1:0,0:0:0:0:
466,265,99791,1,4,0:0:0:0:
362,296,100074,6,0,P|358:331|363:363,2,60,4|2|0,0:1|0:0|1:0,0:0:0:0:
317,264,100499,2,0,B|251:286|251:286|175:264,1,120,2|0,0:0|1:0,0:0:0:0:
151,255,100923,1,4,0:1:0:0:
77,176,101206,2,0,L|1:177,2,60,0|2|0,1:0|0:0|1:0,0:0:0:0:
105,129,101631,2,0,P|184:105|230:123,1,120,2|0,0:0|1:0,0:0:0:0:
254,154,102055,1,0,1:0:0:0:
340,88,102338,6,0,P|338:51|343:24,2,60,0|2|0,1:0|0:0|1:0,0:0:0:0:
424,155,102904,2,0,P|428:184|425:214,2,60,0|2|0,1:0|0:0|1:0,0:0:0:0:
328,206,103470,2,0,P|323:235|326:265,2,60,0|2|0,1:0|0:0|1:0,0:0:0:0:
253,127,104036,2,0,P|213:134|175:124,1,60,0|2,1:0|0:0,0:0:0:0:
165,85,104319,2,0,P|125:78|87:88,1,60,0|0,1:0|1:0,0:0:0:0:
63,114,104602,6,0,L|63:183,1,60,2|2,0:1|0:1,0:0:0:0:
65,282,105027,1,2,0:1:0:0:
157,225,105310,1,2,0:1:0:0:
236,298,105593,2,0,P|285:318|368:292,1,120,2|2,0:1|0:1,0:0:0:0:
396,279,106018,2,0,L|465:281,2,60,2|2|2,1:0|0:1|0:1,0:0:0:0:
332,191,106584,2,0,P|330:161|333:129,1,60,0|2,1:1|0:0,0:0:0:0:
361,85,106867,5,2,0:0:0:0:
361,85,109131,5,4,0:0:0:0:
307,344,111395,6,0,L|316:226,2,90,4|2|2,0:0|0:0|0:0,0:0:0:0:
230,320,111961,2,0,L|240:203,2,90,8|2|2,0:0|0:0|0:0,0:0:0:0:
152,298,112527,2,0,L|163:182,2,90,8|2|2,0:0|0:0|0:0,0:0:0:0:
73,295,113093,2,0,L|86:158,1,120,2|2,0:0|0:1,0:0:0:0:
101,68,113659,6,0,P|38:78|21:90,2,60,4|0|8,1:0|1:0|0:0,0:0:0:0:
152,86,114084,2,0,B|204:119|204:119|277:104,1,120,2|2,0:0|0:0,0:0:0:0:
311,88,114508,1,8,0:0:0:0:
408,36,114791,2,0,P|467:106|459:145,1,120,2|8,0:0|0:0,0:0:0:0:
451,180,115216,2,0,L|450:315,1,120,2|2,0:0|0:0,0:0:0:0:
452,353,115640,1,8,0:0:0:0:
352,311,115923,6,0,P|351:361|352:384,2,60,2|0|8,0:0|0:0|0:0,0:0:0:0:
345,257,116348,2,0,P|272:232|216:253,1,120,2|2,0:0|0:0,0:0:0:0:
196,282,116772,1,8,0:0:0:0:
93,315,117055,2,0,P|97:243|135:195,1,120,2|8,0:0|0:0,0:0:0:0:
162,168,117480,2,0,P|230:115|239:59,1,120,2|2,0:0|0:0,0:0:0:0:
222,34,117904,1,8,0:0:0:0:
116,55,118187,6,0,L|114:-26,2,60,6|2|8,0:0|0:0|0:0,0:0:0:0:
65,74,118612,2,0,P|30:157|48:204,1,120,2|2,0:0|0:0,0:0:0:0:
65,225,119036,1,8,0:0:0:0:
150,291,119319,2,0,B|209:272|209:272|276:297,1,120,2|8,0:0|0:0,0:0:0:0:
312,314,119744,2,0,P|402:342|434:316,1,120,2|2,0:0|0:0,0:0:0:0:
458,299,120168,1,8,0:0:0:0:
465,191,120451,6,0,L|468:43,1,120,2|8,0:0|0:0,0:0:0:0:
432,29,120876,1,2,0:0:0:0:
432,29,121018,2,0,P|329:11|311:31,1,120,4|10,0:0|0:0,0:0:0:0:
296,56,121442,1,2,0:0:0:0:
296,56,121584,6,0,L|195:56,2,80,2|2|2,1:0|1:0|1:0,0:0:0:0:
299,133,122150,2,0,L|219:133,2,80,2|2|2,1:0|1:0|1:0,0:0:0:0:
300,213,122716,1,2,1:0:0:0:
340,325,122999,6,0,P|263:311|204:323,1,120,4|8,0:0|0:0,0:0:0:0:
173,338,123423,2,0,P|166:274|116:217,1,120,2|2,0:0|0:0,0:0:0:0:
113,180,123848,2,0,L|33:186,1,60,2|2,0:0|0:0,0:0:0:0:
20,141,124131,2,0,L|11:67,2,60,2|2|2,0:1|0:1|0:1,0:0:0:0:
110,83,124697,1,10,0:0:0:0:
158,105,124838,1,2,0:0:0:0:
206,129,124980,6,0,P|250:116|309:129,2,90,2|2|2,0:1|0:1|0:1,0:0:0:0:
192,185,125546,2,0,P|148:198|89:185,2,90,2|2|2,0:1|0:1|0:1,0:0:0:0:
238,212,126112,2,0,L|237:274,1,60,2|2,0:0|0:0,0:0:0:0:
237,326,126395,2,0,P|304:329|316:323,1,60,8|2,0:0|0:0,0:0:0:0:
346,315,126678,2,0,P|413:289|479:323,1,120,0|0,1:0|1:0,0:0:0:0:
499,203,127244,1,0,1:0:0:0:
499,203,128376,6,0,P|458:123|406:111,2,120,4|4|4,1:0|1:0|1:0,0:0:0:0:
441,294,129225,1,4,1:0:0:0:
336,268,129508,6,0,P|330:294|341:344,2,60,2|2|2,0:1|0:1|0:1,0:0:0:0:
300,226,129933,2,0,P|303:196|297:167,2,60,2|2|2,0:1|0:1|0:1,0:0:0:0:
250,246,130357,2,0,L|176:244,1,60,2|2,0:1|0:1,0:0:0:0:
135,243,130640,2,0,P|117:192|143:123,1,120,2|2,0:1|0:1,0:0:0:0:
174,92,131065,1,2,0:1:0:0:
174,92,131206,1,2,0:1:0:0:
268,144,131489,2,0,L|342:144,1,60,0|0,0:0|0:0,0:0:0:0:
380,156,131772,6,0,P|397:82|383:41,2,120,2|2|2,0:0|0:0|0:0,0:0:0:0:
390,209,132480,1,2,0:0:0:0:
390,209,132621,2,0,L|383:291,1,60,2|2,0:0|0:0,0:0:0:0:
373,376,133046,1,2,0:0:0:0:
50,250,134036,6,0,P|37:166|60:124,1,120,2|2,0:0|0:0,0:0:0:0:
86,96,134461,1,2,0:0:0:0:
86,96,134602,2,0,B|143:111|143:111|214:81,1,120,2|2,0:0|0:0,0:0:0:0:
248,63,135027,1,2,0:0:0:0:
355,71,135310,1,2,0:0:0:0:
280,249,136301,6,0,P|286:322|284:387,2,120,2|2|2,0:0|0:0|0:0,0:0:0:0:
240,212,137008,1,2,0:0:0:0:
240,212,137150,2,0,P|194:215|158:210,1,60,2|2,0:0|0:0,0:0:0:0:
84,163,137574,1,2,0:0:0:0:
309,9,138565,6,0,P|297:75|317:137,1,120,2|2,0:0|0:0,0:0:0:0:
352,150,138989,1,2,0:0:0:0:
352,150,139131,2,0,P|364:216|344:278,1,120,2|2,0:0|0:0,0:0:0:0:
313,305,139555,1,2,0:0:0:0:
205,307,139838,1,2,0:0:0:0:
