osu file format v14

[General]
AudioFilename: audio.mp3
AudioLeadIn: 0
PreviewTime: 39183
Countdown: 0
SampleSet: Normal
StackLeniency: 0.7
Mode: 1
LetterboxInBreaks: 0
WidescreenStoryboard: 1

[Editor]
Bookmarks: 121967
DistanceSpacing: 0.8
BeatDivisor: 4
GridSize: 16
TimelineZoom: 1.3

[Metadata]
Title:Kibou no Hoshi wa Seishou ni Noboru (uma vs. Morimori Atsushi Remix)
TitleUnicode:希望の星は青霄に昇る (uma vs. Morimori Atsushi Remix)
Artist:uma vs. Morimori Atsushi
ArtistUnicode:uma vs. モリモリあつし
Creator:Konpaku Sariel
Version:Oni
Source:東方天空璋 ~ Hidden Star in Four Seasons.
Tags:osu! FA featured artist electronic instrumental video game ZUN Touhou Tenkuushou The star of hope rises to the blue haze 東方project th16 上海アリス幻樂団 team shanghai alice hard renaissance re : end of a dream 第十六回 博麗神社例大祭編 例大祭16 hardcore
BeatmapID:2798150
BeatmapSetID:1351589

[Difficulty]
HPDrainRate:5.5
CircleSize:5
OverallDifficulty:5.5
ApproachRate:5
SliderMultiplier:1.4
SliderTickRate:1

[Events]
//Background and Video events
0,0,"77558365_p0.jpg",0,70
//Break Periods
//Storyboard Layer 0 (Background)
//Storyboard Layer 1 (Fail)
//Storyboard Layer 2 (Pass)
//Storyboard Layer 3 (Foreground)
//Storyboard Layer 4 (Overlay)
//Storyboard Sound Samples

[TimingPoints]
1164,297.029702970297,4,1,0,100,1,0
1238,-100,4,1,0,80,0,0
5842,-100,4,1,0,90,0,0
9295,-100,4,1,0,100,0,0
10668,-100,4,1,0,100,0,1
19839,-100,4,1,0,80,0,1
20173,-100,4,1,0,80,0,0
29604,-100,4,1,0,90,0,0
39146,-100,4,1,0,80,0,0
42673,-100,4,1,0,90,0,0
43862,-100,4,1,0,100,0,0
56634,-100,4,1,0,80,0,0
56968,-100,4,1,0,90,0,0
58230,-100,4,1,0,80,0,0
62909,-100,4,1,0,90,0,0
65285,-100,4,1,0,100,0,0
67698,-100,4,1,0,100,0,1
77203,-100,4,1,0,100,0,0
86708,-100,4,1,0,100,0,1
96213,-100,4,1,0,100,0,0
115149,-100,4,1,0,80,0,0
121163,352.941176470588,4,1,0,80,1,0
121163,-84.1584158415841,4,1,0,80,0,0
121869,400,4,1,0,80,1,8
121869,-74.2574257425743,4,1,0,80,0,0
122269,500,4,1,0,80,1,8
122269,-59.4059405940594,4,1,0,80,0,0
122519,571.428571428571,4,1,0,80,1,8
122519,-51.980198019802,4,1,0,80,0,0
122804,454.545454545455,4,1,0,80,1,0
122804,-65.3465346534653,4,1,0,80,0,0
124622,487.80487804878,4,1,0,80,1,0
124622,-60.8910891089109,4,1,0,80,0,0

[HitObjects]
256,192,1164,5,4,0:0:0:0:
256,192,1312,1,8,0:0:0:0:
256,192,1461,1,0,0:0:0:0:
256,192,1609,1,8,0:0:0:0:
256,192,1906,1,8,0:0:0:0:
256,192,2055,1,0,0:0:0:0:
256,192,2129,1,8,0:0:0:0:
256,192,2203,1,0,0:0:0:0:
256,192,2500,1,8,0:0:0:0:
256,192,2574,1,8,0:0:0:0:
256,192,2649,1,0,0:0:0:0:
256,192,2797,1,8,0:0:0:0:
256,192,3094,1,8,0:0:0:0:
256,192,3243,1,0,0:0:0:0:
256,192,3540,1,0,0:0:0:0:
256,192,3688,1,8,0:0:0:0:
256,192,3837,1,0,0:0:0:0:
256,192,3985,1,8,0:0:0:0:
256,192,4282,1,8,0:0:0:0:
256,192,4431,1,0,0:0:0:0:
256,192,4505,1,8,0:0:0:0:
256,192,4579,1,0,0:0:0:0:
256,192,4876,1,8,0:0:0:0:
256,192,4951,1,8,0:0:0:0:
256,192,5025,1,0,0:0:0:0:
256,192,5173,1,8,0:0:0:0:
256,192,5916,1,4,0:0:0:0:
256,192,6064,1,8,0:0:0:0:
256,192,6139,1,8,0:0:0:0:
256,192,6213,1,0,0:0:0:0:
256,192,6362,1,8,0:0:0:0:
256,192,6510,1,0,0:0:0:0:
256,192,6659,1,8,0:0:0:0:
256,192,6807,1,0,0:0:0:0:
256,192,6881,1,8,0:0:0:0:
256,192,6956,1,0,0:0:0:0:
256,192,7104,1,0,0:0:0:0:
256,192,7253,1,8,0:0:0:0:
256,192,7327,1,8,0:0:0:0:
256,192,7401,1,0,0:0:0:0:
256,192,7550,1,8,0:0:0:0:
256,192,7698,1,0,0:0:0:0:
256,192,7847,1,8,0:0:0:0:
256,192,7995,1,0,0:0:0:0:
256,192,8292,1,4,0:0:0:0:
256,192,8441,1,8,0:0:0:0:
256,192,8589,1,0,0:0:0:0:
256,192,8738,1,8,0:0:0:0:
256,192,8886,1,0,0:0:0:0:
256,192,8961,1,0,0:0:0:0:
256,192,9035,1,8,0:0:0:0:
256,192,9109,1,0,0:0:0:0:
256,192,9183,1,8,0:0:0:0:
256,192,9332,1,4,0:0:0:0:
256,192,9629,1,12,0:0:0:0:
256,192,9777,1,4,0:0:0:0:
256,192,9926,1,4,0:0:0:0:
256,192,10074,1,12,0:0:0:0:
256,192,10371,1,12,0:0:0:0:
256,192,10668,1,4,0:0:0:0:
256,192,10817,1,8,0:0:0:0:
256,192,10891,1,8,0:0:0:0:
256,192,10965,1,0,0:0:0:0:
256,192,11114,1,8,0:0:0:0:
256,192,11263,1,0,0:0:0:0:
256,192,11411,1,8,0:0:0:0:
256,192,11560,1,0,0:0:0:0:
256,192,11634,1,8,0:0:0:0:
256,192,11708,1,0,0:0:0:0:
256,192,11857,1,0,0:0:0:0:
256,192,12005,1,8,0:0:0:0:
256,192,12079,1,8,0:0:0:0:
256,192,12154,1,0,0:0:0:0:
256,192,12302,1,8,0:0:0:0:
256,192,12599,1,8,0:0:0:0:
256,192,12673,1,0,0:0:0:0:
256,192,12748,1,0,0:0:0:0:
256,192,12896,1,8,0:0:0:0:
256,192,13045,1,0,0:0:0:0:
256,192,13193,1,8,0:0:0:0:
256,192,13267,1,8,0:0:0:0:
256,192,13342,1,0,0:0:0:0:
256,192,13490,1,8,0:0:0:0:
256,192,13639,1,0,0:0:0:0:
256,192,13787,1,8,0:0:0:0:
256,192,13936,1,0,0:0:0:0:
256,192,14010,1,8,0:0:0:0:
256,192,14084,1,0,0:0:0:0:
256,192,14233,1,0,0:0:0:0:
256,192,14381,1,8,0:0:0:0:
256,192,14456,1,8,0:0:0:0:
256,192,14530,1,0,0:0:0:0:
256,192,14678,1,8,0:0:0:0:
256,192,14827,1,0,0:0:0:0:
256,192,15124,1,8,0:0:0:0:
256,192,15198,1,8,0:0:0:0:
256,192,15272,1,8,0:0:0:0:
256,192,15421,1,4,0:0:0:0:
256,192,15569,1,8,0:0:0:0:
256,192,15644,1,8,0:0:0:0:
256,192,15718,1,0,0:0:0:0:
256,192,15866,1,8,0:0:0:0:
256,192,16015,1,0,0:0:0:0:
256,192,16163,1,8,0:0:0:0:
256,192,16312,1,0,0:0:0:0:
256,192,16386,1,8,0:0:0:0:
256,192,16461,1,0,0:0:0:0:
256,192,16609,1,0,0:0:0:0:
256,192,16758,1,8,0:0:0:0:
256,192,16832,1,8,0:0:0:0:
256,192,16906,1,0,0:0:0:0:
256,192,17055,1,8,0:0:0:0:
256,192,17352,1,0,0:0:0:0:
256,192,17426,1,0,0:0:0:0:
256,192,17500,1,8,0:0:0:0:
256,192,17649,1,8,0:0:0:0:
256,192,17797,1,4,0:0:0:0:
256,192,17946,1,8,0:0:0:0:
256,192,18094,1,0,0:0:0:0:
256,192,18243,1,8,0:0:0:0:
256,192,18391,1,0,0:0:0:0:
256,192,18465,1,0,0:0:0:0:
256,192,18540,1,8,0:0:0:0:
256,192,18614,1,0,0:0:0:0:
256,192,18688,1,8,0:0:0:0:
256,192,18837,1,4,0:0:0:0:
256,192,19134,1,12,0:0:0:0:
256,192,19282,1,4,0:0:0:0:
256,192,19431,1,4,0:0:0:0:
256,192,19579,1,12,0:0:0:0:
256,192,19876,1,0,0:0:0:0:
256,192,20173,1,0,0:0:0:0:
256,192,22104,1,8,0:0:0:0:
256,192,22253,1,8,0:0:0:0:
256,192,22401,1,8,0:0:0:0:
256,192,22550,1,0,0:0:0:0:
256,192,24480,1,8,0:0:0:0:
256,192,24629,1,8,0:0:0:0:
256,192,24777,1,8,0:0:0:0:
256,192,24926,1,0,0:0:0:0:
256,192,25371,1,8,0:0:0:0:
256,192,25520,1,0,0:0:0:0:
256,192,25668,1,8,0:0:0:0:
256,192,25817,1,8,0:0:0:0:
256,192,25891,1,8,0:0:0:0:
256,192,25965,1,0,0:0:0:0:
256,192,26114,1,0,0:0:0:0:
256,192,26560,1,8,0:0:0:0:
256,192,27005,1,8,0:0:0:0:
256,192,27302,1,0,0:0:0:0:
256,192,28193,1,8,0:0:0:0:
256,192,28490,1,4,0:0:0:0:
256,192,28787,1,4,0:0:0:0:
256,192,29084,1,12,0:0:0:0:
256,192,29381,1,12,0:0:0:0:
256,192,29678,1,4,0:0:0:0:
256,192,29975,1,8,0:0:0:0:
256,192,30272,1,0,0:0:0:0:
256,192,30347,1,0,0:0:0:0:
256,192,30421,1,0,0:0:0:0:
256,192,30569,1,8,0:0:0:0:
256,192,30866,1,0,0:0:0:0:
256,192,30941,1,0,0:0:0:0:
256,192,31015,1,0,0:0:0:0:
256,192,31164,1,8,0:0:0:0:
256,192,31312,1,0,0:0:0:0:
256,192,31461,1,0,0:0:0:0:
256,192,31609,1,8,0:0:0:0:
256,192,31758,1,0,0:0:0:0:
256,192,31906,1,8,0:0:0:0:
256,192,32055,1,0,0:0:0:0:
256,192,32352,1,8,0:0:0:0:
256,192,32649,1,0,0:0:0:0:
256,192,32723,1,0,0:0:0:0:
256,192,32797,1,0,0:0:0:0:
256,192,32946,1,8,0:0:0:0:
256,192,33243,1,0,0:0:0:0:
256,192,33317,1,0,0:0:0:0:
256,192,33391,1,0,0:0:0:0:
256,192,33540,1,8,0:0:0:0:
256,192,33688,1,0,0:0:0:0:
256,192,33837,1,0,0:0:0:0:
256,192,33985,1,0,0:0:0:0:
256,192,34134,1,8,0:0:0:0:
256,192,34282,1,0,0:0:0:0:
256,192,34431,1,4,0:0:0:0:
256,192,34728,1,8,0:0:0:0:
256,192,34876,1,8,0:0:0:0:
256,192,35025,1,0,0:0:0:0:
256,192,35173,1,8,0:0:0:0:
256,192,35322,1,0,0:0:0:0:
256,192,35396,1,8,0:0:0:0:
256,192,35470,1,8,0:0:0:0:
256,192,35619,1,0,0:0:0:0:
256,192,35916,1,8,0:0:0:0:
256,192,36064,1,8,0:0:0:0:
256,192,36213,1,0,0:0:0:0:
256,192,36510,1,8,0:0:0:0:
256,192,36807,1,4,0:0:0:0:
256,192,37104,1,8,0:0:0:0:
256,192,37253,1,8,0:0:0:0:
256,192,37401,1,0,0:0:0:0:
256,192,37475,1,0,0:0:0:0:
256,192,37550,1,0,0:0:0:0:
256,192,37698,1,8,0:0:0:0:
256,192,37995,1,0,0:0:0:0:
256,192,38144,1,8,0:0:0:0:
256,192,38292,1,0,0:0:0:0:
256,192,38441,1,0,0:0:0:0:
256,192,38589,1,8,0:0:0:0:
256,192,38738,1,0,0:0:0:0:
256,192,38886,1,8,0:0:0:0:
256,192,39183,5,0,0:0:0:0:
256,192,39332,1,8,0:0:0:0:
256,192,39480,1,8,0:0:0:0:
256,192,39629,1,8,0:0:0:0:
256,192,39777,1,0,0:0:0:0:
256,192,40223,1,8,0:0:0:0:
256,192,40371,1,0,0:0:0:0:
256,192,40520,1,8,0:0:0:0:
256,192,40668,1,8,0:0:0:0:
256,192,40817,1,8,0:0:0:0:
256,192,40965,1,0,0:0:0:0:
256,192,41114,1,8,0:0:0:0:
256,192,41263,1,0,0:0:0:0:
256,192,41560,1,0,0:0:0:0:
256,192,41708,1,8,0:0:0:0:
256,192,41857,1,8,0:0:0:0:
256,192,42005,1,8,0:0:0:0:
256,192,42154,1,0,0:0:0:0:
256,192,42451,1,8,0:0:0:0:
256,192,42748,1,4,0:0:0:0:
256,192,43045,1,12,0:0:0:0:
256,192,43342,1,4,0:0:0:0:
256,192,43639,1,12,0:0:0:0:
256,192,43936,1,4,0:0:0:0:
256,192,44381,1,4,0:0:0:0:
256,192,44827,1,12,0:0:0:0:
256,192,45272,1,12,0:0:0:0:
256,192,45718,1,4,0:0:0:0:
256,192,46015,1,12,0:0:0:0:
256,192,46312,1,4,0:0:0:0:
256,192,46758,1,4,0:0:0:0:
256,192,47203,1,4,0:0:0:0:
256,192,47649,1,4,0:0:0:0:
256,192,48094,1,12,0:0:0:0:
256,192,48688,1,4,0:0:0:0:
256,192,48837,1,8,0:0:0:0:
256,192,48911,1,0,0:0:0:0:
256,192,48985,1,8,0:0:0:0:
256,192,49134,1,8,0:0:0:0:
256,192,49282,1,0,0:0:0:0:
256,192,49579,1,8,0:0:0:0:
256,192,49728,1,8,0:0:0:0:
256,192,49876,1,0,0:0:0:0:
256,192,50025,1,8,0:0:0:0:
256,192,50099,1,0,0:0:0:0:
256,192,50173,1,8,0:0:0:0:
256,192,50322,1,8,0:0:0:0:
256,192,50470,1,0,0:0:0:0:
256,192,50619,1,8,0:0:0:0:
256,192,50767,1,0,0:0:0:0:
256,192,51064,1,0,0:0:0:0:
256,192,51213,1,8,0:0:0:0:
256,192,51287,1,0,0:0:0:0:
256,192,51362,1,8,0:0:0:0:
256,192,51510,1,8,0:0:0:0:
256,192,51659,1,0,0:0:0:0:
256,192,51956,1,8,0:0:0:0:
256,192,52253,1,4,0:0:0:0:
256,192,52550,1,12,0:0:0:0:
256,192,52847,1,4,0:0:0:0:
256,192,53144,1,8,0:0:0:0:
256,192,53441,1,4,0:0:0:0:
256,192,53589,1,8,0:0:0:0:
256,192,53664,1,8,0:0:0:0:
256,192,53738,1,0,0:0:0:0:
256,192,53886,1,8,0:0:0:0:
256,192,54035,1,0,0:0:0:0:
256,192,54332,1,8,0:0:0:0:
256,192,54480,1,8,0:0:0:0:
256,192,54629,1,0,0:0:0:0:
256,192,54777,1,0,0:0:0:0:
256,192,54926,1,8,0:0:0:0:
256,192,55074,1,8,0:0:0:0:
256,192,55223,1,0,0:0:0:0:
256,192,55297,1,0,0:0:0:0:
256,192,55371,1,0,0:0:0:0:
256,192,55446,1,0,0:0:0:0:
256,192,55520,1,8,0:0:0:0:
256,192,55668,1,8,0:0:0:0:
256,192,56708,1,8,0:0:0:0:
256,192,57005,1,4,0:0:0:0:
256,192,57154,1,8,0:0:0:0:
256,192,57302,1,0,0:0:0:0:
256,192,57451,1,8,0:0:0:0:
256,192,57525,1,8,0:0:0:0:
256,192,57748,1,8,0:0:0:0:
256,192,57896,1,0,0:0:0:0:
256,192,57970,1,0,0:0:0:0:
256,192,58045,1,8,0:0:0:0:
256,192,58193,1,0,0:0:0:0:
256,192,58342,1,8,0:0:0:0:
256,192,58490,1,0,0:0:0:0:
256,192,58639,1,8,0:0:0:0:
256,192,58936,1,8,0:0:0:0:
256,192,59084,1,0,0:0:0:0:
256,192,59159,1,8,0:0:0:0:
256,192,59233,1,0,0:0:0:0:
256,192,59530,1,8,0:0:0:0:
256,192,59604,1,8,0:0:0:0:
256,192,59678,1,0,0:0:0:0:
256,192,59827,1,8,0:0:0:0:
256,192,59975,1,0,0:0:0:0:
256,192,60050,1,0,0:0:0:0:
256,192,60124,1,8,0:0:0:0:
256,192,60272,1,0,0:0:0:0:
256,192,60569,1,0,0:0:0:0:
256,192,60718,1,8,0:0:0:0:
256,192,60866,1,0,0:0:0:0:
256,192,61015,1,8,0:0:0:0:
256,192,61312,1,8,0:0:0:0:
256,192,61461,1,0,0:0:0:0:
256,192,61535,1,8,0:0:0:0:
256,192,61609,1,0,0:0:0:0:
256,192,61906,1,8,0:0:0:0:
256,192,61980,1,8,0:0:0:0:
256,192,62055,1,0,0:0:0:0:
256,192,62203,1,8,0:0:0:0:
256,192,62946,1,4,0:0:0:0:
256,192,63094,1,8,0:0:0:0:
256,192,63168,1,8,0:0:0:0:
256,192,63243,1,0,0:0:0:0:
256,192,63391,1,8,0:0:0:0:
256,192,63540,1,0,0:0:0:0:
256,192,63688,1,8,0:0:0:0:
256,192,63837,1,0,0:0:0:0:
256,192,63911,1,8,0:0:0:0:
256,192,63985,1,0,0:0:0:0:
256,192,64134,1,0,0:0:0:0:
256,192,64282,1,8,0:0:0:0:
256,192,64357,1,8,0:0:0:0:
256,192,64431,1,0,0:0:0:0:
256,192,64579,1,8,0:0:0:0:
256,192,64728,1,0,0:0:0:0:
256,192,64876,1,8,0:0:0:0:
256,192,65025,1,0,0:0:0:0:
256,192,65322,1,4,0:0:0:0:
256,192,65470,1,8,0:0:0:0:
256,192,65619,1,0,0:0:0:0:
256,192,65767,1,8,0:0:0:0:
256,192,65916,1,0,0:0:0:0:
256,192,65990,1,0,0:0:0:0:
256,192,66064,1,8,0:0:0:0:
256,192,66139,1,0,0:0:0:0:
256,192,66213,1,8,0:0:0:0:
256,192,66362,1,4,0:0:0:0:
256,192,66659,1,12,0:0:0:0:
256,192,66807,1,4,0:0:0:0:
256,192,66956,1,4,0:0:0:0:
256,192,67104,1,12,0:0:0:0:
256,192,67401,1,12,0:0:0:0:
256,192,67698,1,4,0:0:0:0:
256,192,67847,1,8,0:0:0:0:
256,192,67921,1,8,0:0:0:0:
256,192,67995,1,0,0:0:0:0:
256,192,68144,1,8,0:0:0:0:
256,192,68292,1,0,0:0:0:0:
256,192,68441,1,8,0:0:0:0:
256,192,68589,1,0,0:0:0:0:
256,192,68663,1,8,0:0:0:0:
256,192,68738,1,0,0:0:0:0:
256,192,68886,1,0,0:0:0:0:
256,192,69035,1,8,0:0:0:0:
256,192,69109,1,8,0:0:0:0:
256,192,69183,1,0,0:0:0:0:
256,192,69332,1,8,0:0:0:0:
256,192,69629,1,8,0:0:0:0:
256,192,69703,1,0,0:0:0:0:
256,192,69777,1,0,0:0:0:0:
256,192,69926,1,8,0:0:0:0:
256,192,70074,1,0,0:0:0:0:
256,192,70223,1,8,0:0:0:0:
256,192,70297,1,8,0:0:0:0:
256,192,70371,1,0,0:0:0:0:
256,192,70520,1,8,0:0:0:0:
256,192,70668,1,0,0:0:0:0:
256,192,70817,1,8,0:0:0:0:
256,192,70965,1,0,0:0:0:0:
256,192,71040,1,8,0:0:0:0:
256,192,71114,1,0,0:0:0:0:
256,192,71263,1,0,0:0:0:0:
256,192,71411,1,8,0:0:0:0:
256,192,71485,1,8,0:0:0:0:
256,192,71560,1,0,0:0:0:0:
256,192,71708,1,8,0:0:0:0:
256,192,71857,1,0,0:0:0:0:
256,192,72154,1,8,0:0:0:0:
256,192,72228,1,8,0:0:0:0:
256,192,72302,1,8,0:0:0:0:
256,192,72451,1,4,0:0:0:0:
256,192,72599,1,8,0:0:0:0:
256,192,72673,1,8,0:0:0:0:
256,192,72748,1,0,0:0:0:0:
256,192,72896,1,8,0:0:0:0:
256,192,73045,1,0,0:0:0:0:
256,192,73193,1,8,0:0:0:0:
256,192,73267,1,0,0:0:0:0:
256,192,73342,1,8,0:0:0:0:
256,192,73490,1,0,0:0:0:0:
256,192,73787,1,8,0:0:0:0:
256,192,73862,1,8,0:0:0:0:
256,192,73936,1,0,0:0:0:0:
256,192,74084,1,0,0:0:0:0:
256,192,74233,1,8,0:0:0:0:
256,192,74381,1,0,0:0:0:0:
256,192,74456,1,0,0:0:0:0:
256,192,74530,1,8,0:0:0:0:
256,192,74678,1,0,0:0:0:0:
256,192,74827,1,8,0:0:0:0:
256,192,74901,1,8,0:0:0:0:
256,192,74975,1,8,0:0:0:0:
256,192,75124,1,0,0:0:0:0:
256,192,75272,1,8,0:0:0:0:
256,192,75347,1,8,0:0:0:0:
256,192,75421,1,8,0:0:0:0:
256,192,75569,1,0,0:0:0:0:
256,192,75718,1,8,0:0:0:0:
256,192,75866,1,4,0:0:0:0:
256,192,76163,1,12,0:0:0:0:
256,192,76312,1,4,0:0:0:0:
256,192,76461,1,4,0:0:0:0:
256,192,76609,1,12,0:0:0:0:
256,192,76906,1,8,0:0:0:0:
256,192,77203,1,4,0:0:0:0:
256,192,77352,1,8,0:0:0:0:
256,192,77426,1,0,0:0:0:0:
256,192,77500,1,8,0:0:0:0:
256,192,77649,1,8,0:0:0:0:
256,192,77946,1,8,0:0:0:0:
256,192,78094,1,0,0:0:0:0:
256,192,78243,1,8,0:0:0:0:
256,192,78540,1,0,0:0:0:0:
256,192,78614,1,0,0:0:0:0:
256,192,78688,1,8,0:0:0:0:
256,192,78837,1,8,0:0:0:0:
256,192,78911,1,0,0:0:0:0:
256,192,78985,1,8,0:0:0:0:
256,192,79134,1,8,0:0:0:0:
256,192,79282,1,0,0:0:0:0:
256,192,79431,1,8,0:0:0:0:
256,192,79579,1,0,0:0:0:0:
256,192,79728,1,8,0:0:0:0:
256,192,79802,1,0,0:0:0:0:
256,192,79876,1,8,0:0:0:0:
256,192,80025,1,0,0:0:0:0:
256,192,80322,1,8,0:0:0:0:
256,192,80470,1,0,0:0:0:0:
256,192,80545,1,8,0:0:0:0:
256,192,80619,1,0,0:0:0:0:
256,192,80916,1,8,0:0:0:0:
256,192,81064,1,8,0:0:0:0:
256,192,81213,1,8,0:0:0:0:
256,192,81362,1,0,0:0:0:0:
256,192,81510,1,8,0:0:0:0:
256,192,81584,1,8,0:0:0:0:
256,192,81659,1,0,0:0:0:0:
256,192,81956,1,4,0:0:0:0:
256,192,82104,1,8,0:0:0:0:
256,192,82178,1,0,0:0:0:0:
256,192,82253,1,8,0:0:0:0:
256,192,82401,1,0,0:0:0:0:
256,192,82475,1,8,0:0:0:0:
256,192,82550,1,8,0:0:0:0:
256,192,82624,1,8,0:0:0:0:
256,192,82698,1,0,0:0:0:0:
256,192,82847,1,8,0:0:0:0:
256,192,83144,1,0,0:0:0:0:
256,192,83243,1,0,0:0:0:0:
256,192,83342,1,0,0:0:0:0:
256,192,83441,1,8,0:0:0:0:
256,192,83738,1,0,0:0:0:0:
256,192,83837,1,0,0:0:0:0:
256,192,83936,1,0,0:0:0:0:
256,192,84035,1,8,0:0:0:0:
256,192,84332,1,4,0:0:0:0:
256,192,84480,1,8,0:0:0:0:
256,192,84555,1,8,0:0:0:0:
256,192,84629,1,0,0:0:0:0:
256,192,84777,1,8,0:0:0:0:
256,192,84926,1,0,0:0:0:0:
256,192,85074,1,0,0:0:0:0:
256,192,85223,1,8,0:0:0:0:
256,192,85371,1,4,0:0:0:0:
256,192,85668,1,12,0:0:0:0:
256,192,85817,1,4,0:0:0:0:
256,192,85965,1,4,0:0:0:0:
256,192,86114,1,12,0:0:0:0:
256,192,86411,1,12,0:0:0:0:
256,192,86708,1,8,0:0:0:0:
256,192,86857,1,0,0:0:0:0:
256,192,86931,1,0,0:0:0:0:
256,192,87005,1,0,0:0:0:0:
256,192,87154,1,8,0:0:0:0:
256,192,87302,1,0,0:0:0:0:
256,192,87376,1,8,0:0:0:0:
256,192,87525,1,0,0:0:0:0:
256,192,87599,1,8,0:0:0:0:
256,192,87748,1,0,0:0:0:0:
256,192,87896,1,8,0:0:0:0:
256,192,88045,1,0,0:0:0:0:
256,192,88119,1,0,0:0:0:0:
256,192,88193,1,0,0:0:0:0:
256,192,88342,1,8,0:0:0:0:
256,192,88490,1,0,0:0:0:0:
256,192,88564,1,8,0:0:0:0:
256,192,88713,1,0,0:0:0:0:
256,192,88787,1,8,0:0:0:0:
256,192,89084,1,8,0:0:0:0:
256,192,89159,1,8,0:0:0:0:
256,192,89307,1,8,0:0:0:0:
256,192,89456,1,8,0:0:0:0:
256,192,89530,1,8,0:0:0:0:
256,192,89678,1,0,0:0:0:0:
256,192,89901,1,8,0:0:0:0:
256,192,89975,1,8,0:0:0:0:
256,192,90124,1,0,0:0:0:0:
256,192,90347,1,8,0:0:0:0:
256,192,90421,1,8,0:0:0:0:
256,192,90569,1,0,0:0:0:0:
256,192,90792,1,8,0:0:0:0:
256,192,90866,1,8,0:0:0:0:
256,192,91015,1,8,0:0:0:0:
256,192,91163,1,8,0:0:0:0:
256,192,91461,1,12,0:0:0:0:
256,192,91609,1,0,0:0:0:0:
256,192,91683,1,0,0:0:0:0:
256,192,91758,1,8,0:0:0:0:
256,192,91906,1,0,0:0:0:0:
256,192,92055,1,8,0:0:0:0:
256,192,92203,1,0,0:0:0:0:
256,192,92352,1,8,0:0:0:0:
256,192,92500,1,0,0:0:0:0:
256,192,92649,1,12,0:0:0:0:
256,192,92797,1,0,0:0:0:0:
256,192,92871,1,0,0:0:0:0:
256,192,92946,1,8,0:0:0:0:
256,192,93094,1,0,0:0:0:0:
256,192,93243,1,8,0:0:0:0:
256,192,93391,1,8,0:0:0:0:
256,192,93465,1,8,0:0:0:0:
256,192,93540,1,0,0:0:0:0:
256,192,93837,1,0,0:0:0:0:
256,192,93985,1,0,0:0:0:0:
256,192,94134,1,8,0:0:0:0:
256,192,94282,1,8,0:0:0:0:
256,192,94431,1,0,0:0:0:0:
256,192,94505,1,0,0:0:0:0:
256,192,94579,1,0,0:0:0:0:
256,192,94654,1,0,0:0:0:0:
256,192,94728,1,8,0:0:0:0:
256,192,94876,1,4,0:0:0:0:
256,192,95173,1,12,0:0:0:0:
256,192,95322,1,4,0:0:0:0:
256,192,95470,1,4,0:0:0:0:
256,192,95619,1,12,0:0:0:0:
256,192,95916,1,0,0:0:0:0:
256,192,96213,1,12,0:0:0:0:
256,192,96510,1,8,0:0:0:0:
256,192,96659,1,8,0:0:0:0:
256,192,96733,1,8,0:0:0:0:
256,192,96807,1,0,0:0:0:0:
256,192,97030,1,8,0:0:0:0:
256,192,97253,1,8,0:0:0:0:
256,192,97401,1,0,0:0:0:0:
256,192,97475,1,0,0:0:0:0:
256,192,97550,1,0,0:0:0:0:
256,192,97698,1,8,0:0:0:0:
256,192,97847,1,8,0:0:0:0:
256,192,97995,1,0,0:0:0:0:
256,192,98144,1,8,0:0:0:0:
256,192,98292,1,8,0:0:0:0:
256,192,98441,1,8,0:0:0:0:
256,192,98589,1,0,0:0:0:0:
256,192,98886,1,8,0:0:0:0:
256,192,99035,1,8,0:0:0:0:
256,192,99183,1,0,0:0:0:0:
256,192,99258,1,0,0:0:0:0:
256,192,99332,1,0,0:0:0:0:
256,192,99480,1,8,0:0:0:0:
256,192,99629,1,0,0:0:0:0:
256,192,99777,1,8,0:0:0:0:
256,192,99926,1,8,0:0:0:0:
256,192,100000,1,8,0:0:0:0:
256,192,100074,1,0,0:0:0:0:
256,192,100223,1,8,0:0:0:0:
256,192,100371,1,0,0:0:0:0:
256,192,100520,1,8,0:0:0:0:
256,192,100668,1,8,0:0:0:0:
256,192,100817,1,0,0:0:0:0:
256,192,100965,1,12,0:0:0:0:
256,192,101263,1,0,0:0:0:0:
256,192,101411,1,8,0:0:0:0:
256,192,101560,1,0,0:0:0:0:
256,192,101634,1,0,0:0:0:0:
256,192,101708,1,0,0:0:0:0:
256,192,101857,1,8,0:0:0:0:
256,192,102005,1,0,0:0:0:0:
256,192,102154,1,8,0:0:0:0:
256,192,102302,1,0,0:0:0:0:
256,192,102376,1,0,0:0:0:0:
256,192,102451,1,8,0:0:0:0:
256,192,102599,1,0,0:0:0:0:
256,192,102748,1,8,0:0:0:0:
256,192,103045,1,8,0:0:0:0:
256,192,103342,1,12,0:0:0:0:
256,192,103490,1,0,0:0:0:0:
256,192,103564,1,0,0:0:0:0:
256,192,103639,1,8,0:0:0:0:
256,192,103787,1,0,0:0:0:0:
256,192,103936,1,0,0:0:0:0:
256,192,104010,1,0,0:0:0:0:
256,192,104084,1,0,0:0:0:0:
256,192,104233,1,8,0:0:0:0:
256,192,104530,1,12,0:0:0:0:
256,192,104678,1,0,0:0:0:0:
256,192,104753,1,0,0:0:0:0:
256,192,104827,1,8,0:0:0:0:
256,192,104975,1,0,0:0:0:0:
256,192,105124,1,8,0:0:0:0:
256,192,105198,1,8,0:0:0:0:
256,192,105272,1,0,0:0:0:0:
256,192,105421,1,8,0:0:0:0:
256,192,105718,1,12,0:0:0:0:
256,192,106015,1,8,0:0:0:0:
256,192,106163,1,0,0:0:0:0:
256,192,106238,1,0,0:0:0:0:
256,192,106312,1,8,0:0:0:0:
256,192,106535,1,0,0:0:0:0:
256,192,106609,1,8,0:0:0:0:
256,192,106758,1,0,0:0:0:0:
256,192,106906,1,8,0:0:0:0:
256,192,107129,1,0,0:0:0:0:
256,192,107203,1,8,0:0:0:0:
256,192,107352,1,0,0:0:0:0:
256,192,107500,1,8,0:0:0:0:
256,192,107797,1,8,0:0:0:0:
256,192,107946,1,0,0:0:0:0:
256,192,108094,1,8,0:0:0:0:
256,192,108391,1,8,0:0:0:0:
256,192,108540,1,0,0:0:0:0:
256,192,108614,1,0,0:0:0:0:
256,192,108688,1,8,0:0:0:0:
256,192,108911,1,0,0:0:0:0:
256,192,108985,1,8,0:0:0:0:
256,192,109134,1,0,0:0:0:0:
256,192,109282,1,8,0:0:0:0:
256,192,109505,1,0,0:0:0:0:
256,192,109579,1,8,0:0:0:0:
256,192,109728,1,0,0:0:0:0:
256,192,109876,1,8,0:0:0:0:
256,192,109951,1,8,0:0:0:0:
256,192,110025,1,0,0:0:0:0:
256,192,110173,1,8,0:0:0:0:
256,192,110470,1,12,0:0:0:0:
256,192,110619,1,0,0:0:0:0:
256,192,110693,1,0,0:0:0:0:
256,192,110767,1,8,0:0:0:0:
256,192,110916,1,0,0:0:0:0:
256,192,111064,1,8,0:0:0:0:
256,192,111213,1,8,0:0:0:0:
256,192,111362,1,0,0:0:0:0:
256,192,111510,1,0,0:0:0:0:
256,192,111659,1,8,0:0:0:0:
256,192,111807,1,0,0:0:0:0:
256,192,111881,1,0,0:0:0:0:
256,192,111956,1,8,0:0:0:0:
256,192,112104,1,0,0:0:0:0:
256,192,112253,1,8,0:0:0:0:
256,192,112327,1,8,0:0:0:0:
256,192,112401,1,0,0:0:0:0:
256,192,112550,1,8,0:0:0:0:
256,192,112698,1,0,0:0:0:0:
256,192,112847,1,12,0:0:0:0:
256,192,112995,1,0,0:0:0:0:
256,192,113144,1,8,0:0:0:0:
256,192,113292,1,0,0:0:0:0:
256,192,113441,1,8,0:0:0:0:
256,192,113515,1,8,0:0:0:0:
256,192,113589,1,8,0:0:0:0:
256,192,113663,1,8,0:0:0:0:
256,192,113738,1,0,0:0:0:0:
256,192,113886,1,0,0:0:0:0:
256,192,114035,1,12,0:0:0:0:
256,192,115223,1,0,0:0:0:0:
256,192,115371,1,8,0:0:0:0:
256,192,115520,1,8,0:0:0:0:
256,192,115668,1,8,0:0:0:0:
256,192,115817,1,0,0:0:0:0:
256,192,116263,1,8,0:0:0:0:
256,192,116411,1,0,0:0:0:0:
256,192,116560,1,8,0:0:0:0:
256,192,116708,1,8,0:0:0:0:
256,192,116857,1,8,0:0:0:0:
256,192,117005,1,0,0:0:0:0:
256,192,117154,1,8,0:0:0:0:
256,192,117302,1,0,0:0:0:0:
256,192,117599,1,0,0:0:0:0:
256,192,117748,1,8,0:0:0:0:
256,192,117896,1,8,0:0:0:0:
256,192,118045,1,8,0:0:0:0:
256,192,118193,1,0,0:0:0:0:
256,192,118490,1,8,0:0:0:0:
256,192,118787,1,0,0:0:0:0:
256,192,119084,1,8,0:0:0:0:
256,192,119381,1,0,0:0:0:0:
256,192,119975,1,0,0:0:0:0:
256,192,120124,1,8,0:0:0:0:
256,192,120272,1,8,0:0:0:0:
256,192,120421,1,8,0:0:0:0:
256,192,120569,1,0,0:0:0:0:
256,192,121015,1,8,0:0:0:0:
256,192,121163,1,8,0:0:0:0:
256,192,121339,1,8,0:0:0:0:
256,192,121515,1,0,0:0:0:0:
256,192,121692,1,8,0:0:0:0:
256,192,121869,1,0,0:0:0:0:
256,192,122069,1,0,0:0:0:0:
256,192,122269,1,8,0:0:0:0:
256,192,122519,1,0,0:0:0:0:
256,192,122804,1,8,0:0:0:0:
256,192,123031,1,0,0:0:0:0:
256,192,123258,1,0,0:0:0:0:
256,192,123485,1,0,0:0:0:0:
256,192,123713,1,8,0:0:0:0:
256,192,124167,1,0,0:0:0:0:
256,192,124622,1,8,0:0:0:0:
256,192,124865,1,0,0:0:0:0:
256,192,125109,1,0,0:0:0:0:
256,192,125353,1,0,0:0:0:0:
256,192,125475,1,0,0:0:0:0:
256,192,125597,1,8,0:0:0:0:
