osu file format v14

[General]
AudioFilename: audio.mp3
AudioLeadIn: 0
PreviewTime: 39183
Countdown: 0
SampleSet: Normal
StackLeniency: 0.7
Mode: 1
LetterboxInBreaks: 0
WidescreenStoryboard: 1

[Editor]
Bookmarks: 121967
DistanceSpacing: 0.8
BeatDivisor: 4
GridSize: 32
TimelineZoom: 1.1

[Metadata]
Title:Kibou no Hoshi wa Seishou ni Noboru (uma vs. Morimori Atsushi Remix)
TitleUnicode:希望の星は青霄に昇る (uma vs. Morimori Atsushi Remix)
Artist:uma vs. Morimori Atsushi
ArtistUnicode:uma vs. モリモリあつし
Creator:Konpaku Sariel
Version:Kantan
Source:東方天空璋 ~ Hidden Star in Four Seasons.
Tags:osu! FA featured artist electronic instrumental video game ZUN Touhou Tenkuushou The star of hope rises to the blue haze 東方project th16 上海アリス幻樂団 team shanghai alice hard renaissance re : end of a dream 第十六回 博麗神社例大祭編 例大祭16 hardcore
BeatmapID:2799866
BeatmapSetID:1351589

[Difficulty]
HPDrainRate:7
CircleSize:5
OverallDifficulty:3
ApproachRate:5
SliderMultiplier:1.4
SliderTickRate:1

[Events]
//Background and Video events
0,0,"77558365_p0.jpg",0,70
//Break Periods
//Storyboard Layer 0 (Background)
//Storyboard Layer 1 (Fail)
//Storyboard Layer 2 (Pass)
//Storyboard Layer 3 (Foreground)
//Storyboard Layer 4 (Overlay)
//Storyboard Sound Samples

[TimingPoints]
1164,297.029702970297,4,1,0,100,1,0
1238,-100,4,1,0,80,0,0
5842,-100,4,1,0,90,0,0
9295,-100,4,1,0,100,0,0
10668,-100,4,1,0,100,0,1
19839,-100,4,1,0,80,0,1
20173,-100,4,1,0,80,0,0
29604,-100,4,1,0,90,0,0
39146,-100,4,1,0,80,0,0
42673,-100,4,1,0,90,0,0
43862,-100,4,1,0,100,0,0
56634,-100,4,1,0,80,0,0
56968,-100,4,1,0,90,0,0
58230,-100,4,1,0,80,0,0
62909,-100,4,1,0,90,0,0
65285,-100,4,1,0,100,0,0
67698,-100,4,1,0,100,0,1
77203,-100,4,1,0,100,0,0
86708,-100,4,1,0,100,0,1
96213,-100,4,1,0,100,0,0
115149,-100,4,1,0,80,0,0
121163,352.941176470588,4,1,0,80,1,0
121163,-84.1584158415841,4,1,0,80,0,0
121869,400,4,1,0,80,1,8
121869,-74.2574257425743,4,1,0,80,0,0
122269,500,4,1,0,80,1,8
122269,-59.4059405940594,4,1,0,80,0,0
122519,571.428571428571,4,1,0,80,1,8
122519,-51.980198019802,4,1,0,80,0,0
122804,454.545454545455,4,1,0,80,1,0
122804,-65.3465346534653,4,1,0,80,0,0
124622,487.80487804878,4,1,0,80,1,0
124622,-60.8910891089109,4,1,0,80,0,0

[HitObjects]
256,192,1164,5,4,0:0:0:0:
256,192,1758,1,0,0:0:0:0:
256,192,2352,1,8,0:0:0:0:
256,192,3540,1,0,0:0:0:0:
256,192,4134,1,0,0:0:0:0:
256,192,4728,1,8,0:0:0:0:
256,192,5916,1,4,0:0:0:0:
256,192,6510,1,8,0:0:0:0:
256,192,6807,1,8,0:0:0:0:
256,192,7104,1,0,0:0:0:0:
256,192,7698,1,8,0:0:0:0:
256,192,8292,1,4,0:0:0:0:
256,192,8886,1,8,0:0:0:0:
256,192,9332,1,4,0:0:0:0:
256,192,9777,1,4,0:0:0:0:
256,192,10074,1,12,0:0:0:0:
256,192,10668,1,4,0:0:0:0:
256,192,11263,1,8,0:0:0:0:
256,192,11560,1,8,0:0:0:0:
256,192,11857,1,0,0:0:0:0:
256,192,12748,1,8,0:0:0:0:
256,192,13045,1,0,0:0:0:0:
256,192,13639,1,0,0:0:0:0:
256,192,13936,1,8,0:0:0:0:
256,192,14233,1,0,0:0:0:0:
256,192,14827,1,8,0:0:0:0:
256,192,15421,1,4,0:0:0:0:
256,192,16015,1,8,0:0:0:0:
256,192,16312,1,8,0:0:0:0:
256,192,16609,1,0,0:0:0:0:
256,192,17500,1,8,0:0:0:0:
256,192,17797,1,4,0:0:0:0:
256,192,18391,1,8,0:0:0:0:
256,192,18837,1,4,0:0:0:0:
256,192,19282,1,4,0:0:0:0:
256,192,19579,1,12,0:0:0:0:
256,192,20173,1,0,0:0:0:0:
256,192,22550,1,0,0:0:0:0:
256,192,24926,1,0,0:0:0:0:
256,192,25520,1,0,0:0:0:0:
256,192,25817,1,8,0:0:0:0:
256,192,26114,1,0,0:0:0:0:
256,192,26708,1,8,0:0:0:0:
256,192,27302,1,0,0:0:0:0:
256,192,28490,1,4,0:0:0:0:
256,192,29084,1,12,0:0:0:0:
256,192,29678,1,4,0:0:0:0:
256,192,30272,1,8,0:0:0:0:
256,192,30866,1,0,0:0:0:0:
256,192,31461,1,8,0:0:0:0:
256,192,31758,1,8,0:0:0:0:
256,192,32055,1,0,0:0:0:0:
256,192,32649,1,8,0:0:0:0:
256,192,33243,1,0,0:0:0:0:
256,192,34134,1,8,0:0:0:0:
256,192,34431,1,4,0:0:0:0:
256,192,35025,1,0,0:0:0:0:
256,192,35322,1,8,0:0:0:0:
256,192,35619,1,0,0:0:0:0:
256,192,36213,1,8,0:0:0:0:
256,192,36807,1,4,0:0:0:0:
256,192,37401,1,8,0:0:0:0:
256,192,37995,1,0,0:0:0:0:
256,192,38292,1,0,0:0:0:0:
256,192,38589,1,8,0:0:0:0:
256,192,39183,1,0,0:0:0:0:
256,192,39777,1,8,0:0:0:0:
256,192,40371,1,0,0:0:0:0:
256,192,41560,1,0,0:0:0:0:
256,192,42154,1,8,0:0:0:0:
256,192,42748,1,4,0:0:0:0:
256,192,43045,1,12,0:0:0:0:
256,192,43342,1,4,0:0:0:0:
256,192,43936,1,4,0:0:0:0:
256,192,44381,1,4,0:0:0:0:
256,192,44827,1,12,0:0:0:0:
256,192,45272,1,12,0:0:0:0:
256,192,45718,1,4,0:0:0:0:
256,192,46312,1,4,0:0:0:0:
256,192,46758,1,4,0:0:0:0:
256,192,47203,1,4,0:0:0:0:
256,192,47649,1,4,0:0:0:0:
256,192,48094,1,12,0:0:0:0:
256,192,48688,1,4,0:0:0:0:
256,192,49579,1,8,0:0:0:0:
256,192,49876,1,0,0:0:0:0:
256,192,50470,1,8,0:0:0:0:
256,192,50767,1,8,0:0:0:0:
256,192,51064,1,0,0:0:0:0:
256,192,51659,1,8,0:0:0:0:
256,192,52253,1,4,0:0:0:0:
256,192,52550,1,12,0:0:0:0:
256,192,52847,1,4,0:0:0:0:
256,192,53441,1,4,0:0:0:0:
256,192,54035,1,8,0:0:0:0:
256,192,54629,1,0,0:0:0:0:
256,192,54926,1,0,0:0:0:0:
256,192,55223,1,8,0:0:0:0:
256,192,55520,1,8,0:0:0:0:
256,192,57005,1,4,0:0:0:0:
256,192,58193,1,0,0:0:0:0:
256,192,58787,1,0,0:0:0:0:
256,192,59381,1,8,0:0:0:0:
256,192,60569,1,0,0:0:0:0:
256,192,61164,1,0,0:0:0:0:
256,192,61758,1,8,0:0:0:0:
256,192,62946,1,4,0:0:0:0:
256,192,63540,1,8,0:0:0:0:
256,192,63837,1,8,0:0:0:0:
256,192,64134,1,0,0:0:0:0:
256,192,64728,1,8,0:0:0:0:
256,192,65322,1,4,0:0:0:0:
256,192,65916,1,8,0:0:0:0:
256,192,66362,1,4,0:0:0:0:
256,192,66807,1,4,0:0:0:0:
256,192,67104,1,12,0:0:0:0:
256,192,67698,1,4,0:0:0:0:
256,192,68292,1,8,0:0:0:0:
256,192,68589,1,8,0:0:0:0:
256,192,68886,1,0,0:0:0:0:
256,192,69777,1,8,0:0:0:0:
256,192,70074,1,0,0:0:0:0:
256,192,70668,1,0,0:0:0:0:
256,192,70965,1,8,0:0:0:0:
256,192,71263,1,0,0:0:0:0:
256,192,71857,1,8,0:0:0:0:
256,192,72451,1,4,0:0:0:0:
256,192,73045,1,8,0:0:0:0:
256,192,73342,1,8,0:0:0:0:
256,192,73639,1,0,0:0:0:0:
256,192,74827,1,12,0:0:0:0:
256,192,75421,1,8,0:0:0:0:
256,192,75866,1,4,0:0:0:0:
256,192,76312,1,4,0:0:0:0:
256,192,76609,1,12,0:0:0:0:
256,192,77203,1,4,0:0:0:0:
256,192,77797,1,8,0:0:0:0:
256,192,78391,1,0,0:0:0:0:
256,192,78688,1,0,0:0:0:0:
256,192,78985,1,8,0:0:0:0:
256,192,79579,1,0,0:0:0:0:
256,192,80173,1,8,0:0:0:0:
256,192,80767,1,0,0:0:0:0:
256,192,81956,1,4,0:0:0:0:
256,192,82550,1,8,0:0:0:0:
256,192,83144,1,0,0:0:0:0:
256,192,83441,1,0,0:0:0:0:
256,192,83738,1,8,0:0:0:0:
256,192,84332,1,4,0:0:0:0:
256,192,84926,1,8,0:0:0:0:
256,192,85371,1,4,0:0:0:0:
256,192,85817,1,4,0:0:0:0:
256,192,86114,1,12,0:0:0:0:
256,192,86708,1,12,0:0:0:0:
256,192,87302,1,0,0:0:0:0:
256,192,87599,1,0,0:0:0:0:
256,192,87896,1,8,0:0:0:0:
256,192,88787,1,0,0:0:0:0:
256,192,89084,1,8,0:0:0:0:
256,192,89678,1,8,0:0:0:0:
256,192,90272,1,0,0:0:0:0:
256,192,91461,1,12,0:0:0:0:
256,192,92055,1,0,0:0:0:0:
256,192,92352,1,0,0:0:0:0:
256,192,92649,1,12,0:0:0:0:
256,192,93243,1,8,0:0:0:0:
256,192,93837,1,0,0:0:0:0:
256,192,94431,1,8,0:0:0:0:
256,192,94876,1,4,0:0:0:0:
256,192,95322,1,4,0:0:0:0:
256,192,95619,1,12,0:0:0:0:
256,192,96213,1,12,0:0:0:0:
256,192,96807,1,0,0:0:0:0:
256,192,97104,1,8,0:0:0:0:
256,192,97401,1,0,0:0:0:0:
256,192,98292,1,8,0:0:0:0:
256,192,98589,1,0,0:0:0:0:
256,192,99183,1,8,0:0:0:0:
256,192,99777,1,0,0:0:0:0:
256,192,100074,1,0,0:0:0:0:
256,192,100371,1,8,0:0:0:0:
256,192,100965,1,12,0:0:0:0:
256,192,101560,1,0,0:0:0:0:
256,192,101857,1,8,0:0:0:0:
256,192,102154,1,0,0:0:0:0:
256,192,102451,1,0,0:0:0:0:
256,192,102748,1,8,0:0:0:0:
256,192,103342,1,12,0:0:0:0:
256,192,104233,1,0,0:0:0:0:
256,192,104530,1,12,0:0:0:0:
256,192,105421,1,8,0:0:0:0:
256,192,105718,1,12,0:0:0:0:
256,192,106312,1,0,0:0:0:0:
256,192,106609,1,8,0:0:0:0:
256,192,106906,1,0,0:0:0:0:
256,192,107797,1,0,0:0:0:0:
256,192,108094,1,8,0:0:0:0:
256,192,108688,1,0,0:0:0:0:
256,192,108985,1,8,0:0:0:0:
256,192,109282,1,0,0:0:0:0:
256,192,110173,1,0,0:0:0:0:
256,192,110470,1,12,0:0:0:0:
256,192,111064,1,0,0:0:0:0:
256,192,111362,1,0,0:0:0:0:
256,192,111659,1,8,0:0:0:0:
256,192,112253,1,0,0:0:0:0:
256,192,112847,1,12,0:0:0:0:
256,192,113144,1,0,0:0:0:0:
256,192,113441,1,0,0:0:0:0:
256,192,113738,1,0,0:0:0:0:
256,192,114035,1,12,0:0:0:0:
256,192,115223,1,0,0:0:0:0:
256,192,116411,1,0,0:0:0:0:
256,192,117599,1,8,0:0:0:0:
256,192,118787,1,8,0:0:0:0:
256,192,119975,1,0,0:0:0:0:
256,192,121163,1,8,0:0:0:0:
256,192,121869,1,8,0:0:0:0:
256,192,122804,1,0,0:0:0:0:
256,192,123713,1,8,0:0:0:0:
256,192,124622,1,0,0:0:0:0:
256,192,125597,1,8,0:0:0:0:
