osu file format v14

[General]
AudioFilename: audio.mp3
AudioLeadIn: 0
PreviewTime: 52169
Countdown: 0
SampleSet: None
StackLeniency: 1
Mode: 1
LetterboxInBreaks: 0
WidescreenStoryboard: 1

[Editor]
DistanceSpacing: 1.4
BeatDivisor: 1
GridSize: 32
TimelineZoom: 2.3

[Metadata]
Title:FIRST:DREAMS
TitleUnicode:FIRST:DREAMS
Artist:uma vs. Morimori Atsushi
ArtistUnicode:uma vs. モリモリあつし
Creator:Axer
Version:Kantan
Source:SOUND VOLTEX VIVID WAVE
Tags:
BeatmapID:2265787
BeatmapSetID:1078004

[Difficulty]
HPDrainRate:8
CircleSize:2
OverallDifficulty:3
ApproachRate:10
SliderMultiplier:1.4
SliderTickRate:1

[Events]
//Background and Video events
0,0,"Onyx.jpg",0,0
//Break Periods
//Storyboard Layer 0 (Background)
//Storyboard Layer 1 (Fail)
//Storyboard Layer 2 (Pass)
//Storyboard Layer 3 (Foreground)
//Storyboard Layer 4 (Overlay)
//Storyboard Sound Samples

[TimingPoints]
169,200,4,1,0,80,1,0
169,-153.846153846154,4,1,0,80,0,0
52169,-153.846153846154,4,1,0,100,0,1
63369,-153.846153846154,4,1,0,100,0,0
90569,-153.846153846154,4,1,0,100,0,1
92169,-153.846153846154,4,1,0,100,0,0
93769,-153.846153846154,4,1,0,100,0,1
96569,-153.846153846154,4,1,0,100,0,0
96969,-153.846153846154,4,1,0,100,0,1
98569,-153.846153846154,4,1,0,100,0,0
100169,-153.846153846154,4,1,0,100,0,1
104569,-153.846153846154,4,1,0,100,0,0
111369,-153.846153846154,4,1,0,100,0,1
114569,-153.846153846154,4,1,0,100,0,0

[HitObjects]
256,192,969,5,12,0:0:0:0:
256,192,1769,1,0,0:0:0:0:
256,192,2169,1,0,0:0:0:0:
256,192,2569,1,8,0:0:0:0:
256,192,3369,1,8,0:0:0:0:
256,192,3769,1,0,0:0:0:0:
256,192,4169,1,8,0:0:0:0:
256,192,4969,1,0,0:0:0:0:
256,192,5769,1,8,0:0:0:0:
256,192,6569,1,0,0:0:0:0:
256,192,6969,1,0,0:0:0:0:
256,192,7169,1,0,0:0:0:0:
256,192,7369,1,12,0:0:0:0:
256,192,8169,1,4,0:0:0:0:
256,192,8569,1,4,0:0:0:0:
256,192,8969,1,12,0:0:0:0:
256,192,9769,1,12,0:0:0:0:
256,192,10169,1,12,0:0:0:0:
256,192,10569,1,4,0:0:0:0:
256,192,11369,1,8,0:0:0:0:
256,192,12169,1,8,0:0:0:0:
256,192,12569,1,0,0:0:0:0:
256,192,12969,1,8,0:0:0:0:
256,192,13369,1,8,0:0:0:0:
256,192,13769,1,12,0:0:0:0:
256,192,14169,1,0,0:0:0:0:
256,192,14569,1,8,0:0:0:0:
256,192,14769,1,8,0:0:0:0:
256,192,14969,1,0,0:0:0:0:
256,192,15169,1,0,0:0:0:0:
256,192,15369,1,8,0:0:0:0:
256,192,15769,1,0,0:0:0:0:
256,192,16169,1,8,0:0:0:0:
256,192,16369,1,0,0:0:0:0:
256,192,16569,1,8,0:0:0:0:
256,192,16769,1,8,0:0:0:0:
256,192,16969,1,0,0:0:0:0:
256,192,17369,1,0,0:0:0:0:
256,192,17769,1,8,0:0:0:0:
256,192,18169,1,0,0:0:0:0:
256,192,18569,1,8,0:0:0:0:
256,192,18969,1,0,0:0:0:0:
256,192,19169,1,0,0:0:0:0:
256,192,19369,1,8,0:0:0:0:
256,192,19769,1,0,0:0:0:0:
256,192,20169,1,8,0:0:0:0:
256,192,20569,1,0,0:0:0:0:
256,192,20969,1,8,0:0:0:0:
256,192,21169,1,8,0:0:0:0:
256,192,21369,1,0,0:0:0:0:
256,192,21569,1,0,0:0:0:0:
256,192,21769,1,8,0:0:0:0:
256,192,22169,1,0,0:0:0:0:
256,192,22569,1,8,0:0:0:0:
256,192,22769,1,0,0:0:0:0:
256,192,22969,1,8,0:0:0:0:
256,192,23169,1,8,0:0:0:0:
256,192,23369,1,0,0:0:0:0:
256,192,23769,1,0,0:0:0:0:
256,192,24169,1,8,0:0:0:0:
256,192,24569,1,0,0:0:0:0:
256,192,24969,1,8,0:0:0:0:
256,192,25369,1,0,0:0:0:0:
256,192,25769,1,8,0:0:0:0:
256,192,25969,1,0,0:0:0:0:
256,192,26169,1,8,0:0:0:0:
256,192,26369,1,8,0:0:0:0:
256,192,26569,1,4,0:0:0:0:
256,192,26969,1,0,0:0:0:0:
256,192,27369,1,0,0:0:0:0:
256,192,27769,1,0,0:0:0:0:
256,192,28169,1,0,0:0:0:0:
256,192,28569,1,0,0:0:0:0:
256,192,28969,1,0,0:0:0:0:
256,192,29369,1,0,0:0:0:0:
256,192,29769,1,12,0:0:0:0:
256,192,30169,1,0,0:0:0:0:
256,192,30569,1,0,0:0:0:0:
256,192,30969,1,0,0:0:0:0:
256,192,31369,1,0,0:0:0:0:
256,192,32169,1,0,0:0:0:0:
256,192,32369,1,0,0:0:0:0:
256,192,32569,1,8,0:0:0:0:
256,192,32969,1,12,0:0:0:0:
256,192,33369,1,0,0:0:0:0:
256,192,33769,1,0,0:0:0:0:
256,192,34169,1,0,0:0:0:0:
256,192,34569,1,0,0:0:0:0:
256,192,34969,1,0,0:0:0:0:
256,192,35369,1,0,0:0:0:0:
256,192,35769,1,0,0:0:0:0:
256,192,35969,1,8,0:0:0:0:
256,192,36169,1,4,0:0:0:0:
256,192,36569,1,0,0:0:0:0:
256,192,36969,1,0,0:0:0:0:
256,192,37369,1,0,0:0:0:0:
256,192,37769,12,0,39169,0:0:0:0:
256,192,39369,5,12,0:0:0:0:
256,192,39769,1,0,0:0:0:0:
256,192,40169,1,8,0:0:0:0:
256,192,40369,1,8,0:0:0:0:
256,192,40569,1,0,0:0:0:0:
256,192,40769,1,0,0:0:0:0:
256,192,40969,1,8,0:0:0:0:
256,192,41369,1,0,0:0:0:0:
256,192,41769,1,8,0:0:0:0:
256,192,42169,1,0,0:0:0:0:
256,192,42369,1,8,0:0:0:0:
256,192,42569,1,0,0:0:0:0:
256,192,42969,1,0,0:0:0:0:
256,192,43369,1,8,0:0:0:0:
256,192,43569,1,8,0:0:0:0:
256,192,43769,1,0,0:0:0:0:
256,192,43969,1,0,0:0:0:0:
256,192,44169,1,8,0:0:0:0:
256,192,44569,1,0,0:0:0:0:
256,192,44969,1,8,0:0:0:0:
256,192,45169,1,0,0:0:0:0:
256,192,45369,1,8,0:0:0:0:
256,192,45769,1,8,0:0:0:0:
256,192,46169,1,0,0:0:0:0:
256,192,46569,1,8,0:0:0:0:
256,192,46769,1,8,0:0:0:0:
256,192,46969,1,0,0:0:0:0:
256,192,47169,1,0,0:0:0:0:
256,192,47369,1,8,0:0:0:0:
256,192,47769,1,0,0:0:0:0:
256,192,48169,1,8,0:0:0:0:
256,192,48369,1,0,0:0:0:0:
256,192,48569,1,8,0:0:0:0:
256,192,48969,1,8,0:0:0:0:
256,192,49369,1,0,0:0:0:0:
256,192,49769,1,8,0:0:0:0:
256,192,49969,1,8,0:0:0:0:
256,192,50169,1,0,0:0:0:0:
256,192,50369,1,0,0:0:0:0:
256,192,50569,12,0,51969,0:0:0:0:
256,192,52169,5,12,0:0:0:0:
256,192,52569,1,0,0:0:0:0:
256,192,52969,1,8,0:0:0:0:
256,192,53169,1,8,0:0:0:0:
256,192,53369,1,0,0:0:0:0:
256,192,53569,1,0,0:0:0:0:
256,192,53769,1,8,0:0:0:0:
256,192,54169,1,0,0:0:0:0:
256,192,54569,1,8,0:0:0:0:
256,192,54769,1,0,0:0:0:0:
256,192,54969,1,8,0:0:0:0:
256,192,55169,1,8,0:0:0:0:
256,192,55369,1,0,0:0:0:0:
256,192,55769,1,0,0:0:0:0:
256,192,56169,1,8,0:0:0:0:
256,192,56369,1,8,0:0:0:0:
256,192,56569,1,0,0:0:0:0:
256,192,56769,1,0,0:0:0:0:
256,192,56969,1,8,0:0:0:0:
256,192,57369,1,0,0:0:0:0:
256,192,57769,1,8,0:0:0:0:
256,192,58169,1,8,0:0:0:0:
256,192,58369,1,8,0:0:0:0:
256,192,58569,1,4,0:0:0:0:
256,192,58969,1,0,0:0:0:0:
256,192,59369,1,8,0:0:0:0:
256,192,59569,1,8,0:0:0:0:
256,192,59769,1,0,0:0:0:0:
256,192,59969,1,0,0:0:0:0:
256,192,60169,1,8,0:0:0:0:
256,192,60569,1,0,0:0:0:0:
256,192,60969,1,8,0:0:0:0:
256,192,61169,1,0,0:0:0:0:
256,192,61369,1,8,0:0:0:0:
256,192,61569,1,8,0:0:0:0:
256,192,61769,1,0,0:0:0:0:
256,192,62169,1,0,0:0:0:0:
256,192,62569,1,8,0:0:0:0:
256,192,62769,1,8,0:0:0:0:
256,192,62969,1,0,0:0:0:0:
256,192,63169,1,0,0:0:0:0:
256,192,63369,1,12,0:0:0:0:
256,192,63769,1,12,0:0:0:0:
256,192,64169,1,4,0:0:0:0:
256,192,64969,1,8,0:0:0:0:
256,192,65769,1,0,0:0:0:0:
256,192,66569,1,8,0:0:0:0:
256,192,67369,1,0,0:0:0:0:
256,192,68169,1,8,0:0:0:0:
256,192,68969,1,0,0:0:0:0:
256,192,69769,1,8,0:0:0:0:
256,192,70569,1,0,0:0:0:0:
256,192,71369,1,8,0:0:0:0:
256,192,72169,1,8,0:0:0:0:
256,192,72569,1,0,0:0:0:0:
256,192,72969,1,8,0:0:0:0:
256,192,73769,1,8,0:0:0:0:
256,192,74169,1,8,0:0:0:0:
256,192,74569,1,0,0:0:0:0:
256,192,75369,1,8,0:0:0:0:
256,192,75769,1,0,0:0:0:0:
256,192,76169,1,8,0:0:0:0:
256,192,76969,1,8,0:0:0:0:
256,192,77369,1,8,0:0:0:0:
256,192,77769,1,4,0:0:0:0:
256,192,78569,1,0,0:0:0:0:
256,192,79369,1,8,0:0:0:0:
256,192,79769,1,0,0:0:0:0:
256,192,80169,1,8,0:0:0:0:
256,192,80969,1,0,0:0:0:0:
256,192,81769,1,0,0:0:0:0:
256,192,82569,1,8,0:0:0:0:
256,192,82969,1,0,0:0:0:0:
256,192,83369,1,8,0:0:0:0:
256,192,83769,1,8,0:0:0:0:
256,192,83969,1,8,0:0:0:0:
256,192,84169,1,4,0:0:0:0:
256,192,84569,1,0,0:0:0:0:
256,192,84969,1,8,0:0:0:0:
256,192,85369,1,0,0:0:0:0:
256,192,85569,1,0,0:0:0:0:
256,192,85769,1,8,0:0:0:0:
256,192,86169,1,0,0:0:0:0:
256,192,86569,1,8,0:0:0:0:
256,192,86969,1,0,0:0:0:0:
256,192,87369,1,8,0:0:0:0:
256,192,87769,1,0,0:0:0:0:
256,192,87969,1,0,0:0:0:0:
256,192,88169,1,8,0:0:0:0:
256,192,88569,1,0,0:0:0:0:
256,192,88769,1,0,0:0:0:0:
256,192,88969,1,8,0:0:0:0:
256,192,89369,1,0,0:0:0:0:
256,192,89769,1,8,0:0:0:0:
256,192,90169,1,0,0:0:0:0:
256,192,90569,1,8,0:0:0:0:
256,192,90969,1,0,0:0:0:0:
256,192,91169,1,0,0:0:0:0:
256,192,91369,1,8,0:0:0:0:
256,192,91769,1,8,0:0:0:0:
256,192,91969,1,0,0:0:0:0:
256,192,92169,1,8,0:0:0:0:
256,192,92569,1,8,0:0:0:0:
256,192,92769,1,8,0:0:0:0:
256,192,92969,1,0,0:0:0:0:
256,192,93369,1,0,0:0:0:0:
256,192,93769,1,8,0:0:0:0:
256,192,94169,1,0,0:0:0:0:
256,192,94369,1,0,0:0:0:0:
256,192,94569,1,8,0:0:0:0:
256,192,94969,1,8,0:0:0:0:
256,192,95169,1,0,0:0:0:0:
256,192,95369,1,8,0:0:0:0:
256,192,95769,1,0,0:0:0:0:
256,192,95969,1,0,0:0:0:0:
256,192,96169,1,8,0:0:0:0:
256,192,96569,1,8,0:0:0:0:
256,192,96969,1,0,0:0:0:0:
256,192,97369,1,0,0:0:0:0:
256,192,97569,1,0,0:0:0:0:
256,192,97769,1,8,0:0:0:0:
256,192,98169,1,8,0:0:0:0:
256,192,98369,1,0,0:0:0:0:
256,192,98569,1,8,0:0:0:0:
256,192,98969,1,8,0:0:0:0:
256,192,99369,1,0,0:0:0:0:
256,192,99769,1,0,0:0:0:0:
256,192,100169,1,8,0:0:0:0:
256,192,100569,1,0,0:0:0:0:
256,192,100769,1,0,0:0:0:0:
256,192,100969,1,8,0:0:0:0:
256,192,101369,1,0,0:0:0:0:
256,192,101769,1,8,0:0:0:0:
256,192,102169,1,0,0:0:0:0:
256,192,102569,1,8,0:0:0:0:
256,192,102769,1,8,0:0:0:0:
256,192,102969,1,0,0:0:0:0:
256,192,103369,1,8,0:0:0:0:
256,192,103569,1,8,0:0:0:0:
256,192,103769,1,0,0:0:0:0:
256,192,103969,1,0,0:0:0:0:
256,192,104169,12,0,104569,0:0:0:0:
256,192,104969,5,12,0:0:0:0:
256,192,105369,1,0,0:0:0:0:
256,192,105769,1,8,0:0:0:0:
256,192,105969,1,8,0:0:0:0:
256,192,106169,1,0,0:0:0:0:
256,192,106369,1,0,0:0:0:0:
256,192,106569,1,8,0:0:0:0:
256,192,106969,1,0,0:0:0:0:
256,192,107369,1,8,0:0:0:0:
256,192,107569,1,0,0:0:0:0:
256,192,107769,1,8,0:0:0:0:
256,192,107969,1,8,0:0:0:0:
256,192,108169,1,0,0:0:0:0:
256,192,108569,1,0,0:0:0:0:
256,192,108969,1,8,0:0:0:0:
256,192,109169,1,8,0:0:0:0:
256,192,109369,1,0,0:0:0:0:
256,192,109569,1,0,0:0:0:0:
256,192,109769,1,8,0:0:0:0:
256,192,110169,1,0,0:0:0:0:
256,192,110369,1,0,0:0:0:0:
256,192,110569,1,8,0:0:0:0:
256,192,110969,1,0,0:0:0:0:
256,192,111369,1,12,0:0:0:0:
256,192,111769,1,0,0:0:0:0:
256,192,112169,1,8,0:0:0:0:
256,192,112369,1,8,0:0:0:0:
256,192,112569,1,0,0:0:0:0:
256,192,112769,1,0,0:0:0:0:
256,192,112969,1,8,0:0:0:0:
256,192,113369,1,0,0:0:0:0:
256,192,113769,1,8,0:0:0:0:
256,192,113969,1,0,0:0:0:0:
256,192,114169,1,8,0:0:0:0:
256,192,114369,1,8,0:0:0:0:
256,192,114569,1,0,0:0:0:0:
256,192,115369,1,0,0:0:0:0:
256,192,115769,1,0,0:0:0:0:
256,192,116169,1,8,0:0:0:0:
256,192,116969,1,0,0:0:0:0:
256,192,117169,1,0,0:0:0:0:
256,192,117369,1,8,0:0:0:0:
256,192,117569,1,8,0:0:0:0:
256,192,117769,12,0,118169,0:0:0:0:
