osu file format v14

[General]
AudioFilename: audio.mp3
AudioLeadIn: 0
PreviewTime: 46741
Countdown: 0
SampleSet: None
StackLeniency: 0.7
Mode: 0
LetterboxInBreaks: 0
WidescreenStoryboard: 1

[Editor]
Bookmarks: 11711,23418,46831,70247,76101,93660,105369
DistanceSpacing: 1.15
BeatDivisor: 8
GridSize: 32
TimelineZoom: 3.299999

[Metadata]
Title:Brave My Soul
TitleUnicode:Brave My Soul
Artist:uma feat, Mashiro
ArtistUnicode:uma feat, ましろ
Creator:A s h e m u
Version:SOUL AR10
Source:BMS
Tags:bofu2017 of fighters ultimate eurobeaters eurobeat
BeatmapID:1886250
BeatmapSetID:903362

[Difficulty]
HPDrainRate:8
CircleSize:4.5
OverallDifficulty:8
ApproachRate:10
SliderMultiplier:1.6
SliderTickRate:1

[Events]
//Background and Video events
0,0,"bravemysoul.png",0,0
//Break Periods
2,70447,75135
//Storyboard Layer 0 (Background)
//Storyboard Layer 1 (Fail)
//Storyboard Layer 2 (Pass)
//Storyboard Layer 3 (Foreground)
//Storyboard Sound Samples

[TimingPoints]
4,365.853658536585,4,2,0,60,1,0
10247,-55.5555555555556,4,2,0,60,0,0
10705,-55.5555555555556,4,2,0,5,0,0
10796,-111.111111111111,4,2,0,60,0,0
11071,-111.111111111111,4,2,0,5,0,0
11162,-55.5555555555556,4,2,0,70,0,0
11711,-62.5,4,2,0,70,0,0
23418,-76.9230769230769,4,2,0,70,0,0
28540,-55.5555555555556,4,2,0,70,0,0
28814,-55.5555555555556,4,2,0,5,0,0
28906,-45.4545454545455,4,2,0,70,0,0
29180,-55.5555555555556,4,2,0,5,0,0
29272,-76.9230769230769,4,2,0,60,0,0
43814,-76.9230769230769,4,2,0,5,0,0
43906,-76.9230769230769,4,2,0,60,0,0
46467,-52.6315789473684,4,2,0,60,0,0
46833,-58.8235294117647,4,1,1,80,0,1
57808,-83.3333333333333,4,1,1,80,0,1
58083,-83.3333333333333,4,1,1,5,0,1
58174,-41.6666666666667,4,1,1,80,0,1
58449,-41.6666666666667,4,1,1,5,0,1
58540,-58.8235294117647,4,1,1,80,0,1
68601,-76.9230769230769,4,1,1,80,0,1
69882,-38.4615384615385,4,1,1,80,0,1
70156,-38.4615384615385,4,1,1,5,0,1
70247,-58.8235294117647,4,2,0,60,0,0
76101,-83.3333333333333,4,2,0,60,0,0
81589,-55.5555555555556,4,2,0,60,0,0
81863,-55.5555555555556,4,2,0,5,0,0
81955,-100,4,2,0,60,0,0
87077,-125,4,2,0,60,0,0
87351,-125,4,2,0,5,0,0
87443,-71.4285714285714,4,2,0,60,0,0
87717,-71.4285714285714,4,2,0,5,0,0
87808,-58.8235294117647,4,1,1,70,0,1
92930,-83.3333333333333,4,1,1,70,0,1
93205,-83.3333333333333,4,1,1,5,0,1
93296,-41.6666666666667,4,1,1,60,0,1
93571,-41.6666666666667,4,1,1,5,0,1
93662,-58.8235294117647,4,1,1,80,0,1
103723,-76.9230769230769,4,1,1,80,0,1
105369,-62.5,4,2,0,70,0,0
119272,-52.6315789473684,4,2,0,70,0,0
119546,-62.5,4,2,0,5,0,0
119638,-62.5,4,2,0,70,0,0

[HitObjects]
88,297,4,6,0,L|6:282,1,80,6|0,0:0|0:0,0:0:0:0:
179,236,369,2,0,L|262:252,1,80,2|0,0:0|0:0,0:0:0:0:
322,216,644,2,0,P|338:178|334:136,1,80,2|0,0:0|0:0,0:0:0:0:
284,88,918,2,0,L|296:43,1,40,2|0,0:0|0:0,0:0:0:0:
304,23,1101,1,2,0:0:0:0:
258,169,1284,1,0,0:0:0:0:
124,54,1467,6,0,L|204:39,1,80,2|0,0:0|0:0,0:0:0:0:
141,205,1833,2,0,L|54:221,1,80,2|0,0:0|0:0,0:0:0:0:
6,172,2107,2,0,P|-5:134|1:95,1,80,2|0,0:0|0:0,0:0:0:0:
63,56,2382,2,0,L|103:63,1,40,2|0,0:0|0:0,0:0:0:0:
129,102,2564,1,2,0:0:0:0:
241,12,2747,1,2,0:0:0:0:
400,92,2930,5,2,0:0:0:0:
400,92,3296,2,0,P|409:134|400:171,1,80,2|0,0:0|0:0,0:0:0:0:
337,206,3571,2,0,P|328:248|337:285,1,80,2|0,0:0|0:0,0:0:0:0:
398,321,3845,2,0,L|437:313,1,40,2|0,0:0|0:0,0:0:0:0:
480,334,4028,1,2,0:0:0:0:
409,247,4211,1,0,0:0:0:0:
276,321,4394,6,0,L|194:303,1,80,2|0,0:0|0:0,0:0:0:0:
126,177,4760,1,2,0:0:0:0:
135,179,4851,1,0,0:0:0:0:
145,181,4942,1,0,0:0:0:0:
155,183,5034,1,2,0:0:0:0:
74,303,5308,1,2,0:0:0:0:
64,305,5400,1,0,0:0:0:0:
54,307,5491,5,2,0:0:0:0:
33,287,5582,1,2,0:0:0:0:
21,259,5673,1,2,0:0:0:0:
22,229,5765,1,2,0:0:0:0:
34,202,5857,5,6,0:0:0:0:
115,97,6040,2,0,L|126:177,1,80,2|0,0:0|0:0,0:0:0:0:
22,116,6406,2,0,L|12:37,1,80,2|0,0:0|0:0,0:0:0:0:
203,78,6772,1,2,0:0:0:0:
203,78,6863,1,0,0:0:0:0:
203,78,6955,1,0,0:0:0:0:
126,177,7138,1,2,0:0:0:0:
12,37,7321,5,2,0:0:0:0:
73,112,7503,2,0,P|39:132|0:137,1,80,2|0,0:0|0:0,0:0:0:0:
100,26,7869,2,0,P|134:45|157:78,1,80,2|0,0:0|0:0,0:0:0:0:
115,223,8235,1,2,0:0:0:0:
115,223,8327,1,0,0:0:0:0:
115,223,8418,2,0,P|143:194|157:157,1,80,2|0,0:0|0:0,0:0:0:0:
0,210,8784,6,0,L|16:295,1,80,2|0,0:0|0:0,0:0:0:0:
108,314,9150,1,2,0:0:0:0:
72,149,9333,2,0,L|79:109,1,40,2|0,0:0|0:0,0:0:0:0:
163,81,9516,1,0,0:0:0:0:
157,111,9607,1,0,0:0:0:0:
151,140,9699,1,2,0:0:0:0:
144,169,9790,1,0,0:0:0:0:
123,191,9882,5,2,0:0:0:0:
172,185,9973,1,2,0:0:0:0:
228,140,10064,1,2,0:0:0:0:
277,147,10156,1,2,0:0:0:0:
326,157,10247,6,0,B|365:187|422:173|422:173|493:157|552:219|525:299|462:323|413:297,1,359.999989013672,6|0,0:0|0:0,0:0:0:0:
351,277,10796,6,0,L|239:302,1,107.999996704102,4|0,0:0|0:0,0:0:0:0:
166,250,11162,6,0,P|151:285|155:323,1,71.9999978027344,2|0,0:0|0:0,0:0:0:0:
276,203,11345,2,0,P|253:172|218:156,1,71.9999978027344,2|0,0:0|0:0,0:0:0:0:
277,308,11528,2,0,P|314:303|345:281,1,71.9999978027344,2|0,0:0|0:0,0:0:0:0:
416,179,11711,6,0,P|433:121|411:58,1,128,6|0,0:0|0:0,0:0:0:0:
349,25,11985,1,0,0:0:0:0:
279,39,12077,2,0,L|143:22,1,128,2|2,0:0|0:0,0:0:0:0:
81,14,12351,1,2,0:0:0:0:
81,14,12443,1,0,0:0:0:0:
18,181,12625,2,0,L|93:172,1,64,2|0,0:0|0:0,0:0:0:0:
143,75,12808,2,0,L|218:84,1,64,2|0,0:0|0:0,0:0:0:0:
261,161,12991,2,0,L|336:152,1,64,2|0,0:0|0:0,0:0:0:0:
201,257,13174,6,0,L|71:276,1,128,2|0,0:0|0:0,0:0:0:0:
3,286,13449,1,0,0:0:0:0:
3,286,13540,1,2,0:0:0:0:
273,311,13723,1,2,0:0:0:0:
273,311,13814,2,0,P|285:281|289:239,1,64,2|0,0:0|0:0,0:0:0:0:
229,171,13998,5,2,0:0:0:0:
197,175,14089,1,2,0:0:0:0:
165,180,14180,1,0,0:0:0:0:
129,166,14272,5,2,0:0:0:0:
98,203,14363,1,2,0:0:0:0:
91,250,14454,1,2,0:0:0:0:
107,294,14546,1,2,0:0:0:0:
150,317,14638,6,0,P|211:298|273:311,1,128,6|0,0:0|0:0,0:0:0:0:
332,349,14912,1,0,0:0:0:0:
391,312,15003,2,0,L|414:171,1,128,2|2,0:0|0:0,0:0:0:0:
425,115,15278,1,2,0:0:0:0:
425,115,15369,1,0,0:0:0:0:
269,24,15552,2,0,L|260:99,1,64,2|0,0:0|0:0,0:0:0:0:
163,149,15735,2,0,L|172:224,1,64,2|0,0:0|0:0,0:0:0:0:
249,267,15918,2,0,L|240:342,1,64,2|0,0:0|0:0,0:0:0:0:
320,205,16101,6,0,B|369:193|369:193|444:211,1,128,2|0,0:0|0:0,0:0:0:0:
249,267,16375,2,0,B|200:279|200:279|125:261,1,128,2|0,0:0|0:0,0:0:0:0:
327,283,16650,2,0,L|341:324,3,32,2|0|0|0,0:0|0:0|0:0|0:0,0:0:0:0:
379,332,16833,2,0,L|451:313,1,64,2|0,0:1|0:0,0:0:0:0:
320,205,17016,2,0,L|258:188,1,64
211,375,17199,2,0,L|283:356,1,64,2|0,0:1|0:0,0:0:0:0:
165,164,17382,2,0,L|103:147,1,64
0,353,17564,6,0,L|123:319,1,128,4|0,0:0|0:0,0:0:0:0:
169,264,17839,1,0,0:0:0:0:
234,289,17930,2,0,L|357:255,1,128,2|2,0:0|0:0,0:0:0:0:
426,236,18205,1,2,0:0:0:0:
426,236,18296,1,0,0:0:0:0:
226,150,18479,2,0,P|233:182|226:215,1,64,2|0,0:0|0:0,0:0:0:0:
158,96,18662,2,0,P|182:73|214:63,1,64,2|0,0:0|0:0,0:0:0:0:
146,185,18845,2,0,P|114:175|89:152,1,64,2|0,0:0|0:0,0:0:0:0:
46,33,19028,6,0,P|45:70|31:104,1,64,2|0,0:0|0:0,0:0:0:0:
12,171,19211,2,0,L|28:235,1,64,2|0,0:0|0:0,0:0:0:0:
90,307,19394,2,0,L|57:183,1,128,2|2,0:0|0:0,0:0:0:0:
42,113,19668,1,2,0:0:0:0:
42,113,19760,1,0,0:0:0:0:
210,63,19943,5,2,0:0:0:0:
201,97,20034,1,0,0:0:0:0:
264,159,20125,1,2,0:0:0:0:
273,193,20216,1,0,0:0:0:0:
177,231,20308,1,2,0:0:0:0:
168,265,20399,1,0,0:0:0:0:
156,307,20491,6,0,P|99:284|31:298,1,128,4|0,0:0|0:0,0:0:0:0:
65,364,20766,1,0,0:0:0:0:
65,364,20857,1,2,0:0:0:0:
243,269,21040,1,2,0:0:0:0:
243,269,21132,1,2,0:0:0:0:
243,269,21223,1,0,0:0:0:0:
66,343,21406,2,0,L|75:268,1,64,2|0,0:0|0:0,0:0:0:0:
172,218,21589,2,0,L|163:143,1,64,2|0,0:0|0:0,0:0:0:0:
86,100,21772,2,0,L|95:25,1,64,2|0,0:0|0:0,0:0:0:0:
232,45,21955,6,0,L|248:173,1,128,2|0,0:0|0:0,0:0:0:0:
300,219,22229,2,0,L|284:91,1,128,2|0,0:0|0:0,0:0:0:0:
343,130,22503,2,0,L|348:171,3,32,2|0|0|0,0:0|0:0|0:0|0:0,0:0:0:0:
348,210,22686,5,2,0:0:0:0:
317,201,22778,1,0,0:0:0:0:
285,202,22869,1,2,0:0:0:0:
255,213,22961,1,0,0:0:0:0:
230,233,23052,1,2,0:0:0:0:
204,252,23144,1,2,0:0:0:0:
175,263,23235,1,2,0:0:0:0:
143,264,23327,1,2,0:0:0:0:
112,256,23418,6,0,L|-2:273,1,103.999995239258,4|0,0:0|0:0,0:0:0:0:
77,350,23784,1,2,0:0:0:0:
77,350,23967,2,0,L|179:334,1,103.999995239258
256,382,24333,1,0,0:0:0:0:
291,233,24516,1,2,0:0:0:0:
475,305,24699,6,0,B|416:336|340:333|340:333|276:308,1,207.999990478516
316,158,25247,1,2,0:0:0:0:
430,218,25430,2,0,P|447:169|452:105,1,103.999995239258
431,84,25705,1,0,0:0:0:0:
431,84,25796,1,0,0:0:0:0:
316,158,25979,1,2,0:0:0:0:
255,29,26162,1,0,0:0:0:0:
47,130,26345,6,0,B|104:91|184:91|184:91|211:110|246:119,1,207.999990478516,0|2,0:0|0:0,0:0:0:0:
255,29,26894,1,0,0:0:0:0:
172,181,27077,2,0,P|217:205|269:205,2,103.999995239258,0|0|2,0:0|0:0|0:0,0:0:0:0:
33,92,27625,2,0,B|82:142|82:142|56:283,1,207.999990478516
204,359,28174,2,0,L|183:252,1,103.999995239258,2|0,0:0|0:0,0:0:0:0:
160,98,28540,6,0,B|231:74|231:74|300:87|300:87|379:63,1,215.999993408203,2|0,0:1|0:0,0:0:0:0:
360,37,28906,6,0,P|456:81|365:155,1,264.000008056641,2|0,0:1|0:0,0:0:0:0:
329,140,29272,6,0,L|371:310,1,155.999992858887,4|0,0:0|0:0,0:0:0:0:
342,333,29638,1,2,0:0:0:0:
456,210,29821,1,0,0:0:0:0:
241,149,30003,1,0,0:0:0:0:
281,269,30186,1,0,0:0:0:0:
281,269,30369,1,2,0:0:0:0:
367,66,30552,1,0,0:0:0:0:
367,66,30644,1,0,0:0:0:0:
367,66,30735,5,0,0:0:0:0:
490,118,30918,2,0,P|490:147|484:170,1,51.999997619629
456,210,31101,1,2,0:0:0:0:
434,194,31193,1,0,0:0:0:0:
410,185,31284,1,0,0:0:0:0:
384,183,31375,1,0,0:0:0:0:
359,187,31467,5,0,0:0:0:0:
343,223,31558,1,0,0:0:0:0:
317,251,31650,1,0,0:0:0:0:
283,270,31741,1,0,0:0:0:0:
245,276,31833,1,2,0:0:0:0:
248,165,32016,1,0,0:0:0:0:
410,283,32199,5,0,0:0:0:0:
303,379,32382,1,0,0:0:0:0:
172,205,32564,2,0,P|214:233|244:276,1,103.999995239258,2|0,0:0|0:0,0:0:0:0:
41,347,32930,2,0,P|30:296|39:245,1,103.999995239258
40,246,33205,1,0,0:0:0:0:
40,246,33296,1,2,0:0:0:0:
136,301,33479,1,0,0:0:0:0:
285,179,33662,5,0,0:0:0:0:
40,246,33845,2,0,P|48:212|47:182,1,51.999997619629
94,78,34028,2,0,P|96:104|106:131,3,51.999997619629,2|0|0|0,0:0|0:0|0:0|0:0,0:0:0:0:
184,88,34394,1,0,0:0:0:0:
204,72,34485,1,0,0:0:0:0:
228,62,34576,1,0,0:0:0:0:
254,56,34668,1,0,0:0:0:0:
279,56,34760,1,0,0:0:0:0:
292,69,34851,1,0,0:0:0:0:
311,80,34943,1,0,0:0:0:0:
330,88,35034,1,0,0:0:0:0:
350,91,35125,5,4,0:0:0:0:
477,186,35308,2,0,L|359:177,1,103.999995239258,2|0,0:0|0:0,0:0:0:0:
215,244,35674,2,0,L|318:251,1,103.999995239258,2|0,0:0|0:0,0:0:0:0:
264,152,36040,1,2,0:0:0:0:
264,152,36132,1,0,0:0:0:0:
264,152,36223,1,0,0:0:0:0:
337,338,36406,1,2,0:0:0:0:
442,232,36589,6,0,L|450:107,1,103.999995239258,0|2,0:0|0:0,0:0:0:0:
270,48,36955,2,0,L|264:152,1,103.999995239258,0|2,0:0|0:0,0:0:0:0:
376,72,37321,1,0,0:0:0:0:
393,53,37412,1,0,0:0:0:0:
416,40,37503,1,2,0:0:0:0:
441,35,37595,1,2,0:0:0:0:
467,36,37686,1,0,0:0:0:0:
348,202,37869,1,2,0:0:0:0:
348,202,37961,1,0,0:0:0:0:
348,202,38052,6,0,P|296:183|241:183,1,103.999995239258,2|2,0:0|0:0,0:0:0:0:
217,203,38327,1,2,0:0:0:0:
183,216,38418,2,0,L|80:192,1,103.999995239258,0|2,0:0|0:0,0:0:0:0:
126,331,38784,2,0,L|227:354,1,103.999995239258,2|2,0:0|0:0,0:0:0:0:
227,354,39058,1,2,0:0:0:0:
227,354,39150,1,0,0:0:0:0:
364,239,39333,1,2,0:0:0:0:
364,239,39424,1,0,0:0:0:0:
364,239,39516,6,0,P|357:214|357:188,3,51.999997619629,2|0|0|2,0:0|0:0|0:0|0:0,0:0:0:0:
504,122,39882,2,0,P|505:99|493:62,3,51.999997619629,0|0|2|0,0:0|0:0|0:0|0:0,0:0:0:0:
467,37,40247,1,2,0:0:0:0:
416,30,40338,1,0,0:0:0:0:
369,52,40429,1,2,0:0:0:0:
341,95,40522,1,2,0:0:0:0:
341,147,40613,1,2,0:0:0:0:
320,183,40704,1,0,0:0:0:0:
283,202,40796,1,2,0:0:0:0:
242,198,40887,1,0,0:0:0:0:
210,174,40979,5,4,0:0:0:0:
157,60,41162,2,0,P|207:47|261:59,1,103.999995239258,2|0,0:0|0:0,0:0:0:0:
105,191,41528,1,2,0:0:0:0:
320,114,41711,2,0,P|356:150|372:203,1,103.999995239258,2|0,0:0|0:0,0:0:0:0:
170,257,42077,1,2,0:0:0:0:
67,111,42260,1,2,0:0:0:0:
67,111,42352,1,0,0:0:0:0:
67,111,42443,6,0,P|64:162|40:217,1,103.999995239258,2|0,0:0|0:0,0:0:0:0:
16,234,42717,2,0,L|36:338,1,103.999995239258,2|0,0:0|0:0,0:0:0:0:
68,352,42991,1,2,0:0:0:0:
141,226,43174,5,2,0:0:0:0:
163,212,43265,1,0,0:0:0:0:
187,202,43356,1,0,0:0:0:0:
212,197,43448,1,0,0:0:0:0:
238,195,43540,2,0,B|268:190|303:208|303:208|311:195|311:195|348:210|387:202,1,155.999992858887,2|0,0:0|0:0,0:0:0:0:
441,159,43906,6,0,P|422:105|418:49,1,103.999995239258,4|0,0:0|0:0,0:0:0:0:
258,217,44272,2,0,P|277:271|281:327,1,103.999995239258,2|0,0:0|0:0,0:0:0:0:
164,172,44638,1,2,0:0:0:0:
189,142,44729,1,0,0:0:0:0:
223,124,44820,1,2,0:0:0:0:
262,120,44912,1,2,0:0:0:0:
299,131,45003,1,2,0:0:0:0:
205,291,45186,6,0,P|98:289|45:205,1,207.999990478516,4|0,0:0|0:0,0:0:0:0:
283,220,45735,2,0,P|306:264|305:320,1,103.999995239258,4|0,0:0|0:0,0:0:0:0:
45,211,46101,2,2,P|59:163|100:124,1,103.999995239258,4|0,0:0|0:0,0:0:0:0:
509,241,46467,2,0,P|437:160|306:183,1,227.999993911743,2|0,0:0|0:0,0:0:0:0:
266,225,46833,6,0,L|132:207,1,136.000002593994,6|0,0:0|0:0,0:0:0:0:
62,243,47107,1,0,0:0:0:0:
8,184,47199,2,0,P|-3:116|29:52,1,136.000002593994,8|0,0:0|0:0,0:0:0:0:
91,15,47473,1,0,0:0:0:0:
157,55,47564,2,0,P|188:72|234:82,1,68.0000012969971,2|0,0:0|0:0,0:0:0:0:
355,54,47747,2,0,P|325:71|292:80,1,68.0000012969971
170,143,47930,2,0,L|182:212,1,68.0000012969971,8|0,0:0|0:0,0:0:0:0:
342,143,48113,2,0,L|330:212,1,68.0000012969971
257,284,48296,6,0,L|257:144,1,136.000002593994,2|0,0:0|0:0,0:0:0:0:
292,80,48571,1,0,0:0:0:0:
369,73,48662,2,0,P|424:101|504:107,1,136.000002593994,8|0,0:0|0:0,0:0:0:0:
480,184,48936,1,0,0:0:0:0:
402,171,49028,2,0,P|370:161|342:143,1,68.0000012969971,2|0,0:0|0:0,0:0:0:0:
292,80,49211,2,0,P|263:61|231:51,1,68.0000012969971
232,235,49394,2,0,P|264:224|292:206,1,68.0000012969971,10|0,0:0|0:0,0:0:0:0:
342,143,49577,2,0,P|370:124|402:114,1,68.0000012969971
430,276,49760,6,0,P|362:264|297:295,1,136.000002593994,6|0,0:0|0:0,0:0:0:0:
240,338,50034,1,0,0:0:0:0:
168,369,50125,2,0,P|99:360|48:319,1,136.000002593994,8|0,0:0|0:0,0:0:0:0:
25,243,50400,1,0,0:0:0:0:
50,169,50491,2,0,P|65:138|73:98,3,68.0000012969971,2|0|0|0,0:0|0:0|0:0|0:0,0:0:0:0:
216,106,50857,2,0,P|201:75|193:35,3,68.0000012969971,8|0|0|0,0:0|0:0|0:0|0:0,0:0:0:0:
348,106,51223,5,2,0:0:0:0:
348,106,51314,1,0,0:0:0:0:
348,106,51406,2,0,L|325:170,1,68.0000012969971
488,155,51589,1,8,0:0:0:0:
488,155,51680,1,0,0:0:0:0:
488,155,51772,2,0,L|426:184,1,68.0000012969971
438,293,51955,6,0,L|373:270,1,68.0000012969971,10|0,0:0|0:0,0:0:0:0:
299,244,52138,1,0,0:0:0:0:
299,244,52229,1,0,0:0:0:0:
316,320,52321,2,0,L|254:349,1,68.0000012969971,10|0,0:0|0:0,0:0:0:0:
183,384,52504,1,0,0:0:0:0:
183,384,52595,1,0,0:0:0:0:
82,343,52686,6,0,P|65:281|84:213,1,136.000002593994,6|0,0:0|0:0,0:0:0:0:
150,169,52961,1,0,0:0:0:0:
226,182,53052,2,0,P|259:179|298:169,1,68.0000012969971,8|0,0:0|0:0,0:0:0:0:
309,247,53235,2,0,P|336:227|364:199,1,68.0000012969971
415,260,53418,6,0,P|428:229|439:191,1,68.0000012969971,2|0,0:0|0:0,0:0:0:0:
512,210,53601,2,0,P|509:176|499:137,1,68.0000012969971
352,131,53784,2,0,P|361:98|375:67,1,68.0000012969971,8|0,0:0|0:0,0:0:0:0:
481,73,53967,2,0,P|471:40|457:9,1,68.0000012969971
304,15,54150,6,0,P|272:77|259:144,1,136.000002593994,2|0,0:0|0:0,0:0:0:0:
270,219,54424,1,0,0:0:0:0:
293,293,54516,2,0,P|212:322|156:326,1,136.000002593994,8|0,0:0|0:0,0:0:0:0:
86,308,54790,1,0,0:0:0:0:
28,252,54882,6,0,P|42:220|51:188,1,68.0000012969971,2|0,0:0|0:0,0:0:0:0:
28,41,55064,2,0,P|42:72|51:105,1,68.0000012969971
117,146,55247,1,10,0:0:0:0:
191,119,55339,1,0,0:0:0:0:
267,131,55430,1,0,0:0:0:0:
333,172,55522,1,0,0:0:0:0:
355,246,55613,6,0,P|426:237|491:252,1,136.000002593994,6|0,0:0|0:0,0:0:0:0:
504,328,55888,1,0,0:0:0:0:
435,365,55979,2,0,P|364:374|299:359,1,136.000002593994,8|0,0:0|0:0,0:0:0:0:
244,306,56253,1,0,0:0:0:0:
172,339,56345,2,0,P|142:352|105:356,1,68.0000012969971,2|0,0:0|0:0,0:0:0:0:
115,277,56528,2,0,P|82:273|48:258,1,68.0000012969971
93,193,56711,2,0,P|66:173|44:143,1,68.0000012969971,8|0,0:0|0:0,0:0:0:0:
119,117,56894,2,0,P|106:87|102:50,1,68.0000012969971
180,59,57077,6,0,P|214:64|251:65,1,68.0000012969971,2|0,0:0|0:0,0:0:0:0:
289,131,57260,2,0,P|255:136|218:137,1,68.0000012969971
176,201,57443,2,0,P|210:206|247:207,1,68.0000012969971,8|0,0:0|0:0,0:0:0:0:
285,273,57626,2,0,P|251:278|214:279,1,68.0000012969971
163,351,57808,6,0,B|228:353|228:353|243:350|243:350|311:364,1,143.999995605469,2|0,0:0|0:0,0:0:0:0:
401,364,58174,6,0,B|405:333|384:300|358:284|358:284|387:271|387:271|381:264|381:264|415:250|417:225|415:180|385:169|385:169|397:193|400:210,1,287.999991210938,2|0,0:1|0:0,0:0:0:0:
309,214,58540,6,0,P|241:216|176:201,1,136.000002593994,6|0,0:0|0:0,0:0:0:0:
97,196,58814,1,0,0:0:0:0:
29,236,58906,2,0,P|11:310|24:372,1,136.000002593994,8|0,0:0|0:0,0:0:0:0:
93,333,59180,1,0,0:0:0:0:
164,366,59272,2,0,P|171:333|158:295,1,68.0000012969971,2|0,0:0|0:0,0:0:0:0:
116,236,59455,2,0,P|109:203|122:165,1,68.0000012969971
158,102,59638,2,0,P|184:80|223:75,1,68.0000012969971,8|0,0:0|0:0,0:0:0:0:
275,127,59821,1,0,0:0:0:0:
275,127,59912,1,0,0:0:0:0:
275,127,60003,6,0,L|347:145,1,68.0000012969971,2|0,0:0|0:0,0:0:0:0:
495,186,60186,2,0,L|429:169,1,68.0000012969971
215,193,60369,2,0,L|287:211,1,68.0000012969971,8|0,0:0|0:0,0:0:0:0:
435,252,60552,2,0,L|369:235,1,68.0000012969971
152,263,60735,6,0,L|16:227,1,136.000002593994,2|0,0:0|0:0,0:0:0:0:
0,152,61010,1,0,0:0:0:0:
43,87,61101,1,8,0:0:0:0:
119,67,61193,1,0,0:0:0:0:
193,90,61284,1,0,0:0:0:0:
227,159,61375,1,0,0:0:0:0:
231,237,61467,6,0,L|370:270,1,136.000002593994,6|0,0:0|0:0,0:0:0:0:
409,332,61741,1,0,0:0:0:0:
476,290,61833,2,0,P|509:232|503:165,1,136.000002593994,8|0,0:0|0:0,0:0:0:0:
455,102,62107,1,0,0:0:0:0:
378,119,62199,2,0,P|347:130|311:134,1,68.0000012969971,2|0,0:0|0:0,0:0:0:0:
231,237,62382,2,0,P|236:204|251:171,1,68.0000012969971
198,48,62564,2,0,P|223:69|244:98,1,68.0000012969971,8|0,0:0|0:0,0:0:0:0:
152,133,62747,1,0,0:0:0:0:
152,133,62839,1,0,0:0:0:0:
152,133,62930,6,0,L|68:115,1,68.0000012969971,2|0,0:0|0:0,0:0:0:0:
106,206,63113,2,0,L|22:188,1,68.0000012969971
259,135,63296,2,0,L|343:117,1,68.0000012969971,8|0,0:0|0:0,0:0:0:0:
305,208,63479,2,0,L|389:190,1,68.0000012969971
152,275,63662,6,0,P|137:303|133:348,1,68.0000012969971,10|0,0:0|0:0,0:0:0:0:
209,325,63845,1,0,0:0:0:0:
209,325,63936,1,0,0:0:0:0:
271,277,64028,2,0,P|295:298|337:313,1,68.0000012969971,10|0,0:0|0:0,0:0:0:0:
334,234,64211,1,0,0:0:0:0:
334,234,64302,1,0,0:0:0:0:
273,171,64394,6,0,P|339:142|389:88,1,136.000002593994,6|0,0:0|0:0,0:0:0:0:
410,23,64668,1,0,0:0:0:0:
484,48,64760,2,0,P|488:110|467:191,1,136.000002593994,8|0,0:0|0:0,0:0:0:0:
406,226,65034,1,0,0:0:0:0:
420,302,65125,2,0,P|390:300|354:284,3,68.0000012969971,2|0|0|0,0:0|0:0|0:0|0:0,0:0:0:0:
251,252,65491,2,0,P|219:263|193:285,3,68.0000012969971,8|0|0|0,0:0|0:0|0:0|0:0,0:0:0:0:
114,361,65857,6,0,P|94:332|84:297,1,68.0000012969971,2|0,0:0|0:0,0:0:0:0:
309,320,66040,2,0,P|329:291|339:256,1,68.0000012969971
156,202,66223,2,0,P|136:173|126:138,1,68.0000012969971,8|0,0:0|0:0,0:0:0:0:
289,126,66406,2,0,P|309:97|319:62,1,68.0000012969971
37,124,66589,6,0,P|54:191|85:249,1,136.000002593994,2|0,0:0|0:0,0:0:0:0:
132,312,66863,1,0,0:0:0:0:
204,342,66955,1,8,0:0:0:0:
276,313,67046,1,0,0:0:0:0:
350,286,67138,1,0,0:0:0:0:
422,313,67229,1,0,0:0:0:0:
499,298,67321,6,0,P|511:233|492:161,1,136.000002593994,6|0,0:0|0:0,0:0:0:0:
494,166,67595,1,0,0:0:0:0:
494,166,67686,1,8,0:0:0:0:
254,81,67869,2,0,P|246:116|258:156,1,68.0000012969971
376,257,68052,6,0,P|388:192|369:120,1,136.000002593994,6|0,0:0|0:0,0:0:0:0:
371,125,68326,1,0,0:0:0:0:
371,125,68417,1,8,0:0:0:0:
88,226,68601,6,0,B|188:238|188:238|190:242|190:242|194:238|194:238|296:251,1,207.999990478516,2|2,0:0|0:0,0:0:0:0:
123,311,69150,1,10,0:0:0:0:
104,138,69333,1,0,0:0:0:0:
9,258,69516,2,0,P|-5:308|8:361,1,103.999995239258,10|0,0:0|0:0,0:0:0:0:
186,194,69882,6,0,B|233:118|174:59|174:59|169:50|169:50|162:58|162:58|111:89|113:133|113:133|92:110|92:110|102:88,1,311.999985717774,4|0,0:0|0:0,0:0:0:0:
49,44,70247,5,4,0:0:0:0:
53,137,75735,5,2,0:0:0:0:
53,137,75827,1,0,0:0:0:0:
53,137,75918,1,0,0:0:0:0:
146,233,76101,6,0,L|131:327,1,95.9999970703126,4|0,0:0|0:0,0:0:0:0:
255,174,76467,2,0,L|269:79,1,95.9999970703126,2|0,0:0|0:0,0:0:0:0:
337,264,76833,1,0,0:0:0:0:
163,110,77016,1,0,0:0:0:0:
424,37,77199,2,0,P|436:84|425:128,1,95.9999970703126,2|0,0:0|0:0,0:0:0:0:
340,166,77564,6,0,L|228:152,1,95.9999970703126
379,267,77930,2,0,L|474:278,1,95.9999970703126,2|0,0:0|0:0,0:0:0:0:
312,354,78296,1,0,0:0:0:0:
312,354,78388,1,0,0:0:0:0:
312,354,78479,1,0,0:0:0:0:
146,233,78662,2,0,L|160:138,1,95.9999970703126,2|0,0:0|0:0,0:0:0:0:
355,73,79028,6,0,L|327:263,1,191.999994140625,4|2,0:0|0:0,0:0:0:0:
242,206,79577,1,0,0:0:0:0:
410,128,79760,1,0,0:0:0:0:
432,86,79851,1,0,0:0:0:0:
426,39,79942,1,0,0:0:0:0:
394,5,80034,1,0,0:0:0:0:
348,0,80125,1,2,0:0:0:0:
174,57,80308,6,0,B|235:88|307:94|307:94|355:73,1,191.999994140625,4|0,0:0|0:0,0:0:0:0:
512,149,80857,2,0,P|461:176|430:205,1,95.9999970703126,4|0,0:0|0:0,0:0:0:0:
351,355,81223,2,0,P|304:298|234:283,1,143.999995605469,4|0,0:0|0:0,0:0:0:0:
205,314,81589,2,0,B|164:298|107:298|107:298|134:289|134:289|78:286|51:262,1,215.999993408203,6|0,0:0|0:0,0:0:0:0:
35,191,81955,5,4,0:0:0:0:
35,191,82321,2,0,P|24:146|34:110,1,80,2|0,0:0|0:0,0:0:0:0:
141,152,82686,1,0,0:0:0:0:
100,274,82869,2,0,L|55:285,1,40
26,269,83052,1,2,0:0:0:0:
183,344,83235,1,0,0:0:0:0:
256,192,83418,6,0,P|279:154|290:113,1,80
355,179,83784,2,0,P|395:156|423:127,1,80,2|0,0:0|0:0,0:0:0:0:
425,223,84150,2,0,P|471:229|516:221,2,80,0|2|2,0:0|0:0|0:0,0:0:0:0:
452,106,84699,1,0,0:0:0:0:
509,295,84882,6,0,B|433:290|386:301|386:301|352:322,1,160,4|2,0:0|0:0,0:0:0:0:
355,321,85430,1,0,0:0:0:0:
233,214,85613,2,0,P|280:225|323:228,1,80
344,226,85888,1,0,0:0:0:0:
344,226,85979,1,2,0:0:0:0:
216,116,86162,1,0,0:0:0:0:
216,116,86253,1,0,0:0:0:0:
216,116,86345,6,0,P|189:121|164:130,3,40,2|0|0|0,0:0|0:0|0:0|0:0,0:0:0:0:
103,210,86711,2,0,P|123:212|141:219,3,40,2|0|0|0,0:0|0:0|0:0|0:0,0:0:0:0:
245,268,87077,2,0,P|269:308|267:355,1,96,6|0,0:1|0:0,0:0:0:0:
240,376,87443,2,0,P|310:331|396:323,1,167.999994873047,6|0,0:1|0:0,0:0:0:0:
454,277,87808,6,0,L|465:126,1,136.000002593994,6|0,0:0|0:0,0:0:0:0:
405,76,88083,1,0,0:0:0:0:
322,120,88174,2,0,L|326:188,1,68.0000012969971,8|0,0:0|0:0,0:0:0:0:
216,116,88357,2,0,L|212:48,1,68.0000012969971
110,108,88540,5,2,0:0:0:0:
38,132,88632,1,0,0:0:0:0:
38,206,88723,1,0,0:0:0:0:
110,230,88814,1,0,0:0:0:0:
153,169,88906,2,0,P|183:190|215:198,1,68.0000012969971,8|0,0:0|0:0,0:0:0:0:
359,169,89089,2,0,P|329:190|297:198,1,68.0000012969971
256,124,89272,6,0,B|262:83|254:55|254:55|265:65|265:65|253:40|260:12,2,136.000002593994,2|0|8,0:0|0:0|0:0,0:0:0:0:
255,202,89729,1,0,0:0:0:0:
255,202,89821,2,0,L|255:274,1,68.0000012969971
191,321,90003,1,2,0:0:0:0:
191,321,90095,1,0,0:0:0:0:
191,321,90186,2,0,P|161:335|123:341,1,68.0000012969971
135,230,90369,1,8,0:0:0:0:
135,230,90461,1,0,0:0:0:0:
135,230,90552,2,0,P|103:218|72:196,1,68.0000012969971
91,80,90735,6,0,P|141:125|204:148,1,136.000002593994,6|0,0:0|0:0,0:0:0:0:
255,87,91010,1,0,0:0:0:0:
302,148,91101,2,0,P|365:124|415:79,1,136.000002593994,8|0,0:0|0:0,0:0:0:0:
494,77,91375,1,0,0:0:0:0:
466,151,91467,6,0,P|438:169|415:194,1,68.0000012969971,2|0,0:0|0:0,0:0:0:0:
466,335,91650,2,0,P|434:314|414:291,1,68.0000012969971
350,245,91833,1,8,0:0:0:0:
303,225,91924,1,0,0:0:0:0:
253,231,92016,1,0,0:0:0:0:
212,261,92107,1,0,0:0:0:0:
190,306,92199,6,0,P|159:318|123:326,1,68.0000012969971,2|0,0:0|0:0,0:0:0:0:
321,306,92382,2,0,P|353:318|389:326,1,68.0000012969971
191,154,92564,2,0,P|159:142|123:134,1,68.0000012969971,8|0,0:0|0:0,0:0:0:0:
321,154,92747,2,0,P|352:142|388:134,1,68.0000012969971
463,213,92930,6,0,B|432:209|404:220|404:220|381:212|381:212|359:236|326:238,1,143.999995605469,2|0,0:1|0:0,0:0:0:0:
272,307,93296,2,2,B|322:271|336:203|302:163|302:163|294:158|294:158|317:142|317:142|279:154|250:145|232:123,1,287.999991210938,0|0,0:0|0:0,0:1:0:0:
290,59,93662,6,0,B|360:55|360:55|423:27,1,136.000002593994,6|0,0:0|0:0,0:0:0:0:
494,54,93936,1,0,0:0:0:0:
460,125,94028,2,0,B|449:180|449:180|457:192|457:192|446:258,1,136.000002593994,8|0,0:0|0:0,0:0:0:0:
426,327,94302,1,0,0:0:0:0:
358,287,94394,2,0,L|293:267,1,68.0000012969971,2|0,0:0|0:0,0:0:0:0:
257,353,94577,2,0,L|192:373,1,68.0000012969971
203,262,94760,2,0,L|223:197,1,68.0000012969971,8|0,0:0|0:0,0:0:0:0:
148,115,94943,1,0,0:0:0:0:
148,115,95034,1,0,0:0:0:0:
148,115,95125,6,0,L|130:181,1,68.0000012969971,2|0,0:0|0:0,0:0:0:0:
0,284,95308,2,0,L|18:218,1,68.0000012969971
144,288,95491,2,0,L|78:270,1,68.0000012969971,8|0,0:0|0:0,0:0:0:0:
6,112,95674,2,0,L|72:130,1,68.0000012969971
182,325,95857,6,0,L|46:289,1,136.000002593994,2|0,0:0|0:0,0:0:0:0:
2,226,96132,1,0,0:0:0:0:
6,147,96223,1,8,0:0:0:0:
62,92,96315,1,0,0:0:0:0:
137,74,96406,1,0,0:0:0:0:
201,118,96497,1,0,0:0:0:0:
270,154,96589,6,0,P|338:173|418:166,1,136.000002593994,6|0,0:0|0:0,0:0:0:0:
470,210,96863,1,0,0:0:0:0:
485,132,96955,2,0,P|518:74|512:7,1,136.000002593994,8|0,0:0|0:0,0:0:0:0:
436,30,97229,1,0,0:0:0:0:
373,78,97321,2,0,L|300:68,1,68.0000012969971,2|0,0:0|0:0,0:0:0:0:
335,159,97503,2,0,L|404:170,1,68.0000012969971
342,246,97686,2,0,L|269:236,1,68.0000012969971,8|0,0:0|0:0,0:0:0:0:
121,222,97869,1,0,0:0:0:0:
121,222,97961,1,0,0:0:0:0:
121,222,98052,6,0,L|135:289,1,68.0000012969971,2|0,0:0|0:0,0:0:0:0:
215,159,98235,2,0,L|201:226,1,68.0000012969971
94,83,98418,2,0,L|108:150,1,68.0000012969971,8|0,0:0|0:0,0:0:0:0:
246,19,98601,2,0,L|232:86,1,68.0000012969971
215,159,98784,6,0,L|201:226,1,68.0000012969971,10|0,0:0|0:0,0:0:0:0:
119,287,98967,1,0,0:0:0:0:
192,265,99058,1,0,0:0:0:0:
266,288,99149,1,10,0:0:0:0:
326,341,99241,1,0,0:0:0:0:
399,363,99332,1,0,0:0:0:0:
472,342,99423,1,0,0:0:0:0:
502,275,99516,6,0,P|438:254|393:195,1,136.000002593994,6|0,0:0|0:0,0:0:0:0:
415,123,99790,1,0,0:0:0:0:
324,123,99882,2,0,L|339:53,2,68.0000012969971,8|0|0,0:0|0:0|0:0,0:0:0:0:
406,226,100156,1,0,0:0:0:0:
294,212,100247,2,0,P|261:199|223:196,1,68.0000012969971,2|0,0:0|0:0,0:0:0:0:
326,341,100430,2,0,P|359:354|397:357,1,68.0000012969971
372,263,100613,2,0,P|385:230|388:192,1,68.0000012969971,8|0,0:0|0:0,0:0:0:0:
243,295,100796,2,0,P|230:328|227:366,1,68.0000012969971
490,314,100979,6,0,P|470:285|460:250,1,68.0000012969971,2|0,0:0|0:0,0:0:0:0:
349,236,101162,2,0,P|369:207|379:172,1,68.0000012969971
469,123,101345,2,0,P|456:93|446:57,1,68.0000012969971,8|0,0:0|0:0,0:0:0:0:
326,72,101528,1,0,0:0:0:0:
326,72,101619,1,0,0:0:0:0:
326,72,101711,6,0,P|313:142|282:200,1,136.000002593994,2|0,0:0|0:0,0:0:0:0:
208,174,101985,1,0,0:0:0:0:
137,148,102077,1,8,0:0:0:0:
75,192,102168,1,0,0:0:0:0:
76,268,102260,1,0,0:0:0:0:
139,310,102351,1,0,0:0:0:0:
209,282,102443,6,0,P|290:263|342:279,1,136.000002593994,6|0,0:0|0:0,0:0:0:0:
402,323,102717,1,0,0:0:0:0:
402,323,102808,1,8,0:0:0:0:
171,351,102991,2,0,P|137:357|105:349,1,68.0000012969971
209,282,103174,6,0,P|197:217|216:145,1,136.000002593994,6|0,0:0|0:0,0:0:0:0:
214,150,103448,1,0,0:0:0:0:
214,150,103539,1,8,0:0:0:0:
464,315,103723,6,0,B|366:324|366:324|360:321|360:321|355:325|355:325|256:336,1,207.999990478516,6|2,0:0|0:0,0:0:0:0:
296,213,104272,1,2,0:0:0:0:
399,364,104455,1,0,0:0:0:0:
512,235,104638,2,0,P|523:184|509:135,1,103.999995239258,2|0,0:0|0:0,0:0:0:0:
211,154,105003,1,2,0:0:0:0:
262,165,105095,1,0,0:0:0:0:
313,176,105186,1,0,0:0:0:0:
364,188,105277,1,0,0:0:0:0:
417,201,105369,6,0,P|434:259|412:322,1,128,6|0,0:0|0:0,0:0:0:0:
348,358,105643,1,2,0:0:0:0:
283,320,105735,2,0,L|155:291,1,128,2|2,0:0|0:0,0:0:0:0:
89,320,106009,1,2,0:0:0:0:
89,320,106101,1,0,0:0:0:0:
57,65,106283,2,0,L|66:140,1,64,2|0,0:0|0:0,0:0:0:0:
202,107,106467,2,0,L|132:77,1,64,2|0,0:0|0:0,0:0:0:0:
84,219,106650,2,0,L|144:173,1,64,2|0,0:0|0:0,0:0:0:0:
339,114,106832,6,0,L|233:195,1,128,2|0,0:0|0:0,0:0:0:0:
179,239,107107,1,2,0:0:0:0:
179,239,107198,1,2,0:0:0:0:
30,109,107381,1,2,0:0:0:0:
30,109,107473,2,0,L|22:45,1,64,2|0,0:0|0:0,0:0:0:0:
138,0,107656,5,2,0:0:0:0:
142,32,107747,1,2,0:0:0:0:
147,64,107838,1,0,0:0:0:0:
200,88,107930,5,2,0:0:0:0:
231,125,108021,1,2,0:0:0:0:
238,172,108112,1,2,0:0:0:0:
222,216,108204,1,2,0:0:0:0:
179,239,108296,6,0,P|118:220|56:233,1,128,6|0,0:0|0:0,0:0:0:0:
11,291,108571,1,2,0:0:0:0:
83,298,108661,2,0,L|106:167,1,128,2|0,0:0|0:0,0:0:0:0:
117,98,108936,1,2,0:0:0:0:
117,98,109027,1,2,0:0:0:0:
367,148,109211,2,0,L|374:211,1,64,2|0,0:0|0:0,0:0:0:0:
512,189,109395,2,0,L|453:163,1,64,2|0,0:0|0:0,0:0:0:0:
394,301,109578,2,0,L|445:262,1,64,2|0,0:0|0:0,0:0:0:0:
293,196,109759,6,0,B|244:184|244:184|169:202,1,128,2|0,0:0|0:0,0:0:0:0:
320,268,110033,2,0,B|369:280|369:280|444:262,1,128,2|0,0:0|0:0,0:0:0:0:
243,257,110308,2,0,L|229:298,3,32,2|0|2|0,0:0|0:0|0:0|0:0,0:0:0:0:
222,311,110491,2,0,L|150:292,1,64,2|0,0:1|0:0,0:0:0:0:
281,184,110674,2,0,L|343:167,1,64,2|0,0:0|0:0,0:0:0:0:
390,354,110857,2,0,L|318:335,1,64,2|0,0:1|0:0,0:0:0:0:
436,143,111040,2,0,L|498:126,1,64,2|0,0:0|0:0,0:0:0:0:
489,347,111222,6,0,P|430:351|366:313,1,128,6|0,0:0|0:0,0:0:0:0:
322,261,111497,1,2,0:0:0:0:
277,202,111588,2,0,P|227:165|160:165,1,128,2|0,0:0|0:0,0:0:0:0:
93,189,111863,1,2,0:0:0:0:
93,189,111954,1,2,0:0:0:0:
141,318,112137,2,0,P|134:350|141:383,1,64,2|0,0:0|0:0,0:0:0:0:
209,264,112320,2,0,P|185:241|153:231,1,64,2|0,0:0|0:0,0:0:0:0:
221,353,112503,2,0,P|253:343|278:320,1,64,2|0,0:0|0:0,0:0:0:0:
379,338,112686,6,0,P|378:301|364:267,1,64,2|0,0:0|0:0,0:0:0:0:
345,200,112869,2,0,L|361:136,1,64,2|0,0:0|0:0,0:0:0:0:
423,64,113052,2,0,L|390:188,1,128,2|0,0:0|0:0,0:0:0:0:
375,258,113326,1,2,0:0:0:0:
375,258,113418,1,2,0:0:0:0:
22,191,113601,5,2,0:0:0:0:
56,182,113692,1,0,0:0:0:0:
118,245,113783,1,2,0:0:0:0:
152,254,113874,1,0,0:0:0:0:
190,158,113966,1,2,0:0:0:0:
224,149,114057,1,0,0:0:0:0:
261,174,114149,6,0,L|133:156,1,128,6|0,0:0|0:0,0:0:0:0:
59,149,114424,1,2,0:0:0:0:
59,149,114515,1,2,0:0:0:0:
112,17,114698,1,2,0:0:0:0:
112,17,114790,1,2,0:0:0:0:
112,17,114882,1,0,0:0:0:0:
303,38,115064,2,0,L|310:101,1,64,2|0,0:0|0:0,0:0:0:0:
434,126,115247,2,0,L|426:189,1,64,2|0,0:0|0:0,0:0:0:0:
324,229,115430,2,0,L|331:292,1,64,2|0,0:0|0:0,0:0:0:0:
187,249,115613,6,0,L|171:121,1,128,2|0,0:0|0:0,0:0:0:0:
119,75,115887,2,0,L|135:203,1,128,2|0,0:0|0:0,0:0:0:0:
76,164,116161,2,0,L|71:123,3,32,2|0|2|0,0:0|0:0|0:0|0:0,0:0:0:0:
41,100,116344,5,2,0:0:0:0:
90,114,116436,1,0,0:0:0:0:
141,112,116527,1,2,0:0:0:0:
189,95,116619,1,0,0:0:0:0:
229,63,116711,1,2,0:0:0:0:
271,32,116802,1,2,0:0:0:0:
317,15,116893,1,2,0:0:0:0:
368,13,116985,1,2,0:0:0:0:
412,26,117077,6,4,B|391:111|391:111|379:193|431:253|516:254|574:219|590:142|567:60|469:32|391:111|391:111|296:164|195:129,1,768,4|2,0:0|0:0,0:0:0:0:
13,256,118357,6,0,B|73:271|136:249|136:249|206:250|257:297,1,256,4|2,0:0|0:0,0:0:0:0:
65,154,118906,2,0,P|51:92|70:10,1,128,6|0,0:0|0:0,0:0:0:0:
384,114,119272,2,0,B|411:151|401:205|370:227|370:227|352:247|341:278|341:278|351:247|340:214,1,227.999993911743,2|0,0:0|0:0,0:0:0:0:
321,164,119638,5,2,0:1:0:0:
