osu file format v14

[General]
AudioFilename: audio.mp3
AudioLeadIn: 0
PreviewTime: 32116
Countdown: 0
SampleSet: Normal
StackLeniency: 0.7
Mode: 1
LetterboxInBreaks: 0
WidescreenStoryboard: 0

[Editor]
Bookmarks: 11906,16958,20748,26748,27064,37169,39222,44432,47274,94958,97327,102222
DistanceSpacing: 1
BeatDivisor: 4
GridSize: 8
TimelineZoom: 2.6

[Metadata]
Title:take a step forward
TitleUnicode:take a step forward
Artist:uma
ArtistUnicode:uma
Creator:Prophecy
Version:GRAVITY ONI
Source:SOUND VOLTEX II -infinite infection-
Tags:SOUND VOLTEX FLOOR KAC2013 ULTIMATE TRACKS -LEGEND OF KAC- mug bemani sdvx music game Nardo Nardoxyribonucleic aabc271 aabc Ayyri eiri-
BeatmapID:1535539
BeatmapSetID:479466

[Difficulty]
HPDrainRate:5.5
CircleSize:2
OverallDifficulty:6
ApproachRate:10
SliderMultiplier:1.4
SliderTickRate:1

[Events]
//Background and Video events
0,0,"BGCity.jpg",0,0
//Break Periods
//Storyboard Layer 0 (Background)
//Storyboard Layer 1 (Fail)
//Storyboard Layer 2 (Pass)
//Storyboard Layer 3 (Foreground)
//Storyboard Layer 4 (Overlay)
//Storyboard Sound Samples

[TimingPoints]
1801,315.789473684211,4,1,0,92,1,0
1801,-108.695652173913,4,1,0,92,0,0
6853,-108.695652173913,4,1,0,96,0,0
7011,-108.548168249661,4,1,0,96,0,0
7169,-108.40108401084,4,1,0,96,0,0
7327,-108.254397834912,4,1,0,96,0,0
7485,-108.108108108108,4,1,0,96,0,0
7643,-107.962213225371,4,1,0,96,0,0
7801,-107.816711590297,4,1,0,96,0,0
7958,-107.671601615074,4,1,0,96,0,0
8116,-107.52688172043,4,1,0,96,0,0
8274,-107.38255033557,4,1,0,96,0,0
8432,-107.238605898123,4,1,0,96,0,0
8590,-107.095046854083,4,1,0,96,0,0
8748,-106.951871657754,4,1,0,96,0,0
8906,-106.809078771696,4,1,0,96,0,0
9064,-106.666666666667,4,1,0,96,0,0
9222,-106.524633821571,4,1,0,96,0,0
9379,-106.382978723404,4,1,0,97,0,0
9537,-105.820105820106,4,1,0,97,0,0
9695,-105.263157894737,4,1,0,97,0,0
9853,-104.712041884817,4,1,0,97,0,0
10011,-104.166666666667,4,1,0,98,0,0
10169,-103.626943005181,4,1,0,98,0,0
10327,-103.092783505155,4,1,0,98,0,0
10485,-102.564102564103,4,1,0,98,0,0
10643,-102.040816326531,4,1,0,99,0,0
10722,-101.781170483461,4,1,0,99,0,0
10801,-101.522842639594,4,1,0,99,0,0
10879,-101.26582278481,4,1,0,99,0,0
10958,-101.010101010101,4,1,0,99,0,0
11037,-100.755667506297,4,1,0,99,0,0
11116,-100.502512562814,4,1,0,99,0,0
11274,-100,4,1,0,100,0,0
11906,-119.047619047619,4,1,0,92,0,0
16958,-119.047619047619,4,1,0,94,0,0
21379,-119.047619047619,4,1,0,92,0,0
22011,-104.166666666667,4,1,0,96,0,0
27064,-104.166666666667,4,1,0,98,0,0
27379,-103.626943005181,4,1,0,98,0,0
27695,-103.092783505155,4,1,0,98,0,0
29590,-102.040816326531,4,1,0,98,0,0
29669,-101.910828025478,4,1,0,98,0,0
29748,-101.781170483461,4,1,0,98,0,0
29827,-101.651842439644,4,1,0,98,0,0
29906,-101.522842639594,4,1,0,98,0,0
30064,-101.26582278481,4,1,0,98,0,0
30222,-101.010101010101,4,1,0,98,0,0
30379,-100.755667506297,4,1,0,98,0,0
30537,-100.502512562814,4,1,0,98,0,0
30616,-100.376411543287,4,1,0,98,0,0
30695,-100.250626566416,4,1,0,98,0,0
30853,-100,4,1,0,98,0,0
30958,-99.8336106489185,4,1,0,98,0,0
31064,-99.6677740863787,4,1,0,98,0,0
31169,-99.502487562189,4,1,0,98,0,0
31274,-99.3377483443709,4,1,0,98,0,0
31379,-99.1735537190082,4,1,0,98,0,0
31485,-99.009900990099,4,1,0,98,0,0
31801,-98.522167487685,4,1,0,98,0,0
32116,-97.0873786407767,4,1,0,100,0,1
41590,-98.0392156862745,4,1,0,100,0,0
42222,-97.0873786407767,4,1,0,100,0,1
51695,-97.0873786407767,4,1,0,70,0,1
52327,-100,4,1,0,92,0,0
52801,-101.522842639594,4,1,0,92,0,0
53116,-102.564102564103,4,1,0,92,0,0
53274,-103.092783505155,4,1,0,92,0,0
53590,-104.166666666667,4,1,0,92,0,0
61801,-104.166666666667,4,1,0,62,0,0
62432,-102.040816326531,4,1,0,96,0,0
71906,-104.166666666667,4,1,0,96,0,0
72537,-104.166666666667,4,1,0,92,0,0
82327,-102.040816326531,4,1,0,96,0,0
82643,-101.010101010101,4,1,0,98,0,0
85169,-100,4,1,0,98,0,0
87695,-99.009900990099,4,1,0,99,0,0
90222,-98.0392156862745,4,1,0,99,0,0
90379,-97.799511002445,4,1,0,99,0,0
90537,-97.5609756097561,4,1,0,99,0,0
90695,-97.323600973236,4,1,0,99,0,0
90853,-97.0873786407767,4,1,0,99,0,0
91011,-96.8523002421308,4,1,0,99,0,0
91169,-96.6183574879227,4,1,0,99,0,0
91327,-96.3855421686747,4,1,0,99,0,0
91485,-96.1538461538461,4,1,0,99,0,0
91643,-95.9232613908873,4,1,0,99,0,0
91801,-95.6937799043063,4,1,0,99,0,0
91958,-95.4653937947495,4,1,0,99,0,0
92116,-95.2380952380952,4,1,0,99,0,0
92432,-94.78672985782,4,1,0,99,0,0
92748,-90.9090909090909,4,1,0,100,0,1
102853,-100,4,1,0,90,0,0
107906,-100,4,1,0,80,0,0
110432,-103.092783505155,4,1,0,90,0,0
110590,-105.263157894737,4,1,0,90,0,0
110748,-108.695652173913,4,1,0,90,0,0
110906,-111.111111111111,4,1,0,90,0,0
111064,-114.942528735632,4,1,0,90,0,0
111222,-117.647058823529,4,1,0,90,0,0
111379,-121.951219512195,4,1,0,90,0,0
111537,-125,4,1,0,90,0,0
111695,-111.111111111111,4,1,0,90,0,0
111853,-100,4,1,0,90,0,0
112011,-90.9090909090909,4,1,0,90,0,0
112169,-83.3333333333333,4,1,0,90,0,0
112327,-76.9230769230769,4,1,0,90,0,0
112643,-71.4285736083984,4,1,0,90,0,0
112958,-40,4,1,0,90,0,0

[Colours]
Combo1 : 242,24,57
Combo2 : 0,202,0
Combo3 : 18,124,255

[HitObjects]
256,192,1801,5,8,0:0:0:0:
256,192,1958,1,8,0:0:0:0:
256,192,2116,1,0,0:0:0:0:
256,192,2274,1,0,0:0:0:0:
256,192,2432,1,8,0:0:0:0:
256,192,2590,1,8,0:0:0:0:
256,192,2748,1,0,0:0:0:0:
256,192,2906,1,0,0:0:0:0:
256,192,3064,1,8,0:0:0:0:
256,192,3222,1,8,0:0:0:0:
256,192,3379,1,0,0:0:0:0:
256,192,3537,1,8,0:0:0:0:
256,192,3695,1,0,0:0:0:0:
256,192,3853,1,0,0:0:0:0:
256,192,4011,1,8,0:0:0:0:
256,192,4169,1,8,0:0:0:0:
256,192,4327,1,8,0:0:0:0:
256,192,4485,1,0,0:0:0:0:
256,192,4643,1,8,0:0:0:0:
256,192,4801,1,0,0:0:0:0:
256,192,4958,1,8,0:0:0:0:
256,192,5116,1,8,0:0:0:0:
256,192,5274,1,0,0:0:0:0:
256,192,5432,1,0,0:0:0:0:
256,192,5590,1,8,0:0:0:0:
256,192,5748,1,8,0:0:0:0:
256,192,5906,1,0,0:0:0:0:
256,192,6064,1,8,0:0:0:0:
256,192,6222,1,0,0:0:0:0:
256,192,6379,1,0,0:0:0:0:
256,192,6537,1,8,0:0:0:0:
256,192,6695,1,8,0:0:0:0:
256,192,6853,1,12,0:0:0:0:
256,192,7011,1,0,0:0:0:0:
256,192,7169,1,8,0:0:0:0:
256,192,7327,1,0,0:0:0:0:
256,192,7485,1,8,0:0:0:0:
256,192,7643,1,8,0:0:0:0:
256,192,7801,1,0,0:0:0:0:
256,192,7958,1,0,0:0:0:0:
256,192,8116,1,8,0:0:0:0:
256,192,8274,1,8,0:0:0:0:
256,192,8432,1,0,0:0:0:0:
256,192,8590,1,8,0:0:0:0:
256,192,8748,1,0,0:0:0:0:
256,192,8906,1,0,0:0:0:0:
256,192,9064,1,8,0:0:0:0:
256,192,9222,1,8,0:0:0:0:
256,192,9379,1,8,0:0:0:0:
256,192,9537,1,0,0:0:0:0:
256,192,9695,1,8,0:0:0:0:
256,192,9853,1,0,0:0:0:0:
256,192,10011,1,8,0:0:0:0:
256,192,10169,1,8,0:0:0:0:
256,192,10327,1,0,0:0:0:0:
256,192,10485,1,0,0:0:0:0:
256,192,10643,1,0,0:0:0:0:
256,192,10722,1,0,0:0:0:0:
256,192,10801,1,0,0:0:0:0:
256,192,10879,1,0,0:0:0:0:
256,192,10958,1,0,0:0:0:0:
256,192,11037,1,0,0:0:0:0:
256,192,11116,1,0,0:0:0:0:
256,192,11195,1,0,0:0:0:0:
256,192,11274,1,8,0:0:0:0:
256,192,11906,1,8,0:0:0:0:
256,192,12222,1,0,0:0:0:0:
256,192,12379,1,8,0:0:0:0:
256,192,12695,1,0,0:0:0:0:
256,192,12853,1,8,0:0:0:0:
256,192,13169,1,8,0:0:0:0:
256,192,13327,1,0,0:0:0:0:
256,192,13643,1,0,0:0:0:0:
256,192,13801,1,8,0:0:0:0:
256,192,13958,1,0,0:0:0:0:
256,192,14116,1,0,0:0:0:0:
256,192,14432,1,8,0:0:0:0:
256,192,14748,1,0,0:0:0:0:
256,192,14906,1,8,0:0:0:0:
256,192,15222,1,0,0:0:0:0:
256,192,15379,1,8,0:0:0:0:
256,192,15695,1,8,0:0:0:0:
256,192,15853,1,0,0:0:0:0:
256,192,16169,1,0,0:0:0:0:
256,192,16327,1,8,0:0:0:0:
256,192,16485,1,0,0:0:0:0:
256,192,16643,1,0,0:0:0:0:
256,192,16958,1,12,0:0:0:0:
256,192,17274,1,0,0:0:0:0:
256,192,17432,1,8,0:0:0:0:
256,192,17748,1,0,0:0:0:0:
256,192,17906,1,8,0:0:0:0:
256,192,18222,1,8,0:0:0:0:
256,192,18379,1,0,0:0:0:0:
256,192,18695,1,0,0:0:0:0:
256,192,18853,1,8,0:0:0:0:
256,192,19011,1,0,0:0:0:0:
256,192,19169,1,8,0:0:0:0:
256,192,19485,1,0,0:0:0:0:
256,192,19801,1,0,0:0:0:0:
256,192,19958,1,8,0:0:0:0:
256,192,20274,1,0,0:0:0:0:
256,192,20432,1,0,0:0:0:0:
256,192,20748,1,12,0:0:0:0:
256,192,21379,1,8,0:0:0:0:
256,192,21695,1,8,0:0:0:0:
256,192,22011,1,4,0:0:0:0:
256,192,22169,1,8,0:0:0:0:
256,192,22327,1,0,0:0:0:0:
256,192,22406,1,0,0:0:0:0:
256,192,22485,1,8,0:0:0:0:
256,192,22643,1,8,0:0:0:0:
256,192,22801,1,8,0:0:0:0:
256,192,22853,1,0,0:0:0:0:
256,192,22906,1,0,0:0:0:0:
256,192,22958,1,8,0:0:0:0:
256,192,23116,1,8,0:0:0:0:
256,192,23274,1,0,0:0:0:0:
256,192,23432,1,0,0:0:0:0:
256,192,23511,1,0,0:0:0:0:
256,192,23590,1,8,0:0:0:0:
256,192,23643,1,8,0:0:0:0:
256,192,23695,1,8,0:0:0:0:
256,192,23748,1,0,0:0:0:0:
256,192,23906,1,8,0:0:0:0:
256,192,24064,1,0,0:0:0:0:
256,192,24222,1,8,0:0:0:0:
256,192,24379,1,8,0:0:0:0:
256,192,24537,1,0,0:0:0:0:
256,192,24616,1,0,0:0:0:0:
256,192,24695,1,8,0:0:0:0:
256,192,24774,1,0,0:0:0:0:
256,192,24853,1,8,0:0:0:0:
256,192,25011,1,8,0:0:0:0:
256,192,25169,1,8,0:0:0:0:
256,192,25327,1,0,0:0:0:0:
256,192,25406,1,0,0:0:0:0:
256,192,25485,1,8,0:0:0:0:
256,192,25537,1,8,0:0:0:0:
256,192,25590,1,0,0:0:0:0:
256,192,25643,1,8,0:0:0:0:
256,192,25801,1,8,0:0:0:0:
256,192,25958,1,0,0:0:0:0:
256,192,26116,1,8,0:0:0:0:
256,192,26195,1,8,0:0:0:0:
256,192,26274,1,0,0:0:0:0:
256,192,26353,1,0,0:0:0:0:
256,192,26432,1,8,0:0:0:0:
256,192,26748,1,0,0:0:0:0:
256,192,26906,1,8,0:0:0:0:
256,192,27064,1,4,0:0:0:0:
256,192,27222,1,0,0:0:0:0:
256,192,27301,1,0,0:0:0:0:
256,192,27379,1,8,0:0:0:0:
256,192,27537,1,0,0:0:0:0:
256,192,27695,1,0,0:0:0:0:
256,192,27774,1,8,0:0:0:0:
256,192,27853,1,8,0:0:0:0:
256,192,27906,1,8,0:0:0:0:
256,192,27958,1,0,0:0:0:0:
256,192,28011,1,8,0:0:0:0:
256,192,28169,1,0,0:0:0:0:
256,192,28327,1,0,0:0:0:0:
256,192,28485,1,8,0:0:0:0:
256,192,28564,1,0,0:0:0:0:
256,192,28643,1,8,0:0:0:0:
256,192,28695,1,8,0:0:0:0:
256,192,28748,1,8,0:0:0:0:
256,192,28801,1,0,0:0:0:0:
256,192,28879,1,0,0:0:0:0:
256,192,28958,1,8,0:0:0:0:
256,192,29116,1,8,0:0:0:0:
256,192,29274,1,0,0:0:0:0:
256,192,29432,1,0,0:0:0:0:
256,192,29590,1,8,0:0:0:0:
256,192,29669,1,8,0:0:0:0:
256,192,29748,1,0,0:0:0:0:
256,192,29827,1,0,0:0:0:0:
256,192,29906,1,8,0:0:0:0:
256,192,29985,1,8,0:0:0:0:
256,192,30064,1,0,0:0:0:0:
256,192,30143,1,0,0:0:0:0:
256,192,30221,1,8,0:0:0:0:
256,192,30301,1,8,0:0:0:0:
256,192,30379,1,8,0:0:0:0:
256,192,30458,1,8,0:0:0:0:
256,192,30537,1,0,0:0:0:0:
256,192,30616,1,0,0:0:0:0:
256,192,30696,1,8,0:0:0:0:
256,192,30774,1,8,0:0:0:0:
256,192,30854,1,0,0:0:0:0:
256,192,30958,1,0,0:0:0:0:
256,192,31064,1,0,0:0:0:0:
256,192,31169,1,8,0:0:0:0:
256,192,31274,1,0,0:0:0:0:
256,192,31379,1,0,0:0:0:0:
256,192,31485,1,12,0:0:0:0:
256,192,31801,1,0,0:0:0:0:
256,192,32116,1,4,0:0:0:0:
256,192,32274,1,8,0:0:0:0:
256,192,32432,1,0,0:0:0:0:
256,192,32511,1,0,0:0:0:0:
256,192,32590,1,8,0:0:0:0:
256,192,32748,1,0,0:0:0:0:
256,192,32827,1,8,0:0:0:0:
256,192,32906,1,8,0:0:0:0:
256,192,32958,1,0,0:0:0:0:
256,192,33011,1,0,0:0:0:0:
256,192,33063,1,8,0:0:0:0:
256,192,33143,1,0,0:0:0:0:
256,192,33221,1,8,0:0:0:0:
256,192,33301,1,8,0:0:0:0:
256,192,33379,1,0,0:0:0:0:
256,192,33537,1,8,0:0:0:0:
256,192,33616,1,0,0:0:0:0:
256,192,33695,1,8,0:0:0:0:
256,192,33774,1,8,0:0:0:0:
256,192,33853,1,0,0:0:0:0:
256,192,33932,1,0,0:0:0:0:
256,192,34011,1,8,0:0:0:0:
256,192,34169,1,0,0:0:0:0:
256,192,34327,1,8,0:0:0:0:
256,192,34484,1,8,0:0:0:0:
256,192,34642,1,0,0:0:0:0:
256,192,34800,1,8,0:0:0:0:
256,192,34879,1,0,0:0:0:0:
256,192,34958,1,8,0:0:0:0:
256,192,35116,1,8,0:0:0:0:
256,192,35274,1,8,0:0:0:0:
256,192,35432,1,0,0:0:0:0:
256,192,35511,1,0,0:0:0:0:
256,192,35590,1,8,0:0:0:0:
256,192,35748,1,8,0:0:0:0:
256,192,35906,1,8,0:0:0:0:
256,192,35985,1,8,0:0:0:0:
256,192,36063,1,0,0:0:0:0:
256,192,36142,1,0,0:0:0:0:
256,192,36221,1,8,0:0:0:0:
256,192,36379,1,8,0:0:0:0:
256,192,36458,1,0,0:0:0:0:
256,192,36537,1,8,0:0:0:0:
256,192,36695,1,0,0:0:0:0:
256,192,36853,1,8,0:0:0:0:
256,192,36932,1,0,0:0:0:0:
256,192,37011,1,0,0:0:0:0:
256,192,37169,1,4,0:0:0:0:
256,192,37327,1,8,0:0:0:0:
256,192,37485,1,0,0:0:0:0:
256,192,37564,1,0,0:0:0:0:
256,192,37643,1,8,0:0:0:0:
256,192,37801,1,0,0:0:0:0:
256,192,37879,1,8,0:0:0:0:
256,192,37959,1,8,0:0:0:0:
256,192,38011,1,0,0:0:0:0:
256,192,38064,1,0,0:0:0:0:
256,192,38116,1,8,0:0:0:0:
256,192,38195,1,0,0:0:0:0:
256,192,38274,1,8,0:0:0:0:
256,192,38353,1,8,0:0:0:0:
256,192,38432,1,0,0:0:0:0:
256,192,38590,1,8,0:0:0:0:
256,192,38669,1,0,0:0:0:0:
256,192,38748,1,8,0:0:0:0:
256,192,38827,1,8,0:0:0:0:
256,192,38906,1,0,0:0:0:0:
256,192,38985,1,0,0:0:0:0:
256,192,39064,1,8,0:0:0:0:
256,192,39222,1,0,0:0:0:0:
256,192,39380,1,8,0:0:0:0:
256,192,39537,1,8,0:0:0:0:
256,192,39695,1,0,0:0:0:0:
256,192,39853,1,8,0:0:0:0:
256,192,39932,1,0,0:0:0:0:
256,192,40011,1,8,0:0:0:0:
256,192,40169,1,8,0:0:0:0:
256,192,40327,1,8,0:0:0:0:
256,192,40485,1,0,0:0:0:0:
256,192,40564,1,8,0:0:0:0:
256,192,40643,1,0,0:0:0:0:
256,192,40801,1,0,0:0:0:0:
256,192,40959,1,12,0:0:0:0:
256,192,41195,1,4,0:0:0:0:
256,192,41432,1,4,0:0:0:0:
256,192,41590,1,12,0:0:0:0:
256,192,41906,1,0,0:0:0:0:
256,192,42064,1,8,0:0:0:0:
256,192,42222,1,12,0:0:0:0:
256,192,42380,1,8,0:0:0:0:
256,192,42538,1,0,0:0:0:0:
256,192,42617,1,0,0:0:0:0:
256,192,42696,1,8,0:0:0:0:
256,192,42854,1,0,0:0:0:0:
256,192,42933,1,8,0:0:0:0:
256,192,43012,1,8,0:0:0:0:
256,192,43064,1,0,0:0:0:0:
256,192,43116,1,0,0:0:0:0:
256,192,43169,1,8,0:0:0:0:
256,192,43248,1,0,0:0:0:0:
256,192,43327,1,8,0:0:0:0:
256,192,43406,1,8,0:0:0:0:
256,192,43485,1,0,0:0:0:0:
256,192,43643,1,8,0:0:0:0:
256,192,43722,1,0,0:0:0:0:
256,192,43801,1,8,0:0:0:0:
256,192,43879,1,8,0:0:0:0:
256,192,43958,1,0,0:0:0:0:
256,192,44037,1,0,0:0:0:0:
256,192,44116,1,8,0:0:0:0:
256,192,44274,1,0,0:0:0:0:
256,192,44432,1,8,0:0:0:0:
256,192,44748,1,0,0:0:0:0:
256,192,44905,1,8,0:0:0:0:
256,192,44984,1,0,0:0:0:0:
256,192,45063,1,8,0:0:0:0:
256,192,45222,1,8,0:0:0:0:
256,192,45300,1,0,0:0:0:0:
256,192,45379,1,8,0:0:0:0:
256,192,45458,1,0,0:0:0:0:
256,192,45537,1,8,0:0:0:0:
256,192,45695,1,0,0:0:0:0:
256,192,45853,1,8,0:0:0:0:
256,192,45932,1,0,0:0:0:0:
256,192,46011,1,0,0:0:0:0:
256,192,46090,1,8,0:0:0:0:
256,192,46168,1,8,0:0:0:0:
256,192,46248,1,0,0:0:0:0:
256,192,46326,1,8,0:0:0:0:
256,192,46484,1,8,0:0:0:0:
256,192,46564,1,0,0:0:0:0:
256,192,46643,1,8,0:0:0:0:
256,192,46801,1,0,0:0:0:0:
256,192,46879,1,0,0:0:0:0:
256,192,46958,1,8,0:0:0:0:
256,192,47116,1,0,0:0:0:0:
256,192,47274,1,12,0:0:0:0:
256,192,47432,1,8,0:0:0:0:
256,192,47511,1,8,0:0:0:0:
256,192,47590,1,0,0:0:0:0:
256,192,47669,1,0,0:0:0:0:
256,192,47748,1,8,0:0:0:0:
256,192,47906,1,8,0:0:0:0:
256,192,48064,1,8,0:0:0:0:
256,192,48143,1,8,0:0:0:0:
256,192,48222,1,0,0:0:0:0:
256,192,48379,1,8,0:0:0:0:
256,192,48432,1,8,0:0:0:0:
256,192,48485,1,8,0:0:0:0:
256,192,48537,1,0,0:0:0:0:
256,192,48695,1,0,0:0:0:0:
256,192,48748,1,0,0:0:0:0:
256,192,48801,1,0,0:0:0:0:
256,192,48853,1,8,0:0:0:0:
256,192,48932,1,8,0:0:0:0:
256,192,49011,1,0,0:0:0:0:
256,192,49090,1,0,0:0:0:0:
256,192,49169,1,8,0:0:0:0:
256,192,49327,1,0,0:0:0:0:
256,192,49485,1,8,0:0:0:0:
256,192,49800,1,0,0:0:0:0:
256,192,49958,1,8,0:0:0:0:
256,192,50037,1,0,0:0:0:0:
256,192,50116,1,8,0:0:0:0:
256,192,50195,1,8,0:0:0:0:
256,192,50274,1,8,0:0:0:0:
256,192,50353,1,0,0:0:0:0:
256,192,50432,1,8,0:0:0:0:
256,192,50511,1,8,0:0:0:0:
256,192,50590,1,0,0:0:0:0:
256,192,50669,1,0,0:0:0:0:
256,192,50748,1,8,0:0:0:0:
256,192,50827,1,0,0:0:0:0:
256,192,50906,1,0,0:0:0:0:
256,192,50985,1,0,0:0:0:0:
256,192,51064,1,8,0:0:0:0:
256,192,51222,1,12,0:0:0:0:
256,192,51379,1,4,0:0:0:0:
256,192,51537,1,12,0:0:0:0:
256,192,51695,1,12,0:0:0:0:
256,192,52327,1,4,0:0:0:0:
256,192,52801,1,0,0:0:0:0:
256,192,53116,1,0,0:0:0:0:
256,192,53274,1,8,0:0:0:0:
256,192,53590,1,0,0:0:0:0:
256,192,53906,1,8,0:0:0:0:
256,192,54222,1,0,0:0:0:0:
256,192,54379,1,8,0:0:0:0:
256,192,54695,1,8,0:0:0:0:
256,192,54853,1,0,0:0:0:0:
256,192,55011,1,0,0:0:0:0:
256,192,55169,1,8,0:0:0:0:
256,192,55327,1,0,0:0:0:0:
256,192,55643,1,0,0:0:0:0:
256,192,56116,1,8,0:0:0:0:
256,192,56274,1,0,0:0:0:0:
256,192,56590,1,0,0:0:0:0:
256,192,56748,1,8,0:0:0:0:
256,192,57064,1,0,0:0:0:0:
256,192,57222,1,0,0:0:0:0:
256,192,57379,1,12,0:0:0:0:
256,192,57695,1,8,0:0:0:0:
256,192,57853,1,0,0:0:0:0:
256,192,58011,1,8,0:0:0:0:
256,192,58169,1,8,0:0:0:0:
256,192,58327,1,0,0:0:0:0:
256,192,58643,1,0,0:0:0:0:
256,192,58801,1,8,0:0:0:0:
256,192,58958,1,0,0:0:0:0:
256,192,59116,1,0,0:0:0:0:
256,192,59274,1,8,0:0:0:0:
256,192,59590,1,0,0:0:0:0:
256,192,59748,1,8,0:0:0:0:
256,192,59906,1,0,0:0:0:0:
256,192,60222,1,8,0:0:0:0:
256,192,60379,1,0,0:0:0:0:
256,192,60695,1,8,0:0:0:0:
256,192,60853,1,0,0:0:0:0:
256,192,61169,1,12,0:0:0:0:
256,192,61801,8,0,62274,0:0:0:0:
256,192,62432,5,12,0:0:0:0:
256,192,62590,1,0,0:0:0:0:
256,192,62748,1,0,0:0:0:0:
256,192,62906,1,12,0:0:0:0:
256,192,63064,1,8,0:0:0:0:
256,192,63222,1,8,0:0:0:0:
256,192,63379,1,0,0:0:0:0:
256,192,63537,1,0,0:0:0:0:
256,192,63695,1,8,0:0:0:0:
256,192,63853,1,8,0:0:0:0:
256,192,64011,1,0,0:0:0:0:
256,192,64169,1,0,0:0:0:0:
256,192,64327,1,8,0:0:0:0:
256,192,64485,1,8,0:0:0:0:
256,192,64643,1,0,0:0:0:0:
256,192,64801,1,0,0:0:0:0:
256,192,64958,1,12,0:0:0:0:
256,192,65116,1,0,0:0:0:0:
256,192,65274,1,0,0:0:0:0:
256,192,65432,1,12,0:0:0:0:
256,192,65590,1,8,0:0:0:0:
256,192,65748,1,8,0:0:0:0:
256,192,65906,1,0,0:0:0:0:
256,192,66064,1,0,0:0:0:0:
256,192,66222,1,8,0:0:0:0:
256,192,66379,1,0,0:0:0:0:
256,192,66537,1,0,0:0:0:0:
256,192,66695,1,8,0:0:0:0:
256,192,66853,1,0,0:0:0:0:
256,192,67011,1,8,0:0:0:0:
256,192,67169,1,8,0:0:0:0:
256,192,67327,1,0,0:0:0:0:
256,192,67485,1,12,0:0:0:0:
256,192,67643,1,0,0:0:0:0:
256,192,67801,1,0,0:0:0:0:
256,192,67958,1,12,0:0:0:0:
256,192,68116,1,8,0:0:0:0:
256,192,68274,1,8,0:0:0:0:
256,192,68432,1,0,0:0:0:0:
256,192,68590,1,0,0:0:0:0:
256,192,68748,1,8,0:0:0:0:
256,192,68906,1,8,0:0:0:0:
256,192,69064,1,0,0:0:0:0:
256,192,69222,1,0,0:0:0:0:
256,192,69379,1,8,0:0:0:0:
256,192,69537,1,8,0:0:0:0:
256,192,69695,1,0,0:0:0:0:
256,192,69853,1,0,0:0:0:0:
256,192,70011,1,12,0:0:0:0:
256,192,70169,1,0,0:0:0:0:
256,192,70327,1,0,0:0:0:0:
256,192,70485,1,12,0:0:0:0:
256,192,70643,1,8,0:0:0:0:
256,192,70801,1,8,0:0:0:0:
256,192,70958,1,0,0:0:0:0:
256,192,71116,1,0,0:0:0:0:
256,192,71274,1,12,0:0:0:0:
256,192,71906,1,8,0:0:0:0:
256,192,72222,1,8,0:0:0:0:
256,192,72537,1,4,0:0:0:0:
256,192,72695,1,8,0:0:0:0:
256,192,72853,1,0,0:0:0:0:
256,192,72932,1,0,0:0:0:0:
256,192,73011,1,8,0:0:0:0:
256,192,73169,1,8,0:0:0:0:
256,192,73327,1,8,0:0:0:0:
256,192,73379,1,0,0:0:0:0:
256,192,73432,1,0,0:0:0:0:
256,192,73484,1,8,0:0:0:0:
256,192,73642,1,8,0:0:0:0:
256,192,73800,1,0,0:0:0:0:
256,192,73958,1,0,0:0:0:0:
256,192,74037,1,0,0:0:0:0:
256,192,74116,1,8,0:0:0:0:
256,192,74195,1,8,0:0:0:0:
256,192,74274,1,0,0:0:0:0:
256,192,74432,1,8,0:0:0:0:
256,192,74748,1,8,0:0:0:0:
256,192,74905,1,8,0:0:0:0:
256,192,75063,1,0,0:0:0:0:
256,192,75143,1,0,0:0:0:0:
256,192,75221,1,8,0:0:0:0:
256,192,75300,1,0,0:0:0:0:
256,192,75379,1,8,0:0:0:0:
256,192,75537,1,8,0:0:0:0:
256,192,75695,1,0,0:0:0:0:
256,192,75853,1,8,0:0:0:0:
256,192,75932,1,0,0:0:0:0:
256,192,76011,1,8,0:0:0:0:
256,192,76090,1,8,0:0:0:0:
256,192,76169,1,0,0:0:0:0:
256,192,76248,1,0,0:0:0:0:
256,192,76327,1,8,0:0:0:0:
256,192,76484,1,8,0:0:0:0:
256,192,76564,1,0,0:0:0:0:
256,192,76642,1,8,0:0:0:0:
256,192,76721,1,8,0:0:0:0:
256,192,76801,1,8,0:0:0:0:
256,192,76879,1,0,0:0:0:0:
256,192,76958,1,8,0:0:0:0:
256,192,77274,1,0,0:0:0:0:
256,192,77432,1,0,0:0:0:0:
256,192,77590,1,12,0:0:0:0:
256,192,77748,1,8,0:0:0:0:
256,192,77827,1,8,0:0:0:0:
256,192,77906,1,0,0:0:0:0:
256,192,77985,1,0,0:0:0:0:
256,192,78064,1,8,0:0:0:0:
256,192,78222,1,0,0:0:0:0:
256,192,78301,1,0,0:0:0:0:
256,192,78380,1,8,0:0:0:0:
256,192,78432,1,8,0:0:0:0:
256,192,78485,1,8,0:0:0:0:
256,192,78538,1,0,0:0:0:0:
256,192,78696,1,0,0:0:0:0:
256,192,78775,1,0,0:0:0:0:
256,192,78854,1,8,0:0:0:0:
256,192,79011,1,8,0:0:0:0:
256,192,79090,1,8,0:0:0:0:
256,192,79169,1,0,0:0:0:0:
256,192,79222,1,0,0:0:0:0:
256,192,79274,1,0,0:0:0:0:
256,192,79327,1,8,0:0:0:0:
256,192,79485,1,8,0:0:0:0:
256,192,79801,1,0,0:0:0:0:
256,192,79959,1,8,0:0:0:0:
256,192,80117,1,0,0:0:0:0:
256,192,80196,1,8,0:0:0:0:
256,192,80275,1,0,0:0:0:0:
256,192,80354,1,0,0:0:0:0:
256,192,80432,1,8,0:0:0:0:
256,192,80590,1,8,0:0:0:0:
256,192,80748,1,8,0:0:0:0:
256,192,80827,1,8,0:0:0:0:
256,192,80906,1,0,0:0:0:0:
256,192,80985,1,0,0:0:0:0:
256,192,81064,1,8,0:0:0:0:
256,192,81116,1,8,0:0:0:0:
256,192,81169,1,8,0:0:0:0:
256,192,81222,1,0,0:0:0:0:
256,192,81301,1,0,0:0:0:0:
256,192,81380,1,8,0:0:0:0:
256,192,81485,1,0,0:0:0:0:
256,192,81590,1,0,0:0:0:0:
256,192,81696,1,8,0:0:0:0:
256,192,81801,1,8,0:0:0:0:
256,192,81906,1,0,0:0:0:0:
256,192,82011,1,8,0:0:0:0:
256,192,82327,1,8,0:0:0:0:
256,192,82406,1,8,0:0:0:0:
256,192,82485,1,0,0:0:0:0:
256,192,82564,1,0,0:0:0:0:
256,192,82643,1,8,0:0:0:0:
256,192,82801,1,0,0:0:0:0:
256,192,82879,1,0,0:0:0:0:
256,192,82958,1,8,0:0:0:0:
256,192,83116,1,8,0:0:0:0:
256,192,83274,1,8,0:0:0:0:
256,192,83353,1,8,0:0:0:0:
256,192,83432,1,0,0:0:0:0:
256,192,83511,1,0,0:0:0:0:
256,192,83590,1,8,0:0:0:0:
256,192,83748,1,8,0:0:0:0:
256,192,83906,1,8,0:0:0:0:
256,192,83985,1,8,0:0:0:0:
256,192,84064,1,0,0:0:0:0:
256,192,84143,1,0,0:0:0:0:
256,192,84222,1,8,0:0:0:0:
256,192,84379,1,8,0:0:0:0:
256,192,84458,1,0,0:0:0:0:
256,192,84537,1,8,0:0:0:0:
256,192,84695,1,0,0:0:0:0:
256,192,84853,1,8,0:0:0:0:
256,192,84932,1,8,0:0:0:0:
256,192,85011,1,0,0:0:0:0:
256,192,85169,1,8,0:0:0:0:
256,192,85327,1,0,0:0:0:0:
256,192,85405,1,0,0:0:0:0:
256,192,85484,1,8,0:0:0:0:
256,192,85642,1,8,0:0:0:0:
256,192,85800,1,8,0:0:0:0:
256,192,85879,1,8,0:0:0:0:
256,192,85958,1,0,0:0:0:0:
256,192,86037,1,0,0:0:0:0:
256,192,86116,1,8,0:0:0:0:
256,192,86274,1,8,0:0:0:0:
256,192,86432,1,8,0:0:0:0:
256,192,86511,1,8,0:0:0:0:
256,192,86590,1,0,0:0:0:0:
256,192,86669,1,0,0:0:0:0:
256,192,86748,1,8,0:0:0:0:
256,192,86905,1,8,0:0:0:0:
256,192,86984,1,0,0:0:0:0:
256,192,87063,1,8,0:0:0:0:
256,192,87222,1,0,0:0:0:0:
256,192,87379,1,8,0:0:0:0:
256,192,87458,1,8,0:0:0:0:
256,192,87537,1,0,0:0:0:0:
256,192,87695,1,8,0:0:0:0:
256,192,87853,1,0,0:0:0:0:
256,192,87931,1,0,0:0:0:0:
256,192,88010,1,8,0:0:0:0:
256,192,88168,1,8,0:0:0:0:
256,192,88326,1,8,0:0:0:0:
256,192,88405,1,8,0:0:0:0:
256,192,88484,1,0,0:0:0:0:
256,192,88563,1,0,0:0:0:0:
256,192,88642,1,8,0:0:0:0:
256,192,88800,1,8,0:0:0:0:
256,192,88958,1,8,0:0:0:0:
256,192,89037,1,8,0:0:0:0:
256,192,89116,1,0,0:0:0:0:
256,192,89195,1,0,0:0:0:0:
256,192,89274,1,8,0:0:0:0:
256,192,89431,1,8,0:0:0:0:
256,192,89510,1,0,0:0:0:0:
256,192,89589,1,8,0:0:0:0:
256,192,89748,1,0,0:0:0:0:
256,192,89905,1,8,0:0:0:0:
256,192,89985,1,8,0:0:0:0:
256,192,90064,1,0,0:0:0:0:
256,192,90221,1,8,0:0:0:0:
256,192,90379,1,8,0:0:0:0:
256,192,90537,1,0,0:0:0:0:
256,192,90695,1,0,0:0:0:0:
256,192,90853,1,8,0:0:0:0:
256,192,91011,1,8,0:0:0:0:
256,192,91169,1,0,0:0:0:0:
256,192,91327,1,0,0:0:0:0:
256,192,91485,1,8,0:0:0:0:
256,192,91564,1,8,0:0:0:0:
256,192,91643,1,8,0:0:0:0:
256,192,91722,1,8,0:0:0:0:
256,192,91801,1,0,0:0:0:0:
256,192,91879,1,0,0:0:0:0:
256,192,91958,1,0,0:0:0:0:
256,192,92037,1,0,0:0:0:0:
256,192,92116,1,8,0:0:0:0:
256,192,92432,1,8,0:0:0:0:
256,192,92748,1,4,0:0:0:0:
256,192,92906,1,8,0:0:0:0:
256,192,93064,1,0,0:0:0:0:
256,192,93143,1,0,0:0:0:0:
256,192,93222,1,8,0:0:0:0:
256,192,93380,1,0,0:0:0:0:
256,192,93459,1,8,0:0:0:0:
256,192,93538,1,8,0:0:0:0:
256,192,93590,1,0,0:0:0:0:
256,192,93643,1,0,0:0:0:0:
256,192,93695,1,8,0:0:0:0:
256,192,93774,1,0,0:0:0:0:
256,192,93853,1,8,0:0:0:0:
256,192,93933,1,8,0:0:0:0:
256,192,94011,1,0,0:0:0:0:
256,192,94169,1,8,0:0:0:0:
256,192,94248,1,0,0:0:0:0:
256,192,94327,1,8,0:0:0:0:
256,192,94406,1,8,0:0:0:0:
256,192,94485,1,0,0:0:0:0:
256,192,94564,1,0,0:0:0:0:
256,192,94643,1,8,0:0:0:0:
256,192,94801,1,0,0:0:0:0:
256,192,94958,1,8,0:0:0:0:
256,192,95116,1,0,0:0:0:0:
256,192,95195,1,0,0:0:0:0:
256,192,95274,1,8,0:0:0:0:
256,192,95431,1,8,0:0:0:0:
256,192,95510,1,0,0:0:0:0:
256,192,95589,1,8,0:0:0:0:
256,192,95668,1,8,0:0:0:0:
256,192,95748,1,0,0:0:0:0:
256,192,95905,1,8,0:0:0:0:
256,192,95985,1,0,0:0:0:0:
256,192,96063,1,8,0:0:0:0:
256,192,96221,1,8,0:0:0:0:
256,192,96379,1,0,0:0:0:0:
256,192,96458,1,0,0:0:0:0:
256,192,96537,1,8,0:0:0:0:
256,192,96616,1,0,0:0:0:0:
256,192,96694,1,8,0:0:0:0:
256,192,96852,1,8,0:0:0:0:
256,192,96932,1,8,0:0:0:0:
256,192,97010,1,0,0:0:0:0:
256,192,97089,1,0,0:0:0:0:
256,192,97168,1,8,0:0:0:0:
256,192,97327,1,0,0:0:0:0:
256,192,97485,1,8,0:0:0:0:
256,192,97642,1,8,0:0:0:0:
256,192,97800,1,8,0:0:0:0:
256,192,97879,1,8,0:0:0:0:
256,192,97958,1,0,0:0:0:0:
256,192,98037,1,0,0:0:0:0:
256,192,98116,1,8,0:0:0:0:
256,192,98274,1,8,0:0:0:0:
256,192,98432,1,8,0:0:0:0:
256,192,98590,1,8,0:0:0:0:
256,192,98669,1,8,0:0:0:0:
256,192,98748,1,0,0:0:0:0:
256,192,98905,1,8,0:0:0:0:
256,192,98958,1,8,0:0:0:0:
256,192,99011,1,8,0:0:0:0:
256,192,99063,1,0,0:0:0:0:
256,192,99221,1,0,0:0:0:0:
256,192,99274,1,0,0:0:0:0:
256,192,99327,1,0,0:0:0:0:
256,192,99379,1,8,0:0:0:0:
256,192,99458,1,8,0:0:0:0:
256,192,99537,1,0,0:0:0:0:
256,192,99616,1,0,0:0:0:0:
256,192,99695,1,8,0:0:0:0:
256,192,99853,1,8,0:0:0:0:
256,192,99932,1,0,0:0:0:0:
256,192,100011,1,8,0:0:0:0:
256,192,100169,1,0,0:0:0:0:
256,192,100327,1,0,0:0:0:0:
256,192,100406,1,0,0:0:0:0:
256,192,100485,1,8,0:0:0:0:
256,192,100564,1,0,0:0:0:0:
256,192,100643,1,8,0:0:0:0:
256,192,100722,1,8,0:0:0:0:
256,192,100801,1,0,0:0:0:0:
256,192,100879,1,0,0:0:0:0:
256,192,100959,1,8,0:0:0:0:
256,192,101037,1,8,0:0:0:0:
256,192,101117,1,0,0:0:0:0:
256,192,101196,1,0,0:0:0:0:
256,192,101275,1,8,0:0:0:0:
256,192,101354,1,0,0:0:0:0:
256,192,101433,1,0,0:0:0:0:
256,192,101512,1,0,0:0:0:0:
256,192,101591,1,8,0:0:0:0:
256,192,101748,1,12,0:0:0:0:
256,192,101905,1,4,0:0:0:0:
256,192,102063,1,12,0:0:0:0:
256,192,102221,1,12,0:0:0:0:
256,192,102537,1,8,0:0:0:0:
256,192,102616,1,8,0:0:0:0:
256,192,102695,1,0,0:0:0:0:
256,192,102853,1,12,0:0:0:0:
256,192,103011,1,0,0:0:0:0:
256,192,103089,1,0,0:0:0:0:
256,192,103168,1,8,0:0:0:0:
256,192,103326,1,8,0:0:0:0:
256,192,103484,1,8,0:0:0:0:
256,192,103563,1,8,0:0:0:0:
256,192,103642,1,0,0:0:0:0:
256,192,103721,1,0,0:0:0:0:
256,192,103800,1,8,0:0:0:0:
256,192,103958,1,8,0:0:0:0:
256,192,104116,1,8,0:0:0:0:
256,192,104195,1,8,0:0:0:0:
256,192,104274,1,0,0:0:0:0:
256,192,104353,1,0,0:0:0:0:
256,192,104432,1,8,0:0:0:0:
256,192,104589,1,8,0:0:0:0:
256,192,104668,1,0,0:0:0:0:
256,192,104747,1,8,0:0:0:0:
256,192,104906,1,8,0:0:0:0:
256,192,105063,1,8,0:0:0:0:
256,192,105143,1,8,0:0:0:0:
256,192,105222,1,0,0:0:0:0:
256,192,105379,1,8,0:0:0:0:
256,192,105537,1,0,0:0:0:0:
256,192,105616,1,0,0:0:0:0:
256,192,105695,1,8,0:0:0:0:
256,192,105853,1,8,0:0:0:0:
256,192,105932,1,0,0:0:0:0:
256,192,106011,1,8,0:0:0:0:
256,192,106089,1,8,0:0:0:0:
256,192,106168,1,0,0:0:0:0:
256,192,106326,1,8,0:0:0:0:
256,192,106484,1,0,0:0:0:0:
256,192,106563,1,0,0:0:0:0:
256,192,106642,1,8,0:0:0:0:
256,192,106800,1,8,0:0:0:0:
256,192,106879,1,0,0:0:0:0:
256,192,106958,1,8,0:0:0:0:
256,192,107037,1,8,0:0:0:0:
256,192,107116,1,0,0:0:0:0:
256,192,107195,1,0,0:0:0:0:
256,192,107274,1,8,0:0:0:0:
256,192,107432,1,0,0:0:0:0:
256,192,107590,1,8,0:0:0:0:
256,192,107669,1,8,0:0:0:0:
256,192,107748,1,8,0:0:0:0:
256,192,107906,1,4,0:0:0:0:
256,192,108063,1,0,0:0:0:0:
256,192,108142,1,0,0:0:0:0:
256,192,108221,1,8,0:0:0:0:
256,192,108300,1,0,0:0:0:0:
256,192,108379,1,8,0:0:0:0:
256,192,108537,1,8,0:0:0:0:
256,192,108616,1,8,0:0:0:0:
256,192,108695,1,0,0:0:0:0:
256,192,108774,1,0,0:0:0:0:
256,192,108853,1,8,0:0:0:0:
256,192,109011,1,0,0:0:0:0:
256,192,109089,1,0,0:0:0:0:
256,192,109168,1,8,0:0:0:0:
256,192,109326,1,8,0:0:0:0:
256,192,109405,1,0,0:0:0:0:
256,192,109484,1,8,0:0:0:0:
256,192,109563,1,8,0:0:0:0:
256,192,109642,1,0,0:0:0:0:
256,192,109721,1,0,0:0:0:0:
256,192,109800,1,8,0:0:0:0:
256,192,109958,1,8,0:0:0:0:
256,192,110037,1,0,0:0:0:0:
256,192,110116,1,8,0:0:0:0:
256,192,110274,1,0,0:0:0:0:
256,192,110432,1,8,0:0:0:0:
256,192,110590,1,0,0:0:0:0:
256,192,110748,1,8,0:0:0:0:
256,192,110906,1,8,0:0:0:0:
256,192,111064,1,0,0:0:0:0:
256,192,111222,1,0,0:0:0:0:
256,192,111379,1,8,0:0:0:0:
256,192,111537,1,0,0:0:0:0:
256,192,111695,1,12,0:0:0:0:
256,192,111853,1,0,0:0:0:0:
256,192,112011,1,8,0:0:0:0:
256,192,112169,1,0,0:0:0:0:
256,192,112327,1,8,0:0:0:0:
256,192,112643,1,0,0:0:0:0:
256,192,112958,1,4,0:0:0:0:
