osu file format v14

[General]
AudioFilename: audio.mp3
AudioLeadIn: 0
PreviewTime: 91669
Countdown: 0
SampleSet: Normal
StackLeniency: 0.7
Mode: 1
LetterboxInBreaks: 0
WidescreenStoryboard: 0

[Editor]
Bookmarks: 2526,14869,25841,36812,47784,58755,69727,80698,91669,102641,118412
DistanceSpacing: 0.1
BeatDivisor: 3
GridSize: 32
TimelineZoom: 2.999999

[Metadata]
Title:Vampin' Magic
TitleUnicode:Vampin' Magic
Artist:uma
ArtistUnicode:uma
Creator:Realazy
Version:AyyLazy's Muzukashii
Source:MÚSECA 1+1/2
Tags:Ayyri MUSECA Shukucom シュクコン Contest KONAMI
BeatmapID:1449648
BeatmapSetID:685005

[Difficulty]
HPDrainRate:5
CircleSize:2
OverallDifficulty:5
ApproachRate:10
SliderMultiplier:1.4
SliderTickRate:3

[Events]
//Background and Video events
0,0,"Yurika 287.png",0,35
//Break Periods
//Storyboard Layer 0 (Background)
//Storyboard Layer 1 (Fail)
//Storyboard Layer 2 (Pass)
//Storyboard Layer 3 (Foreground)
//Storyboard Sound Samples

[TimingPoints]
2527,342.857142857143,4,1,0,50,1,0
24469,-98.0392156862745,4,1,0,50,0,0
24812,-96.1538461538461,4,1,0,50,0,0
25155,-94.3396226415094,4,1,0,50,0,0
25498,-92.5925925925926,4,1,0,50,0,0
25841,-90.9090909090909,4,1,0,50,0,0
69727,-100,4,1,0,50,0,0
80698,-95.2380952380952,4,1,0,50,0,0
90298,-93.4579439252336,4,1,0,50,0,0
90641,-90.9090909090909,4,1,0,50,0,0
90984,-89.2857142857143,4,1,0,50,0,0
91327,-87.719298245614,4,1,0,50,0,0
91669,-90.9090909090909,4,1,0,50,0,1
101269,-90.9090909090909,4,1,0,50,0,0
102641,-90.9090909090909,4,1,0,50,0,1
112241,-90.9090909090909,4,1,0,50,0,0
113612,-100,4,1,0,50,0,0
116355,-97.0873786407767,4,1,0,50,0,0
117041,-95.2380952380952,4,1,0,50,0,0
117727,-93.4579439252336,4,1,0,50,0,0
118069,-90.9090909090909,4,1,0,50,0,0
118412,-86.9565217391304,4,1,0,50,0,0

[HitObjects]
256,192,3898,5,0,0:0:0:0:
256,192,4241,1,8,0:0:0:0:
256,192,4584,1,0,0:0:0:0:
256,192,4927,1,8,0:0:0:0:
256,192,5154,1,0,0:0:0:0:
256,192,5269,1,0,0:0:0:0:
256,192,5497,1,8,0:0:0:0:
256,192,5612,1,8,0:0:0:0:
256,192,5841,1,8,0:0:0:0:
256,192,5955,1,8,0:0:0:0:
256,192,6641,1,0,0:0:0:0:
256,192,6984,1,8,0:0:0:0:
256,192,7327,1,0,0:0:0:0:
256,192,7669,1,8,0:0:0:0:
256,192,7898,1,0,0:0:0:0:
256,192,8012,1,0,0:0:0:0:
256,192,8241,1,8,0:0:0:0:
256,192,8356,1,8,0:0:0:0:
256,192,8584,1,0,0:0:0:0:
256,192,8699,1,0,0:0:0:0:
256,192,9384,1,0,0:0:0:0:
256,192,9727,1,8,0:0:0:0:
256,192,10069,1,0,0:0:0:0:
256,192,10412,1,8,0:0:0:0:
256,192,10641,1,0,0:0:0:0:
256,192,10755,1,0,0:0:0:0:
256,192,10984,1,8,0:0:0:0:
256,192,11098,1,8,0:0:0:0:
256,192,11327,1,8,0:0:0:0:
256,192,11441,1,8,0:0:0:0:
256,192,12127,1,0,0:0:0:0:
256,192,12469,1,8,0:0:0:0:
256,192,12812,1,0,0:0:0:0:
256,192,13155,1,8,0:0:0:0:
256,192,13384,1,8,0:0:0:0:
256,192,13498,1,0,0:0:0:0:
256,192,13841,1,0,0:0:0:0:
256,192,14184,1,0,0:0:0:0:
256,192,14869,1,4,0:0:0:0:
256,192,15212,1,8,0:0:0:0:
256,192,15555,1,0,0:0:0:0:
256,192,15784,1,0,0:0:0:0:
256,192,15898,1,8,0:0:0:0:
256,192,16127,1,8,0:0:0:0:
256,192,16241,1,0,0:0:0:0:
256,192,16584,1,0,0:0:0:0:
256,192,16812,1,0,0:0:0:0:
256,192,16927,1,0,0:0:0:0:
256,192,17612,1,0,0:0:0:0:
256,192,17955,1,8,0:0:0:0:
256,192,18184,1,0,0:0:0:0:
256,192,18298,1,8,0:0:0:0:
256,192,18527,1,8,0:0:0:0:
256,192,18641,1,0,0:0:0:0:
256,192,18869,1,0,0:0:0:0:
256,192,18984,1,8,0:0:0:0:
256,192,19327,1,8,0:0:0:0:
256,192,19555,1,8,0:0:0:0:
256,192,19669,1,8,0:0:0:0:
256,192,20012,1,4,0:0:0:0:
256,192,20355,1,12,0:0:0:0:
256,192,20698,1,0,0:0:0:0:
256,192,21041,1,0,0:0:0:0:
256,192,21384,1,0,0:0:0:0:
256,192,21727,1,12,0:0:0:0:
256,192,22069,1,0,0:0:0:0:
256,192,22412,1,0,0:0:0:0:
256,192,22755,1,12,0:0:0:0:
256,192,23098,1,12,0:0:0:0:
256,192,23327,1,0,0:0:0:0:
256,192,23441,1,0,0:0:0:0:
256,192,23784,1,12,0:0:0:0:
256,192,24127,1,0,0:0:0:0:
256,192,24469,1,12,0:0:0:0:
256,192,24812,1,12,0:0:0:0:
256,192,25155,1,4,0:0:0:0:
256,192,25498,1,12,0:0:0:0:
256,192,25841,1,12,0:0:0:0:
256,192,26069,1,0,0:0:0:0:
256,192,26184,1,8,0:0:0:0:
256,192,26412,1,8,0:0:0:0:
256,192,26527,1,0,0:0:0:0:
256,192,26755,1,0,0:0:0:0:
256,192,26870,1,0,0:0:0:0:
256,192,27212,1,8,0:0:0:0:
256,192,27441,1,0,0:0:0:0:
256,192,27555,1,8,0:0:0:0:
256,192,27784,1,0,0:0:0:0:
256,192,27898,1,0,0:0:0:0:
256,192,28241,1,8,0:0:0:0:
256,192,28584,1,0,0:0:0:0:
256,192,28812,1,0,0:0:0:0:
256,192,28927,1,8,0:0:0:0:
256,192,29269,1,8,0:0:0:0:
256,192,29498,1,8,0:0:0:0:
256,192,29612,1,0,0:0:0:0:
256,192,29841,1,0,0:0:0:0:
256,192,29955,1,0,0:0:0:0:
256,192,30298,1,8,0:0:0:0:
256,192,30527,1,8,0:0:0:0:
256,192,30641,1,0,0:0:0:0:
256,192,30984,1,0,0:0:0:0:
256,192,31327,1,12,0:0:0:0:
256,192,31555,1,0,0:0:0:0:
256,192,31669,1,8,0:0:0:0:
256,192,31898,1,8,0:0:0:0:
256,192,32012,1,0,0:0:0:0:
256,192,32241,1,0,0:0:0:0:
256,192,32355,1,0,0:0:0:0:
256,192,32698,1,8,0:0:0:0:
256,192,32927,1,0,0:0:0:0:
256,192,33041,1,8,0:0:0:0:
256,192,33269,1,8,0:0:0:0:
256,192,33384,1,0,0:0:0:0:
256,192,33727,1,8,0:0:0:0:
256,192,34069,1,4,0:0:0:0:
256,192,34298,1,0,0:0:0:0:
256,192,34412,1,8,0:0:0:0:
256,192,34755,1,12,0:0:0:0:
256,192,34984,1,8,0:0:0:0:
256,192,35098,1,0,0:0:0:0:
256,192,35441,1,12,0:0:0:0:
256,192,35784,1,4,0:0:0:0:
256,192,36127,1,12,0:0:0:0:
256,192,36812,1,12,0:0:0:0:
256,192,37155,1,0,0:0:0:0:
256,192,37384,1,8,0:0:0:0:
256,192,37498,1,0,0:0:0:0:
256,192,37727,1,0,0:0:0:0:
256,192,37841,1,8,0:0:0:0:
256,192,38069,1,0,0:0:0:0:
256,192,38184,1,8,0:0:0:0:
256,192,38527,1,8,0:0:0:0:
256,192,38755,1,8,0:0:0:0:
256,192,38869,1,8,0:0:0:0:
256,192,39212,1,12,0:0:0:0:
256,192,39555,1,0,0:0:0:0:
256,192,39784,1,8,0:0:0:0:
256,192,39898,1,8,0:0:0:0:
256,192,40127,1,0,0:0:0:0:
256,192,40241,1,8,0:0:0:0:
256,192,40584,1,0,0:0:0:0:
256,192,40927,1,0,0:0:0:0:
256,192,41155,1,12,0:0:0:0:
256,192,41498,1,12,0:0:0:0:
256,192,41841,1,12,0:0:0:0:
256,192,42298,1,12,0:0:0:0:
256,192,42641,1,0,0:0:0:0:
256,192,42984,1,8,0:0:0:0:
256,192,43212,1,0,0:0:0:0:
256,192,43327,1,8,0:0:0:0:
256,192,43555,1,8,0:0:0:0:
256,192,43669,1,0,0:0:0:0:
256,192,44012,1,8,0:0:0:0:
256,192,44241,1,0,0:0:0:0:
256,192,44355,1,8,0:0:0:0:
256,192,44698,1,12,0:0:0:0:
256,192,45041,1,12,0:0:0:0:
256,192,45269,1,0,0:0:0:0:
256,192,45384,1,0,0:0:0:0:
256,192,45727,1,12,0:0:0:0:
256,192,45955,1,0,0:0:0:0:
256,192,46069,1,0,0:0:0:0:
256,192,46412,1,12,0:0:0:0:
256,192,46755,1,4,0:0:0:0:
256,192,47098,1,12,0:0:0:0:
256,192,47784,1,12,0:0:0:0:
256,192,48127,1,0,0:0:0:0:
256,192,48355,1,8,0:0:0:0:
256,192,48469,1,8,0:0:0:0:
256,192,48812,1,0,0:0:0:0:
256,192,49041,1,8,0:0:0:0:
256,192,49155,1,8,0:0:0:0:
256,192,49498,1,8,0:0:0:0:
256,192,49727,1,0,0:0:0:0:
256,192,49841,1,0,0:0:0:0:
256,192,50184,1,8,0:0:0:0:
256,192,50527,1,0,0:0:0:0:
256,192,50869,1,8,0:0:0:0:
256,192,51098,1,8,0:0:0:0:
256,192,51212,1,8,0:0:0:0:
256,192,51555,1,0,0:0:0:0:
256,192,51784,1,8,0:0:0:0:
256,192,51898,1,8,0:0:0:0:
256,192,52241,1,8,0:0:0:0:
256,192,52584,1,4,0:0:0:0:
256,192,52927,1,12,0:0:0:0:
256,192,53269,1,4,0:0:0:0:
256,192,53612,1,8,0:0:0:0:
256,192,53841,1,8,0:0:0:0:
256,192,53955,1,8,0:0:0:0:
256,192,54298,1,0,0:0:0:0:
256,192,54527,1,8,0:0:0:0:
256,192,54641,1,8,0:0:0:0:
256,192,54984,1,8,0:0:0:0:
256,192,55212,1,0,0:0:0:0:
256,192,55327,1,0,0:0:0:0:
256,192,55669,1,8,0:0:0:0:
256,192,56012,1,0,0:0:0:0:
256,192,56355,1,0,0:0:0:0:
256,192,56584,1,8,0:0:0:0:
256,192,56698,1,8,0:0:0:0:
256,192,57041,1,8,0:0:0:0:
256,192,57270,1,0,0:0:0:0:
256,192,57384,1,0,0:0:0:0:
256,192,57727,1,4,0:0:0:0:
256,192,58069,1,12,0:0:0:0:
256,192,58412,1,4,0:0:0:0:
256,192,58755,1,12,0:0:0:0:
256,192,59098,1,0,0:0:0:0:
256,192,59327,1,0,0:0:0:0:
256,192,59441,1,8,0:0:0:0:
256,192,59784,1,8,0:0:0:0:
256,192,60012,1,0,0:0:0:0:
256,192,60127,1,8,0:0:0:0:
256,192,60469,1,8,0:0:0:0:
256,192,60698,1,8,0:0:0:0:
256,192,60812,1,0,0:0:0:0:
256,192,61041,1,0,0:0:0:0:
256,192,61155,1,8,0:0:0:0:
256,192,61498,1,12,0:0:0:0:
256,192,61841,1,0,0:0:0:0:
256,192,62069,1,0,0:0:0:0:
256,192,62184,1,8,0:0:0:0:
256,192,62412,1,8,0:0:0:0:
256,192,62527,1,0,0:0:0:0:
256,192,62869,1,12,0:0:0:0:
256,192,63212,1,12,0:0:0:0:
256,192,63555,1,4,0:0:0:0:
256,192,63898,1,12,0:0:0:0:
256,192,64241,1,12,0:0:0:0:
256,192,64469,1,0,0:0:0:0:
256,192,64584,1,0,0:0:0:0:
256,192,64927,1,8,0:0:0:0:
256,192,65155,1,0,0:0:0:0:
256,192,65269,1,8,0:0:0:0:
256,192,65498,1,8,0:0:0:0:
256,192,65612,1,0,0:0:0:0:
256,192,65955,1,0,0:0:0:0:
256,192,66184,1,0,0:0:0:0:
256,192,66298,1,8,0:0:0:0:
256,192,66641,1,12,0:0:0:0:
256,192,66984,1,12,0:0:0:0:
256,192,67212,1,0,0:0:0:0:
256,192,67327,1,8,0:0:0:0:
256,192,67669,1,12,0:0:0:0:
256,192,67898,1,0,0:0:0:0:
256,192,68012,1,8,0:0:0:0:
256,192,68355,1,12,0:0:0:0:
256,192,68698,1,4,0:0:0:0:
256,192,69041,1,12,0:0:0:0:
256,192,69727,1,12,0:0:0:0:
256,192,70412,1,0,0:0:0:0:
256,192,71098,1,0,0:0:0:0:
256,192,71441,1,8,0:0:0:0:
256,192,71784,1,8,0:0:0:0:
256,192,72469,1,0,0:0:0:0:
256,192,73155,1,0,0:0:0:0:
256,192,73841,1,0,0:0:0:0:
256,192,74184,1,8,0:0:0:0:
256,192,74527,1,0,0:0:0:0:
256,192,75212,1,0,0:0:0:0:
256,192,75898,1,0,0:0:0:0:
256,192,76584,1,0,0:0:0:0:
256,192,76927,1,8,0:0:0:0:
256,192,77269,1,8,0:0:0:0:
256,192,77955,1,0,0:0:0:0:
256,192,78641,1,0,0:0:0:0:
256,192,78984,1,8,0:0:0:0:
256,192,79327,1,0,0:0:0:0:
256,192,79669,1,0,0:0:0:0:
256,192,80012,1,8,0:0:0:0:
256,192,80698,1,12,0:0:0:0:
256,192,81041,1,8,0:0:0:0:
256,192,81269,1,0,0:0:0:0:
256,192,81384,1,8,0:0:0:0:
256,192,81727,1,8,0:0:0:0:
256,192,81955,1,0,0:0:0:0:
256,192,82069,1,8,0:0:0:0:
256,192,82298,1,8,0:0:0:0:
256,192,82412,1,0,0:0:0:0:
256,192,82641,1,0,0:0:0:0:
256,192,82755,1,8,0:0:0:0:
256,192,83098,1,0,0:0:0:0:
256,192,83441,1,8,0:0:0:0:
256,192,83784,1,8,0:0:0:0:
256,192,84012,1,0,0:0:0:0:
256,192,84127,1,8,0:0:0:0:
256,192,84469,1,8,0:0:0:0:
256,192,84698,1,0,0:0:0:0:
256,192,84812,1,8,0:0:0:0:
256,192,85041,1,0,0:0:0:0:
256,192,85155,1,8,0:0:0:0:
256,192,85384,1,8,0:0:0:0:
256,192,85498,1,0,0:0:0:0:
256,192,85841,1,4,0:0:0:0:
256,192,86184,1,12,0:0:0:0:
256,192,86527,1,0,0:0:0:0:
256,192,86755,1,0,0:0:0:0:
256,192,86869,1,8,0:0:0:0:
256,192,87212,1,8,0:0:0:0:
256,192,87555,1,12,0:0:0:0:
256,192,87784,1,0,0:0:0:0:
256,192,87898,1,8,0:0:0:0:
256,192,88127,1,8,0:0:0:0:
256,192,88241,1,0,0:0:0:0:
256,192,88469,1,0,0:0:0:0:
256,192,88584,1,8,0:0:0:0:
256,192,88927,1,12,0:0:0:0:
256,192,89269,1,12,0:0:0:0:
256,192,89612,1,12,0:0:0:0:
256,192,89955,1,12,0:0:0:0:
256,192,90298,1,4,0:0:0:0:
256,192,90641,1,4,0:0:0:0:
256,192,90984,1,12,0:0:0:0:
256,192,91327,1,4,0:0:0:0:
256,192,91669,1,12,0:0:0:0:
256,192,92012,1,8,0:0:0:0:
256,192,92241,1,8,0:0:0:0:
256,192,92355,1,0,0:0:0:0:
256,192,92584,1,0,0:0:0:0:
256,192,92698,1,0,0:0:0:0:
256,192,93041,1,12,0:0:0:0:
256,192,93269,1,0,0:0:0:0:
256,192,93384,1,8,0:0:0:0:
256,192,93612,1,8,0:0:0:0:
256,192,93727,1,8,0:0:0:0:
256,192,94069,1,0,0:0:0:0:
256,192,94412,1,0,0:0:0:0:
256,192,94755,1,8,0:0:0:0:
256,192,94984,1,8,0:0:0:0:
256,192,95098,1,0,0:0:0:0:
256,192,95327,1,0,0:0:0:0:
256,192,95441,1,0,0:0:0:0:
256,192,95669,1,8,0:0:0:0:
256,192,95784,1,0,0:0:0:0:
256,192,96012,1,0,0:0:0:0:
256,192,96127,1,8,0:0:0:0:
256,192,96469,1,12,0:0:0:0:
256,192,96812,1,0,0:0:0:0:
256,192,97155,1,12,0:0:0:0:
256,192,97498,1,8,0:0:0:0:
256,192,97727,1,8,0:0:0:0:
256,192,97841,1,0,0:0:0:0:
256,192,98069,1,0,0:0:0:0:
256,192,98184,1,0,0:0:0:0:
256,192,98527,1,8,0:0:0:0:
256,192,98755,1,0,0:0:0:0:
256,192,98869,1,8,0:0:0:0:
256,192,99098,1,8,0:0:0:0:
256,192,99212,1,8,0:0:0:0:
256,192,99555,1,0,0:0:0:0:
256,192,99898,1,12,0:0:0:0:
256,192,100127,1,8,0:0:0:0:
256,192,100241,1,0,0:0:0:0:
256,192,100584,1,4,0:0:0:0:
256,192,100812,1,0,0:0:0:0:
256,192,100927,1,8,0:0:0:0:
256,192,101269,1,12,0:0:0:0:
256,192,101612,1,4,0:0:0:0:
256,192,101955,1,12,0:0:0:0:
256,192,102641,1,12,0:0:0:0:
256,192,102984,1,0,0:0:0:0:
256,192,103212,1,0,0:0:0:0:
256,192,103327,1,8,0:0:0:0:
256,192,103555,1,8,0:0:0:0:
256,192,103669,1,0,0:0:0:0:
256,192,104012,1,8,0:0:0:0:
256,192,104241,1,0,0:0:0:0:
256,192,104355,1,8,0:0:0:0:
256,192,104584,1,8,0:0:0:0:
256,192,104698,1,0,0:0:0:0:
256,192,105041,1,12,0:0:0:0:
256,192,105269,1,0,0:0:0:0:
256,192,105384,1,8,0:0:0:0:
256,192,105727,1,8,0:0:0:0:
256,192,105955,1,8,0:0:0:0:
256,192,106069,1,0,0:0:0:0:
256,192,106298,1,0,0:0:0:0:
256,192,106412,1,8,0:0:0:0:
256,192,106755,1,8,0:0:0:0:
256,192,106984,1,8,0:0:0:0:
256,192,107098,1,0,0:0:0:0:
256,192,107441,1,12,0:0:0:0:
256,192,107784,1,4,0:0:0:0:
256,192,108127,1,12,0:0:0:0:
256,192,108469,1,8,0:0:0:0:
256,192,108698,1,0,0:0:0:0:
256,192,108812,1,8,0:0:0:0:
256,192,109041,1,8,0:0:0:0:
256,192,109155,1,0,0:0:0:0:
256,192,109384,1,0,0:0:0:0:
256,192,109498,1,8,0:0:0:0:
256,192,109727,1,0,0:0:0:0:
256,192,109841,1,8,0:0:0:0:
256,192,110069,1,8,0:0:0:0:
256,192,110184,1,8,0:0:0:0:
256,192,110527,1,12,0:0:0:0:
256,192,110869,1,12,0:0:0:0:
256,192,111098,1,0,0:0:0:0:
256,192,111212,1,8,0:0:0:0:
256,192,111555,1,12,0:0:0:0:
256,192,111784,1,0,0:0:0:0:
256,192,111898,1,8,0:0:0:0:
256,192,112241,1,12,0:0:0:0:
256,192,112584,1,4,0:0:0:0:
256,192,112927,1,12,0:0:0:0:
256,192,113612,1,12,0:0:0:0:
256,192,113955,1,0,0:0:0:0:
256,192,114298,1,8,0:0:0:0:
256,192,114641,1,8,0:0:0:0:
256,192,114984,1,0,0:0:0:0:
256,192,115327,1,8,0:0:0:0:
256,192,115669,1,0,0:0:0:0:
256,192,116355,1,12,0:0:0:0:
256,192,116584,1,0,0:0:0:0:
256,192,116698,1,8,0:0:0:0:
256,192,117041,1,12,0:0:0:0:
256,192,117269,1,0,0:0:0:0:
256,192,117384,1,8,0:0:0:0:
256,192,117727,1,8,0:0:0:0:
256,192,118069,1,4,0:0:0:0:
256,192,118412,1,12,0:0:0:0:
