osu file format v14

[General]
AudioFilename: audio.mp3
AudioLeadIn: 0
PreviewTime: 201580
Countdown: 0
SampleSet: Soft
StackLeniency: 0.7
Mode: 3
LetterboxInBreaks: 0
SpecialStyle: 0
WidescreenStoryboard: 0

[Editor]
DistanceSpacing: 0.8
BeatDivisor: 8
GridSize: 8
TimelineZoom: 2.699999

[Metadata]
Title:Re:alization
TitleUnicode:Re:alization
Artist:uma
ArtistUnicode:uma
Creator:Das-[Hikari]-
Version:Everlasting Reality
Source:
Tags:Re End of a Dream Realization
BeatmapID:1350224
BeatmapSetID:636318

[Difficulty]
HPDrainRate:8.5
CircleSize:4
OverallDifficulty:8
ApproachRate:5
SliderMultiplier:1.4
SliderTickRate:1

[Events]
//Background and Video events
0,0,"Realization.jpg",0,0
//Break Periods
//Storyboard Layer 0 (Background)
//Storyboard Layer 1 (Fail)
//Storyboard Layer 2 (Pass)
//Storyboard Layer 3 (Foreground)
//Storyboard Sound Samples

[TimingPoints]
670,348.837209302326,4,2,1,60,1,0
22647,-25,4,2,1,60,0,0
22734,-200,4,2,1,60,0,0
22995,-100,4,2,1,60,0,0
44972,-25,4,2,1,60,0,0
45059,-200,4,2,1,60,0,0
45321,-100,4,2,1,60,0,0
67298,-25,4,2,1,60,0,0
67385,-200,4,2,1,60,0,0
67647,-100,4,2,1,60,0,0
78461,-25,4,2,1,60,0,0
78548,-200,4,2,1,60,0,0
78809,-100,4,2,1,60,0,0
88577,-50,4,2,1,60,0,0
88599,-200,4,2,1,60,0,0
88664,-50,4,2,1,60,0,0
88686,-200,4,2,1,60,0,0
88751,-50,4,2,1,60,0,0
88773,-200,4,2,1,60,0,0
88838,-50,4,2,1,60,0,0
88860,-200,4,2,1,60,0,0
88926,-50,4,2,1,60,0,0
88947,-200,4,2,1,60,0,0
89013,-50,4,2,1,60,0,0
89035,-200,4,2,1,60,0,0
89100,-50,4,2,1,60,0,0
89122,-200,4,2,1,60,0,0
89187,-50,4,2,1,60,0,0
89209,-200,4,2,1,60,0,0
89274,-50,4,2,1,60,0,0
89318,-200,4,2,1,60,0,0
89449,-50,4,2,1,60,0,0
89493,-200,4,2,1,60,0,0
89623,-25,4,2,1,60,0,0
89711,-200,4,2,1,60,0,0
89972,-100,4,2,1,60,0,1
134623,-100,4,2,1,60,0,0
156600,-25,4,2,1,60,0,0
156687,-200,4,2,1,60,0,0
156949,-100,4,2,1,60,0,0
177879,-50,4,2,1,60,0,0
177923,-200,4,2,1,60,0,0
178054,-50,4,2,1,60,0,0
178097,-200,4,2,1,60,0,0
178228,-50,4,2,1,60,0,0
178272,-200,4,2,1,60,0,0
178402,-50,4,2,1,60,0,0
178446,-200,4,2,1,60,0,0
178577,-100,4,2,1,60,0,0
178926,-25,4,2,1,60,0,0
179013,-200,4,2,1,60,0,0
179274,-50,4,2,1,60,0,0
179362,-200,4,2,1,60,0,0
179972,-100,4,2,1,60,0,0
184856,-50,4,2,1,60,0,0
184943,-200,4,2,1,60,0,0
185554,-100,4,2,1,60,0,0
190088,-50,4,2,1,60,0,0
190176,-200,4,2,1,60,0,0
190437,-50,4,2,1,60,0,0
190524,-200,4,2,1,60,0,0
191135,-100,4,2,1,60,0,0
201620,-100,4,2,1,60,0,1
212850,-133.333333333333,4,2,1,60,0,1
212937,-200,4,2,1,60,0,1
213112,-100,4,2,1,60,0,1
223946,-100,4,2,1,60,0,0
245902,-25,4,2,1,60,0,0
245990,-200,4,2,1,60,0,0
246251,-100,4,2,1,60,0,0
268228,-25,4,2,1,60,0,0
268315,-200,4,2,1,60,0,0
268577,-100,4,2,1,60,0,0
290554,-25,4,2,1,60,0,0
290641,-200,4,2,1,60,0,0
290902,-100,4,2,1,60,0,0

[HitObjects]
64,192,670,5,0,0:0:0:70:Ride.wav
320,192,670,1,0,0:0:0:0:
320,192,931,1,0,0:0:0:0:
192,192,1193,1,0,0:0:0:0:
64,192,1368,1,0,0:0:0:70:Ride.wav
64,192,2065,1,0,0:0:0:70:Ride.wav
192,192,2065,1,0,0:0:0:0:
448,192,2327,1,0,0:0:0:0:
64,192,2588,1,0,0:0:0:0:
192,192,2763,1,0,0:0:0:70:Ride.wav
320,192,3461,1,0,0:0:0:70:Ride.wav
448,192,3461,1,0,0:0:0:0:
320,192,3722,1,0,0:0:0:0:
192,192,3984,1,0,0:0:0:0:
64,192,4158,1,0,0:0:0:70:Ride.wav
64,192,4856,1,0,0:0:0:70:Ride.wav
192,192,4856,1,0,0:0:0:0:
320,192,5118,1,0,0:0:0:0:
448,192,5379,1,0,0:0:0:0:
192,192,5553,1,0,0:0:0:70:Ride.wav
192,192,6251,128,0,7647:0:0:0:70:Ride.wav
448,192,6251,1,0,0:0:0:0:
448,192,6513,1,0,0:0:0:0:
64,192,6774,1,0,0:0:0:0:
320,192,6949,1,0,0:0:0:70:Ride.wav
64,192,7647,128,0,9042:0:0:0:70:Ride.wav
320,192,7647,1,0,0:0:0:0:
448,192,7908,1,0,0:0:0:0:
320,192,8170,1,0,0:0:0:0:
192,192,8344,1,0,0:0:0:70:Ride.wav
320,192,9042,1,0,0:0:0:70:Ride.wav
448,192,9042,128,0,11484:0:0:0:0:
320,192,9304,1,0,0:0:0:0:
192,192,9565,1,0,0:0:0:0:
64,192,9740,1,0,0:0:0:70:Ride.wav
64,192,10437,1,0,0:0:0:70:Ride.wav
192,192,10699,1,0,0:0:0:0:
320,192,10961,1,0,0:0:0:0:
64,192,11135,1,0,0:0:0:70:Ride.wav
64,192,11484,1,0,0:0:0:0:
192,192,11527,1,0,0:0:0:0:
448,192,11571,1,0,0:0:0:0:
320,192,11615,1,0,0:0:0:0:
192,192,11658,1,0,0:0:0:0:
64,192,11702,1,0,0:0:0:0:
448,192,11745,1,0,0:0:0:0:
320,192,11789,1,0,0:0:0:0:
64,192,11833,1,0,0:0:0:70:Ride.wav
192,192,11833,128,0,13228:0:0:0:0:
448,192,12094,1,0,0:0:0:0:
320,192,12356,1,0,0:0:0:0:
64,192,12530,1,0,0:0:0:70:Ride.wav
64,192,13228,128,0,14623:0:0:0:70:Ride.wav
320,192,13228,1,0,0:0:0:0:
448,192,13490,1,0,0:0:0:0:
192,192,13751,1,0,0:0:0:0:
320,192,13926,1,0,0:0:0:70:Ride.wav
192,192,14623,128,0,17327:0:0:0:70:Ride.wav
448,192,14623,1,0,0:0:0:0:
448,192,14885,1,0,0:0:0:0:
320,192,15147,1,0,0:0:0:0:
64,192,15321,1,0,0:0:0:70:Ride.wav
64,192,16019,1,0,0:0:0:70:Ride.wav
320,192,16280,1,0,0:0:0:0:
448,192,16542,1,0,0:0:0:0:
64,192,16716,1,0,0:0:0:70:Ride.wav
192,192,17414,128,0,18809:0:0:0:70:Ride.wav
320,192,17414,1,0,0:0:0:0:
448,192,17414,1,0,0:0:0:0:
320,192,17676,1,0,0:0:0:0:
64,192,17937,1,0,0:0:0:0:
448,192,18112,1,0,0:0:0:70:Ride.wav
64,192,18809,128,0,20205:0:0:0:70:Ride.wav
320,192,18809,1,0,0:0:0:0:
448,192,19071,1,0,0:0:0:0:
320,192,19333,1,0,0:0:0:0:
192,192,19507,1,0,0:0:0:70:Ride.wav
320,192,20205,1,0,0:0:0:70:Ride.wav
448,192,20205,128,0,22298:0:0:0:0:
320,192,20466,1,0,0:0:0:0:
192,192,20728,1,0,0:0:0:0:
64,192,20902,1,0,0:0:0:70:Ride.wav
64,192,21600,1,0,0:0:0:70:Ride.wav
192,192,21862,1,0,0:0:0:0:
320,192,22123,1,0,0:0:0:0:
64,192,22298,1,0,0:0:0:70:Ride.wav
192,192,22341,1,0,0:0:0:0:
320,192,22385,1,0,0:0:0:0:
448,192,22429,1,0,0:0:0:0:
64,192,22472,1,0,0:0:0:0:
192,192,22516,1,0,0:0:0:0:
320,192,22559,1,0,0:0:0:0:
448,192,22603,1,0,0:0:0:0:
64,192,22647,1,8,0:0:0:0:
192,192,22647,1,0,0:0:0:70:LR_Long Bass.wav
320,192,22647,1,0,0:0:0:0:
64,192,22995,1,0,0:0:0:70:Ride.wav
192,192,22995,1,0,0:0:0:70:LR_Long Bass.wav
448,192,22995,1,0,0:0:0:0:
320,192,23170,1,0,0:0:0:0:
448,192,23344,1,0,0:0:0:0:
192,192,23519,1,0,0:0:0:0:
64,192,23693,1,0,0:0:0:70:Ride.wav
320,192,23693,1,0,0:0:0:0:
448,192,23868,1,0,0:0:0:0:
64,192,24042,1,0,0:0:0:0:
192,192,24216,1,0,0:0:0:0:
64,192,24391,1,0,0:0:0:70:Ride.wav
320,192,24391,1,0,0:0:0:70:LR_Long Bass.wav
192,192,24565,1,0,0:0:0:0:
64,192,24740,1,0,0:0:0:0:
448,192,24740,1,0,0:0:0:0:
320,192,24914,1,0,0:0:0:0:
192,192,25088,1,0,0:0:0:70:Ride.wav
448,192,25088,1,0,0:0:0:0:
64,192,25263,1,0,0:0:0:0:
192,192,25437,1,0,0:0:0:0:
320,192,25437,1,0,0:0:0:0:
448,192,25612,1,0,0:0:0:0:
64,192,25786,1,0,0:0:0:70:Ride.wav
320,192,25786,1,0,0:0:0:70:LR_Long Bass.wav
192,192,25961,1,0,0:0:0:0:
64,192,26135,1,0,0:0:0:0:
192,192,26309,1,0,0:0:0:0:
448,192,26309,1,0,0:0:0:0:
192,192,26484,1,0,0:0:0:70:Ride.wav
320,192,26484,1,0,0:0:0:0:
64,192,26658,1,0,0:0:0:0:
448,192,26833,1,0,0:0:0:0:
320,192,27007,1,0,0:0:0:0:
64,192,27181,1,0,0:0:0:70:Ride.wav
448,192,27181,1,0,0:0:0:70:LR_Long Bass.wav
192,192,27356,1,0,0:0:0:0:
448,192,27530,1,0,0:0:0:0:
64,192,27705,1,0,0:0:0:0:
192,192,27879,1,0,0:0:0:70:Ride.wav
320,192,27879,1,0,0:0:0:0:
448,192,28054,1,0,0:0:0:0:
64,192,28228,1,0,0:0:0:0:
192,192,28402,1,0,0:0:0:0:
64,192,28577,1,0,0:0:0:70:Ride.wav
448,192,28577,1,0,0:0:0:70:LR_Long Bass.wav
320,192,28751,1,0,0:0:0:0:
448,192,28926,1,0,0:0:0:0:
192,192,29100,1,0,0:0:0:0:
64,192,29274,1,0,0:0:0:70:Ride.wav
320,192,29274,1,0,0:0:0:0:
448,192,29449,1,0,0:0:0:0:
64,192,29623,1,0,0:0:0:0:
320,192,29798,1,0,0:0:0:0:
64,192,29972,1,0,0:0:0:70:Ride.wav
192,192,29972,1,0,0:0:0:70:LR_Long Bass.wav
448,192,30147,1,0,0:0:0:0:
192,192,30321,1,0,0:0:0:0:
320,192,30321,1,0,0:0:0:0:
64,192,30495,1,0,0:0:0:0:
192,192,30670,1,0,0:0:0:70:Ride.wav
448,192,30670,1,0,0:0:0:0:
320,192,30844,1,0,0:0:0:0:
64,192,31019,1,0,0:0:0:0:
448,192,31019,1,0,0:0:0:0:
192,192,31193,1,0,0:0:0:0:
320,192,31368,1,0,0:0:0:70:Ride.wav
448,192,31368,1,0,0:0:0:70:LR_Long Bass.wav
192,192,31542,1,0,0:0:0:0:
64,192,31716,1,0,0:0:0:0:
192,192,31891,1,0,0:0:0:0:
320,192,31891,1,0,0:0:0:0:
320,192,32065,1,0,0:0:0:70:Ride.wav
448,192,32065,1,0,0:0:0:0:
64,192,32240,1,0,0:0:0:0:
448,192,32414,1,0,0:0:0:0:
320,192,32588,1,0,0:0:0:0:
64,192,32763,1,0,0:0:0:70:Ride.wav
192,192,32763,1,0,0:0:0:70:LR_Long Bass.wav
320,192,32937,1,0,0:0:0:0:
64,192,33112,1,0,0:0:0:0:
192,192,33286,1,0,0:0:0:0:
448,192,33286,1,0,0:0:0:0:
64,192,33461,1,0,0:0:0:70:Ride.wav
320,192,33461,1,0,0:0:0:0:
448,192,33635,1,0,0:0:0:0:
64,192,33809,1,0,0:0:0:0:
192,192,33853,1,0,0:0:0:0:
448,192,33897,1,0,0:0:0:0:
320,192,33940,1,0,0:0:0:0:
64,192,33984,1,0,0:0:0:0:
192,192,34027,1,0,0:0:0:0:
320,192,34071,1,0,0:0:0:0:
448,192,34115,1,0,0:0:0:0:
64,192,34158,1,0,0:0:0:70:Ride.wav
192,192,34158,1,0,0:0:0:70:LR_Long Bass.wav
320,192,34333,1,0,0:0:0:0:
192,192,34420,1,0,0:0:0:0:
448,192,34507,1,0,0:0:0:0:
64,192,34681,1,0,0:0:0:0:
192,192,34681,1,0,0:0:0:0:
192,192,34856,1,0,0:0:0:70:Ride.wav
320,192,34856,1,0,0:0:0:0:
448,192,35030,1,0,0:0:0:0:
64,192,35205,1,0,0:0:0:0:
192,192,35379,1,0,0:0:0:0:
320,192,35554,1,0,0:0:0:70:Ride.wav
448,192,35554,1,0,0:0:0:70:LR_Long Bass.wav
320,192,35728,1,0,0:0:0:0:
192,192,35815,1,0,0:0:0:0:
64,192,35902,1,0,0:0:0:0:
448,192,35902,1,0,0:0:0:0:
192,192,36077,1,0,0:0:0:0:
192,192,36251,1,0,0:0:0:70:Ride.wav
320,192,36251,1,0,0:0:0:0:
448,192,36426,1,0,0:0:0:0:
64,192,36600,1,0,0:0:0:0:
320,192,36600,1,0,0:0:0:0:
192,192,36774,1,0,0:0:0:0:
64,192,36949,1,0,0:0:0:70:Ride.wav
320,192,36949,1,0,0:0:0:70:LR_Long Bass.wav
192,192,37123,1,0,0:0:0:0:
320,192,37211,1,0,0:0:0:0:
448,192,37298,1,0,0:0:0:0:
64,192,37472,1,0,0:0:0:0:
192,192,37472,1,0,0:0:0:0:
64,192,37647,1,0,0:0:0:70:Ride.wav
320,192,37647,1,0,0:0:0:0:
448,192,37821,1,0,0:0:0:0:
64,192,37995,1,0,0:0:0:0:
192,192,38170,1,0,0:0:0:0:
64,192,38344,1,0,0:0:0:70:Ride.wav
320,192,38344,1,0,0:0:0:70:LR_Long Bass.wav
320,192,38519,1,0,0:0:0:0:
64,192,38606,1,0,0:0:0:0:
448,192,38693,1,0,0:0:0:0:
192,192,38868,1,0,0:0:0:0:
320,192,38868,1,0,0:0:0:0:
64,192,39042,1,0,0:0:0:70:Ride.wav
192,192,39042,1,0,0:0:0:0:
448,192,39216,1,0,0:0:0:0:
64,192,39391,1,0,0:0:0:0:
320,192,39391,128,0,39740:0:0:0:0:
192,192,39565,1,0,0:0:0:0:
64,192,39740,1,0,0:0:0:70:Ride.wav
192,192,39740,128,0,40263:0:0:0:70:LR_Long Bass.wav
320,192,39914,1,0,0:0:0:0:
64,192,40001,1,0,0:0:0:0:
448,192,40088,1,0,0:0:0:0:
64,192,40263,128,0,40612:0:0:0:0:
320,192,40263,1,0,0:0:0:0:
320,192,40437,1,0,0:0:0:70:Ride.wav
448,192,40437,1,0,0:0:0:0:
192,192,40612,128,0,41135:0:0:0:0:
448,192,40612,1,0,0:0:0:0:
64,192,40786,1,0,0:0:0:0:
320,192,40961,1,0,0:0:0:0:
64,192,41135,1,0,0:0:0:70:Ride.wav
448,192,41135,128,0,41833:0:0:0:70:LR_Long Bass.wav
192,192,41309,1,0,0:0:0:0:
64,192,41397,1,0,0:0:0:0:
320,192,41484,1,0,0:0:0:0:
64,192,41658,1,0,0:0:0:0:
192,192,41833,1,0,0:0:0:70:Ride.wav
320,192,41833,1,0,0:0:0:0:
192,192,42007,1,0,0:0:0:0:
448,192,42007,1,0,0:0:0:0:
64,192,42181,1,0,0:0:0:0:
320,192,42181,1,0,0:0:0:0:
64,192,42356,1,0,0:0:0:0:
192,192,42356,1,0,0:0:0:0:
64,192,42530,128,0,43926:0:0:0:70:Ride.wav
320,192,42530,1,0,0:0:0:70:LR_Long Bass.wav
448,192,42530,1,0,0:0:0:0:
192,192,42705,1,0,0:0:0:0:
320,192,42792,1,0,0:0:0:0:
448,192,42879,1,0,0:0:0:0:
192,192,43054,1,0,0:0:0:0:
320,192,43228,1,0,0:0:0:70:Ride.wav
448,192,43228,1,0,0:0:0:0:
448,192,43402,1,0,0:0:0:0:
192,192,43577,1,0,0:0:0:0:
320,192,43751,1,0,0:0:0:0:
192,192,43926,1,0,0:0:0:70:Ride.wav
448,192,43926,1,0,0:0:0:70:LR_Long Bass.wav
320,192,44100,1,0,0:0:0:0:
64,192,44187,1,0,0:0:0:0:
448,192,44274,1,0,0:0:0:0:
192,192,44449,1,0,0:0:0:0:
448,192,44623,1,0,0:0:0:70:Ride.wav
320,192,44667,1,0,0:0:0:0:
192,192,44711,1,0,0:0:0:0:
64,192,44754,1,0,0:0:0:0:
448,192,44798,1,0,0:0:0:0:
320,192,44841,1,0,0:0:0:0:
64,192,44885,1,0,0:0:0:0:
192,192,44929,1,0,0:0:0:0:
64,192,44972,1,8,0:0:0:0:
320,192,44972,1,0,0:0:0:70:LR_Long Bass.wav
448,192,44972,1,0,0:0:0:0:
64,192,45321,1,2,0:0:0:0:
192,192,45321,1,4,0:0:0:0:
448,192,45321,1,0,0:0:0:0:
320,192,45495,1,4,0:0:0:0:
64,192,45670,1,4,0:0:0:0:
448,192,45670,1,0,0:0:0:0:
192,192,45844,1,4,0:0:0:0:
320,192,46019,1,4,0:0:0:0:
448,192,46019,1,0,0:0:0:0:
192,192,46193,1,4,0:0:0:0:
64,192,46368,1,4,0:0:0:0:
320,192,46368,1,0,0:0:0:0:
448,192,46542,1,4,0:0:0:0:
192,192,46716,1,4,0:0:0:0:
320,192,46716,1,0,0:0:0:70:LR_Long Bass.wav
448,192,46891,1,4,0:0:0:0:
64,192,47065,1,4,0:0:0:0:
320,192,47065,1,0,0:0:0:0:
192,192,47240,1,4,0:0:0:0:
320,192,47414,1,4,0:0:0:0:
448,192,47414,1,0,0:0:0:0:
64,192,47588,1,4,0:0:0:0:
192,192,47763,1,4,0:0:0:0:
448,192,47763,1,0,0:0:0:0:
320,192,47937,1,4,0:0:0:0:
320,192,48024,1,0,0:0:0:0:
64,192,48112,1,4,0:0:0:0:
448,192,48112,1,0,0:0:0:70:LR_Long Bass.wav
192,192,48286,1,4,0:0:0:0:
320,192,48461,1,4,0:0:0:0:
448,192,48461,1,0,0:0:0:0:
64,192,48635,1,4,0:0:0:0:
192,192,48809,1,4,0:0:0:0:
448,192,48809,1,0,0:0:0:0:
64,192,48984,1,4,0:0:0:0:
320,192,49158,1,4,0:0:0:0:
448,192,49158,1,0,0:0:0:0:
192,192,49333,1,4,0:0:0:0:
192,192,49420,1,0,0:0:0:0:
64,192,49507,1,4,0:0:0:0:
320,192,49507,1,0,0:0:0:70:LR_Long Bass.wav
448,192,49681,1,4,0:0:0:0:
64,192,49856,1,4,0:0:0:0:
192,192,49856,1,0,0:0:0:0:
320,192,50030,1,4,0:0:0:0:
192,192,50205,1,4,0:0:0:0:
448,192,50205,1,0,0:0:0:0:
64,192,50379,1,4,0:0:0:0:
192,192,50554,1,2,0:0:0:0:
320,192,50554,1,4,0:0:0:0:
64,192,50728,1,4,0:0:0:0:
64,192,50902,1,8,0:0:0:0:
192,192,50902,1,0,0:0:0:70:LR_CymbalCCR.wav
448,192,50902,1,0,0:0:0:0:
320,192,51077,1,4,0:0:0:0:
192,192,51251,1,4,0:0:0:0:
448,192,51251,1,0,0:0:0:0:
64,192,51426,1,4,0:0:0:0:
320,192,51600,1,4,0:0:0:0:
448,192,51600,1,0,0:0:0:0:
192,192,51774,1,4,0:0:0:0:
64,192,51949,1,4,0:0:0:0:
320,192,51949,1,0,0:0:0:0:
448,192,52123,1,4,0:0:0:0:
192,192,52298,1,4,0:0:0:0:
320,192,52298,1,0,0:0:0:70:LR_Long Bass.wav
448,192,52472,1,4,0:0:0:0:
64,192,52647,1,4,0:0:0:0:
320,192,52647,1,0,0:0:0:0:
192,192,52821,1,4,0:0:0:0:
64,192,52995,1,4,0:0:0:0:
448,192,52995,1,0,0:0:0:0:
192,192,53170,1,4,0:0:0:0:
320,192,53344,1,4,0:0:0:0:
448,192,53344,1,0,0:0:0:0:
192,192,53519,1,4,0:0:0:0:
64,192,53693,1,4,0:0:0:0:
448,192,53693,1,0,0:0:0:70:LR_Long Bass.wav
192,192,53868,1,4,0:0:0:0:
320,192,54042,1,4,0:0:0:0:
448,192,54042,1,0,0:0:0:0:
64,192,54216,1,4,0:0:0:0:
192,192,54391,1,4,0:0:0:0:
448,192,54391,1,0,0:0:0:0:
320,192,54565,1,4,0:0:0:0:
64,192,54740,1,4,0:0:0:0:
192,192,54740,1,0,0:0:0:0:
320,192,54914,1,4,0:0:0:0:
64,192,55088,1,0,0:0:0:70:LR_Tom Hit.wav
448,192,55088,1,0,0:0:0:0:
192,192,55205,1,0,0:0:0:70:LR_Tom Hit 2.wav
320,192,55205,1,0,0:0:0:0:
64,192,55321,1,0,0:0:0:70:LR_Tom Hit 2.wav
192,192,55321,1,0,0:0:0:0:
320,192,55437,1,0,0:0:0:70:LR_Tom Hit 2.wav
448,192,55437,1,0,0:0:0:0:
192,192,55554,1,0,0:0:0:70:LR_Tom Hit 2.wav
448,192,55554,1,0,0:0:0:0:
64,192,55670,1,0,0:0:0:70:LR_Tom Hit 2.wav
320,192,55670,1,0,0:0:0:0:
192,192,55786,1,0,0:0:0:70:LR_Tom Hit 2.wav
448,192,55786,1,0,0:0:0:0:
192,192,55902,1,0,0:0:0:70:LR_Tom Hit 2.wav
320,192,55902,1,0,0:0:0:0:
64,192,56019,1,0,0:0:0:70:LR_Tom Hit 2.wav
320,192,56019,1,0,0:0:0:0:
64,192,56135,1,8,0:0:0:0:
192,192,56135,1,0,0:0:0:70:LR_CymbalCCR.wav
320,192,56179,1,0,0:0:0:0:
448,192,56222,1,0,0:0:0:0:
192,192,56266,1,0,0:0:0:0:
64,192,56309,1,0,0:0:0:0:
448,192,56353,1,0,0:0:0:0:
320,192,56397,1,0,0:0:0:0:
192,192,56440,1,0,0:0:0:0:
64,192,56484,1,2,0:0:0:0:
320,192,56484,1,0,0:0:0:70:LR_CymbalCCR.wav
448,192,56484,1,0,0:0:0:0:
192,192,56658,1,4,0:0:0:0:
64,192,56833,1,4,0:0:0:0:
448,192,56833,1,0,0:0:0:0:
320,192,57007,1,4,0:0:0:0:
64,192,57181,1,4,0:0:0:0:
448,192,57181,1,0,0:0:0:0:
192,192,57356,1,4,0:0:0:0:
320,192,57530,1,4,0:0:0:0:
448,192,57530,1,0,0:0:0:0:
64,192,57705,1,4,0:0:0:0:
192,192,57879,1,4,0:0:0:0:
320,192,57879,1,0,0:0:0:70:LR_Long Bass.wav
448,192,58054,1,4,0:0:0:0:
64,192,58228,1,4,0:0:0:0:
192,192,58228,1,0,0:0:0:0:
320,192,58402,1,4,0:0:0:0:
64,192,58577,1,4,0:0:0:0:
448,192,58577,1,0,0:0:0:0:
192,192,58751,1,4,0:0:0:0:
64,192,58926,1,4,0:0:0:0:
448,192,58926,1,0,0:0:0:0:
320,192,59100,1,4,0:0:0:0:
320,192,59187,1,0,0:0:0:0:
192,192,59274,1,4,0:0:0:0:
448,192,59274,1,0,0:0:0:70:LR_Long Bass.wav
64,192,59449,1,4,0:0:0:0:
192,192,59623,1,4,0:0:0:0:
448,192,59623,1,0,0:0:0:0:
320,192,59798,1,4,0:0:0:0:
64,192,59972,1,4,0:0:0:0:
448,192,59972,1,0,0:0:0:0:
192,192,60147,1,4,0:0:0:0:
320,192,60321,1,4,0:0:0:0:
448,192,60321,1,0,0:0:0:0:
192,192,60495,1,4,0:0:0:0:
192,192,60583,1,0,0:0:0:0:
64,192,60670,1,4,0:0:0:0:
320,192,60670,1,0,0:0:0:70:LR_Long Bass.wav
448,192,60844,1,4,0:0:0:0:
64,192,61019,1,4,0:0:0:0:
320,192,61019,1,0,0:0:0:0:
192,192,61193,1,4,0:0:0:0:
64,192,61368,1,4,0:0:0:0:
320,192,61368,1,8,0:0:0:0:
448,192,61368,1,0,0:0:0:0:
192,192,61542,1,4,0:0:0:0:
448,192,61542,1,2,0:0:0:0:
64,192,61629,1,2,0:0:0:0:
320,192,61629,1,0,0:0:0:0:
192,192,61716,1,4,0:0:0:0:
320,192,61716,1,8,0:0:0:0:
448,192,61716,1,0,0:0:0:0:
64,192,61891,1,4,0:0:0:0:
320,192,61891,1,2,0:0:0:0:
64,192,62065,1,8,0:0:0:0:
192,192,62065,1,0,0:0:0:70:LR_CymbalCCR.wav
448,192,62065,1,0,0:0:0:0:
320,192,62240,1,4,0:0:0:0:
64,192,62414,1,4,0:0:0:0:
192,192,62414,1,0,0:0:0:0:
320,192,62588,1,4,0:0:0:0:
64,192,62763,1,4,0:0:0:0:
448,192,62763,1,0,0:0:0:0:
192,192,62937,1,4,0:0:0:0:
320,192,63112,1,4,0:0:0:0:
448,192,63112,1,0,0:0:0:0:
64,192,63286,1,4,0:0:0:0:
192,192,63461,1,4,0:0:0:0:
320,192,63461,1,0,0:0:0:70:LR_Long Bass.wav
192,192,63635,1,4,0:0:0:0:
320,192,63809,1,4,0:0:0:0:
448,192,63809,1,0,0:0:0:0:
64,192,63984,1,4,0:0:0:0:
192,192,64158,1,4,0:0:0:0:
448,192,64158,1,0,0:0:0:0:
320,192,64333,1,4,0:0:0:0:
320,192,64507,1,4,0:0:0:0:
448,192,64507,1,0,0:0:0:0:
64,192,64681,1,4,0:0:0:0:
192,192,64856,1,4,0:0:0:0:
448,192,64856,1,0,0:0:0:70:LR_Long Bass.wav
320,192,65030,1,4,0:0:0:0:
64,192,65205,1,4,0:0:0:0:
448,192,65205,1,0,0:0:0:0:
192,192,65379,1,4,0:0:0:0:
64,192,65554,1,4,0:0:0:0:
320,192,65554,1,0,0:0:0:0:
320,192,65728,1,4,0:0:0:0:
192,192,65902,1,4,0:0:0:0:
448,192,65902,1,0,0:0:0:0:
448,192,66077,1,4,0:0:0:0:
64,192,66251,1,0,0:0:0:0:
192,192,66251,1,0,0:0:0:0:
448,192,66426,1,0,0:0:0:0:
192,192,66513,1,0,0:0:0:0:
64,192,66600,1,0,0:0:0:0:
320,192,66774,1,0,0:0:0:0:
64,192,66949,1,0,0:0:0:0:
192,192,66993,1,0,0:0:0:0:
448,192,67036,1,0,0:0:0:0:
320,192,67080,1,0,0:0:0:0:
192,192,67123,1,0,0:0:0:0:
64,192,67167,1,0,0:0:0:0:
448,192,67211,1,0,0:0:0:0:
320,192,67254,1,0,0:0:0:0:
64,192,67298,1,8,0:0:0:0:
192,192,67298,1,0,0:0:0:0:
448,192,67298,1,0,0:0:0:0:
320,192,67647,1,2,0:0:0:0:
448,192,67647,1,0,0:0:0:0:
192,192,67821,1,4,0:0:0:0:
320,192,67908,1,0,0:0:0:0:
64,192,67995,1,2,0:0:0:0:
448,192,67995,1,0,0:0:0:0:
192,192,68170,128,4,68868:0:0:0:0:
320,192,68170,1,0,0:0:0:0:
64,192,68344,1,2,0:0:0:0:
448,192,68344,1,0,0:0:0:0:
320,192,68519,1,4,0:0:0:0:
64,192,68693,1,2,0:0:0:0:
448,192,68693,1,0,0:0:0:0:
320,192,68868,1,4,0:0:0:0:
192,192,69042,1,2,0:0:0:0:
448,192,69042,1,0,0:0:0:0:
448,192,69216,1,4,0:0:0:0:
320,192,69304,1,0,0:0:0:0:
64,192,69391,128,2,69478:0:0:0:0:
192,192,69391,1,0,0:0:0:0:
320,192,69565,1,4,0:0:0:0:
448,192,69565,1,0,0:0:0:0:
64,192,69740,1,2,0:0:0:0:
192,192,69740,1,0,0:0:0:0:
64,192,69914,128,4,70001:0:0:0:0:
320,192,69914,1,0,0:0:0:0:
64,192,70088,1,2,0:0:0:0:
192,192,70088,1,0,0:0:0:0:
320,192,70263,1,4,0:0:0:0:
64,192,70437,1,2,0:0:0:0:
448,192,70437,1,0,0:0:0:0:
320,192,70612,1,4,0:0:0:0:
192,192,70699,1,0,0:0:0:0:
64,192,70786,1,2,0:0:0:0:
448,192,70786,1,0,0:0:0:0:
320,192,70961,1,4,0:0:0:0:
448,192,70961,128,0,71658:0:0:0:0:
64,192,71135,1,2,0:0:0:0:
192,192,71135,1,0,0:0:0:0:
320,192,71309,1,4,0:0:0:0:
64,192,71484,1,2,0:0:0:0:
192,192,71484,1,0,0:0:0:0:
64,192,71658,1,4,0:0:0:0:
192,192,71702,1,0,0:0:0:0:
448,192,71745,1,0,0:0:0:0:
320,192,71789,1,0,0:0:0:0:
64,192,71833,1,2,0:0:0:0:
192,192,71833,1,0,0:0:0:0:
320,192,72007,1,4,0:0:0:0:
448,192,72094,1,0,0:0:0:0:
64,192,72181,1,2,0:0:0:0:
320,192,72181,128,0,72269:0:0:0:0:
192,192,72356,1,4,0:0:0:0:
448,192,72356,1,0,0:0:0:0:
320,192,72530,1,2,0:0:0:0:
448,192,72530,1,0,0:0:0:0:
64,192,72705,128,4,72792:0:0:0:0:
192,192,72705,1,0,0:0:0:0:
192,192,72879,1,2,0:0:0:0:
448,192,72879,1,0,0:0:0:0:
320,192,73054,1,4,0:0:0:0:
64,192,73228,1,2,0:0:0:0:
192,192,73228,1,0,0:0:0:0:
448,192,73228,1,0,0:0:0:0:
320,192,73358,1,0,0:0:0:0:
64,192,73402,1,4,0:0:0:0:
192,192,73490,1,0,0:0:0:0:
320,192,73577,1,2,0:0:0:0:
448,192,73577,1,0,0:0:0:0:
192,192,73751,1,4,0:0:0:0:
320,192,73751,128,0,74449:0:0:0:0:
64,192,73926,1,2,0:0:0:0:
448,192,73926,1,0,0:0:0:0:
192,192,74100,1,4,0:0:0:0:
64,192,74274,1,2,0:0:0:0:
448,192,74274,1,0,0:0:0:0:
192,192,74449,1,4,0:0:0:0:
64,192,74623,1,2,0:0:0:0:
448,192,74623,1,0,0:0:0:0:
192,192,74798,1,4,0:0:0:0:
320,192,74885,1,0,0:0:0:0:
64,192,74972,128,2,75059:0:0:0:0:
448,192,74972,1,0,0:0:0:0:
192,192,75147,1,4,0:0:0:0:
320,192,75321,1,2,0:0:0:0:
448,192,75321,1,0,0:0:0:0:
64,192,75495,1,4,0:0:0:0:
192,192,75495,128,0,75583:0:0:0:0:
320,192,75670,1,2,0:0:0:0:
448,192,75670,1,0,0:0:0:0:
64,192,75844,1,4,0:0:0:0:
192,192,76019,1,2,0:0:0:0:
448,192,76019,1,0,0:0:0:0:
320,192,76193,1,4,0:0:0:0:
192,192,76280,1,0,0:0:0:0:
320,192,76368,1,2,0:0:0:0:
448,192,76368,1,0,0:0:0:0:
64,192,76542,1,4,0:0:0:0:
192,192,76542,128,0,77240:0:0:0:0:
320,192,76716,1,2,0:0:0:0:
448,192,76716,1,0,0:0:0:0:
64,192,76891,1,4,0:0:0:0:
320,192,77065,1,2,0:0:0:0:
448,192,77065,1,0,0:0:0:0:
448,192,77240,1,4,0:0:0:0:
320,192,77283,1,0,0:0:0:0:
64,192,77327,1,0,0:0:0:0:
192,192,77370,1,0,0:0:0:0:
320,192,77414,1,2,0:0:0:0:
448,192,77414,1,0,0:0:0:0:
192,192,77588,1,4,0:0:0:0:
320,192,77676,1,0,0:0:0:0:
64,192,77763,1,2,0:0:0:0:
192,192,77763,128,0,77850:0:0:0:0:
448,192,77937,1,4,0:0:0:0:
64,192,78112,1,2,0:0:0:0:
320,192,78112,1,0,0:0:0:0:
192,192,78286,1,4,0:0:0:0:
448,192,78286,128,0,78373:0:0:0:0:
64,192,78461,1,8,0:0:0:0:
320,192,78461,1,0,0:0:0:0:
448,192,78461,1,0,0:0:0:0:
192,192,78809,1,2,0:0:0:0:
320,192,78809,1,0,0:0:0:0:
448,192,78809,1,0,0:0:0:0:
64,192,78984,1,2,0:0:0:0:
320,192,78984,1,0,0:0:0:0:
192,192,79158,1,2,0:0:0:0:
448,192,79158,1,0,0:0:0:0:
192,192,79333,1,2,0:0:0:0:
320,192,79333,1,0,0:0:0:0:
320,192,79507,1,2,0:0:0:0:
448,192,79507,1,0,0:0:0:0:
64,192,79681,1,2,0:0:0:0:
192,192,79681,1,0,0:0:0:0:
192,192,79856,1,2,0:0:0:0:
448,192,79856,1,0,0:0:0:0:
64,192,80030,1,2,0:0:0:0:
320,192,80030,1,0,0:0:0:0:
192,192,80205,1,2,0:0:0:0:
448,192,80205,1,0,0:0:0:0:
192,192,80379,1,2,0:0:0:0:
320,192,80379,1,0,0:0:0:0:
320,192,80554,1,2,0:0:0:0:
448,192,80554,1,0,0:0:0:0:
64,192,80728,1,2,0:0:0:0:
192,192,80728,1,0,0:0:0:0:
192,192,80902,1,2,0:0:0:0:
448,192,80902,1,0,0:0:0:0:
64,192,81077,1,2,0:0:0:0:
320,192,81077,1,0,0:0:0:0:
192,192,81251,1,2,0:0:0:0:
320,192,81251,1,0,0:0:0:0:
64,192,81426,1,2,0:0:0:0:
192,192,81426,1,0,0:0:0:0:
320,192,81600,1,2,0:0:0:0:
448,192,81600,1,0,0:0:0:0:
192,192,81774,1,2,0:0:0:0:
320,192,81774,1,0,0:0:0:0:
192,192,81949,1,2,0:0:0:0:
448,192,81949,1,0,0:0:0:0:
64,192,82123,1,2,0:0:0:0:
320,192,82123,1,0,0:0:0:0:
192,192,82298,1,2,0:0:0:0:
320,192,82298,1,0,0:0:0:0:
64,192,82472,1,2,0:0:0:0:
192,192,82472,1,0,0:0:0:0:
320,192,82647,1,2,0:0:0:0:
448,192,82647,1,0,0:0:0:0:
64,192,82821,1,2,0:0:0:0:
320,192,82821,1,0,0:0:0:0:
192,192,82995,1,2,0:0:0:0:
448,192,82995,1,0,0:0:0:0:
64,192,83170,1,2,0:0:0:0:
320,192,83170,1,0,0:0:0:0:
192,192,83344,1,2,0:0:0:0:
320,192,83344,1,0,0:0:0:0:
64,192,83519,1,2,0:0:0:0:
192,192,83519,1,0,0:0:0:0:
320,192,83693,1,2,0:0:0:0:
448,192,83693,1,0,0:0:0:0:
64,192,83868,1,2,0:0:0:0:
192,192,83868,1,0,0:0:0:0:
192,192,84042,1,2,0:0:0:0:
448,192,84042,1,0,0:0:0:0:
64,192,84216,1,2,0:0:0:0:
320,192,84216,1,0,0:0:0:0:
64,192,84391,1,2,0:0:0:0:
192,192,84391,1,0,0:0:0:0:
448,192,84391,1,0,0:0:0:0:
320,192,84478,1,0,0:0:0:0:
64,192,84565,1,2,0:0:0:0:
192,192,84565,1,0,0:0:0:0:
448,192,84652,1,0,0:0:0:0:
64,192,84740,1,2,0:0:0:0:
192,192,84740,1,0,0:0:0:0:
320,192,84827,1,0,0:0:0:0:
64,192,84914,1,2,0:0:0:0:
448,192,84914,1,0,0:0:0:0:
192,192,85001,1,0,0:0:0:0:
320,192,85088,1,2,0:0:0:0:
448,192,85088,1,0,0:0:0:0:
192,192,85176,1,0,0:0:0:0:
320,192,85263,1,2,0:0:0:0:
448,192,85263,1,0,0:0:0:0:
64,192,85350,1,0,0:0:0:0:
320,192,85437,1,2,0:0:0:0:
448,192,85437,1,0,0:0:0:0:
192,192,85524,1,0,0:0:0:0:
64,192,85612,1,2,0:0:0:0:
448,192,85612,1,0,0:0:0:0:
320,192,85699,1,0,0:0:0:0:
192,192,85786,1,2,0:0:0:0:
448,192,85786,1,0,0:0:0:0:
320,192,85873,1,0,0:0:0:0:
64,192,85961,1,2,0:0:0:0:
448,192,85961,1,0,0:0:0:0:
192,192,86048,1,0,0:0:0:0:
64,192,86135,1,2,0:0:0:0:
320,192,86135,1,0,0:0:0:0:
192,192,86222,1,0,0:0:0:0:
64,192,86309,1,2,0:0:0:0:
448,192,86309,1,0,0:0:0:0:
192,192,86397,1,0,0:0:0:0:
320,192,86484,1,2,0:0:0:0:
448,192,86484,1,0,0:0:0:0:
192,192,86571,1,0,0:0:0:0:
64,192,86658,1,2,0:0:0:0:
448,192,86658,1,0,0:0:0:0:
192,192,86745,1,0,0:0:0:0:
64,192,86833,1,2,0:0:0:0:
448,192,86833,1,0,0:0:0:0:
320,192,86920,1,0,0:0:0:0:
64,192,87007,1,2,0:0:0:0:
192,192,87007,1,0,0:0:0:0:
320,192,87094,1,0,0:0:0:0:
64,192,87181,1,2,0:0:0:0:
192,192,87181,1,0,0:0:0:0:
320,192,87269,1,2,0:0:0:0:
448,192,87269,1,0,0:0:0:0:
64,192,87356,1,2,0:0:0:0:
192,192,87356,1,0,0:0:0:0:
320,192,87443,1,2,0:0:0:0:
448,192,87443,1,0,0:0:0:0:
64,192,87530,1,2,0:0:0:0:
192,192,87530,1,0,0:0:0:0:
320,192,87618,1,2,0:0:0:0:
448,192,87618,1,0,0:0:0:0:
64,192,87705,1,2,0:0:0:0:
192,192,87705,1,0,0:0:0:0:
320,192,87792,1,2,0:0:0:0:
448,192,87792,1,0,0:0:0:0:
64,192,87879,1,2,0:0:0:0:
192,192,87879,1,0,0:0:0:0:
320,192,87966,1,2,0:0:0:0:
448,192,87966,1,0,0:0:0:0:
64,192,88054,1,2,0:0:0:0:
192,192,88054,1,0,0:0:0:0:
320,192,88141,1,2,0:0:0:0:
448,192,88141,1,0,0:0:0:0:
64,192,88228,1,2,0:0:0:0:
192,192,88228,1,0,0:0:0:0:
320,192,88315,1,2,0:0:0:0:
448,192,88315,1,0,0:0:0:0:
64,192,88402,1,2,0:0:0:0:
192,192,88402,1,0,0:0:0:0:
320,192,88490,1,2,0:0:0:0:
448,192,88490,1,0,0:0:0:0:
192,192,88577,1,0,0:0:0:0:
320,192,88664,1,0,0:0:0:0:
192,192,88751,1,0,0:0:0:0:
320,192,88838,1,0,0:0:0:0:
192,192,88926,1,0,0:0:0:0:
320,192,89013,1,0,0:0:0:0:
192,192,89100,1,0,0:0:0:0:
320,192,89187,1,0,0:0:0:0:
192,192,89274,128,0,89623:0:0:0:0:
64,192,89449,128,0,89623:0:0:0:0:
320,192,89623,1,8,0:0:0:0:
448,192,89623,1,0,0:0:0:0:
64,192,89972,1,2,0:0:0:0:
320,192,89972,128,0,90670:0:0:0:70:LR_Long Bass.wav
448,192,89972,1,0,0:0:0:0:
192,192,90147,1,0,0:0:0:0:
64,192,90321,1,8,0:0:0:0:
448,192,90321,1,0,0:0:0:0:
192,192,90495,1,0,0:0:0:0:
448,192,90670,1,0,0:0:0:0:
192,192,90844,1,2,0:0:0:0:
320,192,90844,1,0,0:0:0:0:
64,192,91019,1,8,0:0:0:0:
320,192,91019,1,0,0:0:0:0:
448,192,91019,1,0,0:0:0:0:
192,192,91193,1,0,0:0:0:0:
320,192,91193,1,0,0:0:0:0:
64,192,91368,128,2,91716:0:0:0:0:
192,192,91368,1,0,0:0:0:0:
448,192,91368,128,0,91629:0:0:0:0:
320,192,91455,128,0,91716:0:0:0:0:
192,192,91542,128,0,91804:0:0:0:0:
448,192,91716,128,8,91978:0:0:0:0:
320,192,91804,128,0,91978:0:0:0:0:
192,192,91891,128,0,91978:0:0:0:0:
64,192,92065,1,0,0:0:0:0:
448,192,92065,1,0,0:0:0:0:
192,192,92152,1,0,0:0:0:0:
320,192,92240,1,2,0:0:0:0:
448,192,92240,1,0,0:0:0:0:
192,192,92327,1,0,0:0:0:0:
64,192,92414,1,8,0:0:0:0:
320,192,92414,1,0,0:0:0:0:
448,192,92414,128,0,92458:0:0:0:0:
64,192,92588,1,0,0:0:0:0:
448,192,92588,128,0,92632:0:0:0:0:
192,192,92763,128,2,93461:0:0:0:0:
320,192,92763,1,0,0:0:0:0:
448,192,92763,1,0,0:0:0:0:
64,192,92937,1,0,0:0:0:0:
320,192,93112,1,8,0:0:0:0:
448,192,93112,1,0,0:0:0:0:
64,192,93286,1,0,0:0:0:0:
448,192,93461,1,0,0:0:0:0:
64,192,93635,1,2,0:0:0:0:
320,192,93635,1,0,0:0:0:0:
192,192,93809,1,8,0:0:0:0:
320,192,93809,1,0,0:0:0:0:
448,192,93809,128,0,94158:0:0:0:0:
64,192,93984,1,0,0:0:0:0:
192,192,94158,128,2,94681:0:0:0:0:
320,192,94158,128,0,94333:0:0:0:0:
64,192,94333,128,0,94507:0:0:0:0:
320,192,94507,128,8,94681:0:0:0:0:
448,192,94507,1,0,0:0:0:0:
64,192,94681,128,0,95030:0:0:0:0:
448,192,94681,128,0,95554:0:0:0:0:
192,192,95030,1,2,0:0:0:0:
320,192,95030,128,0,95205:0:0:0:0:
64,192,95205,1,8,0:0:0:0:
192,192,95205,128,0,95379:0:0:0:0:
64,192,95379,128,0,95554:0:0:0:0:
192,192,95554,1,2,0:0:0:0:
320,192,95554,128,0,96251:0:0:0:70:LR_CymbalCCR.wav
64,192,95728,1,0,0:0:0:0:
192,192,95902,1,8,0:0:0:0:
448,192,95902,1,0,0:0:0:0:
64,192,96077,1,0,0:0:0:0:
192,192,96251,1,0,0:0:0:0:
192,192,96426,1,2,0:0:0:0:
320,192,96426,1,0,0:0:0:0:
64,192,96600,1,8,0:0:0:0:
320,192,96600,1,0,0:0:0:0:
448,192,96600,1,0,0:0:0:0:
64,192,96774,1,0,0:0:0:0:
192,192,96774,1,0,0:0:0:0:
64,192,96949,1,2,0:0:0:0:
192,192,96949,1,0,0:0:0:0:
448,192,96949,128,0,97211:0:0:0:0:
320,192,97036,128,0,97211:0:0:0:0:
192,192,97123,128,0,97211:0:0:0:0:
64,192,97298,1,8,0:0:0:0:
320,192,97298,1,0,0:0:0:0:
448,192,97298,1,0,0:0:0:0:
64,192,97472,1,0,0:0:0:0:
192,192,97472,1,0,0:0:0:0:
320,192,97647,1,0,0:0:0:0:
448,192,97647,128,0,97995:0:0:0:0:
64,192,97821,1,2,0:0:0:0:
192,192,97821,128,0,97995:0:0:0:0:
64,192,97995,128,8,98344:0:0:0:0:
320,192,97995,128,0,98039:0:0:0:0:
320,192,98170,128,0,98213:0:0:0:0:
192,192,98344,128,2,99042:0:0:0:0:
448,192,98344,1,0,0:0:0:0:
320,192,98519,1,0,0:0:0:0:
64,192,98693,1,8,0:0:0:0:
448,192,98693,1,0,0:0:0:0:
320,192,98868,1,0,0:0:0:0:
64,192,99042,1,0,0:0:0:0:
448,192,99042,1,0,0:0:0:0:
320,192,99129,1,0,0:0:0:0:
192,192,99216,1,2,0:0:0:0:
448,192,99216,1,0,0:0:0:0:
320,192,99304,1,0,0:0:0:0:
64,192,99391,1,8,0:0:0:0:
192,192,99391,128,0,99740:0:0:0:0:
448,192,99391,1,0,0:0:0:0:
64,192,99740,1,2,0:0:0:0:
320,192,99740,1,0,0:0:0:0:
192,192,99914,1,0,0:0:0:0:
320,192,100001,1,0,0:0:0:0:
448,192,100263,1,0,0:0:0:0:
64,192,100437,1,8,0:0:0:0:
192,192,100437,1,0,0:0:0:0:
320,192,100437,1,0,0:0:0:0:
64,192,100612,1,2,0:0:0:0:
192,192,100612,1,0,0:0:0:0:
320,192,100699,1,2,0:0:0:0:
448,192,100699,1,0,0:0:0:0:
64,192,100786,1,8,0:0:0:0:
192,192,100786,1,0,0:0:0:0:
448,192,100786,1,0,0:0:0:0:
192,192,100961,1,2,0:0:0:0:
320,192,100961,1,0,0:0:0:0:
64,192,101135,128,0,101833:0:0:0:70:LR_CymbalCCR.wav
192,192,101135,1,0,0:0:0:0:
448,192,101135,1,0,0:0:0:0:
320,192,101309,1,0,0:0:0:0:
192,192,101484,1,8,0:0:0:0:
448,192,101484,1,0,0:0:0:0:
320,192,101658,1,0,0:0:0:0:
448,192,101833,1,0,0:0:0:0:
64,192,102007,1,2,0:0:0:0:
320,192,102007,1,0,0:0:0:0:
64,192,102181,1,8,0:0:0:0:
192,192,102181,1,0,0:0:0:0:
448,192,102181,1,0,0:0:0:0:
192,192,102356,1,0,0:0:0:0:
320,192,102356,1,0,0:0:0:0:
64,192,102530,1,2,0:0:0:0:
320,192,102530,128,0,102792:0:0:0:0:
448,192,102530,128,0,102879:0:0:0:0:
192,192,102618,128,0,102879:0:0:0:0:
64,192,102705,128,0,102966:0:0:0:0:
320,192,102879,128,8,103141:0:0:0:0:
192,192,102966,128,0,103141:0:0:0:0:
64,192,103054,128,0,103141:0:0:0:0:
64,192,103228,1,0,0:0:0:0:
192,192,103315,1,0,0:0:0:0:
64,192,103402,1,2,0:0:0:0:
320,192,103402,1,0,0:0:0:0:
192,192,103490,1,0,0:0:0:0:
64,192,103577,1,8,0:0:0:0:
320,192,103577,1,0,0:0:0:0:
448,192,103577,128,0,103620:0:0:0:0:
320,192,103751,1,0,0:0:0:0:
448,192,103751,128,0,103795:0:0:0:0:
64,192,103926,1,2,0:0:0:0:
320,192,103926,128,0,104623:0:0:0:0:
448,192,103926,1,0,0:0:0:0:
192,192,104100,1,0,0:0:0:0:
64,192,104274,1,8,0:0:0:0:
448,192,104274,1,0,0:0:0:0:
192,192,104449,1,0,0:0:0:0:
448,192,104623,1,0,0:0:0:0:
64,192,104798,1,2,0:0:0:0:
320,192,104798,1,0,0:0:0:0:
192,192,104972,1,8,0:0:0:0:
320,192,104972,128,0,105321:0:0:0:0:
448,192,104972,1,0,0:0:0:0:
64,192,105147,1,0,0:0:0:0:
64,192,105321,1,2,0:0:0:0:
192,192,105321,128,0,105495:0:0:0:0:
448,192,105321,128,0,106019:0:0:0:0:
64,192,105495,128,0,105670:0:0:0:0:
192,192,105670,128,8,105844:0:0:0:0:
320,192,105670,1,0,0:0:0:0:
320,192,105844,128,0,106019:0:0:0:0:
192,192,106019,128,0,106716:0:0:0:0:
320,192,106193,1,2,0:0:0:0:
448,192,106193,128,0,106368:0:0:0:0:
64,192,106368,1,8,0:0:0:0:
320,192,106368,128,0,106542:0:0:0:0:
64,192,106542,128,0,106716:0:0:0:0:
320,192,106716,1,2,0:0:0:0:
448,192,106716,128,0,107414:0:0:0:70:LR_CymbalCCR.wav
64,192,106891,1,0,0:0:0:0:
192,192,107065,1,8,0:0:0:0:
320,192,107065,1,0,0:0:0:0:
64,192,107240,1,0,0:0:0:0:
192,192,107414,1,0,0:0:0:0:
320,192,107414,1,0,0:0:0:0:
64,192,107588,1,2,0:0:0:0:
192,192,107588,1,0,0:0:0:0:
64,192,107763,1,8,0:0:0:0:
320,192,107763,1,0,0:0:0:0:
448,192,107763,1,0,0:0:0:0:
192,192,107937,1,0,0:0:0:0:
320,192,107937,1,0,0:0:0:0:
64,192,108112,1,2,0:0:0:0:
320,192,108112,128,0,108373:0:0:0:0:
448,192,108112,1,0,0:0:0:0:
192,192,108199,128,0,108373:0:0:0:0:
64,192,108286,128,0,108373:0:0:0:0:
192,192,108461,1,8,0:0:0:0:
320,192,108461,1,0,0:0:0:0:
448,192,108461,1,0,0:0:0:0:
64,192,108548,1,0,0:0:0:0:
448,192,108635,1,0,0:0:0:0:
320,192,108722,1,0,0:0:0:0:
64,192,108809,1,0,0:0:0:0:
192,192,108809,1,0,0:0:0:0:
320,192,108897,1,0,0:0:0:0:
192,192,108984,1,2,0:0:0:0:
448,192,108984,1,0,0:0:0:0:
320,192,109071,1,0,0:0:0:0:
64,192,109158,1,8,0:0:0:0:
192,192,109158,128,0,109202:0:0:0:0:
448,192,109158,1,0,0:0:0:0:
192,192,109333,128,0,109376:0:0:0:0:
448,192,109333,1,0,0:0:0:0:
64,192,109507,128,2,110205:0:0:0:0:
320,192,109507,1,0,0:0:0:0:
448,192,109507,1,0,0:0:0:0:
192,192,109681,1,0,0:0:0:0:
320,192,109856,1,8,0:0:0:0:
448,192,109856,1,0,0:0:0:0:
192,192,110030,1,0,0:0:0:0:
320,192,110205,1,0,0:0:0:0:
448,192,110205,1,0,0:0:0:0:
192,192,110292,1,0,0:0:0:0:
64,192,110379,1,2,0:0:0:0:
320,192,110379,1,0,0:0:0:0:
192,192,110466,1,0,0:0:0:0:
64,192,110554,1,8,0:0:0:0:
320,192,110554,128,0,110902:0:0:0:0:
448,192,110554,1,0,0:0:0:0:
64,192,110902,1,8,0:0:0:0:
192,192,110902,1,0,0:0:0:0:
64,192,111077,1,2,0:0:0:0:
192,192,111077,1,0,0:0:0:0:
320,192,111164,1,2,0:0:0:0:
448,192,111164,1,0,0:0:0:0:
64,192,111251,1,8,0:0:0:0:
192,192,111251,1,0,0:0:0:0:
320,192,111426,1,2,0:0:0:0:
448,192,111426,1,0,0:0:0:0:
64,192,111513,1,2,0:0:0:0:
192,192,111513,1,0,0:0:0:0:
320,192,111600,1,8,0:0:0:0:
448,192,111600,1,0,0:0:0:0:
64,192,111774,1,2,0:0:0:0:
448,192,111774,1,0,0:0:0:0:
192,192,111862,1,2,0:0:0:0:
320,192,111862,1,0,0:0:0:0:
64,192,111949,128,8,112298:0:0:0:0:
192,192,111949,1,0,0:0:0:70:LR_Long Bass.wav
448,192,111949,1,0,0:0:0:0:
192,192,112298,1,2,0:0:0:0:
320,192,112298,128,0,112995:0:0:0:0:
448,192,112298,1,0,0:0:0:0:
64,192,112472,1,0,0:0:0:0:
192,192,112647,1,8,0:0:0:0:
448,192,112647,1,0,0:0:0:0:
64,192,112821,1,0,0:0:0:0:
192,192,112995,1,0,0:0:0:0:
64,192,113170,1,2,0:0:0:0:
192,192,113170,1,0,0:0:0:0:
64,192,113344,1,8,0:0:0:0:
320,192,113344,1,0,0:0:0:0:
448,192,113344,1,0,0:0:0:0:
192,192,113519,1,0,0:0:0:0:
448,192,113519,1,0,0:0:0:0:
64,192,113693,1,2,0:0:0:0:
320,192,113693,128,0,114042:0:0:0:0:
448,192,113693,1,0,0:0:0:0:
192,192,113780,128,0,114129:0:0:0:0:
64,192,113868,128,0,114304:0:0:0:0:
448,192,114042,128,8,114304:0:0:0:0:
320,192,114129,128,0,114304:0:0:0:0:
192,192,114216,128,0,114304:0:0:0:0:
192,192,114391,1,0,0:0:0:0:
448,192,114391,1,0,0:0:0:0:
320,192,114478,1,0,0:0:0:0:
192,192,114565,1,2,0:0:0:0:
448,192,114565,1,0,0:0:0:0:
64,192,114652,1,0,0:0:0:0:
192,192,114740,1,8,0:0:0:0:
320,192,114740,128,0,114783:0:0:0:0:
448,192,114740,1,0,0:0:0:0:
192,192,114914,1,0,0:0:0:0:
320,192,114914,128,0,114958:0:0:0:0:
64,192,115088,1,2,0:0:0:0:
192,192,115088,128,0,115786:0:0:0:0:
448,192,115088,1,0,0:0:0:0:
320,192,115263,1,0,0:0:0:0:
64,192,115437,1,8,0:0:0:0:
448,192,115437,1,0,0:0:0:0:
320,192,115612,1,0,0:0:0:0:
448,192,115786,1,0,0:0:0:0:
192,192,115961,1,2,0:0:0:0:
320,192,115961,1,0,0:0:0:0:
64,192,116135,1,8,0:0:0:0:
320,192,116135,128,0,116484:0:0:0:0:
448,192,116135,1,0,0:0:0:0:
192,192,116309,1,0,0:0:0:0:
64,192,116484,1,2,0:0:0:0:
192,192,116484,128,0,116658:0:0:0:0:
448,192,116484,128,0,117181:0:0:0:0:
64,192,116658,128,0,116833:0:0:0:0:
192,192,116833,128,8,117007:0:0:0:0:
320,192,116833,1,0,0:0:0:0:
320,192,117007,128,0,117356:0:0:0:0:
64,192,117181,128,0,117879:0:0:0:0:
192,192,117356,128,2,117530:0:0:0:0:
448,192,117356,1,0,0:0:0:0:
320,192,117530,1,8,0:0:0:0:
448,192,117530,128,0,117705:0:0:0:0:
320,192,117705,128,0,117879:0:0:0:0:
192,192,117879,128,2,118577:0:0:0:0:
448,192,117879,1,0,0:0:0:70:LR_CymbalCCR.wav
320,192,118054,1,0,0:0:0:0:
64,192,118228,1,8,0:0:0:0:
448,192,118228,1,0,0:0:0:0:
320,192,118402,1,0,0:0:0:0:
320,192,118577,1,0,0:0:0:0:
64,192,118751,1,2,0:0:0:0:
448,192,118751,1,0,0:0:0:0:
64,192,118926,1,8,0:0:0:0:
192,192,118926,1,0,0:0:0:0:
320,192,118926,1,0,0:0:0:0:
192,192,119100,1,0,0:0:0:0:
448,192,119100,1,0,0:0:0:0:
64,192,119274,1,2,0:0:0:0:
320,192,119274,128,0,119536:0:0:0:0:
448,192,119274,1,0,0:0:0:0:
192,192,119362,128,0,119536:0:0:0:0:
64,192,119449,128,0,119536:0:0:0:0:
64,192,119623,1,8,0:0:0:0:
320,192,119623,1,0,0:0:0:0:
448,192,119623,1,0,0:0:0:0:
192,192,119798,1,0,0:0:0:0:
320,192,119798,1,0,0:0:0:0:
64,192,119972,1,0,0:0:0:0:
192,192,119972,1,0,0:0:0:0:
64,192,120147,1,2,0:0:0:0:
320,192,120147,1,0,0:0:0:0:
64,192,120321,128,8,120670:0:0:0:0:
320,192,120321,128,0,120365:0:0:0:0:
448,192,120321,1,0,0:0:0:0:
320,192,120495,128,0,120539:0:0:0:0:
448,192,120495,1,0,0:0:0:0:
192,192,120670,128,2,121368:0:0:0:0:
448,192,120670,1,0,0:0:0:0:
320,192,120844,1,0,0:0:0:0:
64,192,121019,1,8,0:0:0:0:
448,192,121019,1,0,0:0:0:0:
320,192,121193,1,0,0:0:0:0:
64,192,121368,1,0,0:0:0:0:
64,192,121542,1,2,0:0:0:0:
192,192,121542,1,0,0:0:0:0:
320,192,121629,1,0,0:0:0:0:
64,192,121716,1,8,0:0:0:0:
192,192,121716,1,0,0:0:0:0:
448,192,121716,128,0,122065:0:0:0:0:
192,192,121891,1,0,0:0:0:0:
64,192,122065,1,2,0:0:0:0:
320,192,122065,1,0,0:0:0:0:
320,192,122240,1,0,0:0:0:0:
192,192,122327,1,0,0:0:0:0:
448,192,122588,1,0,0:0:0:0:
64,192,122763,1,8,0:0:0:0:
192,192,122763,1,0,0:0:0:0:
448,192,122763,1,0,0:0:0:0:
64,192,122937,1,2,0:0:0:0:
320,192,122937,1,0,0:0:0:0:
192,192,123024,1,2,0:0:0:0:
448,192,123024,1,0,0:0:0:0:
64,192,123112,1,8,0:0:0:0:
320,192,123112,1,0,0:0:0:0:
448,192,123112,1,0,0:0:0:0:
192,192,123286,1,2,0:0:0:0:
320,192,123286,1,0,0:0:0:0:
192,192,123461,1,2,0:0:0:0:
320,192,123461,128,0,124158:0:0:0:70:LR_CymbalCCR.wav
448,192,123461,1,0,0:0:0:0:
64,192,123635,1,0,0:0:0:0:
192,192,123809,1,8,0:0:0:0:
448,192,123809,1,0,0:0:0:0:
64,192,123984,1,0,0:0:0:0:
448,192,124158,1,0,0:0:0:0:
320,192,124333,1,2,0:0:0:0:
448,192,124333,1,0,0:0:0:0:
64,192,124507,1,8,0:0:0:0:
192,192,124507,1,0,0:0:0:0:
320,192,124507,1,0,0:0:0:0:
192,192,124681,1,0,0:0:0:0:
448,192,124681,1,0,0:0:0:0:
64,192,124856,1,2,0:0:0:0:
320,192,124856,128,0,125205:0:0:0:0:
448,192,124856,1,0,0:0:0:0:
192,192,124943,128,0,125292:0:0:0:0:
64,192,125030,128,0,125466:0:0:0:0:
448,192,125205,128,8,125466:0:0:0:0:
320,192,125292,128,0,125466:0:0:0:0:
192,192,125379,128,0,125466:0:0:0:0:
64,192,125554,1,0,0:0:0:0:
192,192,125554,1,0,0:0:0:0:
320,192,125641,1,0,0:0:0:0:
64,192,125728,1,2,0:0:0:0:
448,192,125728,1,0,0:0:0:0:
192,192,125815,1,0,0:0:0:0:
64,192,125902,1,8,0:0:0:0:
320,192,125902,1,0,0:0:0:0:
448,192,125902,128,0,125946:0:0:0:0:
320,192,126077,1,0,0:0:0:0:
448,192,126077,128,0,126120:0:0:0:0:
192,192,126251,128,2,126949:0:0:0:0:
320,192,126251,1,0,0:0:0:0:
448,192,126251,1,0,0:0:0:0:
64,192,126426,1,0,0:0:0:0:
320,192,126600,1,8,0:0:0:0:
448,192,126600,1,0,0:0:0:0:
64,192,126774,1,0,0:0:0:0:
448,192,126949,1,0,0:0:0:0:
64,192,127123,1,2,0:0:0:0:
192,192,127123,1,0,0:0:0:0:
64,192,127298,128,8,127647:0:0:0:0:
192,192,127298,1,0,0:0:0:0:
448,192,127298,1,0,0:0:0:0:
320,192,127472,1,0,0:0:0:0:
192,192,127647,128,2,127821:0:0:0:0:
320,192,127647,1,0,0:0:0:0:
448,192,127647,128,0,128170:0:0:0:0:
64,192,127821,128,0,127995:0:0:0:0:
192,192,127995,128,8,128170:0:0:0:0:
320,192,127995,1,0,0:0:0:0:
64,192,128170,128,0,129042:0:0:0:0:
320,192,128170,128,0,128519:0:0:0:0:
192,192,128519,1,2,0:0:0:0:
448,192,128519,128,0,128693:0:0:0:0:
192,192,128693,1,8,0:0:0:0:
320,192,128693,128,0,128868:0:0:0:0:
192,192,128868,128,0,129042:0:0:0:0:
320,192,129042,128,2,129740:0:0:0:0:
448,192,129042,1,0,0:0:0:70:LR_CymbalCCR.wav
192,192,129216,1,0,0:0:0:0:
64,192,129391,1,8,0:0:0:0:
448,192,129391,1,0,0:0:0:0:
192,192,129565,1,0,0:0:0:0:
448,192,129740,1,0,0:0:0:0:
64,192,129914,1,2,0:0:0:0:
192,192,129914,1,0,0:0:0:0:
64,192,130088,1,8,0:0:0:0:
320,192,130088,1,0,0:0:0:0:
448,192,130088,1,0,0:0:0:0:
192,192,130263,1,0,0:0:0:0:
320,192,130263,1,0,0:0:0:0:
64,192,130437,1,2,0:0:0:0:
192,192,130437,1,0,0:0:0:0:
448,192,130437,128,0,130699:0:0:0:0:
320,192,130524,128,0,130699:0:0:0:0:
192,192,130612,128,0,130699:0:0:0:0:
64,192,130786,1,8,0:0:0:0:
320,192,130786,1,0,0:0:0:0:
448,192,130786,1,0,0:0:0:0:
192,192,130873,1,0,0:0:0:0:
64,192,130961,1,0,0:0:0:0:
320,192,130961,1,0,0:0:0:0:
192,192,131048,1,0,0:0:0:0:
320,192,131135,1,0,0:0:0:0:
448,192,131135,1,0,0:0:0:0:
64,192,131222,1,0,0:0:0:0:
192,192,131309,1,2,0:0:0:0:
448,192,131309,1,0,0:0:0:0:
320,192,131397,1,0,0:0:0:0:
64,192,131484,1,8,0:0:0:0:
192,192,131484,1,0,0:0:0:0:
448,192,131484,128,0,131527:0:0:0:0:
192,192,131658,1,0,0:0:0:0:
448,192,131658,128,0,131702:0:0:0:0:
64,192,131833,1,2,0:0:0:0:
320,192,131833,128,0,132530:0:0:0:0:
448,192,131833,1,0,0:0:0:0:
192,192,132007,1,0,0:0:0:0:
64,192,132181,1,8,0:0:0:0:
448,192,132181,1,0,0:0:0:0:
192,192,132356,1,0,0:0:0:0:
448,192,132530,1,0,0:0:0:0:
192,192,132618,1,0,0:0:0:0:
320,192,132705,1,2,0:0:0:0:
448,192,132705,1,0,0:0:0:0:
64,192,132792,1,0,0:0:0:0:
192,192,132879,1,8,0:0:0:0:
320,192,132879,128,0,133228:0:0:0:0:
448,192,132879,1,0,0:0:0:0:
64,192,133228,1,2,0:0:0:0:
192,192,133228,1,0,0:0:0:0:
320,192,133315,1,2,0:0:0:0:
448,192,133315,1,0,0:0:0:0:
64,192,133402,1,2,0:0:0:0:
192,192,133402,1,0,0:0:0:0:
320,192,133490,1,2,0:0:0:0:
448,192,133490,1,0,0:0:0:0:
64,192,133577,1,2,0:0:0:0:
192,192,133577,1,0,0:0:0:0:
320,192,133664,1,2,0:0:0:0:
448,192,133664,1,0,0:0:0:0:
64,192,133751,1,2,0:0:0:0:
192,192,133751,1,0,0:0:0:0:
320,192,133838,1,2,0:0:0:0:
448,192,133838,1,0,0:0:0:0:
64,192,133926,128,8,134274:0:0:0:0:
192,192,133926,1,0,0:0:0:70:LR_Long Bass.wav
448,192,133926,1,0,0:0:0:0:
320,192,134274,1,0,0:0:0:0:
448,192,134318,1,0,0:0:0:0:
192,192,134362,1,0,0:0:0:0:
64,192,134405,1,0,0:0:0:0:
448,192,134449,1,0,0:0:0:0:
320,192,134493,1,0,0:0:0:0:
64,192,134536,1,0,0:0:0:0:
192,192,134580,1,0,0:0:0:0:
64,192,134623,1,0,0:0:0:70:Ride.wav
320,192,134623,1,0,0:0:0:70:LR_Long Bass.wav
448,192,134623,1,0,0:0:0:0:
192,192,134798,1,0,0:0:0:0:
448,192,134972,1,0,0:0:0:0:
64,192,135147,1,0,0:0:0:0:
192,192,135321,1,0,0:0:0:70:Ride.wav
320,192,135321,1,0,0:0:0:0:
448,192,135495,1,0,0:0:0:0:
64,192,135670,1,0,0:0:0:0:
192,192,135844,1,0,0:0:0:0:
64,192,136019,1,0,0:0:0:70:Ride.wav
320,192,136019,1,0,0:0:0:70:LR_Long Bass.wav
192,192,136193,1,0,0:0:0:0:
64,192,136368,1,0,0:0:0:0:
448,192,136368,1,0,0:0:0:0:
192,192,136542,1,0,0:0:0:0:
320,192,136716,1,0,0:0:0:70:Ride.wav
448,192,136716,1,0,0:0:0:0:
192,192,136891,1,0,0:0:0:0:
64,192,137065,1,0,0:0:0:0:
320,192,137065,1,0,0:0:0:0:
192,192,137240,1,0,0:0:0:0:
64,192,137414,1,0,0:0:0:70:Ride.wav
448,192,137414,1,0,0:0:0:70:LR_Long Bass.wav
320,192,137588,1,0,0:0:0:0:
448,192,137763,1,0,0:0:0:0:
64,192,137937,1,0,0:0:0:0:
192,192,137937,1,0,0:0:0:0:
64,192,138112,1,0,0:0:0:70:Ride.wav
320,192,138112,1,0,0:0:0:0:
448,192,138286,1,0,0:0:0:0:
64,192,138461,1,0,0:0:0:0:
192,192,138635,1,0,0:0:0:0:
64,192,138809,1,0,0:0:0:70:Ride.wav
320,192,138809,1,0,0:0:0:70:LR_Long Bass.wav
192,192,138984,1,0,0:0:0:0:
448,192,139158,1,0,0:0:0:0:
64,192,139333,1,0,0:0:0:0:
192,192,139507,1,0,0:0:0:70:Ride.wav
320,192,139507,1,0,0:0:0:0:
448,192,139681,1,0,0:0:0:0:
64,192,139856,1,0,0:0:0:0:
192,192,140030,1,0,0:0:0:0:
320,192,140205,1,0,0:0:0:70:Ride.wav
448,192,140205,1,0,0:0:0:70:LR_Long Bass.wav
192,192,140379,1,0,0:0:0:0:
64,192,140554,1,0,0:0:0:0:
320,192,140728,1,0,0:0:0:0:
192,192,140902,1,0,0:0:0:70:Ride.wav
448,192,140902,1,0,0:0:0:0:
64,192,141077,1,0,0:0:0:0:
448,192,141251,1,0,0:0:0:0:
320,192,141426,1,0,0:0:0:0:
64,192,141600,1,0,0:0:0:70:Ride.wav
192,192,141600,1,0,0:0:0:70:LR_Long Bass.wav
320,192,141774,1,0,0:0:0:0:
64,192,141949,1,0,0:0:0:0:
448,192,141949,1,0,0:0:0:0:
320,192,142123,1,0,0:0:0:0:
192,192,142298,1,0,0:0:0:70:Ride.wav
448,192,142298,1,0,0:0:0:0:
64,192,142472,1,0,0:0:0:0:
320,192,142647,1,0,0:0:0:0:
448,192,142647,1,0,0:0:0:0:
192,192,142821,1,0,0:0:0:0:
64,192,142995,1,0,0:0:0:70:Ride.wav
448,192,142995,1,0,0:0:0:70:LR_Long Bass.wav
192,192,143170,1,0,0:0:0:0:
64,192,143344,1,0,0:0:0:0:
320,192,143519,1,0,0:0:0:0:
448,192,143519,1,0,0:0:0:0:
192,192,143693,1,0,0:0:0:70:Ride.wav
320,192,143693,1,0,0:0:0:0:
64,192,143868,1,0,0:0:0:0:
448,192,144042,1,0,0:0:0:0:
320,192,144216,1,0,0:0:0:0:
192,192,144391,1,0,0:0:0:70:Ride.wav
448,192,144391,1,0,0:0:0:70:LR_Long Bass.wav
320,192,144565,1,0,0:0:0:0:
64,192,144740,1,0,0:0:0:0:
192,192,144914,1,0,0:0:0:0:
448,192,144914,1,0,0:0:0:0:
64,192,145088,1,0,0:0:0:70:Ride.wav
320,192,145088,1,0,0:0:0:0:
192,192,145263,1,0,0:0:0:0:
448,192,145437,1,0,0:0:0:0:
64,192,145481,1,0,0:0:0:0:
192,192,145524,1,0,0:0:0:0:
320,192,145568,1,0,0:0:0:0:
448,192,145612,1,0,0:0:0:0:
192,192,145655,1,0,0:0:0:0:
64,192,145699,1,0,0:0:0:0:
448,192,145743,1,0,0:0:0:0:
64,192,145786,1,8,0:0:0:0:
192,192,145786,1,0,0:0:0:70:LR_CymbalCCR.wav
320,192,145786,1,0,0:0:0:70:LR_Long Bass.wav
320,192,145961,1,0,0:0:0:0:
192,192,146048,1,0,0:0:0:0:
448,192,146135,1,0,0:0:0:0:
64,192,146309,1,0,0:0:0:0:
320,192,146309,1,0,0:0:0:0:
192,192,146484,1,0,0:0:0:70:Ride.wav
320,192,146484,1,0,0:0:0:0:
448,192,146658,1,0,0:0:0:0:
64,192,146833,1,0,0:0:0:0:
192,192,147007,1,0,0:0:0:0:
64,192,147181,1,0,0:0:0:70:Ride.wav
320,192,147181,1,0,0:0:0:70:LR_Long Bass.wav
192,192,147356,1,0,0:0:0:0:
320,192,147443,1,0,0:0:0:0:
64,192,147530,1,0,0:0:0:0:
448,192,147530,1,0,0:0:0:0:
64,192,147705,1,0,0:0:0:0:
192,192,147705,1,0,0:0:0:0:
192,192,147879,1,0,0:0:0:70:Ride.wav
320,192,147879,1,0,0:0:0:0:
448,192,148054,1,0,0:0:0:0:
64,192,148228,1,0,0:0:0:0:
320,192,148228,1,0,0:0:0:0:
192,192,148402,1,0,0:0:0:0:
320,192,148577,1,0,0:0:0:70:Ride.wav
448,192,148577,1,0,0:0:0:70:LR_Long Bass.wav
320,192,148751,1,0,0:0:0:0:
192,192,148838,1,0,0:0:0:0:
448,192,148926,1,0,0:0:0:0:
64,192,149100,1,0,0:0:0:0:
192,192,149100,1,0,0:0:0:0:
320,192,149274,1,0,0:0:0:70:Ride.wav
448,192,149274,1,0,0:0:0:0:
448,192,149449,1,0,0:0:0:0:
64,192,149623,1,0,0:0:0:0:
192,192,149798,1,0,0:0:0:0:
64,192,149972,1,0,0:0:0:70:Ride.wav
320,192,149972,1,0,0:0:0:70:LR_Long Bass.wav
192,192,150147,1,0,0:0:0:0:
320,192,150234,1,0,0:0:0:0:
448,192,150321,1,0,0:0:0:0:
192,192,150495,1,0,0:0:0:0:
320,192,150495,1,0,0:0:0:0:
64,192,150670,1,0,0:0:0:70:Ride.wav
320,192,150670,1,0,0:0:0:0:
448,192,150844,1,0,0:0:0:0:
64,192,151019,1,0,0:0:0:0:
320,192,151019,128,0,151368:0:0:0:0:
192,192,151193,1,0,0:0:0:0:
192,192,151368,128,0,151891:0:0:0:70:Ride.wav
448,192,151368,1,0,0:0:0:70:LR_Long Bass.wav
320,192,151542,1,0,0:0:0:0:
64,192,151629,1,0,0:0:0:0:
448,192,151716,1,0,0:0:0:0:
64,192,151891,128,0,152240:0:0:0:0:
320,192,151891,1,0,0:0:0:0:
320,192,152065,1,0,0:0:0:70:Ride.wav
448,192,152065,1,0,0:0:0:0:
192,192,152240,128,0,152763:0:0:0:0:
448,192,152240,1,0,0:0:0:0:
64,192,152414,1,0,0:0:0:0:
320,192,152588,1,0,0:0:0:0:
64,192,152763,1,0,0:0:0:70:Ride.wav
448,192,152763,128,0,153461:0:0:0:70:LR_Long Bass.wav
192,192,152937,1,0,0:0:0:0:
64,192,153024,1,0,0:0:0:0:
320,192,153112,1,0,0:0:0:0:
64,192,153286,1,0,0:0:0:0:
64,192,153461,1,0,0:0:0:70:Ride.wav
192,192,153461,1,0,0:0:0:0:
320,192,153635,1,0,0:0:0:0:
448,192,153635,1,0,0:0:0:0:
192,192,153809,1,0,0:0:0:0:
320,192,153809,1,0,0:0:0:0:
64,192,153984,1,0,0:0:0:0:
192,192,153984,1,0,0:0:0:0:
64,192,154158,128,0,155466:0:0:0:70:Ride.wav
320,192,154158,1,0,0:0:0:70:LR_Long Bass.wav
448,192,154158,1,0,0:0:0:0:
320,192,154333,1,0,0:0:0:0:
192,192,154420,1,0,0:0:0:0:
320,192,154507,1,0,0:0:0:70:Ride.wav
448,192,154507,1,0,0:0:0:0:
192,192,154681,1,0,0:0:0:70:Ride.wav
448,192,154681,1,0,0:0:0:0:
192,192,154856,1,0,0:0:0:70:Ride.wav
320,192,154856,1,0,0:0:0:0:
448,192,155030,1,0,0:0:0:0:
192,192,155205,1,0,0:0:0:70:Ride.wav
320,192,155205,1,0,0:0:0:0:
192,192,155379,1,0,0:0:0:0:
64,192,155554,1,8,0:0:0:0:
320,192,155554,1,0,0:0:0:0:
448,192,155554,1,0,0:0:0:0:
64,192,155728,1,2,0:0:0:0:
192,192,155728,1,0,0:0:0:0:
320,192,155815,1,2,0:0:0:0:
448,192,155815,1,0,0:0:0:0:
64,192,155902,1,8,0:0:0:0:
192,192,155902,1,0,0:0:0:0:
192,192,156077,1,2,0:0:0:0:
320,192,156077,1,0,0:0:0:0:
448,192,156077,1,0,0:0:0:0:
64,192,156251,1,8,0:0:0:0:
192,192,156251,1,0,0:0:0:0:
320,192,156295,1,0,0:0:0:0:
448,192,156338,1,2,0:0:0:0:
64,192,156382,1,0,0:0:0:0:
192,192,156426,1,2,0:0:0:0:
448,192,156469,1,0,0:0:0:0:
320,192,156513,1,2,0:0:0:0:
192,192,156556,1,0,0:0:0:0:
64,192,156600,1,8,0:0:0:0:
320,192,156600,1,0,0:0:0:70:LR_Long Bass.wav
448,192,156600,1,0,0:0:0:0:
64,192,156949,1,2,0:0:0:0:
320,192,156949,1,0,0:0:0:70:LR_CymbalCCR.wav
448,192,156949,1,0,0:0:0:0:
192,192,157123,1,4,0:0:0:0:
320,192,157298,1,8,0:0:0:0:
448,192,157298,1,4,0:0:0:0:
64,192,157472,1,4,0:0:0:0:
320,192,157647,1,4,0:0:0:0:
64,192,157821,1,2,0:0:0:0:
192,192,157821,1,4,0:0:0:0:
320,192,157995,1,8,0:0:0:0:
448,192,157995,1,4,0:0:0:0:
192,192,158170,1,4,0:0:0:0:
64,192,158344,1,2,0:0:0:0:
448,192,158344,1,4,0:0:0:0:
320,192,158519,1,4,0:0:0:0:
64,192,158693,1,8,0:0:0:0:
192,192,158693,1,4,0:0:0:0:
320,192,158868,1,4,0:0:0:0:
448,192,159042,1,4,0:0:0:0:
192,192,159216,1,2,0:0:0:0:
320,192,159216,1,4,0:0:0:0:
192,192,159391,1,8,0:0:0:0:
448,192,159391,1,4,0:0:0:0:
64,192,159565,1,4,0:0:0:0:
64,192,159652,1,0,0:0:0:0:
320,192,159740,1,2,0:0:0:0:
448,192,159740,1,4,0:0:0:0:
192,192,159914,1,4,0:0:0:0:
64,192,160088,1,8,0:0:0:0:
448,192,160088,1,4,0:0:0:0:
320,192,160263,1,4,0:0:0:0:
448,192,160437,1,4,0:0:0:0:
64,192,160612,1,2,0:0:0:0:
192,192,160612,1,4,0:0:0:0:
192,192,160786,1,8,0:0:0:0:
320,192,160786,1,4,0:0:0:0:
448,192,160961,1,4,0:0:0:0:
448,192,161048,1,0,0:0:0:0:
64,192,161135,1,2,0:0:0:0:
320,192,161135,1,4,0:0:0:0:
192,192,161309,1,4,0:0:0:0:
320,192,161484,1,8,0:0:0:0:
448,192,161484,1,4,0:0:0:0:
64,192,161658,1,4,0:0:0:0:
320,192,161833,1,4,0:0:0:0:
192,192,162007,1,2,0:0:0:0:
448,192,162007,1,4,0:0:0:0:
320,192,162181,1,8,0:0:0:0:
448,192,162181,1,4,0:0:0:0:
64,192,162356,1,4,0:0:0:0:
192,192,162530,1,2,0:0:0:0:
320,192,162530,1,0,0:0:0:70:LR_CymbalCCR.wav
448,192,162530,1,0,0:0:0:0:
64,192,162705,1,4,0:0:0:0:
320,192,162879,1,8,0:0:0:0:
448,192,162879,1,4,0:0:0:0:
192,192,163054,1,4,0:0:0:0:
320,192,163228,1,4,0:0:0:0:
64,192,163402,1,2,0:0:0:0:
192,192,163402,1,4,0:0:0:0:
192,192,163577,1,8,0:0:0:0:
448,192,163577,1,4,0:0:0:0:
320,192,163751,1,4,0:0:0:0:
64,192,163926,1,2,0:0:0:0:
192,192,163926,1,4,0:0:0:0:
448,192,164100,1,4,0:0:0:0:
64,192,164274,1,4,0:0:0:0:
320,192,164274,1,8,0:0:0:0:
192,192,164449,1,4,0:0:0:0:
448,192,164623,1,4,0:0:0:0:
192,192,164798,1,4,0:0:0:0:
320,192,164798,1,2,0:0:0:0:
64,192,164972,1,4,0:0:0:0:
448,192,164972,1,8,0:0:0:0:
192,192,165147,1,4,0:0:0:0:
320,192,165321,1,2,0:0:0:0:
448,192,165321,1,4,0:0:0:0:
64,192,165495,1,4,0:0:0:0:
320,192,165670,1,4,0:0:0:0:
448,192,165670,1,8,0:0:0:0:
192,192,165844,1,4,0:0:0:0:
448,192,166019,1,4,0:0:0:0:
64,192,166193,1,4,0:0:0:0:
320,192,166193,1,2,0:0:0:0:
192,192,166368,1,4,0:0:0:0:
320,192,166368,1,8,0:0:0:0:
448,192,166542,1,4,0:0:0:0:
64,192,166716,1,8,0:0:0:0:
192,192,166716,1,0,0:0:0:0:
320,192,166716,1,0,0:0:0:0:
320,192,166833,1,0,0:0:0:70:LR_Tom Hit 2.wav
448,192,166833,1,0,0:0:0:0:
64,192,166949,1,0,0:0:0:70:LR_Tom Hit 2.wav
192,192,166949,1,0,0:0:0:0:
64,192,167065,1,0,0:0:0:70:LR_Tom Hit 2.wav
320,192,167065,1,0,0:0:0:0:
192,192,167181,1,0,0:0:0:70:LR_Tom Hit 2.wav
448,192,167181,1,0,0:0:0:0:
192,192,167298,1,0,0:0:0:70:LR_Tom Hit 2.wav
320,192,167298,1,0,0:0:0:0:
64,192,167414,1,0,0:0:0:70:LR_Tom Hit 2.wav
448,192,167414,1,0,0:0:0:0:
64,192,167530,1,0,0:0:0:70:LR_Tom Hit 2.wav
320,192,167530,1,0,0:0:0:0:
192,192,167647,1,0,0:0:0:70:LR_Tom Hit 2.wav
448,192,167647,1,0,0:0:0:0:
64,192,167763,1,8,0:0:0:0:
448,192,167763,1,0,0:0:0:70:LR_CymbalCCR.wav
320,192,167806,1,0,0:0:0:0:
192,192,167850,1,0,0:0:0:0:
64,192,167894,1,0,0:0:0:0:
448,192,167937,1,0,0:0:0:0:
320,192,167981,1,0,0:0:0:0:
192,192,168024,1,0,0:0:0:0:
64,192,168068,1,0,0:0:0:0:
192,192,168112,1,4,0:0:0:0:
320,192,168112,1,2,0:0:0:0:
448,192,168112,1,0,0:0:0:0:
64,192,168286,1,4,0:0:0:0:
320,192,168461,1,8,0:0:0:0:
448,192,168461,1,4,0:0:0:0:
192,192,168635,1,4,0:0:0:0:
320,192,168809,1,4,0:0:0:0:
64,192,168984,1,2,0:0:0:0:
192,192,168984,1,4,0:0:0:0:
320,192,169158,1,8,0:0:0:0:
448,192,169158,1,4,0:0:0:0:
192,192,169333,1,4,0:0:0:0:
64,192,169507,1,2,0:0:0:0:
320,192,169507,1,4,0:0:0:0:
448,192,169681,1,4,0:0:0:0:
64,192,169856,1,4,0:0:0:0:
192,192,169856,1,8,0:0:0:0:
448,192,170030,1,4,0:0:0:0:
192,192,170205,1,4,0:0:0:0:
64,192,170379,1,4,0:0:0:0:
320,192,170379,1,2,0:0:0:0:
192,192,170554,1,4,0:0:0:0:
448,192,170554,1,8,0:0:0:0:
64,192,170728,1,4,0:0:0:0:
64,192,170815,1,0,0:0:0:0:
320,192,170902,1,2,0:0:0:0:
448,192,170902,1,4,0:0:0:0:
64,192,171077,1,4,0:0:0:0:
192,192,171251,1,4,0:0:0:0:
448,192,171251,1,8,0:0:0:0:
320,192,171426,1,4,0:0:0:0:
192,192,171600,1,4,0:0:0:0:
64,192,171774,1,4,0:0:0:0:
448,192,171774,1,2,0:0:0:0:
192,192,171949,1,4,0:0:0:0:
320,192,171949,1,8,0:0:0:0:
448,192,172123,1,4,0:0:0:0:
448,192,172211,1,0,0:0:0:0:
64,192,172298,1,4,0:0:0:0:
320,192,172298,1,2,0:0:0:0:
448,192,172472,1,4,0:0:0:0:
192,192,172647,1,8,0:0:0:0:
320,192,172647,1,4,0:0:0:0:
64,192,172821,1,4,0:0:0:0:
320,192,172995,1,4,0:0:0:0:
448,192,172995,1,2,0:0:0:0:
64,192,173170,1,2,0:0:0:0:
192,192,173170,1,4,0:0:0:0:
320,192,173257,1,0,0:0:0:0:
64,192,173344,128,8,173606:0:0:0:0:
192,192,173344,1,4,0:0:0:0:
448,192,173344,1,0,0:0:0:0:
320,192,173519,1,12,0:0:0:0:
64,192,173693,1,2,0:0:0:0:
192,192,173693,1,0,0:0:0:70:LR_CymbalCCR.wav
448,192,173693,1,0,0:0:0:0:
320,192,173868,1,4,0:0:0:0:
64,192,174042,1,2,0:0:0:0:
448,192,174042,1,4,0:0:0:0:
192,192,174216,1,4,0:0:0:0:
64,192,174391,1,2,0:0:0:0:
320,192,174391,1,4,0:0:0:0:
448,192,174565,1,4,0:0:0:0:
192,192,174652,1,0,0:0:0:0:
320,192,174740,1,2,0:0:0:0:
448,192,174740,1,4,0:0:0:0:
192,192,174914,1,4,0:0:0:0:
64,192,175088,1,2,0:0:0:0:
320,192,175088,1,4,0:0:0:0:
448,192,175088,1,0,0:0:0:0:
320,192,175263,1,4,0:0:0:0:
64,192,175437,1,2,0:0:0:0:
448,192,175437,1,4,0:0:0:0:
320,192,175612,1,4,0:0:0:0:
64,192,175786,1,2,0:0:0:0:
192,192,175786,1,4,0:0:0:0:
64,192,175961,1,4,0:0:0:0:
192,192,176048,1,0,0:0:0:0:
320,192,176135,1,2,0:0:0:0:
448,192,176135,1,4,0:0:0:0:
64,192,176309,1,4,0:0:0:0:
192,192,176484,1,2,0:0:0:0:
320,192,176484,1,4,0:0:0:0:
448,192,176484,1,0,0:0:0:0:
64,192,176658,1,4,0:0:0:0:
192,192,176658,1,2,0:0:0:0:
320,192,176658,1,0,0:0:0:0:
64,192,176833,1,2,0:0:0:0:
320,192,176833,1,4,0:0:0:0:
448,192,176833,1,0,0:0:0:0:
64,192,177007,1,4,0:0:0:0:
192,192,177007,1,2,0:0:0:0:
448,192,177007,1,0,0:0:0:0:
320,192,177181,1,2,0:0:0:0:
448,192,177181,1,4,0:0:0:0:
64,192,177269,1,2,0:0:0:0:
192,192,177269,1,0,0:0:0:0:
320,192,177356,1,4,0:0:0:0:
448,192,177356,1,2,0:0:0:0:
64,192,177443,1,2,0:0:0:0:
192,192,177443,1,0,0:0:0:0:
320,192,177530,1,2,0:0:0:0:
448,192,177530,1,4,0:0:0:0:
64,192,177618,1,2,0:0:0:0:
192,192,177618,1,0,0:0:0:0:
320,192,177705,1,4,0:0:0:0:
448,192,177705,1,2,0:0:0:0:
64,192,177792,1,2,0:0:0:0:
192,192,177792,1,0,0:0:0:0:
320,192,177879,128,2,177966:0:0:0:0:
448,192,177879,128,0,177966:0:0:0:70:LR_CymbalCCR.wav
320,192,178054,128,0,178141:0:0:0:0:
448,192,178054,128,0,178141:0:0:0:0:
320,192,178228,128,0,178315:0:0:0:0:
448,192,178228,128,0,178315:0:0:0:0:
320,192,178402,128,0,178490:0:0:0:0:
448,192,178402,128,0,178490:0:0:0:0:
320,192,178577,128,0,178926:0:0:0:0:
64,192,178751,1,0,0:0:0:0:
448,192,178751,128,0,178926:0:0:0:0:
192,192,178838,1,0,0:0:0:0:
64,192,178926,1,8,0:0:0:0:
192,192,178926,1,0,0:0:0:0:
64,192,179274,128,2,179972:0:0:0:0:
192,192,179274,1,0,0:0:0:0:
320,192,179274,128,0,179972:0:0:0:0:
448,192,179274,1,0,0:0:0:0:
192,192,179972,1,8,0:0:0:0:
448,192,179972,1,0,0:0:0:0:
64,192,180147,1,0,0:0:0:0:
320,192,180147,1,0,0:0:0:0:
192,192,180321,1,0,0:0:0:0:
448,192,180321,1,0,0:0:0:0:
192,192,180495,1,0,0:0:0:0:
448,192,180495,1,0,0:0:0:0:
64,192,180670,128,2,180931:0:0:0:0:
320,192,180670,1,0,0:0:0:0:
448,192,180670,1,0,0:0:0:0:
192,192,180757,128,0,180931:0:0:0:0:
320,192,180844,128,0,180931:0:0:0:0:
64,192,181019,1,2,0:0:0:0:
192,192,181019,1,0,0:0:0:0:
448,192,181019,128,0,181280:0:0:0:0:
320,192,181106,128,0,181280:0:0:0:0:
192,192,181193,128,0,181280:0:0:0:0:
64,192,181368,1,8,0:0:0:0:
192,192,181368,1,0,0:0:0:0:
448,192,181368,1,0,0:0:0:0:
320,192,181455,1,0,0:0:0:0:
192,192,181542,1,0,0:0:0:0:
448,192,181542,1,0,0:0:0:0:
320,192,181629,1,0,0:0:0:0:
64,192,181716,128,2,181760:0:0:0:0:
192,192,181716,1,0,0:0:0:0:
448,192,181716,1,0,0:0:0:0:
64,192,181891,128,0,181934:0:0:0:0:
64,192,182065,128,2,182763:0:0:0:0:
320,192,182065,1,0,0:0:0:0:
448,192,182065,128,0,182763:0:0:0:0:
192,192,182414,1,0,0:0:0:70:Ride.wav
320,192,182588,1,0,0:0:0:0:
192,192,182763,1,8,0:0:0:0:
320,192,182763,1,0,0:0:0:0:
192,192,182937,1,0,0:0:0:0:
64,192,183112,1,2,0:0:0:0:
320,192,183112,128,0,183461:0:0:0:0:
448,192,183112,1,0,0:0:0:0:
64,192,183461,1,2,0:0:0:0:
192,192,183461,128,0,183984:0:0:0:70:LR_CymbalCCR.wav
448,192,183461,1,0,0:0:0:0:
64,192,183635,128,0,183984:0:0:0:0:
320,192,183809,128,0,183984:0:0:0:0:
448,192,183984,128,0,184769:0:0:0:0:
64,192,184158,1,2,0:0:0:0:
192,192,184158,1,0,0:0:0:70:LR_CymbalCCR.wav
320,192,184158,1,0,0:0:0:0:
320,192,184333,128,0,184769:0:0:0:0:
192,192,184507,128,0,184769:0:0:0:0:
64,192,184681,128,0,184769:0:0:0:0:
64,192,184856,1,2,0:0:0:0:
192,192,184856,128,0,185554:0:0:0:70:LR_CymbalCCR.wav
320,192,184856,1,0,0:0:0:0:
448,192,184856,128,0,185554:0:0:0:0:
64,192,185554,1,8,0:0:0:0:
320,192,185554,1,0,0:0:0:0:
192,192,185728,1,0,0:0:0:0:
448,192,185728,1,0,0:0:0:0:
64,192,185902,1,0,0:0:0:0:
320,192,185902,1,0,0:0:0:0:
64,192,186077,1,0,0:0:0:0:
320,192,186077,1,0,0:0:0:0:
64,192,186251,1,2,0:0:0:0:
192,192,186251,1,0,0:0:0:0:
448,192,186251,128,0,186513:0:0:0:0:
320,192,186338,128,0,186513:0:0:0:0:
192,192,186426,128,0,186513:0:0:0:0:
64,192,186513,1,0,0:0:0:0:
192,192,186600,1,2,0:0:0:0:
320,192,186600,1,0,0:0:0:0:
192,192,186774,1,0,0:0:0:0:
320,192,186774,1,0,0:0:0:0:
64,192,186949,1,8,0:0:0:0:
192,192,186949,1,0,0:0:0:0:
448,192,186949,1,0,0:0:0:0:
320,192,187123,1,0,0:0:0:0:
192,192,187298,1,2,0:0:0:0:
320,192,187298,128,0,187647:0:0:0:0:
448,192,187298,128,0,187341:0:0:0:0:
64,192,187472,1,2,0:0:0:0:
448,192,187472,128,0,187516:0:0:0:0:
64,192,187647,128,8,188344:0:0:0:0:
192,192,187647,1,0,0:0:0:0:
320,192,187821,1,0,0:0:0:0:
192,192,187995,1,0,0:0:0:70:Ride.wav
448,192,187995,1,0,0:0:0:0:
320,192,188170,1,0,0:0:0:0:
192,192,188344,1,8,0:0:0:0:
448,192,188344,1,0,0:0:0:0:
320,192,188431,1,0,0:0:0:0:
192,192,188519,1,0,0:0:0:0:
64,192,188606,1,0,0:0:0:0:
320,192,188693,128,0,189042:0:0:0:0:
448,192,188693,1,0,0:0:0:0:
64,192,188868,1,0,0:0:0:0:
192,192,189042,1,0,0:0:0:0:
64,192,189216,1,0,0:0:0:0:
320,192,189304,1,0,0:0:0:0:
448,192,189565,1,0,0:0:0:0:
64,192,189740,1,2,0:0:0:0:
192,192,189740,1,0,0:0:0:0:
320,192,189740,1,0,0:0:0:0:
64,192,189914,1,0,0:0:0:0:
192,192,189914,1,0,0:0:0:0:
320,192,190001,1,0,0:0:0:0:
448,192,190001,1,0,0:0:0:0:
64,192,190088,128,8,190437:0:0:0:0:
192,192,190088,128,0,190437:0:0:0:0:
448,192,190088,1,0,0:0:0:0:
320,192,190437,128,2,191135:0:0:0:0:
448,192,190437,128,0,191135:0:0:0:0:
64,192,191135,1,8,0:0:0:0:
192,192,191135,1,0,0:0:0:0:
64,192,191309,1,0,0:0:0:0:
320,192,191309,1,0,0:0:0:0:
192,192,191484,1,0,0:0:0:0:
320,192,191484,1,0,0:0:0:0:
192,192,191658,1,0,0:0:0:0:
320,192,191658,1,0,0:0:0:0:
64,192,191833,128,2,192094:0:0:0:0:
320,192,191833,1,0,0:0:0:0:
448,192,191833,1,0,0:0:0:0:
192,192,191920,128,0,192094:0:0:0:0:
320,192,192007,128,0,192094:0:0:0:0:
64,192,192181,1,2,0:0:0:0:
192,192,192181,1,0,0:0:0:0:
448,192,192181,128,0,192443:0:0:0:0:
320,192,192269,128,0,192443:0:0:0:0:
192,192,192356,128,0,192443:0:0:0:0:
64,192,192530,1,8,0:0:0:0:
192,192,192530,1,0,0:0:0:0:
448,192,192530,1,0,0:0:0:0:
320,192,192618,1,0,0:0:0:0:
64,192,192705,1,0,0:0:0:0:
448,192,192705,1,0,0:0:0:0:
192,192,192792,1,0,0:0:0:0:
64,192,192879,1,0,0:0:0:0:
320,192,192879,128,0,192923:0:0:0:0:
448,192,192879,1,0,0:0:0:0:
320,192,193054,128,0,193097:0:0:0:0:
192,192,193228,128,2,193926:0:0:0:0:
448,192,193228,1,0,0:0:0:0:
64,192,193577,1,0,0:0:0:0:
320,192,193751,1,0,0:0:0:0:
64,192,193926,1,8,0:0:0:0:
448,192,193926,1,0,0:0:0:0:
320,192,194100,1,0,0:0:0:0:
192,192,194187,1,0,0:0:0:0:
320,192,194274,128,0,194623:0:0:0:0:
448,192,194274,1,0,0:0:0:0:
64,192,194449,1,0,0:0:0:0:
192,192,194623,1,2,0:0:0:0:
448,192,194623,128,0,195147:0:0:0:70:LR_CymbalCCR.wav
320,192,194798,128,0,195147:0:0:0:0:
192,192,194972,128,0,195147:0:0:0:0:
64,192,195147,128,0,195670:0:0:0:0:
192,192,195321,1,2,0:0:0:0:
320,192,195321,1,0,0:0:0:70:LR_CymbalCCR.wav
448,192,195321,1,0,0:0:0:0:
192,192,195495,128,0,195670:0:0:0:0:
320,192,195670,1,2,0:0:0:0:
448,192,195670,1,0,0:0:0:0:
64,192,195757,1,2,0:0:0:0:
192,192,195757,1,0,0:0:0:0:
320,192,195844,1,2,0:0:0:0:
448,192,195844,1,0,0:0:0:0:
64,192,195931,1,0,0:0:0:0:
192,192,195931,1,0,0:0:0:0:
64,192,196019,1,2,0:0:0:0:
320,192,196019,1,0,0:0:0:0:
448,192,196019,1,0,0:0:0:0:
320,192,196193,1,0,0:0:0:0:
64,192,196368,1,2,0:0:0:0:
448,192,196368,1,0,0:0:0:0:
192,192,196542,1,0,0:0:0:0:
320,192,196716,1,2,0:0:0:0:
448,192,196716,1,0,0:0:0:0:
192,192,196891,1,0,0:0:0:0:
320,192,196978,1,0,0:0:0:0:
64,192,197065,1,2,0:0:0:0:
448,192,197065,1,0,0:0:0:0:
320,192,197240,1,0,0:0:0:0:
64,192,197414,1,2,0:0:0:0:
192,192,197414,1,0,0:0:0:0:
448,192,197414,128,0,197676:0:0:0:0:
320,192,197501,128,0,197676:0:0:0:0:
192,192,197588,128,0,197676:0:0:0:0:
192,192,197763,1,2,0:0:0:0:
448,192,197763,1,0,0:0:0:0:
320,192,197850,1,0,0:0:0:0:
64,192,197937,1,0,0:0:0:0:
448,192,197937,1,0,0:0:0:0:
192,192,198024,1,0,0:0:0:0:
64,192,198112,1,2,0:0:0:0:
320,192,198112,1,0,0:0:0:0:
448,192,198112,1,0,0:0:0:0:
192,192,198199,1,0,0:0:0:0:
320,192,198286,1,0,0:0:0:0:
448,192,198286,1,0,0:0:0:0:
192,192,198373,1,0,0:0:0:0:
64,192,198461,1,2,0:0:0:0:
448,192,198461,128,0,198504:0:0:0:0:
64,192,198635,1,0,0:0:0:0:
448,192,198635,128,0,198679:0:0:0:0:
192,192,198809,1,2,0:0:0:0:
320,192,198809,128,0,199507:0:0:0:0:
64,192,198984,1,0,0:0:0:0:
192,192,199158,1,2,0:0:0:0:
448,192,199158,1,0,0:0:0:0:
64,192,199333,1,0,0:0:0:0:
192,192,199507,1,2,0:0:0:0:
448,192,199507,1,0,0:0:0:0:
64,192,199594,1,0,0:0:0:0:
192,192,199681,1,0,0:0:0:0:
448,192,199681,1,0,0:0:0:0:
320,192,199769,1,0,0:0:0:0:
64,192,199856,1,2,0:0:0:0:
192,192,199856,128,0,200205:0:0:0:0:
448,192,199856,1,0,0:0:0:0:
320,192,200030,1,0,0:0:0:0:
320,192,200205,1,2,0:0:0:0:
448,192,200205,1,0,0:0:0:0:
64,192,200292,1,2,0:0:0:0:
192,192,200292,1,0,0:0:0:0:
320,192,200379,1,2,0:0:0:0:
448,192,200379,1,0,0:0:0:0:
64,192,200466,1,2,0:0:0:0:
192,192,200466,1,0,0:0:0:0:
320,192,200554,1,2,0:0:0:0:
448,192,200554,1,0,0:0:0:0:
64,192,200641,1,2,0:0:0:0:
192,192,200641,1,0,0:0:0:0:
320,192,200728,1,2,0:0:0:0:
448,192,200728,1,0,0:0:0:0:
64,192,200815,1,2,0:0:0:0:
192,192,200815,1,0,0:0:0:0:
64,192,200902,1,8,0:0:0:0:
320,192,200902,128,0,201251:0:0:0:0:
448,192,200902,1,0,0:0:0:0:
64,192,201251,1,0,0:0:0:0:
192,192,201295,1,0,0:0:0:0:
448,192,201338,1,0,0:0:0:0:
320,192,201382,1,0,0:0:0:0:
192,192,201426,1,0,0:0:0:0:
64,192,201469,1,0,0:0:0:0:
448,192,201513,1,0,0:0:0:0:
320,192,201556,1,0,0:0:0:0:
64,192,201600,1,2,0:0:0:0:
192,192,201600,128,0,202298:0:0:0:0:
448,192,201600,1,0,0:0:0:0:
320,192,201774,1,0,0:0:0:0:
64,192,201949,1,8,0:0:0:0:
448,192,201949,1,0,0:0:0:0:
320,192,202123,1,0,0:0:0:0:
448,192,202298,1,0,0:0:0:0:
192,192,202472,1,2,0:0:0:0:
448,192,202472,1,0,0:0:0:0:
192,192,202647,1,8,0:0:0:0:
320,192,202647,1,0,0:0:0:0:
448,192,202647,1,0,0:0:0:0:
64,192,202821,1,0,0:0:0:0:
320,192,202821,1,0,0:0:0:0:
64,192,202995,128,2,203257:0:0:0:0:
320,192,202995,1,0,0:0:0:0:
448,192,202995,1,0,0:0:0:0:
192,192,203083,128,0,203257:0:0:0:0:
320,192,203170,128,0,203257:0:0:0:0:
64,192,203344,1,8,0:0:0:0:
192,192,203344,1,0,0:0:0:0:
448,192,203344,128,0,203606:0:0:0:0:
320,192,203431,128,0,203606:0:0:0:0:
192,192,203519,128,0,203606:0:0:0:0:
192,192,203693,1,0,0:0:0:0:
448,192,203693,1,0,0:0:0:0:
192,192,203868,1,2,0:0:0:0:
320,192,203868,1,0,0:0:0:0:
64,192,204042,1,8,0:0:0:0:
320,192,204042,128,0,204086:0:0:0:0:
448,192,204042,1,0,0:0:0:0:
64,192,204216,1,0,0:0:0:0:
320,192,204216,128,0,204260:0:0:0:0:
192,192,204391,128,2,205088:0:0:0:0:
448,192,204391,1,0,0:0:0:0:
64,192,204565,1,0,0:0:0:0:
320,192,204740,1,8,0:0:0:0:
448,192,204740,1,0,0:0:0:0:
64,192,204914,1,0,0:0:0:0:
448,192,205088,1,0,0:0:0:0:
64,192,205263,1,2,0:0:0:0:
320,192,205263,1,0,0:0:0:0:
192,192,205437,1,8,0:0:0:0:
320,192,205437,128,0,205786:0:0:0:0:
448,192,205437,1,0,0:0:0:0:
64,192,205612,1,0,0:0:0:0:
64,192,205786,128,2,206484:0:0:0:0:
192,192,205786,1,0,0:0:0:0:
448,192,205786,128,0,205961:0:0:0:0:
192,192,205961,128,0,206135:0:0:0:0:
320,192,206135,128,8,206309:0:0:0:0:
448,192,206135,1,0,0:0:0:0:
448,192,206309,128,0,206658:0:0:0:0:
320,192,206484,128,0,207181:0:0:0:0:
64,192,206658,1,2,0:0:0:0:
192,192,206658,128,0,206833:0:0:0:0:
64,192,206833,1,8,0:0:0:0:
448,192,206833,128,0,207007:0:0:0:0:
64,192,207007,128,0,207181:0:0:0:0:
192,192,207181,1,2,0:0:0:0:
448,192,207181,128,0,207879:0:0:0:70:LR_CymbalCCR.wav
64,192,207356,1,0,0:0:0:0:
192,192,207530,1,8,0:0:0:0:
320,192,207530,1,0,0:0:0:0:
64,192,207705,1,0,0:0:0:0:
320,192,207879,1,0,0:0:0:0:
64,192,208054,1,2,0:0:0:0:
320,192,208054,1,0,0:0:0:0:
64,192,208228,1,8,0:0:0:0:
192,192,208228,1,0,0:0:0:0:
448,192,208228,1,0,0:0:0:0:
192,192,208402,1,0,0:0:0:0:
320,192,208402,1,0,0:0:0:0:
320,192,208577,128,2,208838:0:0:0:0:
448,192,208577,1,0,0:0:0:0:
192,192,208664,128,0,208838:0:0:0:0:
64,192,208751,128,0,208838:0:0:0:0:
448,192,208751,1,0,0:0:0:0:
64,192,208926,1,8,0:0:0:0:
192,192,208926,1,0,0:0:0:0:
320,192,208926,1,0,0:0:0:0:
320,192,209100,1,0,0:0:0:0:
448,192,209100,1,0,0:0:0:0:
192,192,209274,1,0,0:0:0:0:
448,192,209274,1,0,0:0:0:0:
192,192,209449,1,2,0:0:0:0:
320,192,209449,1,0,0:0:0:0:
64,192,209623,128,8,209667:0:0:0:0:
320,192,209623,128,0,209972:0:0:0:0:
448,192,209623,1,0,0:0:0:0:
64,192,209798,128,0,209841:0:0:0:0:
448,192,209798,1,0,0:0:0:0:
64,192,209972,1,2,0:0:0:0:
192,192,209972,128,0,210670:0:0:0:0:
320,192,210147,1,0,0:0:0:0:
64,192,210321,1,8,0:0:0:0:
448,192,210321,1,0,0:0:0:0:
320,192,210495,1,0,0:0:0:0:
448,192,210670,1,0,0:0:0:0:
320,192,210757,1,0,0:0:0:0:
64,192,210844,1,2,0:0:0:0:
192,192,210844,1,0,0:0:0:0:
320,192,210931,1,0,0:0:0:0:
64,192,211019,128,8,211280:0:0:0:0:
192,192,211019,1,0,0:0:0:0:
448,192,211019,1,0,0:0:0:0:
320,192,211193,1,0,0:0:0:0:
64,192,211368,1,2,0:0:0:0:
448,192,211368,1,0,0:0:0:0:
192,192,211542,1,0,0:0:0:0:
320,192,211629,1,0,0:0:0:0:
448,192,211891,1,0,0:0:0:0:
64,192,212065,1,8,0:0:0:0:
192,192,212065,1,0,0:0:0:0:
320,192,212065,1,0,0:0:0:0:
320,192,212240,1,2,0:0:0:0:
448,192,212240,1,0,0:0:0:0:
64,192,212327,1,2,0:0:0:0:
192,192,212327,1,0,0:0:0:0:
64,192,212414,1,8,0:0:0:0:
320,192,212414,128,0,212588:0:0:0:0:
448,192,212414,128,0,212588:0:0:0:0:
64,192,212588,1,2,0:0:0:0:
192,192,212588,1,0,0:0:0:0:
192,192,212763,128,0,212937:0:0:0:0:
320,192,212763,128,0,212937:0:0:0:0:
64,192,213112,128,8,213461:0:0:0:0:
320,192,213112,1,0,0:0:0:0:
448,192,213112,1,0,0:0:0:0:
192,192,213286,1,0,0:0:0:0:
320,192,213461,1,0,0:0:0:0:
64,192,213635,1,2,0:0:0:0:
320,192,213635,1,0,0:0:0:0:
64,192,213809,1,8,0:0:0:0:
192,192,213809,1,0,0:0:0:0:
448,192,213809,1,0,0:0:0:0:
320,192,213984,1,0,0:0:0:0:
448,192,213984,1,0,0:0:0:0:
64,192,214158,1,2,0:0:0:0:
192,192,214158,1,0,0:0:0:0:
448,192,214158,128,0,214420:0:0:0:0:
320,192,214245,128,0,214420:0:0:0:0:
192,192,214333,128,0,214420:0:0:0:0:
64,192,214507,128,8,214769:0:0:0:0:
320,192,214507,1,0,0:0:0:0:
448,192,214507,1,0,0:0:0:0:
192,192,214594,128,0,214769:0:0:0:0:
320,192,214681,128,0,214769:0:0:0:0:
192,192,214856,1,0,0:0:0:0:
448,192,214856,1,0,0:0:0:0:
320,192,214943,1,0,0:0:0:0:
64,192,215030,1,2,0:0:0:0:
192,192,215030,1,0,0:0:0:0:
320,192,215118,1,0,0:0:0:0:
64,192,215205,1,8,0:0:0:0:
192,192,215205,128,0,215248:0:0:0:0:
448,192,215205,1,0,0:0:0:0:
192,192,215379,128,0,215423:0:0:0:0:
448,192,215379,1,0,0:0:0:0:
64,192,215554,1,2,0:0:0:0:
192,192,215554,1,0,0:0:0:0:
320,192,215554,128,0,216251:0:0:0:0:
448,192,215728,1,0,0:0:0:0:
64,192,215902,1,8,0:0:0:0:
192,192,215902,1,0,0:0:0:0:
448,192,216077,1,0,0:0:0:0:
64,192,216251,1,0,0:0:0:0:
192,192,216426,1,2,0:0:0:0:
320,192,216426,1,0,0:0:0:0:
64,192,216600,1,8,0:0:0:0:
192,192,216600,128,0,216949:0:0:0:0:
448,192,216600,1,0,0:0:0:0:
448,192,216774,1,0,0:0:0:0:
64,192,216949,1,2,0:0:0:0:
320,192,216949,128,0,217647:0:0:0:0:
448,192,216949,128,0,217123:0:0:0:0:
64,192,217123,128,0,217298:0:0:0:0:
192,192,217298,1,8,0:0:0:0:
448,192,217298,128,0,217472:0:0:0:0:
192,192,217472,128,0,217821:0:0:0:0:
448,192,217647,128,0,218344:0:0:0:0:
64,192,217821,128,2,217995:0:0:0:0:
320,192,217821,1,0,0:0:0:0:
192,192,217995,1,8,0:0:0:0:
320,192,217995,128,0,218170:0:0:0:0:
192,192,218170,128,0,218344:0:0:0:0:
64,192,218344,128,2,219042:0:0:0:0:
320,192,218344,1,0,0:0:0:70:LR_CymbalCCR.wav
192,192,218519,1,0,0:0:0:0:
320,192,218693,1,8,0:0:0:0:
448,192,218693,1,0,0:0:0:0:
192,192,218868,1,0,0:0:0:0:
320,192,219042,1,0,0:0:0:0:
64,192,219216,1,2,0:0:0:0:
448,192,219216,1,0,0:0:0:0:
64,192,219391,1,8,0:0:0:0:
320,192,219391,1,0,0:0:0:0:
448,192,219391,1,0,0:0:0:0:
192,192,219565,1,0,0:0:0:0:
320,192,219565,1,0,0:0:0:0:
64,192,219740,128,2,220001:0:0:0:0:
320,192,219740,1,0,0:0:0:0:
448,192,219740,1,0,0:0:0:0:
192,192,219827,128,0,220001:0:0:0:0:
320,192,219914,128,0,220001:0:0:0:0:
448,192,219914,1,0,0:0:0:0:
192,192,220088,1,8,0:0:0:0:
320,192,220088,1,0,0:0:0:0:
448,192,220088,1,0,0:0:0:0:
64,192,220176,1,0,0:0:0:0:
192,192,220263,1,0,0:0:0:0:
448,192,220263,1,0,0:0:0:0:
320,192,220350,1,0,0:0:0:0:
64,192,220437,1,0,0:0:0:0:
192,192,220437,1,0,0:0:0:0:
320,192,220524,1,0,0:0:0:0:
64,192,220612,1,2,0:0:0:0:
448,192,220612,1,0,0:0:0:0:
192,192,220699,1,0,0:0:0:0:
64,192,220786,1,8,0:0:0:0:
320,192,220786,128,0,220830:0:0:0:0:
448,192,220786,1,0,0:0:0:0:
64,192,220961,1,0,0:0:0:0:
320,192,220961,128,0,221004:0:0:0:0:
64,192,221135,1,2,0:0:0:0:
192,192,221135,128,0,221833:0:0:0:0:
448,192,221135,1,0,0:0:0:0:
320,192,221309,1,0,0:0:0:0:
64,192,221484,1,8,0:0:0:0:
448,192,221484,1,0,0:0:0:0:
320,192,221658,1,0,0:0:0:0:
448,192,221833,1,0,0:0:0:0:
320,192,221920,1,0,0:0:0:0:
64,192,222007,1,2,0:0:0:0:
192,192,222007,1,0,0:0:0:0:
320,192,222094,1,0,0:0:0:0:
64,192,222181,1,8,0:0:0:0:
192,192,222181,128,0,222530:0:0:0:0:
448,192,222181,1,0,0:0:0:0:
320,192,222530,1,2,0:0:0:0:
448,192,222530,1,0,0:0:0:0:
64,192,222618,1,2,0:0:0:0:
192,192,222618,1,0,0:0:0:0:
320,192,222705,1,2,0:0:0:0:
448,192,222705,1,0,0:0:0:0:
64,192,222792,1,2,0:0:0:0:
192,192,222792,1,0,0:0:0:0:
320,192,222879,1,2,0:0:0:0:
448,192,222879,1,0,0:0:0:0:
64,192,222966,1,2,0:0:0:0:
192,192,222966,1,0,0:0:0:0:
320,192,223054,1,2,0:0:0:0:
448,192,223054,1,0,0:0:0:0:
64,192,223141,1,2,0:0:0:0:
192,192,223141,1,0,0:0:0:0:
64,192,223228,1,8,0:0:0:0:
320,192,223228,128,0,223577:0:0:0:0:
448,192,223228,1,0,0:0:0:0:
64,192,223577,1,0,0:0:0:0:
192,192,223620,1,0,0:0:0:0:
320,192,223664,1,0,0:0:0:0:
448,192,223708,1,0,0:0:0:0:
64,192,223751,1,0,0:0:0:0:
192,192,223795,1,0,0:0:0:0:
320,192,223838,1,0,0:0:0:0:
448,192,223882,1,0,0:0:0:0:
64,192,223926,1,2,0:0:0:0:
192,192,223926,128,0,224100:0:0:0:70:LR_CymbalCCR.wav
320,192,223926,1,0,0:0:0:0:
64,192,224100,128,0,224274:0:0:0:0:
320,192,224274,1,8,0:0:0:0:
448,192,224274,128,0,224449:0:0:0:0:
192,192,224449,128,0,224623:0:0:0:0:
320,192,224623,128,0,224798:0:0:0:0:
64,192,224798,1,2,0:0:0:0:
192,192,224798,128,0,224972:0:0:0:0:
320,192,224972,128,8,225147:0:0:0:0:
448,192,224972,1,0,0:0:0:0:
64,192,225147,128,0,225321:0:0:0:0:
320,192,225321,1,2,0:0:0:0:
448,192,225321,128,0,225495:0:0:0:0:
192,192,225495,128,0,225670:0:0:0:0:
320,192,225670,128,8,225844:0:0:0:0:
448,192,225670,1,0,0:0:0:0:
64,192,225844,128,0,226019:0:0:0:0:
448,192,226019,128,0,226193:0:0:0:0:
192,192,226193,128,2,226368:0:0:0:0:
320,192,226193,1,0,0:0:0:0:
64,192,226368,1,8,0:0:0:0:
320,192,226368,128,0,226542:0:0:0:0:
64,192,226542,128,0,226716:0:0:0:0:
320,192,226716,128,2,226891:0:0:0:0:
448,192,226716,1,0,0:0:0:0:
192,192,226891,128,0,227065:0:0:0:0:
64,192,227065,1,8,0:0:0:0:
448,192,227065,128,0,227240:0:0:0:0:
64,192,227240,128,0,227414:0:0:0:0:
448,192,227414,128,0,227588:0:0:0:0:
64,192,227588,1,2,0:0:0:0:
192,192,227588,128,0,227763:0:0:0:0:
320,192,227763,128,8,227937:0:0:0:0:
448,192,227763,1,0,0:0:0:0:
64,192,227937,128,0,228112:0:0:0:0:
320,192,228112,1,2,0:0:0:0:
448,192,228112,128,0,228286:0:0:0:0:
64,192,228286,128,0,228461:0:0:0:0:
192,192,228461,1,8,0:0:0:0:
320,192,228461,128,0,228635:0:0:0:0:
192,192,228635,128,0,228809:0:0:0:0:
320,192,228809,128,0,228984:0:0:0:0:
64,192,228984,1,2,0:0:0:0:
448,192,228984,128,0,229158:0:0:0:0:
192,192,229158,1,8,0:0:0:0:
320,192,229158,128,0,229333:0:0:0:0:
192,192,229333,128,0,229507:0:0:0:0:
64,192,229507,1,2,0:0:0:0:
320,192,229507,128,0,229681:0:0:0:70:LR_CymbalCCR.wav
448,192,229507,1,0,0:0:0:0:
64,192,229681,128,0,229856:0:0:0:0:
320,192,229856,1,8,0:0:0:0:
448,192,229856,128,0,230030:0:0:0:0:
192,192,230030,128,0,230205:0:0:0:0:
320,192,230205,128,0,230379:0:0:0:0:
64,192,230379,1,2,0:0:0:0:
192,192,230379,128,0,230554:0:0:0:0:
320,192,230554,1,8,0:0:0:0:
448,192,230554,128,0,230728:0:0:0:0:
64,192,230728,128,0,230902:0:0:0:0:
320,192,230902,128,2,231077:0:0:0:0:
448,192,230902,1,0,0:0:0:0:
192,192,231077,128,0,231251:0:0:0:0:
64,192,231251,1,8,0:0:0:0:
448,192,231251,128,0,231426:0:0:0:0:
320,192,231426,128,0,231600:0:0:0:0:
448,192,231600,128,0,231774:0:0:0:0:
64,192,231774,1,2,0:0:0:0:
192,192,231774,128,0,231949:0:0:0:0:
320,192,231949,128,8,232123:0:0:0:0:
448,192,231949,1,0,0:0:0:0:
64,192,232123,128,0,232298:0:0:0:0:
192,192,232298,1,2,0:0:0:0:
320,192,232298,128,0,232472:0:0:0:0:
192,192,232472,128,0,232647:0:0:0:0:
64,192,232647,1,8,0:0:0:0:
448,192,232647,128,0,232821:0:0:0:0:
320,192,232821,128,0,232995:0:0:0:0:
448,192,232995,128,0,233170:0:0:0:0:
192,192,233170,128,2,233344:0:0:0:0:
320,192,233170,1,0,0:0:0:0:
64,192,233344,1,8,0:0:0:0:
320,192,233344,128,0,233519:0:0:0:0:
448,192,233519,128,0,233693:0:0:0:0:
192,192,233693,128,2,234391:0:0:0:0:
320,192,233693,1,0,0:0:0:0:
64,192,233868,1,0,0:0:0:0:
448,192,234042,1,0,0:0:0:0:
320,192,234216,1,0,0:0:0:0:
64,192,234391,1,8,0:0:0:0:
448,192,234391,1,0,0:0:0:0:
64,192,234565,1,2,0:0:0:0:
448,192,234565,1,0,0:0:0:0:
192,192,234652,1,2,0:0:0:0:
320,192,234652,1,0,0:0:0:0:
64,192,234740,1,8,0:0:0:0:
448,192,234740,1,0,0:0:0:0:
320,192,234783,1,0,0:0:0:0:
192,192,234827,1,0,0:0:0:0:
64,192,234870,1,0,0:0:0:0:
448,192,234914,1,2,0:0:0:0:
320,192,234958,1,0,0:0:0:0:
192,192,235001,1,0,0:0:0:0:
64,192,235045,1,0,0:0:0:0:
320,192,235088,128,2,235263:0:0:0:0:
448,192,235088,1,0,0:0:0:70:LR_CymbalCCR.wav
192,192,235263,128,0,235437:0:0:0:0:
320,192,235437,1,8,0:0:0:0:
448,192,235437,128,0,235612:0:0:0:0:
64,192,235612,128,0,235786:0:0:0:0:
448,192,235786,128,0,235961:0:0:0:0:
64,192,235961,1,2,0:0:0:0:
192,192,235961,128,0,236135:0:0:0:0:
320,192,236135,128,8,236309:0:0:0:0:
448,192,236135,1,0,0:0:0:0:
64,192,236309,128,0,236484:0:0:0:0:
192,192,236484,128,2,236658:0:0:0:0:
320,192,236484,1,0,0:0:0:0:
64,192,236658,128,0,236833:0:0:0:0:
192,192,236833,1,8,0:0:0:0:
320,192,236833,128,0,237007:0:0:0:0:
192,192,237007,128,0,237181:0:0:0:0:
448,192,237181,128,0,237356:0:0:0:0:
192,192,237356,128,2,237530:0:0:0:0:
320,192,237356,1,0,0:0:0:0:
64,192,237530,1,8,0:0:0:0:
320,192,237530,128,0,237705:0:0:0:0:
64,192,237705,128,0,237879:0:0:0:0:
192,192,237879,128,2,238054:0:0:0:0:
448,192,237879,1,0,0:0:0:0:
64,192,238054,128,0,238228:0:0:0:0:
192,192,238228,1,8,0:0:0:0:
448,192,238228,128,0,238402:0:0:0:0:
64,192,238402,1,0,0:0:0:0:
192,192,238402,128,0,238577:0:0:0:0:
320,192,238577,128,0,238751:0:0:0:0:
192,192,238751,128,2,238926:0:0:0:0:
448,192,238751,1,0,0:0:0:0:
64,192,238926,1,8,0:0:0:0:
448,192,238926,128,0,239100:0:0:0:0:
64,192,239100,128,0,239274:0:0:0:0:
320,192,239274,128,2,239449:0:0:0:0:
448,192,239274,1,0,0:0:0:0:
192,192,239449,128,0,239623:0:0:0:0:
64,192,239623,1,8,0:0:0:0:
320,192,239623,128,0,239798:0:0:0:0:
448,192,239798,128,0,239972:0:0:0:0:
192,192,239972,128,0,240147:0:0:0:0:
64,192,240147,1,2,0:0:0:0:
448,192,240147,128,0,240321:0:0:0:0:
192,192,240321,1,8,0:0:0:0:
320,192,240321,128,0,240495:0:0:0:0:
192,192,240495,128,0,240670:0:0:0:0:
320,192,240670,1,2,0:0:0:0:
448,192,240670,128,0,240844:0:0:0:70:LR_CymbalCCR.wav
64,192,240844,128,0,241019:0:0:0:0:
320,192,241019,128,8,241193:0:0:0:0:
448,192,241019,1,0,0:0:0:0:
192,192,241193,128,0,241368:0:0:0:0:
448,192,241368,128,0,241542:0:0:0:0:
64,192,241542,1,2,0:0:0:0:
192,192,241542,128,0,241716:0:0:0:0:
320,192,241716,128,8,241891:0:0:0:0:
448,192,241716,1,0,0:0:0:0:
64,192,241891,128,0,242065:0:0:0:0:
192,192,242065,128,2,242240:0:0:0:0:
448,192,242065,1,0,0:0:0:0:
64,192,242240,128,0,242414:0:0:0:0:
192,192,242414,1,8,0:0:0:0:
320,192,242414,128,0,242588:0:0:0:0:
192,192,242588,128,0,242763:0:0:0:0:
448,192,242763,128,0,242937:0:0:0:0:
192,192,242937,128,2,243112:0:0:0:0:
320,192,242937,1,0,0:0:0:0:
64,192,243112,1,8,0:0:0:0:
320,192,243112,128,0,243286:0:0:0:0:
64,192,243286,128,0,243461:0:0:0:0:
192,192,243461,1,2,0:0:0:0:
320,192,243461,128,0,243635:0:0:0:0:
192,192,243635,128,0,243809:0:0:0:0:
320,192,243809,1,8,0:0:0:0:
448,192,243809,128,0,243984:0:0:0:0:
64,192,243984,128,0,244158:0:0:0:0:
192,192,244158,128,0,244333:0:0:0:0:
320,192,244333,128,2,244507:0:0:0:0:
448,192,244333,1,0,0:0:0:0:
64,192,244507,1,8,0:0:0:0:
192,192,244507,128,0,244681:0:0:0:0:
448,192,244681,128,0,244856:0:0:0:0:
64,192,244856,1,8,0:0:0:0:
192,192,244856,1,0,0:0:0:0:
64,192,245030,1,2,0:0:0:0:
320,192,245030,1,0,0:0:0:0:
192,192,245118,1,2,0:0:0:0:
448,192,245118,1,0,0:0:0:0:
64,192,245205,1,8,0:0:0:0:
320,192,245205,1,0,0:0:0:0:
320,192,245379,1,2,0:0:0:0:
448,192,245379,1,0,0:0:0:0:
64,192,245466,1,2,0:0:0:0:
192,192,245466,1,0,0:0:0:0:
320,192,245554,1,8,0:0:0:0:
448,192,245554,1,0,0:0:0:0:
192,192,245597,1,0,0:0:0:0:
64,192,245641,1,0,0:0:0:0:
448,192,245684,1,0,0:0:0:0:
320,192,245728,1,2,0:0:0:0:
64,192,245772,1,0,0:0:0:0:
192,192,245815,1,2,0:0:0:0:
320,192,245859,1,0,0:0:0:0:
64,192,245902,1,8,0:0:0:0:
192,192,245902,1,0,0:0:0:70:LR_Long Bass.wav
448,192,245902,1,0,0:0:0:0:
64,192,246251,1,2,0:0:0:0:
320,192,246251,1,0,0:0:0:70:LR_CymbalCCR.wav
448,192,246251,1,0,0:0:0:0:
192,192,246426,1,0,0:0:0:0:
64,192,246600,1,8,0:0:0:0:
448,192,246600,1,0,0:0:0:0:
320,192,246774,1,0,0:0:0:0:
448,192,246949,1,0,0:0:0:0:
64,192,247123,1,2,0:0:0:0:
192,192,247123,1,0,0:0:0:0:
192,192,247298,1,8,0:0:0:0:
320,192,247298,1,0,0:0:0:0:
448,192,247472,1,0,0:0:0:0:
64,192,247647,1,2,0:0:0:0:
320,192,247647,1,0,0:0:0:0:
448,192,247821,1,0,0:0:0:0:
192,192,247995,1,8,0:0:0:0:
320,192,247995,1,0,0:0:0:0:
64,192,248170,1,0,0:0:0:0:
192,192,248344,1,0,0:0:0:0:
64,192,248519,1,2,0:0:0:0:
320,192,248519,1,0,0:0:0:0:
320,192,248693,1,8,0:0:0:0:
448,192,248693,1,0,0:0:0:0:
192,192,248868,1,0,0:0:0:0:
192,192,248955,1,0,0:0:0:0:
320,192,249042,1,2,0:0:0:0:
448,192,249042,1,0,0:0:0:0:
64,192,249216,1,0,0:0:0:0:
192,192,249391,1,8,0:0:0:0:
448,192,249391,1,0,0:0:0:0:
320,192,249565,1,0,0:0:0:0:
448,192,249740,1,0,0:0:0:0:
64,192,249914,1,2,0:0:0:0:
192,192,249914,1,0,0:0:0:0:
64,192,250088,1,8,0:0:0:0:
320,192,250088,1,0,0:0:0:0:
448,192,250263,1,0,0:0:0:0:
448,192,250350,1,0,0:0:0:0:
64,192,250437,1,2,0:0:0:0:
192,192,250437,1,0,0:0:0:0:
448,192,250612,1,0,0:0:0:0:
64,192,250786,1,8,0:0:0:0:
320,192,250786,1,0,0:0:0:0:
192,192,250961,1,0,0:0:0:0:
320,192,251135,1,0,0:0:0:0:
64,192,251309,1,2,0:0:0:0:
192,192,251309,1,0,0:0:0:0:
64,192,251484,1,8,0:0:0:0:
448,192,251484,1,0,0:0:0:0:
192,192,251658,1,0,0:0:0:0:
64,192,251833,1,2,0:0:0:0:
320,192,251833,1,0,0:0:0:70:LR_CymbalCCR.wav
448,192,251833,1,0,0:0:0:0:
192,192,252007,1,0,0:0:0:0:
320,192,252181,1,8,0:0:0:0:
448,192,252181,1,0,0:0:0:0:
64,192,252356,1,0,0:0:0:0:
192,192,252530,1,0,0:0:0:0:
64,192,252705,1,2,0:0:0:0:
320,192,252705,1,0,0:0:0:0:
192,192,252879,1,8,0:0:0:0:
320,192,252879,1,0,0:0:0:0:
448,192,253054,1,0,0:0:0:0:
192,192,253228,1,2,0:0:0:0:
320,192,253228,1,0,0:0:0:0:
448,192,253402,1,0,0:0:0:0:
64,192,253577,1,8,0:0:0:0:
320,192,253577,1,0,0:0:0:0:
192,192,253751,1,0,0:0:0:0:
448,192,253926,1,0,0:0:0:0:
64,192,254100,1,2,0:0:0:0:
192,192,254100,1,0,0:0:0:0:
320,192,254274,1,8,0:0:0:0:
448,192,254274,1,0,0:0:0:0:
192,192,254449,1,0,0:0:0:0:
64,192,254623,1,2,0:0:0:0:
448,192,254623,1,0,0:0:0:0:
320,192,254798,1,0,0:0:0:0:
192,192,254972,1,8,0:0:0:0:
448,192,254972,1,0,0:0:0:0:
64,192,255147,1,0,0:0:0:0:
320,192,255321,1,0,0:0:0:0:
64,192,255495,1,2,0:0:0:0:
192,192,255495,1,0,0:0:0:0:
192,192,255670,1,8,0:0:0:0:
448,192,255670,1,0,0:0:0:0:
320,192,255844,1,0,0:0:0:0:
64,192,256019,1,2,0:0:0:0:
192,192,256019,1,0,0:0:0:0:
320,192,256193,1,0,0:0:0:0:
192,192,256368,128,0,256716:0:0:0:0:
64,192,256716,1,8,0:0:0:0:
448,192,256716,1,0,0:0:0:0:
64,192,256891,1,2,0:0:0:0:
448,192,256891,1,0,0:0:0:0:
192,192,256978,1,2,0:0:0:0:
320,192,256978,1,0,0:0:0:0:
64,192,257065,1,8,0:0:0:0:
448,192,257065,1,0,0:0:0:0:
192,192,257109,1,0,0:0:0:0:
320,192,257152,1,0,0:0:0:0:
64,192,257196,1,0,0:0:0:0:
192,192,257240,1,2,0:0:0:0:
320,192,257283,1,0,0:0:0:0:
448,192,257327,1,0,0:0:0:0:
64,192,257370,1,0,0:0:0:0:
192,192,257414,1,2,0:0:0:0:
320,192,257414,1,0,0:0:0:70:LR_CymbalCCR.wav
448,192,257414,1,0,0:0:0:0:
192,192,257588,1,0,0:0:0:0:
64,192,257763,1,8,0:0:0:0:
448,192,257763,1,0,0:0:0:0:
320,192,257937,1,0,0:0:0:0:
192,192,258112,1,0,0:0:0:0:
64,192,258286,1,2,0:0:0:0:
320,192,258286,1,0,0:0:0:0:
192,192,258461,1,8,0:0:0:0:
320,192,258461,1,0,0:0:0:0:
448,192,258635,1,0,0:0:0:0:
64,192,258809,1,2,0:0:0:0:
320,192,258809,1,0,0:0:0:0:
448,192,258984,1,0,0:0:0:0:
64,192,259158,1,8,0:0:0:0:
320,192,259158,1,0,0:0:0:0:
192,192,259333,1,0,0:0:0:0:
320,192,259507,1,0,0:0:0:0:
64,192,259681,1,2,0:0:0:0:
192,192,259681,1,0,0:0:0:0:
320,192,259856,1,8,0:0:0:0:
448,192,259856,1,0,0:0:0:0:
64,192,260030,1,0,0:0:0:0:
64,192,260118,1,0,0:0:0:0:
192,192,260205,1,2,0:0:0:0:
448,192,260205,1,0,0:0:0:0:
320,192,260379,1,0,0:0:0:0:
192,192,260554,1,8,0:0:0:0:
448,192,260554,1,0,0:0:0:0:
64,192,260728,1,0,0:0:0:0:
320,192,260902,1,0,0:0:0:0:
192,192,261077,1,2,0:0:0:0:
448,192,261077,1,0,0:0:0:0:
64,192,261251,1,8,0:0:0:0:
192,192,261251,1,0,0:0:0:0:
448,192,261426,1,0,0:0:0:0:
448,192,261513,1,0,0:0:0:0:
64,192,261600,1,2,0:0:0:0:
320,192,261600,1,0,0:0:0:0:
448,192,261774,1,0,0:0:0:0:
192,192,261949,1,8,0:0:0:0:
320,192,261949,1,0,0:0:0:0:
64,192,262123,1,0,0:0:0:0:
192,192,262298,1,2,0:0:0:0:
448,192,262298,1,0,0:0:0:0:
64,192,262472,1,2,0:0:0:0:
320,192,262472,1,0,0:0:0:0:
192,192,262647,128,8,262995:0:0:0:0:
320,192,262647,1,0,0:0:0:0:
448,192,262647,1,0,0:0:0:0:
64,192,262821,1,0,0:0:0:0:
64,192,262995,1,2,0:0:0:0:
448,192,262995,128,0,263170:0:0:0:70:LR_CymbalCCR.wav
192,192,263170,128,0,263344:0:0:0:0:
320,192,263344,128,0,263519:0:0:0:0:
64,192,263519,128,0,263868:0:0:0:0:
192,192,263868,128,0,264042:0:0:0:0:
320,192,264216,128,0,264391:0:0:0:0:
192,192,264391,128,0,264565:0:0:0:0:
320,192,264565,128,0,264740:0:0:0:0:
64,192,264740,128,0,264914:0:0:0:0:
448,192,265088,128,0,265263:0:0:0:0:
320,192,265263,128,0,265437:0:0:0:0:
448,192,265437,128,0,265612:0:0:0:0:
192,192,265612,128,0,265786:0:0:0:0:
320,192,265786,128,0,265961:0:0:0:0:
192,192,265961,128,0,266135:0:0:0:0:
320,192,266135,128,0,266309:0:0:0:0:
64,192,266309,128,0,266658:0:0:0:0:
192,192,266658,128,0,266833:0:0:0:0:
320,192,267007,128,0,267181:0:0:0:0:
64,192,267181,1,2,0:0:0:0:
192,192,267181,1,0,0:0:0:0:
64,192,267298,1,2,0:0:0:0:
448,192,267298,1,0,0:0:0:0:
192,192,267414,1,2,0:0:0:0:
320,192,267414,1,0,0:0:0:0:
192,192,267530,1,2,0:0:0:0:
448,192,267530,1,0,0:0:0:0:
64,192,267647,1,2,0:0:0:0:
320,192,267647,1,0,0:0:0:0:
192,192,267763,1,2,0:0:0:0:
320,192,267763,1,0,0:0:0:0:
64,192,267879,1,2,0:0:0:0:
448,192,267879,1,0,0:0:0:0:
320,192,267923,1,0,0:0:0:0:
192,192,267966,1,0,0:0:0:0:
64,192,268010,1,0,0:0:0:0:
448,192,268054,1,0,0:0:0:0:
320,192,268097,1,0,0:0:0:0:
192,192,268141,1,0,0:0:0:0:
64,192,268184,1,0,0:0:0:0:
192,192,268228,1,8,0:0:0:0:
320,192,268228,1,0,0:0:0:0:
448,192,268228,1,0,0:0:0:0:
64,192,268577,1,0,0:0:0:70:Ride.wav
320,192,268577,1,0,0:0:0:70:LR_Long Bass.wav
448,192,268577,1,0,0:0:0:0:
192,192,268751,1,0,0:0:0:0:
320,192,268838,1,0,0:0:0:0:
448,192,268926,1,0,0:0:0:0:
64,192,269100,1,0,0:0:0:0:
192,192,269100,1,0,0:0:0:0:
64,192,269274,1,0,0:0:0:70:Ride.wav
320,192,269274,1,0,0:0:0:0:
448,192,269449,1,0,0:0:0:0:
64,192,269623,1,0,0:0:0:0:
192,192,269798,1,0,0:0:0:0:
64,192,269972,1,0,0:0:0:70:Ride.wav
320,192,269972,1,0,0:0:0:70:LR_Long Bass.wav
320,192,270147,1,0,0:0:0:0:
192,192,270234,1,0,0:0:0:0:
64,192,270321,1,0,0:0:0:0:
448,192,270321,1,0,0:0:0:0:
64,192,270495,1,0,0:0:0:0:
192,192,270495,1,0,0:0:0:0:
320,192,270670,1,0,0:0:0:70:Ride.wav
448,192,270670,1,0,0:0:0:0:
192,192,270844,1,0,0:0:0:0:
64,192,271019,1,0,0:0:0:0:
320,192,271019,1,0,0:0:0:0:
192,192,271193,1,0,0:0:0:0:
64,192,271368,1,0,0:0:0:70:Ride.wav
448,192,271368,1,0,0:0:0:70:LR_Long Bass.wav
320,192,271542,1,0,0:0:0:0:
192,192,271629,1,0,0:0:0:0:
448,192,271716,1,0,0:0:0:0:
64,192,271891,1,0,0:0:0:0:
192,192,271891,1,0,0:0:0:0:
192,192,272065,1,0,0:0:0:70:Ride.wav
448,192,272065,1,0,0:0:0:0:
320,192,272240,1,0,0:0:0:0:
64,192,272414,1,0,0:0:0:0:
192,192,272588,1,0,0:0:0:0:
320,192,272763,1,0,0:0:0:70:Ride.wav
448,192,272763,1,0,0:0:0:0:
192,192,272937,1,0,0:0:0:0:
320,192,273024,1,0,0:0:0:0:
448,192,273112,1,0,0:0:0:0:
64,192,273286,1,0,0:0:0:0:
192,192,273286,1,0,0:0:0:0:
320,192,273461,1,0,0:0:0:70:Ride.wav
448,192,273635,1,0,0:0:0:0:
64,192,273809,1,0,0:0:0:0:
192,192,273984,1,0,0:0:0:0:
64,192,274158,1,0,0:0:0:70:Ride.wav
448,192,274158,1,0,0:0:0:70:LR_Long Bass.wav
320,192,274333,1,0,0:0:0:0:
192,192,274420,1,0,0:0:0:0:
64,192,274507,1,0,0:0:0:0:
192,192,274681,1,0,0:0:0:0:
320,192,274681,1,0,0:0:0:0:
192,192,274856,1,0,0:0:0:70:Ride.wav
448,192,274856,1,0,0:0:0:0:
64,192,275030,1,0,0:0:0:0:
448,192,275205,1,0,0:0:0:0:
320,192,275379,1,0,0:0:0:0:
192,192,275554,1,0,0:0:0:70:Ride.wav
448,192,275554,1,0,0:0:0:70:LR_Long Bass.wav
448,192,275728,1,0,0:0:0:0:
320,192,275815,1,0,0:0:0:0:
64,192,275902,1,0,0:0:0:0:
192,192,275902,1,0,0:0:0:0:
320,192,276077,1,0,0:0:0:0:
448,192,276077,1,0,0:0:0:0:
64,192,276251,1,0,0:0:0:70:Ride.wav
320,192,276251,1,0,0:0:0:0:
192,192,276426,1,0,0:0:0:0:
320,192,276600,1,0,0:0:0:0:
448,192,276600,1,0,0:0:0:0:
64,192,276774,1,0,0:0:0:0:
192,192,276949,1,0,0:0:0:70:Ride.wav
448,192,276949,1,0,0:0:0:70:LR_Long Bass.wav
192,192,277123,1,0,0:0:0:0:
320,192,277211,1,0,0:0:0:0:
64,192,277298,1,0,0:0:0:0:
320,192,277472,1,0,0:0:0:0:
448,192,277472,1,0,0:0:0:0:
192,192,277647,1,0,0:0:0:70:Ride.wav
320,192,277647,1,0,0:0:0:0:
64,192,277821,1,0,0:0:0:0:
448,192,277995,1,0,0:0:0:0:
320,192,278170,1,0,0:0:0:0:
192,192,278344,1,0,0:0:0:70:Ride.wav
448,192,278344,1,0,0:0:0:0:
320,192,278519,1,0,0:0:0:0:
192,192,278606,1,0,0:0:0:0:
64,192,278693,1,0,0:0:0:0:
64,192,278868,1,0,0:0:0:0:
320,192,278868,1,0,0:0:0:0:
192,192,279042,1,0,0:0:0:70:Ride.wav
320,192,279042,1,0,0:0:0:0:
64,192,279216,1,0,0:0:0:0:
448,192,279391,1,0,0:0:0:0:
320,192,279434,1,0,0:0:0:0:
192,192,279478,1,0,0:0:0:0:
64,192,279522,1,0,0:0:0:0:
448,192,279565,1,0,0:0:0:0:
320,192,279609,1,0,0:0:0:0:
192,192,279652,1,0,0:0:0:0:
64,192,279696,1,0,0:0:0:0:
320,192,279740,1,0,0:0:0:70:Ride.wav
448,192,279740,1,0,0:0:0:70:LR_Long Bass.wav
320,192,279914,1,0,0:0:0:0:
192,192,280001,1,0,0:0:0:0:
448,192,280088,1,0,0:0:0:0:
64,192,280263,1,0,0:0:0:0:
192,192,280263,1,0,0:0:0:0:
192,192,280437,1,0,0:0:0:70:Ride.wav
320,192,280437,1,0,0:0:0:0:
448,192,280612,1,0,0:0:0:0:
64,192,280786,1,0,0:0:0:0:
192,192,280961,1,0,0:0:0:0:
64,192,281135,1,0,0:0:0:70:Ride.wav
448,192,281135,1,0,0:0:0:70:LR_Long Bass.wav
192,192,281309,1,0,0:0:0:0:
320,192,281397,1,0,0:0:0:0:
192,192,281484,1,0,0:0:0:0:
448,192,281484,1,0,0:0:0:0:
64,192,281658,1,0,0:0:0:0:
320,192,281658,1,0,0:0:0:0:
192,192,281833,1,0,0:0:0:70:Ride.wav
320,192,281833,1,0,0:0:0:0:
448,192,282007,1,0,0:0:0:0:
64,192,282181,1,0,0:0:0:0:
320,192,282181,1,0,0:0:0:0:
192,192,282356,1,0,0:0:0:0:
320,192,282530,1,0,0:0:0:70:Ride.wav
448,192,282530,1,0,0:0:0:70:LR_Long Bass.wav
320,192,282705,1,0,0:0:0:0:
192,192,282792,1,0,0:0:0:0:
64,192,282879,1,0,0:0:0:0:
320,192,283054,1,0,0:0:0:0:
448,192,283054,1,0,0:0:0:0:
192,192,283228,1,0,0:0:0:70:Ride.wav
320,192,283228,1,0,0:0:0:0:
64,192,283402,1,0,0:0:0:0:
448,192,283577,1,0,0:0:0:0:
320,192,283751,1,0,0:0:0:0:
192,192,283926,1,0,0:0:0:70:Ride.wav
448,192,283926,1,0,0:0:0:0:
320,192,284100,1,0,0:0:0:0:
64,192,284187,1,0,0:0:0:0:
192,192,284274,1,0,0:0:0:0:
64,192,284449,1,0,0:0:0:0:
448,192,284449,1,0,0:0:0:0:
64,192,284623,1,0,0:0:0:70:Ride.wav
320,192,284623,1,0,0:0:0:0:
192,192,284798,1,0,0:0:0:0:
320,192,284972,128,0,285321:0:0:0:0:
448,192,284972,1,0,0:0:0:0:
192,192,285147,1,0,0:0:0:0:
192,192,285321,128,0,285844:0:0:0:70:Ride.wav
448,192,285321,1,0,0:0:0:70:LR_Long Bass.wav
320,192,285495,1,0,0:0:0:0:
64,192,285583,1,0,0:0:0:0:
448,192,285670,1,0,0:0:0:0:
64,192,285844,128,0,286193:0:0:0:0:
320,192,285844,1,0,0:0:0:0:
192,192,286019,1,0,0:0:0:70:Ride.wav
448,192,286019,1,0,0:0:0:0:
192,192,286193,128,0,286716:0:0:0:0:
448,192,286193,1,0,0:0:0:0:
64,192,286368,1,0,0:0:0:0:
320,192,286542,1,0,0:0:0:0:
64,192,286716,1,0,0:0:0:70:Ride.wav
320,192,286716,128,0,287414:0:0:0:70:LR_Long Bass.wav
192,192,286891,1,0,0:0:0:0:
64,192,286978,1,0,0:0:0:0:
448,192,287065,1,0,0:0:0:0:
64,192,287240,1,0,0:0:0:0:
192,192,287414,1,0,0:0:0:70:Ride.wav
448,192,287414,1,0,0:0:0:0:
320,192,287588,1,0,0:0:0:0:
448,192,287588,1,0,0:0:0:0:
192,192,287763,1,0,0:0:0:0:
320,192,287763,1,0,0:0:0:0:
64,192,287937,1,0,0:0:0:0:
192,192,287937,1,0,0:0:0:0:
192,192,288112,128,0,289507:0:0:0:70:Ride.wav
320,192,288112,1,0,0:0:0:70:LR_Long Bass.wav
320,192,288286,1,0,0:0:0:0:
64,192,288373,1,0,0:0:0:0:
448,192,288461,1,0,0:0:0:0:
64,192,288635,1,0,0:0:0:0:
320,192,288809,1,0,0:0:0:70:Ride.wav
448,192,288809,1,0,0:0:0:0:
448,192,288984,1,0,0:0:0:0:
64,192,289158,1,0,0:0:0:0:
320,192,289333,1,0,0:0:0:0:
64,192,289507,1,0,0:0:0:70:Ride.wav
448,192,289507,1,0,0:0:0:0:
192,192,289681,1,0,0:0:0:0:
320,192,289769,1,0,0:0:0:0:
448,192,289856,1,0,0:0:0:0:
320,192,290030,1,0,0:0:0:0:
64,192,290205,1,0,0:0:0:0:
192,192,290248,1,0,0:0:0:0:
320,192,290292,1,0,0:0:0:0:
448,192,290336,1,0,0:0:0:0:
64,192,290379,1,0,0:0:0:0:
192,192,290423,1,0,0:0:0:0:
320,192,290466,1,0,0:0:0:0:
448,192,290510,1,0,0:0:0:0:
64,192,290554,1,8,0:0:0:0:
192,192,290554,1,0,0:0:0:0:
320,192,290554,1,0,0:0:0:0:
64,192,290902,1,2,0:0:0:0:
320,192,290902,1,0,0:0:0:70:LR_CymbalCCR.wav
448,192,290902,1,0,0:0:0:0:
192,192,291077,1,0,0:0:0:0:
320,192,291164,1,0,0:0:0:0:
448,192,291251,1,0,0:0:0:0:
64,192,291426,1,0,0:0:0:0:
192,192,291426,1,0,0:0:0:0:
64,192,291600,1,0,0:0:0:70:Ride.wav
320,192,291600,1,0,0:0:0:0:
448,192,291774,1,0,0:0:0:0:
64,192,291949,1,0,0:0:0:0:
192,192,292123,1,0,0:0:0:0:
64,192,292298,1,0,0:0:0:70:Ride.wav
448,192,292298,1,0,0:0:0:0:
192,192,292472,1,0,0:0:0:0:
320,192,292559,1,0,0:0:0:0:
448,192,292647,1,0,0:0:0:0:
64,192,292821,1,0,0:0:0:0:
192,192,292821,1,0,0:0:0:0:
192,192,292995,1,0,0:0:0:70:Ride.wav
320,192,292995,1,0,0:0:0:0:
448,192,293170,1,0,0:0:0:0:
64,192,293344,1,0,0:0:0:0:
192,192,293519,1,0,0:0:0:0:
320,192,293693,1,0,0:0:0:70:Ride.wav
448,192,293693,1,0,0:0:0:0:
320,192,293868,1,0,0:0:0:0:
192,192,293955,1,0,0:0:0:0:
448,192,294042,1,0,0:0:0:0:
192,192,294216,1,0,0:0:0:0:
320,192,294216,1,0,0:0:0:0:
64,192,294391,1,0,0:0:0:70:Ride.wav
320,192,294391,1,0,0:0:0:0:
448,192,294565,1,0,0:0:0:0:
64,192,294740,1,0,0:0:0:0:
192,192,294914,1,0,0:0:0:0:
64,192,295088,1,0,0:0:0:70:Ride.wav
320,192,295088,1,0,0:0:0:0:
192,192,295263,1,0,0:0:0:0:
320,192,295350,1,0,0:0:0:0:
448,192,295437,1,0,0:0:0:0:
192,192,295612,1,0,0:0:0:0:
320,192,295612,1,0,0:0:0:0:
64,192,295786,1,0,0:0:0:70:Ride.wav
320,192,295786,1,0,0:0:0:0:
448,192,295961,1,0,0:0:0:0:
64,192,296135,1,0,0:0:0:0:
192,192,296309,1,0,0:0:0:0:
320,192,296484,1,0,0:0:0:70:Ride.wav
448,192,296484,1,0,0:0:0:0:
320,192,296658,1,0,0:0:0:0:
192,192,296745,1,0,0:0:0:0:
64,192,296833,1,0,0:0:0:0:
320,192,297007,1,0,0:0:0:0:
448,192,297007,1,0,0:0:0:0:
192,192,297181,1,0,0:0:0:70:Ride.wav
448,192,297181,1,0,0:0:0:0:
64,192,297356,1,0,0:0:0:0:
448,192,297530,1,0,0:0:0:0:
320,192,297705,1,0,0:0:0:0:
64,192,297879,1,0,0:0:0:70:Ride.wav
448,192,297879,1,0,0:0:0:0:
192,192,298054,1,0,0:0:0:0:
320,192,298141,1,0,0:0:0:0:
64,192,298228,1,0,0:0:0:0:
320,192,298402,1,0,0:0:0:0:
448,192,298402,1,0,0:0:0:0:
192,192,298577,1,0,0:0:0:70:Ride.wav
320,192,298577,1,0,0:0:0:0:
64,192,298751,1,0,0:0:0:0:
448,192,298926,1,0,0:0:0:0:
320,192,299100,1,0,0:0:0:0:
192,192,299274,1,0,0:0:0:70:Ride.wav
448,192,299274,1,0,0:0:0:0:
320,192,299449,1,0,0:0:0:0:
192,192,299536,1,0,0:0:0:0:
64,192,299623,1,0,0:0:0:0:
192,192,299798,1,0,0:0:0:0:
320,192,299798,1,0,0:0:0:0:
192,192,299972,1,0,0:0:0:70:Ride.wav
448,192,299972,1,0,0:0:0:0:
64,192,300147,1,0,0:0:0:0:
448,192,300321,1,0,0:0:0:0:
320,192,300495,1,0,0:0:0:0:
192,192,300670,1,0,0:0:0:70:Ride.wav
448,192,300670,1,0,0:0:0:0:
320,192,300844,1,0,0:0:0:0:
192,192,300931,1,0,0:0:0:0:
64,192,301019,1,0,0:0:0:0:
64,192,301193,1,0,0:0:0:0:
320,192,301193,1,0,0:0:0:0:
192,192,301368,1,0,0:0:0:70:Ride.wav
320,192,301368,1,0,0:0:0:0:
64,192,301542,1,0,0:0:0:0:
448,192,301716,1,0,0:0:0:0:
320,192,301760,1,0,0:0:0:0:
64,192,301804,1,0,0:0:0:0:
192,192,301847,1,0,0:0:0:0:
320,192,301891,1,0,0:0:0:0:
448,192,301934,1,0,0:0:0:0:
64,192,301978,1,0,0:0:0:0:
192,192,302022,1,0,0:0:0:0:
320,192,302065,1,0,0:0:0:70:Ride.wav
448,192,302065,1,0,0:0:0:0:
192,192,302240,1,0,0:0:0:0:
320,192,302414,1,0,0:0:0:0:
64,192,302588,1,0,0:0:0:0:
192,192,302763,1,0,0:0:0:70:Ride.wav
320,192,302763,1,0,0:0:0:0:
448,192,302937,1,0,0:0:0:0:
64,192,303112,1,0,0:0:0:0:
192,192,303286,1,0,0:0:0:0:
64,192,303461,1,0,0:0:0:70:Ride.wav
448,192,303461,1,0,0:0:0:0:
320,192,303635,1,0,0:0:0:0:
448,192,303809,1,0,0:0:0:0:
192,192,303984,1,0,0:0:0:0:
64,192,304158,1,0,0:0:0:70:Ride.wav
320,192,304158,1,0,0:0:0:0:
448,192,304333,1,0,0:0:0:0:
64,192,304507,1,0,0:0:0:0:
192,192,304681,1,0,0:0:0:0:
320,192,304856,1,0,0:0:0:70:Ride.wav
448,192,304856,1,0,0:0:0:0:
192,192,305030,1,0,0:0:0:0:
448,192,305205,1,0,0:0:0:0:
192,192,305379,1,0,0:0:0:0:
64,192,305554,1,0,0:0:0:70:Ride.wav
320,192,305554,1,0,0:0:0:0:
448,192,305728,1,0,0:0:0:0:
64,192,305902,1,0,0:0:0:0:
192,192,306077,1,0,0:0:0:0:
64,192,306251,1,0,0:0:0:70:Ride.wav
448,192,306251,1,0,0:0:0:0:
320,192,306426,1,0,0:0:0:0:
448,192,306600,1,0,0:0:0:0:
320,192,306774,1,0,0:0:0:0:
64,192,306949,1,0,0:0:0:70:Ride.wav
192,192,306949,1,0,0:0:0:0:
448,192,307123,1,0,0:0:0:0:
64,192,307298,1,0,0:0:0:0:
192,192,307472,1,0,0:0:0:0:
64,192,307647,1,0,0:0:0:70:Ride.wav
448,192,307647,1,0,0:0:0:0:
192,192,307821,1,0,0:0:0:0:
64,192,307995,1,0,0:0:0:0:
320,192,308170,1,0,0:0:0:0:
192,192,308344,1,0,0:0:0:70:Ride.wav
448,192,308344,1,0,0:0:0:0:
64,192,308519,1,0,0:0:0:0:
448,192,308693,1,0,0:0:0:0:
320,192,308868,1,0,0:0:0:0:
64,192,309042,1,0,0:0:0:70:Ride.wav
448,192,309042,1,0,0:0:0:0:
192,192,309216,1,0,0:0:0:0:
64,192,309391,1,0,0:0:0:0:
320,192,309565,1,0,0:0:0:0:
192,192,309740,1,0,0:0:0:70:Ride.wav
448,192,309740,1,0,0:0:0:0:
64,192,309914,1,0,0:0:0:0:
448,192,310088,1,0,0:0:0:0:
320,192,310263,1,0,0:0:0:0:
64,192,310437,1,0,0:0:0:70:Ride.wav
192,192,310437,1,0,0:0:0:0:
320,192,310612,1,0,0:0:0:0:
64,192,310786,1,0,0:0:0:0:
448,192,310961,1,0,0:0:0:0:
192,192,311135,1,0,0:0:0:70:Ride.wav
320,192,311135,1,0,0:0:0:0:
64,192,311309,1,0,0:0:0:0:
448,192,311484,1,0,0:0:0:0:
320,192,311658,1,0,0:0:0:0:
64,192,311833,1,0,0:0:0:70:Ride.wav
448,192,311833,1,0,0:0:0:0:
192,192,312007,1,0,0:0:0:0:
64,192,312181,1,0,0:0:0:0:
320,192,312356,1,0,0:0:0:0:
64,192,312530,1,0,0:0:0:70:Ride.wav
448,192,312530,1,0,0:0:0:0:
320,192,312574,1,0,0:0:0:0:
192,192,312618,1,0,0:0:0:0:
64,192,312661,1,0,0:0:0:0:
448,192,312705,1,0,0:0:0:0:
320,192,312748,1,0,0:0:0:0:
192,192,312792,1,0,0:0:0:0:
64,192,312836,1,0,0:0:0:0:
448,192,312879,1,0,0:0:0:0:
320,192,313054,1,0,0:0:0:0:
