osu file format v14

[General]
AudioFilename: audio.mp3
AudioLeadIn: 0
PreviewTime: -1
Countdown: 0
SampleSet: None
StackLeniency: 0.7
Mode: 3
LetterboxInBreaks: 0
SpecialStyle: 0
WidescreenStoryboard: 1

[Editor]
DistanceSpacing: 1.4
BeatDivisor: 4
GridSize: 8
TimelineZoom: 4.399998

[Metadata]
Title:Imaginary World
TitleUnicode:Imaginary World
Artist:uma
ArtistUnicode:uma
Creator:HXJ_Crafter
Version:4K EASY
Source:Musedash
Tags:
BeatmapID:1755428
BeatmapSetID:838472

[Difficulty]
HPDrainRate:8
CircleSize:4
OverallDifficulty:8
ApproachRate:5
SliderMultiplier:1.4
SliderTickRate:1

[Events]
//Background and Video events
0,0,"tmp_1534572357.jpg",0,0
//Break Periods
//Storyboard Layer 0 (Background)
//Storyboard Layer 1 (Fail)
//Storyboard Layer 2 (Pass)
//Storyboard Layer 3 (Foreground)
//Storyboard Sound Samples

[TimingPoints]
634,333.333333333333,4,2,0,0,1,0

[HitObjects]
64,192,634,128,0,883:0:0:0:0:
192,192,967,128,0,1217:0:0:0:0:
320,192,1300,128,0,1550:0:0:0:0:
448,192,1633,128,0,1883:0:0:0:0:
64,192,1967,1,0,0:0:0:0:
320,192,2467,1,0,0:0:0:0:
64,192,2633,1,0,0:0:0:0:
448,192,2967,1,0,0:0:0:0:
192,192,3300,1,0,0:0:0:0:
320,192,3633,1,0,0:0:0:0:
64,192,3967,1,0,0:0:0:0:
320,192,4300,1,0,0:0:0:0:
192,192,4633,1,0,0:0:0:0:
320,192,5133,1,0,0:0:0:0:
64,192,5300,1,0,0:0:0:0:
448,192,5633,1,0,0:0:0:0:
192,192,5967,1,0,0:0:0:0:
320,192,6300,1,0,0:0:0:0:
64,192,6633,1,0,0:0:0:0:
448,192,6967,1,0,0:0:0:0:
64,192,7300,1,0,0:0:0:0:
64,192,7633,1,0,0:0:0:0:
320,192,7967,1,0,0:0:0:0:
320,192,8300,1,0,0:0:0:0:
192,192,8633,1,0,0:0:0:0:
192,192,8967,1,0,0:0:0:0:
448,192,9300,1,0,0:0:0:0:
448,192,9633,1,0,0:0:0:0:
64,192,9967,1,0,0:0:0:0:
192,192,10300,1,0,0:0:0:0:
320,192,10633,1,0,0:0:0:0:
448,192,10967,1,0,0:0:0:0:
64,192,11300,1,0,0:0:0:0:
448,192,12300,1,0,0:0:0:0:
64,192,12633,1,0,0:0:0:0:
64,192,13133,1,0,0:0:0:0:
192,192,13967,1,0,0:0:0:0:
192,192,14467,1,0,0:0:0:0:
320,192,15300,1,0,0:0:0:0:
320,192,15800,1,0,0:0:0:0:
448,192,16633,1,0,0:0:0:0:
448,192,17133,1,0,0:0:0:0:
192,192,17967,1,0,0:0:0:0:
192,192,18467,128,0,19300:0:0:0:0:
320,192,19300,1,0,0:0:0:0:
320,192,19800,128,0,20467:0:0:0:0:
64,192,20467,1,0,0:0:0:0:
448,192,20633,1,0,0:0:0:0:
192,192,21133,1,0,0:0:0:0:
320,192,21300,1,0,0:0:0:0:
64,192,21633,1,0,0:0:0:0:
192,192,21800,1,0,0:0:0:0:
320,192,21967,1,0,0:0:0:0:
192,192,22300,1,0,0:0:0:0:
448,192,22633,1,0,0:0:0:0:
64,192,22967,128,0,23300:0:0:0:0:
320,192,23300,1,0,0:0:0:0:
192,192,23633,1,0,0:0:0:0:
448,192,23967,1,0,0:0:0:0:
320,192,24217,1,0,0:0:0:0:
64,192,24467,1,0,0:0:0:0:
448,192,24800,1,0,0:0:0:0:
320,192,24967,1,0,0:0:0:0:
192,192,25133,1,0,0:0:0:0:
64,192,25300,1,0,0:0:0:0:
448,192,25633,1,0,0:0:0:0:
320,192,25800,1,0,0:0:0:0:
192,192,25967,1,0,0:0:0:0:
448,192,26300,1,0,0:0:0:0:
64,192,26633,1,0,0:0:0:0:
192,192,26883,1,0,0:0:0:0:
320,192,27133,1,0,0:0:0:0:
448,192,27467,1,0,0:0:0:0:
320,192,27633,1,0,0:0:0:0:
192,192,27800,1,0,0:0:0:0:
64,192,27967,1,0,0:0:0:0:
448,192,28300,1,0,0:0:0:0:
320,192,28467,1,0,0:0:0:0:
192,192,28633,1,0,0:0:0:0:
192,192,28967,1,0,0:0:0:0:
320,192,29300,1,0,0:0:0:0:
320,192,29633,1,0,0:0:0:0:
64,192,29967,1,0,0:0:0:0:
64,192,30300,1,0,0:0:0:0:
448,192,30633,1,0,0:0:0:0:
448,192,30967,1,0,0:0:0:0:
64,192,31133,1,0,0:0:0:0:
448,192,31300,1,0,0:0:0:0:
320,192,31467,1,0,0:0:0:0:
192,192,31633,1,0,0:0:0:0:
64,192,31800,1,0,0:0:0:0:
448,192,31967,1,0,0:0:0:0:
320,192,32133,1,0,0:0:0:0:
192,192,32300,1,0,0:0:0:0:
64,192,32467,1,0,0:0:0:0:
448,192,32633,128,0,33300:0:0:0:0:
64,192,33300,1,0,0:0:0:0:
320,192,33633,1,0,0:0:0:0:
192,192,33800,1,0,0:0:0:0:
448,192,33967,128,0,34300:0:0:0:0:
64,192,33967,1,0,0:0:0:0:
192,192,34300,1,0,0:0:0:0:
320,192,34467,1,0,0:0:0:0:
64,192,34633,128,0,34800:0:0:0:0:
320,192,34800,1,0,0:0:0:0:
448,192,34967,128,0,35133:0:0:0:0:
192,192,35133,1,0,0:0:0:0:
64,192,35300,128,0,35633:0:0:0:0:
320,192,35633,1,0,0:0:0:0:
192,192,35800,1,0,0:0:0:0:
448,192,35967,128,0,36133:0:0:0:0:
192,192,36133,1,0,0:0:0:0:
64,192,36300,128,0,36467:0:0:0:0:
320,192,36467,1,0,0:0:0:0:
192,192,36633,1,0,0:0:0:0:
448,192,36967,1,0,0:0:0:0:
192,192,37300,1,0,0:0:0:0:
64,192,37633,1,0,0:0:0:0:
192,192,37800,1,0,0:0:0:0:
320,192,37967,1,0,0:0:0:0:
448,192,38133,1,0,0:0:0:0:
192,192,38300,128,0,38467:0:0:0:0:
320,192,38633,128,0,38800:0:0:0:0:
64,192,38967,1,0,0:0:0:0:
448,192,39133,1,0,0:0:0:0:
64,192,39300,128,0,39633:0:0:0:0:
448,192,39633,1,0,0:0:0:0:
192,192,39800,1,0,0:0:0:0:
448,192,39967,128,0,40300:0:0:0:0:
64,192,40300,1,0,0:0:0:0:
192,192,40467,1,0,0:0:0:0:
448,192,40633,1,0,0:0:0:0:
320,192,40800,1,0,0:0:0:0:
192,192,40967,1,0,0:0:0:0:
64,192,41133,1,0,0:0:0:0:
448,192,41300,1,0,0:0:0:0:
320,192,41633,1,0,0:0:0:0:
64,192,41967,128,0,42133:0:0:0:0:
320,192,42133,1,0,0:0:0:0:
448,192,42300,128,0,42467:0:0:0:0:
192,192,42467,1,0,0:0:0:0:
320,192,42633,128,0,42800:0:0:0:0:
64,192,42800,1,0,0:0:0:0:
192,192,42967,128,0,43133:0:0:0:0:
448,192,43133,1,0,0:0:0:0:
64,192,43300,1,0,0:0:0:0:
448,192,43633,1,0,0:0:0:0:
64,192,43967,1,0,0:0:0:0:
320,192,44633,1,0,0:0:0:0:
64,192,44967,1,0,0:0:0:0:
448,192,45300,1,0,0:0:0:0:
320,192,45550,1,0,0:0:0:0:
192,192,45800,1,0,0:0:0:0:
448,192,46133,1,0,0:0:0:0:
320,192,46300,1,0,0:0:0:0:
192,192,46467,1,0,0:0:0:0:
64,192,46633,1,0,0:0:0:0:
448,192,46967,1,0,0:0:0:0:
320,192,47133,1,0,0:0:0:0:
192,192,47300,1,0,0:0:0:0:
448,192,47633,1,0,0:0:0:0:
64,192,47967,1,0,0:0:0:0:
192,192,48217,1,0,0:0:0:0:
320,192,48467,1,0,0:0:0:0:
448,192,48800,1,0,0:0:0:0:
192,192,48967,1,0,0:0:0:0:
320,192,49133,1,0,0:0:0:0:
64,192,49300,128,0,49633:0:0:0:0:
448,192,49633,1,0,0:0:0:0:
192,192,49967,1,0,0:0:0:0:
192,192,50300,1,0,0:0:0:0:
320,192,50633,1,0,0:0:0:0:
320,192,50967,1,0,0:0:0:0:
64,192,51300,1,0,0:0:0:0:
64,192,51633,1,0,0:0:0:0:
448,192,51967,1,0,0:0:0:0:
448,192,52300,1,0,0:0:0:0:
64,192,52633,1,0,0:0:0:0:
192,192,52800,1,0,0:0:0:0:
320,192,52967,1,0,0:0:0:0:
448,192,53133,1,0,0:0:0:0:
64,192,53300,1,0,0:0:0:0:
192,192,53467,1,0,0:0:0:0:
320,192,53633,1,0,0:0:0:0:
448,192,53800,1,0,0:0:0:0:
64,192,53967,1,0,0:0:0:0:
448,192,54967,128,0,55300:0:0:0:0:
64,192,55300,1,0,0:0:0:0:
64,192,55633,1,0,0:0:0:0:
192,192,55967,1,0,0:0:0:0:
192,192,56300,1,0,0:0:0:0:
320,192,56633,1,0,0:0:0:0:
320,192,56967,1,0,0:0:0:0:
448,192,57300,1,0,0:0:0:0:
448,192,57633,128,0,57967:0:0:0:0:
192,192,57967,1,0,0:0:0:0:
448,192,58300,1,0,0:0:0:0:
64,192,58633,1,0,0:0:0:0:
320,192,58967,128,0,59300:0:0:0:0:
192,192,59300,1,0,0:0:0:0:
448,192,59633,1,0,0:0:0:0:
192,192,59967,1,0,0:0:0:0:
320,192,60133,1,0,0:0:0:0:
64,192,60300,1,0,0:0:0:0:
448,192,60633,1,0,0:0:0:0:
448,192,60967,1,0,0:0:0:0:
192,192,61300,1,0,0:0:0:0:
192,192,61633,1,0,0:0:0:0:
320,192,61967,1,0,0:0:0:0:
320,192,62300,1,0,0:0:0:0:
64,192,62633,1,0,0:0:0:0:
64,192,62967,1,0,0:0:0:0:
448,192,63300,1,0,0:0:0:0:
448,192,63633,128,0,63967:0:0:0:0:
64,192,63967,1,0,0:0:0:0:
64,192,64300,128,0,64633:0:0:0:0:
448,192,64633,1,0,0:0:0:0:
320,192,65633,1,0,0:0:0:0:
64,192,65967,1,0,0:0:0:0:
320,192,66467,1,0,0:0:0:0:
64,192,66633,1,0,0:0:0:0:
448,192,66967,1,0,0:0:0:0:
192,192,67300,1,0,0:0:0:0:
320,192,67633,1,0,0:0:0:0:
64,192,67967,1,0,0:0:0:0:
320,192,68300,1,0,0:0:0:0:
192,192,68633,1,0,0:0:0:0:
320,192,69133,1,0,0:0:0:0:
64,192,69300,1,0,0:0:0:0:
448,192,69633,1,0,0:0:0:0:
192,192,69967,1,0,0:0:0:0:
320,192,70300,1,0,0:0:0:0:
64,192,70633,1,0,0:0:0:0:
448,192,70967,1,0,0:0:0:0:
64,192,71300,1,0,0:0:0:0:
64,192,71633,1,0,0:0:0:0:
448,192,72300,1,0,0:0:0:0:
192,192,72633,1,0,0:0:0:0:
192,192,72967,1,0,0:0:0:0:
448,192,73633,1,0,0:0:0:0:
64,192,73967,1,0,0:0:0:0:
320,192,74300,1,0,0:0:0:0:
192,192,74967,1,0,0:0:0:0:
448,192,75300,1,0,0:0:0:0:
64,192,76633,1,0,0:0:0:0:
64,192,77967,1,0,0:0:0:0:
64,192,79300,1,0,0:0:0:0:
64,192,80633,1,0,0:0:0:0:
64,192,81967,128,0,82967:0:0:0:0:
192,192,83300,128,0,84300:0:0:0:0:
320,192,84633,128,0,85633:0:0:0:0:
448,192,85967,128,0,86967:0:0:0:0:
64,192,86967,1,0,0:0:0:0:
448,192,87300,1,0,0:0:0:0:
192,192,87467,1,0,0:0:0:0:
448,192,87633,1,0,0:0:0:0:
64,192,87967,1,0,0:0:0:0:
320,192,88133,1,0,0:0:0:0:
64,192,88300,1,0,0:0:0:0:
448,192,88633,1,0,0:0:0:0:
192,192,88800,1,0,0:0:0:0:
448,192,88967,1,0,0:0:0:0:
64,192,89300,1,0,0:0:0:0:
192,192,89467,1,0,0:0:0:0:
320,192,89633,1,0,0:0:0:0:
448,192,89800,1,0,0:0:0:0:
64,192,89967,1,0,0:0:0:0:
320,192,90133,1,0,0:0:0:0:
64,192,90300,1,0,0:0:0:0:
448,192,90633,1,0,0:0:0:0:
192,192,90800,1,0,0:0:0:0:
448,192,90967,1,0,0:0:0:0:
64,192,91300,1,0,0:0:0:0:
320,192,91467,1,0,0:0:0:0:
64,192,91633,1,0,0:0:0:0:
448,192,91967,128,0,92633:0:0:0:0:
64,192,92633,1,0,0:0:0:0:
192,192,92800,1,0,0:0:0:0:
320,192,92967,1,0,0:0:0:0:
448,192,93300,1,0,0:0:0:0:
320,192,93467,1,0,0:0:0:0:
192,192,93633,1,0,0:0:0:0:
64,192,93967,1,0,0:0:0:0:
192,192,94133,1,0,0:0:0:0:
320,192,94300,1,0,0:0:0:0:
448,192,94633,1,0,0:0:0:0:
320,192,94800,1,0,0:0:0:0:
192,192,94967,1,0,0:0:0:0:
64,192,95133,1,0,0:0:0:0:
448,192,95300,1,0,0:0:0:0:
192,192,95467,1,0,0:0:0:0:
320,192,95633,1,0,0:0:0:0:
64,192,95800,1,0,0:0:0:0:
448,192,95967,1,0,0:0:0:0:
192,192,96133,1,0,0:0:0:0:
320,192,96300,1,0,0:0:0:0:
64,192,96467,1,0,0:0:0:0:
448,192,96633,128,0,97300:0:0:0:0:
64,192,97300,1,0,0:0:0:0:
320,192,97633,1,0,0:0:0:0:
192,192,97800,1,0,0:0:0:0:
448,192,97967,128,0,98300:0:0:0:0:
64,192,97967,1,0,0:0:0:0:
192,192,98300,1,0,0:0:0:0:
320,192,98467,1,0,0:0:0:0:
64,192,98633,128,0,98800:0:0:0:0:
320,192,98800,1,0,0:0:0:0:
448,192,98967,128,0,99133:0:0:0:0:
192,192,99133,1,0,0:0:0:0:
64,192,99300,128,0,99633:0:0:0:0:
320,192,99633,1,0,0:0:0:0:
192,192,99800,1,0,0:0:0:0:
448,192,99967,128,0,100133:0:0:0:0:
192,192,100133,1,0,0:0:0:0:
64,192,100300,128,0,100467:0:0:0:0:
320,192,100467,1,0,0:0:0:0:
192,192,100633,1,0,0:0:0:0:
448,192,100967,1,0,0:0:0:0:
192,192,101300,1,0,0:0:0:0:
64,192,101633,1,0,0:0:0:0:
192,192,101800,1,0,0:0:0:0:
320,192,101967,1,0,0:0:0:0:
448,192,102133,1,0,0:0:0:0:
192,192,102300,128,0,102467:0:0:0:0:
320,192,102633,128,0,102800:0:0:0:0:
64,192,102967,1,0,0:0:0:0:
448,192,103133,1,0,0:0:0:0:
64,192,103300,128,0,103633:0:0:0:0:
448,192,103633,1,0,0:0:0:0:
192,192,103800,1,0,0:0:0:0:
448,192,103967,128,0,104300:0:0:0:0:
64,192,104300,1,0,0:0:0:0:
192,192,104467,1,0,0:0:0:0:
448,192,104633,1,0,0:0:0:0:
320,192,104800,1,0,0:0:0:0:
192,192,104967,1,0,0:0:0:0:
64,192,105133,1,0,0:0:0:0:
448,192,105300,1,0,0:0:0:0:
320,192,105633,1,0,0:0:0:0:
64,192,105967,128,0,106133:0:0:0:0:
320,192,106133,1,0,0:0:0:0:
448,192,106300,128,0,106467:0:0:0:0:
192,192,106467,1,0,0:0:0:0:
320,192,106633,128,0,106800:0:0:0:0:
64,192,106800,1,0,0:0:0:0:
192,192,106967,128,0,107133:0:0:0:0:
448,192,107133,1,0,0:0:0:0:
64,192,107300,1,0,0:0:0:0:
448,192,107633,1,0,0:0:0:0:
64,192,107967,1,0,0:0:0:0:
320,192,108300,1,0,0:0:0:0:
448,192,108633,1,0,0:0:0:0:
192,192,108800,1,0,0:0:0:0:
448,192,108967,1,0,0:0:0:0:
64,192,109300,1,0,0:0:0:0:
320,192,109467,1,0,0:0:0:0:
64,192,109633,1,0,0:0:0:0:
448,192,109967,1,0,0:0:0:0:
192,192,110133,1,0,0:0:0:0:
448,192,110300,1,0,0:0:0:0:
64,192,110633,1,0,0:0:0:0:
192,192,110800,1,0,0:0:0:0:
320,192,110967,1,0,0:0:0:0:
448,192,111133,1,0,0:0:0:0:
64,192,111300,1,0,0:0:0:0:
320,192,111467,1,0,0:0:0:0:
64,192,111633,1,0,0:0:0:0:
448,192,111967,1,0,0:0:0:0:
192,192,112133,1,0,0:0:0:0:
448,192,112300,1,0,0:0:0:0:
64,192,112633,1,0,0:0:0:0:
320,192,112800,1,0,0:0:0:0:
64,192,112967,1,0,0:0:0:0:
448,192,113300,1,0,0:0:0:0:
192,192,113467,1,0,0:0:0:0:
320,192,113633,1,0,0:0:0:0:
448,192,113800,1,0,0:0:0:0:
64,192,113967,1,0,0:0:0:0:
192,192,114133,1,0,0:0:0:0:
320,192,114300,1,0,0:0:0:0:
448,192,114633,1,0,0:0:0:0:
320,192,114800,1,0,0:0:0:0:
192,192,114967,1,0,0:0:0:0:
64,192,115300,1,0,0:0:0:0:
192,192,115467,1,0,0:0:0:0:
320,192,115633,1,0,0:0:0:0:
448,192,115967,1,0,0:0:0:0:
320,192,116133,1,0,0:0:0:0:
192,192,116300,1,0,0:0:0:0:
64,192,116467,1,0,0:0:0:0:
448,192,116633,1,0,0:0:0:0:
192,192,116800,1,0,0:0:0:0:
320,192,116967,1,0,0:0:0:0:
64,192,117133,1,0,0:0:0:0:
448,192,117300,1,0,0:0:0:0:
192,192,117467,1,0,0:0:0:0:
320,192,117633,1,0,0:0:0:0:
64,192,117800,1,0,0:0:0:0:
448,192,117967,1,0,0:0:0:0:
64,192,118300,1,0,0:0:0:0:
320,192,118633,1,0,0:0:0:0:
192,192,118800,1,0,0:0:0:0:
64,192,119300,1,0,0:0:0:0:
448,192,119300,1,0,0:0:0:0:
