osu file format v14

[General]
AudioFilename: audio.mp3
AudioLeadIn: 0
PreviewTime: 79980
Countdown: 0
SampleSet: Normal
StackLeniency: 0.7
Mode: 3
LetterboxInBreaks: 0
SpecialStyle: 0
WidescreenStoryboard: 1

[Editor]
DistanceSpacing: 1.5
BeatDivisor: 4
GridSize: 16
TimelineZoom: 1.8

[Metadata]
Title:Chakra
TitleUnicode:Chakra
Artist:uma
ArtistUnicode:uma
Creator:Shima Rin
Version:ExNeko's EXHAUST
Source:SOUND VOLTEX EXCEED GEAR
Tags:Tofu1222 ExNeko Muse Dash FAMoss リリック・リシュナ Lyric Rishuna SDVX 6 VI 制作決定記念 キャラクターテーマ楽曲コンテスト BEMANI Rhythm Video Game Electronic Instrumental
BeatmapID:3250708
BeatmapSetID:1494300

[Difficulty]
HPDrainRate:7.5
CircleSize:4
OverallDifficulty:7.5
ApproachRate:5
SliderMultiplier:1.4
SliderTickRate:1

[Events]
//Background and Video events
0,0,"BG.png",0,0
//Break Periods
//Storyboard Layer 0 (Background)
//Storyboard Layer 1 (Fail)
//Storyboard Layer 2 (Pass)
//Storyboard Layer 3 (Foreground)
//Storyboard Layer 4 (Overlay)
//Storyboard Sound Samples
Sample,45071,0,"amenbreak_snare2.wav",70

[TimingPoints]
1435,363.636363636364,4,2,1,70,1,0
36707,-100.0,4,2,1,70,0,1
45071,-100.0,4,2,1,70,0,0
48344,-100.0,4,2,1,70,0,1
58162,-100.0,4,2,1,70,0,0
83253,-100.0,4,2,1,70,0,1
94162,-100.0,4,2,1,70,0,0
97435,-100.0,4,2,1,70,0,1
105798,-100.0,4,2,1,70,0,0

[HitObjects]
320,192,1435,1,0,0:0:0:70:FX_IntroKick.wav
448,192,1435,1,0,0:0:0:0:
64,192,1616,128,0,1980:0:0:0:0:
192,192,1798,128,0,1980:0:0:0:0:
320,192,1980,128,0,2525:0:0:0:0:
192,192,2162,128,0,2525:0:0:0:0:
448,192,2525,128,0,2889:0:0:0:0:
192,192,2889,128,0,3253:0:0:0:0:
64,192,3071,128,0,3253:0:0:0:0:
320,192,3253,128,0,3616:0:0:0:0:
192,192,3435,128,0,3616:0:0:0:0:
448,192,3616,128,0,3980:0:0:0:0:
320,192,3798,128,0,3980:0:0:0:0:
192,192,3980,128,0,4344:0:0:0:0:
320,192,4525,128,0,4889:0:0:0:0:
448,192,4707,128,0,4889:0:0:0:0:
192,192,4889,128,0,5435:0:0:0:0:
320,192,5071,128,0,5435:0:0:0:0:
64,192,5435,128,0,5798:0:0:0:0:
320,192,5798,128,0,6162:0:0:0:0:
192,192,5980,128,0,6162:0:0:0:0:
448,192,6162,128,0,6525:0:0:0:0:
320,192,6344,128,0,6525:0:0:0:0:
64,192,6525,128,0,6889:0:0:0:0:
192,192,6707,128,0,6889:0:0:0:70:loud3.wav
320,192,6707,1,0,0:0:0:0:
448,192,6889,128,0,7253:0:0:0:0:
64,192,7253,1,0,0:0:0:70:FX_IntroKick.wav
192,192,7253,1,0,0:0:0:0:
320,192,7435,128,0,7798:0:0:0:0:
192,192,7616,128,0,7798:0:0:0:0:
64,192,7798,128,0,8344:0:0:0:0:
192,192,7980,128,0,8344:0:0:0:0:
448,192,8344,128,0,8707:0:0:0:0:
320,192,8707,128,0,9071:0:0:0:0:
192,192,8889,128,0,9071:0:0:0:0:
64,192,9071,128,0,9435:0:0:0:0:
192,192,9253,128,0,9435:0:0:0:0:
320,192,9435,128,0,9798:0:0:0:0:
192,192,9616,128,0,9798:0:0:0:0:
448,192,9798,128,0,10162:0:0:0:0:
192,192,10344,128,0,10707:0:0:0:0:
320,192,10525,128,0,10707:0:0:0:0:
64,192,10707,128,0,11253:0:0:0:0:
192,192,10889,128,0,11253:0:0:0:0:
320,192,11253,128,0,11616:0:0:0:0:
448,192,11616,128,0,11980:0:0:0:0:
320,192,11798,128,0,11980:0:0:0:0:
192,192,11980,128,0,12344:0:0:0:0:
320,192,12162,128,0,12344:0:0:0:0:
448,192,12344,128,0,12707:0:0:0:0:
320,192,12525,128,0,12707:0:0:0:0:
64,192,12707,128,0,12950:0:0:0:70:loud3.wav
320,192,12828,128,0,13071:0:0:0:50:electronic13.wav
192,192,12950,128,0,13071:0:0:0:70:loud3.wav
64,192,13071,1,0,0:0:0:70:FX_IntroKick.wav
448,192,13071,128,0,14162:0:0:0:0:
64,192,13435,1,0,0:0:0:50:electronic13.wav
320,192,13435,128,0,14162:0:0:0:0:
64,192,13798,1,0,0:0:0:0:
64,192,14162,1,0,0:0:0:0:
192,192,14162,128,0,14525:0:0:0:0:
320,192,14344,128,0,14525:0:0:0:0:
64,192,14525,128,0,15980:0:0:0:0:
448,192,14525,1,0,0:0:0:0:
448,192,14889,1,0,0:0:0:0:
448,192,15253,1,0,0:0:0:50:electronic13.wav
448,192,15525,1,0,0:0:0:50:electronic13.wav
192,192,15616,128,0,15980:0:0:0:0:
448,192,15798,1,0,0:0:0:50:electronic13.wav
320,192,15980,128,0,16707:0:0:0:50:electronic13.wav
448,192,15980,1,0,0:0:0:0:
64,192,16344,1,0,0:0:0:0:
448,192,16344,128,0,16707:0:0:0:0:
64,192,16707,1,0,0:0:0:0:
192,192,16707,128,0,17435:0:0:0:0:
64,192,17071,1,0,0:0:0:0:
320,192,17253,128,0,17435:0:0:0:0:
64,192,17435,128,0,18889:0:0:0:0:
448,192,17435,1,0,0:0:0:0:
448,192,17798,1,0,0:0:0:0:
448,192,18162,1,0,0:0:0:50:electronic13.wav
448,192,18525,128,0,18889:0:0:0:50:electronic13.wav
192,192,18889,1,0,0:0:0:50:electronic13.wav
320,192,18889,128,0,19616:0:0:0:0:
192,192,19253,128,0,19616:0:0:0:50:electronic13.wav
448,192,19253,1,0,0:0:0:0:
64,192,19616,128,0,20344:0:0:0:0:
448,192,19616,1,0,0:0:0:0:
448,192,19980,1,0,0:0:0:0:
192,192,20162,128,0,20344:0:0:0:0:
320,192,20344,128,0,21435:0:0:0:0:
448,192,20344,1,0,0:0:0:0:
64,192,20707,1,0,0:0:0:50:electronic13.wav
64,192,21071,1,0,0:0:0:50:electronic13.wav
64,192,21344,1,0,0:0:0:50:electronic13.wav
448,192,21435,128,0,21798:0:0:0:0:
64,192,21616,1,0,0:0:0:50:electronic13.wav
320,192,21616,128,0,21798:0:0:0:0:
64,192,21798,1,0,0:0:0:50:electronic13.wav
192,192,21798,128,0,23253:0:0:0:0:
448,192,22162,1,0,0:0:0:0:
448,192,22525,1,0,0:0:0:0:
320,192,22889,128,0,23253:0:0:0:0:
448,192,22889,1,0,0:0:0:0:
64,192,23253,128,2,24707:0:0:0:0:
192,192,24344,128,0,24525:0:0:0:0:
320,192,24435,128,0,24616:0:0:0:0:
448,192,24525,128,0,24616:0:0:0:0:
192,192,24616,128,0,24707:0:0:0:0:
320,192,24707,1,2,0:0:0:0:
448,192,24707,1,4,0:0:0:0:
448,192,25071,1,8,0:0:0:0:
64,192,25253,128,0,25435:0:0:0:0:
448,192,25435,1,8,0:0:0:0:
448,192,25798,1,8,0:0:0:0:
64,192,26162,1,8,0:0:0:0:
64,192,26525,1,8,0:0:0:0:
192,192,26707,128,0,26889:0:0:0:0:
320,192,26798,128,0,26980:0:0:0:0:
64,192,26889,1,8,0:0:0:0:
448,192,26889,128,0,27071:0:0:0:0:
64,192,27253,1,8,0:0:0:0:
64,192,27435,1,8,0:0:0:0:
320,192,27435,128,0,27616:0:0:0:0:
192,192,27616,1,2,0:0:0:0:
448,192,27616,1,4,0:0:0:0:
448,192,27980,1,8,0:0:0:0:
448,192,28344,1,8,0:0:0:0:
448,192,28707,1,8,0:0:0:0:
320,192,28889,128,0,29071:0:0:0:0:
192,192,28980,128,0,29162:0:0:0:0:
64,192,29071,1,8,0:0:0:0:
448,192,29071,128,0,29253:0:0:0:0:
64,192,29435,1,8,0:0:0:0:
64,192,29798,1,8,0:0:0:0:
192,192,29980,128,8,30071:0:0:0:0:
64,192,30162,1,0,0:0:0:0:
320,192,30162,128,0,30253:0:0:0:0:
320,192,30344,128,0,30435:0:0:0:0:
64,192,30525,128,6,31162:0:0:0:0:
448,192,30525,128,8,30616:0:0:0:0:
192,192,30616,128,8,30707:0:0:0:0:
320,192,30707,128,8,30798:0:0:0:0:
448,192,30798,128,8,30889:0:0:0:0:
192,192,30889,128,8,30980:0:0:0:0:
448,192,30980,128,8,31071:0:0:0:0:
320,192,31071,128,8,31162:0:0:0:0:
192,192,31162,128,8,31253:0:0:0:0:
64,192,31253,128,12,31344:0:0:0:0:
448,192,31253,128,2,31889:0:0:0:0:
192,192,31344,128,8,31435:0:0:0:0:
320,192,31435,128,8,31525:0:0:0:0:
64,192,31525,128,8,31616:0:0:0:0:
320,192,31616,128,8,31707:0:0:0:0:
192,192,31707,128,8,31798:0:0:0:0:
64,192,31798,128,8,31889:0:0:0:0:
320,192,31889,128,8,31980:0:0:0:0:
64,192,31980,128,10,32616:0:0:0:0:
448,192,31980,128,4,32071:0:0:0:0:
192,192,32071,128,8,32162:0:0:0:0:
320,192,32162,128,8,32253:0:0:0:0:
448,192,32253,128,8,32344:0:0:0:0:
192,192,32344,128,8,32435:0:0:0:0:
448,192,32435,128,8,32525:0:0:0:0:
320,192,32525,128,8,32616:0:0:0:0:
192,192,32616,128,8,32707:0:0:0:0:
64,192,32707,128,12,32798:0:0:0:0:
448,192,32707,128,2,33071:0:0:0:0:
192,192,32798,128,8,32889:0:0:0:0:
320,192,32889,128,8,32980:0:0:0:0:
64,192,32980,128,8,33071:0:0:0:0:
192,192,33071,128,0,33253:0:0:0:0:
320,192,33435,128,6,33525:0:0:0:0:
448,192,33435,128,8,33616:0:0:0:0:
64,192,33525,128,8,33616:0:0:0:0:
192,192,33616,128,8,33707:0:0:0:0:
320,192,33707,128,8,33798:0:0:0:0:
64,192,33798,128,6,33980:0:0:0:0:
192,192,33798,128,8,33889:0:0:0:0:
448,192,33889,128,8,33980:0:0:0:0:
320,192,33980,128,8,34071:0:0:0:0:
192,192,34071,128,8,34162:0:0:0:0:
320,192,34162,128,6,34253:0:0:0:0:
448,192,34162,128,8,34344:0:0:0:0:
64,192,34253,128,8,34344:0:0:0:0:
192,192,34344,128,8,34435:0:0:0:0:
320,192,34435,128,8,34525:0:0:0:0:
64,192,34525,128,6,34707:0:0:0:0:
192,192,34525,128,8,34616:0:0:0:0:
448,192,34616,128,8,34707:0:0:0:0:
320,192,34707,128,8,34798:0:0:0:0:
192,192,34798,128,8,34889:0:0:0:0:
448,192,34889,128,6,35980:0:0:0:0:
320,192,35071,1,8,0:0:0:0:
64,192,35253,128,8,35980:0:0:0:0:
192,192,35435,1,8,0:0:0:0:
320,192,35616,128,0,35980:0:0:0:70:tom01.wav
192,192,35980,1,0,0:0:0:70:tom04.wav
192,192,36162,1,0,0:0:0:0:
320,192,36344,128,2,36707:0:0:0:0:
64,192,36707,1,4,0:0:0:0:
192,192,36707,128,2,36798:0:0:0:0:
192,192,36889,128,0,37071:0:0:0:0:
320,192,37071,1,2,0:0:0:0:
448,192,37071,128,0,37435:0:0:0:0:
64,192,37253,128,0,37435:0:0:0:0:
192,192,37344,128,0,37435:0:0:0:0:
320,192,37435,1,2,0:0:0:0:
64,192,37525,128,0,37707:0:0:0:0:
192,192,37616,128,0,37798:0:0:0:0:
320,192,37707,128,0,37798:0:0:0:0:
64,192,37798,128,2,38162:0:0:0:0:
448,192,37798,1,0,0:0:0:0:
448,192,37980,128,0,38162:0:0:0:0:
320,192,38071,128,0,38162:0:0:0:0:
192,192,38162,1,2,0:0:0:0:
448,192,38253,128,0,38435:0:0:0:0:
320,192,38344,128,0,38525:0:0:0:0:
192,192,38435,128,0,38525:0:0:0:0:
64,192,38525,128,2,38798:0:0:0:0:
448,192,38525,128,0,38616:0:0:0:0:
320,192,38707,128,0,38798:0:0:0:0:
192,192,38889,128,2,38980:0:0:0:0:
448,192,38889,128,0,39162:0:0:0:0:
64,192,39071,128,0,39162:0:0:0:0:
192,192,39253,128,2,39616:0:0:0:0:
320,192,39253,1,0,0:0:0:0:
64,192,39616,1,2,0:0:0:0:
320,192,39616,128,0,39707:0:0:0:0:
320,192,39798,128,0,39980:0:0:0:0:
64,192,39980,128,2,40344:0:0:0:0:
448,192,39980,1,0,0:0:0:0:
192,192,40162,128,0,40344:0:0:0:0:
320,192,40253,128,0,40344:0:0:0:0:
448,192,40344,1,2,0:0:0:0:
192,192,40435,128,0,40616:0:0:0:0:
320,192,40525,128,0,40707:0:0:0:0:
448,192,40616,128,0,40707:0:0:0:0:
64,192,40707,1,2,0:0:0:0:
192,192,40707,1,4,0:0:0:0:
320,192,40889,1,0,0:0:0:0:
64,192,40980,1,0,0:0:0:0:
320,192,41162,1,0,0:0:0:0:
64,192,41253,1,0,0:0:0:0:
192,192,41344,1,0,0:0:0:0:
320,192,41435,128,0,41616:0:0:0:0:
64,192,41616,1,0,0:0:0:0:
192,192,41707,1,0,0:0:0:0:
320,192,41798,128,0,41980:0:0:0:70:VEC4 Snares 151.wav
448,192,41798,128,0,41889:0:0:0:0:
192,192,41889,128,0,42071:0:0:0:0:
64,192,41980,128,0,42162:0:0:0:0:
448,192,42071,128,0,42162:0:0:0:0:
192,192,42162,128,2,42525:0:0:0:0:
320,192,42162,1,4,0:0:0:0:
320,192,42525,128,2,42616:0:0:0:0:
448,192,42525,1,0,0:0:0:0:
320,192,42707,128,0,42889:0:0:0:0:
64,192,42889,128,2,43253:0:0:0:0:
192,192,42889,1,0,0:0:0:0:
448,192,43071,128,0,43253:0:0:0:0:
320,192,43162,128,0,43253:0:0:0:0:
192,192,43253,1,2,0:0:0:0:
448,192,43344,128,0,43525:0:0:0:0:
320,192,43435,128,0,43616:0:0:0:0:
192,192,43525,128,0,43616:0:0:0:0:
64,192,43616,1,2,0:0:0:0:
448,192,43616,128,0,43980:0:0:0:0:
64,192,43798,128,0,43980:0:0:0:0:
192,192,43889,128,0,43980:0:0:0:0:
320,192,43980,1,2,0:0:0:0:
64,192,44071,128,0,44253:0:0:0:0:
192,192,44162,128,0,44344:0:0:0:0:
320,192,44253,128,0,44344:0:0:0:0:
64,192,44344,128,2,44435:0:0:0:0:
448,192,44344,128,0,44616:0:0:0:0:
192,192,44525,128,0,44616:0:0:0:0:
64,192,44707,128,2,44980:0:0:0:0:
320,192,44707,128,0,44798:0:0:0:0:
448,192,44889,128,0,44980:0:0:0:0:
192,192,45071,1,4,0:0:0:0:
320,192,45253,1,0,0:0:0:70:amenbreak_kick1.wav
64,192,45344,1,0,0:0:0:70:amenbreak_kick1.wav
448,192,45435,1,0,0:0:0:70:amenbreak_snare2.wav
192,192,45616,1,0,0:0:0:70:amenbreak_kick1.wav
320,192,45707,1,0,0:0:0:70:amenbreak_kick1.wav
64,192,45798,1,0,0:0:0:70:amenbreak_kick1.wav
192,192,45889,1,0,0:0:0:70:amenbreak_snare2.wav
320,192,45980,1,0,0:0:0:0:
64,192,46071,1,0,0:0:0:70:amenbreak_snare2.wav
448,192,46162,128,0,46344:0:0:0:70:amenbreak_snare2a.wav
320,192,46253,128,0,46435:0:0:0:70:amenbreak_snare2a.wav
192,192,46344,128,0,46525:0:0:0:70:amenbreak_snare2b.wav
64,192,46435,128,0,46525:0:0:0:70:amenbreak_snare2b.wav
320,192,46525,128,2,46707:0:0:0:0:
448,192,46525,128,4,46707:0:0:0:0:
192,192,46889,128,4,47071:0:0:0:0:
320,192,46889,128,2,47071:0:0:0:0:
64,192,47253,128,2,47435:0:0:0:0:
192,192,47253,128,4,47435:0:0:0:0:
448,192,47616,128,0,47980:0:0:0:70:VEC4 Snares 151.wav
320,192,47980,128,2,48344:0:0:0:0:
64,192,48344,128,2,48707:0:0:0:0:
192,192,48344,128,4,48435:0:0:0:0:
192,192,48525,128,0,48707:0:0:0:0:
320,192,48707,128,2,48889:0:0:0:0:
448,192,48707,128,0,49071:0:0:0:0:
192,192,48889,128,0,49071:0:0:0:0:
320,192,48980,128,0,49071:0:0:0:0:
64,192,49071,128,2,49344:0:0:0:0:
192,192,49162,128,0,49344:0:0:0:0:
320,192,49253,128,0,49435:0:0:0:0:
448,192,49344,128,0,49435:0:0:0:0:
64,192,49435,128,2,49798:0:0:0:0:
192,192,49435,128,0,49616:0:0:0:0:
320,192,49616,128,0,49798:0:0:0:0:
192,192,49707,128,0,49798:0:0:0:0:
448,192,49798,128,2,50071:0:0:0:0:
320,192,49889,128,0,50071:0:0:0:0:
192,192,49980,128,0,50162:0:0:0:0:
64,192,50071,128,0,50162:0:0:0:0:
320,192,50162,128,2,50344:0:0:0:0:
448,192,50162,128,0,50525:0:0:0:0:
64,192,50344,128,0,50435:0:0:0:0:
192,192,50344,128,0,50435:0:0:0:0:
192,192,50525,128,2,50616:0:0:0:0:
320,192,50525,128,0,50616:0:0:0:0:
320,192,50707,128,0,50798:0:0:0:0:
448,192,50707,128,0,50798:0:0:0:0:
64,192,50889,128,2,51253:0:0:0:0:
192,192,50889,128,0,51253:0:0:0:0:
320,192,51253,128,2,51344:0:0:0:0:
448,192,51253,128,0,51616:0:0:0:0:
320,192,51435,128,0,51616:0:0:0:0:
64,192,51616,128,2,51980:0:0:0:0:
192,192,51616,128,0,51798:0:0:0:0:
320,192,51798,128,0,51980:0:0:0:0:
192,192,51889,128,0,51980:0:0:0:0:
448,192,51980,128,2,52253:0:0:0:0:
320,192,52071,128,0,52253:0:0:0:0:
192,192,52162,128,0,52344:0:0:0:0:
64,192,52253,128,0,52344:0:0:0:0:
320,192,52344,1,4,0:0:0:0:
448,192,52344,1,2,0:0:0:0:
192,192,52525,128,0,52707:0:0:0:0:
448,192,52616,128,0,52707:0:0:0:0:
448,192,52798,128,0,52980:0:0:0:0:
320,192,52889,128,0,53071:0:0:0:0:
192,192,52980,128,0,53071:0:0:0:0:
64,192,53071,128,0,53162:0:0:0:0:
192,192,53253,128,0,53344:0:0:0:0:
320,192,53435,128,0,53525:0:0:0:70:VEC4 Snares 151.wav
448,192,53435,128,0,53707:0:0:0:0:
192,192,53616,128,0,53707:0:0:0:0:
64,192,53798,128,6,54162:0:0:0:0:
320,192,53798,128,8,53980:0:0:0:0:
192,192,53980,128,0,54162:0:0:0:0:
320,192,54162,128,2,54253:0:0:0:0:
448,192,54162,128,8,54525:0:0:0:0:
320,192,54344,128,0,54525:0:0:0:0:
64,192,54525,128,2,54889:0:0:0:0:
192,192,54525,128,8,54707:0:0:0:0:
320,192,54707,128,0,54889:0:0:0:0:
192,192,54798,128,0,54889:0:0:0:0:
448,192,54889,128,10,55162:0:0:0:0:
64,192,54980,128,0,55162:0:0:0:0:
192,192,55071,128,0,55253:0:0:0:0:
320,192,55162,128,0,55253:0:0:0:0:
64,192,55253,128,2,55435:0:0:0:0:
448,192,55253,128,8,55616:0:0:0:0:
192,192,55435,128,0,55616:0:0:0:0:
320,192,55525,128,0,55616:0:0:0:0:
64,192,55616,128,10,55889:0:0:0:0:
448,192,55707,128,0,55889:0:0:0:0:
320,192,55798,128,0,55980:0:0:0:0:
192,192,55889,128,0,55980:0:0:0:0:
64,192,55980,128,2,56162:0:0:0:0:
448,192,55980,128,8,56344:0:0:0:0:
192,192,56162,128,0,56253:0:0:0:0:
320,192,56162,128,0,56253:0:0:0:0:
64,192,56344,128,2,56435:0:0:0:0:
320,192,56344,128,8,56435:0:0:0:0:
64,192,56525,128,0,56616:0:0:0:0:
192,192,56525,128,0,56616:0:0:0:0:
64,192,56707,128,6,56798:0:0:0:0:
448,192,56707,128,8,56889:0:0:0:0:
192,192,56798,128,8,56889:0:0:0:0:
320,192,56889,128,8,56980:0:0:0:0:
64,192,56980,128,8,57071:0:0:0:0:
448,192,57071,128,8,57162:0:0:0:0:
192,192,57162,128,8,57253:0:0:0:0:
448,192,57253,128,8,57344:0:0:0:0:
320,192,57344,128,8,57435:0:0:0:0:
64,192,57435,128,10,57798:0:0:0:0:
192,192,57435,128,4,57525:0:0:0:0:
448,192,57525,128,8,57616:0:0:0:0:
320,192,57616,128,8,57707:0:0:0:0:
192,192,57707,128,8,57798:0:0:0:0:
448,192,57798,128,8,58162:0:0:0:0:
64,192,57889,128,8,57980:0:0:0:0:
192,192,57980,128,8,58071:0:0:0:0:
320,192,58071,128,8,58162:0:0:0:0:
64,192,58162,128,0,58889:0:0:0:0:
320,192,58889,128,0,59616:0:0:0:0:
192,192,59616,1,4,0:0:0:0:
448,192,59616,128,2,60707:0:0:0:0:
64,192,59980,1,8,0:0:0:0:
320,192,59980,128,0,60707:0:0:0:0:
192,192,60253,1,2,0:0:0:0:
192,192,60525,1,2,0:0:0:0:
64,192,60707,1,8,0:0:0:0:
192,192,60707,128,0,61071:0:0:0:0:
320,192,60889,128,0,61071:0:0:0:0:
448,192,60980,1,2,0:0:0:0:
64,192,61071,128,0,62525:0:0:0:0:
448,192,61253,1,2,0:0:0:0:
320,192,61435,1,8,0:0:0:0:
448,192,61616,1,2,0:0:0:0:
448,192,61980,1,2,0:0:0:0:
192,192,62162,128,8,62525:0:0:0:0:
320,192,62162,1,0,0:0:0:0:
320,192,62525,128,2,63253:0:0:0:0:
448,192,62525,1,0,0:0:0:0:
192,192,62889,1,8,0:0:0:0:
448,192,62889,128,0,63253:0:0:0:0:
64,192,63162,1,2,0:0:0:0:
192,192,63253,128,0,63980:0:0:0:0:
64,192,63435,1,2,0:0:0:0:
320,192,63616,1,8,0:0:0:0:
320,192,63798,128,0,63980:0:0:0:0:
448,192,63889,1,2,0:0:0:0:
64,192,63980,128,0,65435:0:0:0:0:
448,192,64162,1,2,0:0:0:0:
192,192,64344,1,8,0:0:0:0:
448,192,64525,1,2,0:0:0:0:
448,192,64889,1,2,0:0:0:0:
192,192,65071,1,0,0:0:0:70:VEC4 Snares 151.wav
448,192,65071,128,0,65435:0:0:0:0:
192,192,65435,1,2,0:0:0:0:
320,192,65435,128,4,66162:0:0:0:0:
64,192,65798,1,8,0:0:0:0:
192,192,65798,128,0,66162:0:0:0:0:
448,192,66071,1,2,0:0:0:0:
64,192,66162,128,0,66889:0:0:0:0:
448,192,66344,1,2,0:0:0:0:
192,192,66525,1,8,0:0:0:0:
192,192,66707,128,0,66889:0:0:0:0:
448,192,66798,1,2,0:0:0:0:
320,192,66889,128,0,67980:0:0:0:0:
448,192,67071,1,2,0:0:0:0:
64,192,67253,1,8,0:0:0:0:
448,192,67435,1,2,0:0:0:0:
448,192,67798,1,2,0:0:0:0:
64,192,67980,1,8,0:0:0:0:
448,192,67980,128,0,68344:0:0:0:0:
320,192,68162,128,0,68344:0:0:0:0:
64,192,68344,1,4,0:0:0:0:
192,192,68344,128,2,69798:0:0:0:0:
448,192,68707,1,8,0:0:0:0:
64,192,68980,1,2,0:0:0:0:
64,192,69253,1,2,0:0:0:0:
320,192,69435,128,8,69798:0:0:0:0:
448,192,69435,1,0,0:0:0:0:
64,192,69798,128,2,71253:0:0:0:0:
448,192,69798,1,4,0:0:0:0:
192,192,69980,1,0,0:0:0:0:
448,192,70162,1,0,0:0:0:0:
320,192,70344,1,0,0:0:0:0:
448,192,70525,128,0,70768:0:0:0:70:tom01.wav
320,192,70647,128,0,70889:0:0:0:70:tom02.wav
192,192,70768,128,0,70889:0:0:0:70:tom03.wav
448,192,70889,128,0,71071:0:0:0:70:tom04.wav
192,192,71071,128,0,71253:0:0:0:0:
320,192,71253,1,4,0:0:0:0:
448,192,71253,128,2,72707:0:0:0:0:
64,192,71616,1,8,0:0:0:0:
64,192,71980,1,8,0:0:0:0:
64,192,72344,1,8,0:0:0:0:
192,192,72344,128,0,72707:0:0:0:0:
64,192,72707,1,8,0:0:0:0:
320,192,72707,128,0,73798:0:0:0:0:
448,192,73071,1,8,0:0:0:0:
448,192,73435,1,8,0:0:0:0:
192,192,73798,128,8,74162:0:0:0:0:
448,192,73798,1,0,0:0:0:0:
320,192,73980,128,8,74162:0:0:0:0:
64,192,74162,128,4,75616:0:0:0:0:
448,192,74162,1,2,0:0:0:0:
448,192,74525,1,8,0:0:0:0:
448,192,74889,1,8,0:0:0:0:
320,192,75253,128,8,75616:0:0:0:0:
448,192,75253,1,0,0:0:0:0:
192,192,75616,128,8,77071:0:0:0:0:
448,192,75616,1,0,0:0:0:0:
64,192,75980,1,8,0:0:0:0:
64,192,76344,1,8,0:0:0:0:
320,192,76525,128,8,76616:0:0:0:0:
64,192,76707,1,0,0:0:0:0:
448,192,76707,128,0,76798:0:0:0:0:
448,192,76889,128,0,76980:0:0:0:0:
320,192,77071,128,10,77162:0:0:0:0:
448,192,77071,128,4,77707:0:0:0:0:
192,192,77162,128,8,77253:0:0:0:0:
64,192,77253,128,8,77344:0:0:0:0:
320,192,77344,128,8,77435:0:0:0:0:
64,192,77435,128,8,77525:0:0:0:0:
192,192,77525,128,8,77616:0:0:0:0:
320,192,77616,128,8,77707:0:0:0:0:
192,192,77707,128,8,77798:0:0:0:0:
64,192,77798,128,6,78435:0:0:0:0:
448,192,77798,128,8,77889:0:0:0:0:
320,192,77889,128,8,77980:0:0:0:0:
192,192,77980,128,8,78071:0:0:0:0:
448,192,78071,128,8,78162:0:0:0:0:
192,192,78162,128,8,78253:0:0:0:0:
320,192,78253,128,8,78344:0:0:0:0:
448,192,78344,128,8,78435:0:0:0:0:
192,192,78435,128,8,78525:0:0:0:0:
64,192,78525,128,6,78616:0:0:0:0:
448,192,78525,128,8,79162:0:0:0:0:
192,192,78616,128,8,78707:0:0:0:0:
320,192,78707,128,8,78798:0:0:0:0:
64,192,78798,128,8,78889:0:0:0:0:
320,192,78889,128,8,78980:0:0:0:0:
192,192,78980,128,8,79071:0:0:0:0:
64,192,79071,128,8,79162:0:0:0:0:
320,192,79162,128,8,79253:0:0:0:0:
64,192,79253,128,6,79616:0:0:0:0:
448,192,79253,128,8,79344:0:0:0:0:
320,192,79344,128,8,79435:0:0:0:0:
192,192,79435,128,8,79525:0:0:0:0:
448,192,79525,128,8,79616:0:0:0:0:
320,192,79616,128,0,79798:0:0:0:0:
64,192,79980,128,10,80253:0:0:0:0:
448,192,79980,128,4,80071:0:0:0:0:
320,192,80071,128,8,80162:0:0:0:0:
192,192,80162,128,8,80253:0:0:0:0:
448,192,80253,128,8,80344:0:0:0:0:
64,192,80344,128,12,80616:0:0:0:0:
192,192,80344,128,2,80435:0:0:0:0:
320,192,80435,128,8,80525:0:0:0:0:
448,192,80525,128,8,80616:0:0:0:0:
192,192,80616,128,8,80707:0:0:0:0:
320,192,80707,128,10,80798:0:0:0:0:
448,192,80707,128,4,80980:0:0:0:0:
192,192,80798,128,8,80889:0:0:0:0:
64,192,80889,128,8,80980:0:0:0:0:
320,192,80980,128,8,81071:0:0:0:0:
64,192,81071,128,10,81162:0:0:0:0:
448,192,81071,128,4,81344:0:0:0:0:
192,192,81162,128,8,81253:0:0:0:0:
320,192,81253,128,8,81344:0:0:0:0:
64,192,81344,128,8,81435:0:0:0:0:
448,192,81435,128,6,82525:0:0:0:0:
320,192,81616,1,8,0:0:0:0:
320,192,81798,128,8,82525:0:0:0:0:
192,192,81980,1,8,0:0:0:0:
192,192,82162,128,0,82525:0:0:0:70:tom01.wav
64,192,82525,128,0,82889:0:0:0:70:tom04.wav
448,192,82889,128,2,83253:0:0:0:0:
64,192,83253,128,2,83344:0:0:0:0:
320,192,83253,128,4,83525:0:0:0:0:
64,192,83435,128,0,83616:0:0:0:0:
192,192,83435,1,0,0:0:0:0:
192,192,83616,128,2,83707:0:0:0:0:
448,192,83616,128,0,83889:0:0:0:0:
192,192,83798,128,0,83980:0:0:0:0:
320,192,83798,1,0,0:0:0:0:
64,192,83980,128,2,84253:0:0:0:0:
320,192,83980,128,0,84071:0:0:0:0:
320,192,84162,128,0,84344:0:0:0:0:
448,192,84162,1,0,0:0:0:0:
64,192,84344,1,2,0:0:0:0:
192,192,84344,128,0,84616:0:0:0:0:
448,192,84525,128,0,84707:0:0:0:0:
64,192,84707,128,2,84980:0:0:0:0:
192,192,84707,1,0,0:0:0:0:
320,192,84889,128,0,85071:0:0:0:0:
64,192,85071,1,2,0:0:0:0:
448,192,85071,128,0,85344:0:0:0:0:
192,192,85253,128,0,85435:0:0:0:0:
320,192,85435,128,2,85707:0:0:0:0:
448,192,85435,128,0,85707:0:0:0:0:
64,192,85616,128,0,85798:0:0:0:0:
320,192,85798,128,2,86071:0:0:0:0:
448,192,85798,1,0,0:0:0:0:
64,192,85980,128,0,86162:0:0:0:0:
320,192,86162,128,2,86435:0:0:0:0:
448,192,86162,1,0,0:0:0:0:
64,192,86344,128,0,86525:0:0:0:0:
192,192,86344,128,0,86525:0:0:0:0:
320,192,86525,1,2,0:0:0:0:
448,192,86525,128,0,86798:0:0:0:0:
192,192,86707,128,0,86889:0:0:0:0:
320,192,86707,128,0,86889:0:0:0:0:
64,192,86889,128,2,87162:0:0:0:0:
448,192,86889,1,0,0:0:0:0:
320,192,87071,128,0,87253:0:0:0:0:
448,192,87071,128,0,87253:0:0:0:0:
64,192,87253,1,4,0:0:0:0:
192,192,87253,128,2,87525:0:0:0:0:
448,192,87435,128,0,87616:0:0:0:0:
64,192,87616,128,0,87889:0:0:0:0:
192,192,87616,1,0,0:0:0:0:
320,192,87798,128,0,87980:0:0:0:0:
64,192,87980,1,0,0:0:0:0:
448,192,87980,128,0,88253:0:0:0:0:
192,192,88162,128,0,88344:0:0:0:0:
320,192,88344,128,0,88616:0:0:0:0:
448,192,88344,1,0,0:0:0:0:
64,192,88525,128,0,88707:0:0:0:0:
192,192,88707,1,4,0:0:0:0:
320,192,88707,128,2,89071:0:0:0:0:
192,192,89071,128,2,89344:0:0:0:0:
448,192,89071,128,0,89162:0:0:0:0:
320,192,89253,1,0,0:0:0:0:
448,192,89253,128,0,89435:0:0:0:0:
64,192,89435,128,2,89707:0:0:0:0:
320,192,89435,128,0,89525:0:0:0:0:
192,192,89616,1,0,0:0:0:0:
320,192,89616,128,0,89798:0:0:0:0:
192,192,89798,128,2,89889:0:0:0:0:
448,192,89798,128,0,90071:0:0:0:0:
64,192,89980,1,0,0:0:0:0:
192,192,89980,128,0,90162:0:0:0:0:
320,192,90162,128,2,90435:0:0:0:0:
448,192,90162,1,0,0:0:0:0:
64,192,90344,128,0,90525:0:0:0:0:
320,192,90525,1,2,0:0:0:0:
448,192,90525,128,0,90798:0:0:0:0:
192,192,90707,128,0,90889:0:0:0:0:
64,192,90889,128,2,91162:0:0:0:0:
448,192,90889,1,0,0:0:0:0:
320,192,91071,128,0,91253:0:0:0:0:
64,192,91253,128,2,91525:0:0:0:0:
192,192,91253,128,0,91525:0:0:0:0:
448,192,91435,128,0,91616:0:0:0:0:
64,192,91616,128,2,91889:0:0:0:0:
192,192,91616,1,0,0:0:0:0:
320,192,91798,128,0,91980:0:0:0:0:
64,192,91980,128,2,92253:0:0:0:0:
192,192,91980,1,0,0:0:0:0:
448,192,92162,128,0,92344:0:0:0:0:
64,192,92344,128,2,92616:0:0:0:0:
320,192,92344,128,0,92435:0:0:0:0:
192,192,92525,1,0,0:0:0:0:
320,192,92525,128,0,92707:0:0:0:0:
192,192,92707,128,2,93071:0:0:0:0:
448,192,92707,128,0,92798:0:0:0:0:
320,192,92889,1,0,0:0:0:0:
448,192,92889,128,0,93071:0:0:0:0:
64,192,93071,128,4,93344:0:0:0:0:
320,192,93071,128,2,93344:0:0:0:0:
64,192,93435,128,4,93707:0:0:0:0:
320,192,93435,128,2,93707:0:0:0:0:
192,192,93798,128,4,94071:0:0:0:0:
448,192,93798,128,2,94071:0:0:0:0:
192,192,94162,1,0,0:0:0:70:VEC4 Snares 151.wav
320,192,94253,1,0,0:0:0:0:
192,192,94344,1,0,0:0:0:0:
320,192,94435,1,0,0:0:0:0:
64,192,94525,128,2,94889:0:0:0:0:
448,192,94525,128,4,94889:0:0:0:0:
320,192,94889,128,0,95616:0:0:0:0:
192,192,95071,128,0,95435:0:0:0:0:
64,192,95253,128,0,95798:0:0:0:0:
448,192,95435,128,0,95798:0:0:0:0:
192,192,95616,128,0,95980:0:0:0:0:
320,192,95798,128,0,95980:0:0:0:0:
64,192,95980,128,4,96707:0:0:0:0:
448,192,95980,1,2,0:0:0:0:
192,192,96162,1,0,0:0:0:0:
192,192,96344,128,0,97071:0:0:0:0:
320,192,96525,1,0,0:0:0:0:
320,192,96707,128,0,97071:0:0:0:70:tom01.wav
64,192,96889,1,0,0:0:0:0:
448,192,97071,1,0,0:0:0:70:tom02.wav
448,192,97253,1,0,0:0:0:0:
64,192,97435,128,2,97798:0:0:0:0:
320,192,97435,128,4,97616:0:0:0:0:
448,192,97616,128,0,97798:0:0:0:0:
192,192,97798,128,2,97980:0:0:0:0:
320,192,97889,128,0,97980:0:0:0:0:
64,192,97980,128,0,98162:0:0:0:0:
192,192,98071,128,0,98162:0:0:0:0:
320,192,98162,128,2,98525:0:0:0:0:
448,192,98162,128,0,98344:0:0:0:0:
64,192,98344,128,0,98435:0:0:0:0:
192,192,98344,128,0,98435:0:0:0:0:
64,192,98525,128,2,98889:0:0:0:0:
448,192,98525,128,0,98707:0:0:0:0:
192,192,98707,128,0,98798:0:0:0:0:
320,192,98707,128,0,98798:0:0:0:0:
320,192,98889,128,2,99071:0:0:0:0:
448,192,98889,128,4,99253:0:0:0:0:
192,192,99253,128,0,99435:0:0:0:0:
320,192,99313,128,0,99435:0:0:0:0:
448,192,99374,128,0,99435:0:0:0:0:
64,192,99435,128,0,99980:0:0:0:0:
448,192,99616,128,0,99980:0:0:0:0:
320,192,99798,1,0,0:0:0:0:
192,192,99980,1,0,0:0:0:0:
192,192,100162,1,0,0:0:0:0:
64,192,100344,128,6,100707:0:0:0:0:
448,192,100344,128,8,100616:0:0:0:0:
320,192,100707,128,2,100980:0:0:0:0:
448,192,100707,1,8,0:0:0:0:
64,192,100889,128,0,100980:0:0:0:0:
192,192,100889,128,0,100980:0:0:0:0:
192,192,101071,128,2,101344:0:0:0:0:
320,192,101071,1,8,0:0:0:0:
320,192,101253,128,0,101344:0:0:0:0:
448,192,101253,128,0,101344:0:0:0:0:
64,192,101435,128,2,101707:0:0:0:0:
192,192,101435,1,8,0:0:0:0:
192,192,101616,128,0,101707:0:0:0:0:
320,192,101616,128,0,101707:0:0:0:0:
64,192,101798,1,2,0:0:0:0:
192,192,101798,128,8,102071:0:0:0:0:
448,192,101980,128,0,102162:0:0:0:0:
192,192,102162,1,2,0:0:0:0:
320,192,102162,128,8,102435:0:0:0:0:
64,192,102344,128,0,102525:0:0:0:0:
320,192,102525,1,2,0:0:0:0:
448,192,102525,128,8,102798:0:0:0:0:
192,192,102707,128,0,102889:0:0:0:0:
64,192,102889,128,2,103162:0:0:0:0:
448,192,102889,128,8,103162:0:0:0:0:
64,192,103253,128,12,103525:0:0:0:0:
448,192,103253,1,2,0:0:0:0:
320,192,103435,128,8,103616:0:0:0:0:
64,192,103616,1,2,0:0:0:0:
192,192,103616,128,8,103889:0:0:0:0:
448,192,103798,128,8,103980:0:0:0:0:
64,192,103980,128,12,104071:0:0:0:0:
192,192,103980,128,2,104162:0:0:0:0:
320,192,104071,128,8,104253:0:0:0:0:
448,192,104162,128,8,104344:0:0:0:0:
64,192,104253,128,8,104435:0:0:0:0:
192,192,104344,128,8,104525:0:0:0:0:
320,192,104435,128,8,104616:0:0:0:0:
448,192,104525,128,8,104707:0:0:0:0:
64,192,104616,128,8,104707:0:0:0:0:
192,192,104707,1,2,0:0:0:0:
320,192,104707,128,4,104980:0:0:0:0:
448,192,104889,128,0,104980:0:0:0:0:
64,192,105071,1,4,0:0:0:0:
192,192,105071,128,2,105344:0:0:0:0:
320,192,105253,128,0,105344:0:0:0:0:
64,192,105435,1,2,0:0:0:0:
448,192,105435,128,4,105707:0:0:0:0:
192,192,105616,128,0,105707:0:0:0:0:
192,192,105798,128,0,106071:0:0:0:70:electronic13.wav
448,192,105798,128,0,106071:0:0:0:0:
64,192,106162,128,6,106344:0:0:0:0:
448,192,106162,128,8,106525:0:0:0:0:
192,192,106344,128,0,106435:0:0:0:0:
320,192,106344,128,0,106435:0:0:0:0:
64,192,106525,1,2,0:0:0:0:
192,192,106525,128,8,106889:0:0:0:0:
320,192,106707,128,0,106798:0:0:0:0:
448,192,106707,128,0,106798:0:0:0:0:
64,192,106889,128,2,107071:0:0:0:0:
448,192,106889,128,8,107253:0:0:0:0:
192,192,107071,128,0,107162:0:0:0:0:
320,192,107071,128,0,107162:0:0:0:0:
64,192,107253,1,2,0:0:0:0:
192,192,107253,128,8,107616:0:0:0:0:
320,192,107435,128,0,107525:0:0:0:0:
448,192,107435,128,0,107525:0:0:0:0:
64,192,107616,128,2,107798:0:0:0:0:
448,192,107616,128,8,107980:0:0:0:0:
192,192,107798,128,0,107889:0:0:0:0:
320,192,107798,128,0,107889:0:0:0:0:
64,192,107980,1,2,0:0:0:0:
192,192,107980,128,8,108344:0:0:0:0:
320,192,108162,128,0,108253:0:0:0:0:
448,192,108162,128,0,108253:0:0:0:0:
64,192,108344,128,2,108525:0:0:0:0:
448,192,108344,128,8,108707:0:0:0:0:
192,192,108525,128,0,108616:0:0:0:0:
320,192,108525,128,0,108616:0:0:0:0:
64,192,108707,1,2,0:0:0:0:
192,192,108707,128,8,109071:0:0:0:0:
320,192,108889,128,8,108980:0:0:0:0:
448,192,108889,128,0,108980:0:0:0:0:
320,192,109071,128,8,109435:0:0:0:0:
448,192,109071,128,2,109253:0:0:0:0:
64,192,109253,128,0,109344:0:0:0:0:
192,192,109253,128,0,109344:0:0:0:0:
64,192,109435,128,8,109798:0:0:0:0:
448,192,109435,1,2,0:0:0:0:
192,192,109616,128,0,109707:0:0:0:0:
320,192,109616,128,0,109707:0:0:0:0:
320,192,109798,128,8,110162:0:0:0:0:
448,192,109798,128,2,109980:0:0:0:0:
64,192,109980,128,0,110071:0:0:0:0:
192,192,109980,128,0,110071:0:0:0:0:
64,192,110162,128,8,110525:0:0:0:0:
448,192,110162,1,2,0:0:0:0:
192,192,110344,128,0,110435:0:0:0:0:
320,192,110344,128,0,110435:0:0:0:0:
320,192,110525,128,10,110889:0:0:0:0:
448,192,110525,128,4,110707:0:0:0:0:
64,192,110707,128,0,110798:0:0:0:0:
192,192,110889,128,8,111253:0:0:0:0:
320,192,111071,128,0,111162:0:0:0:0:
64,192,111253,128,8,111616:0:0:0:0:
448,192,111253,128,0,111435:0:0:0:0:
192,192,111435,128,0,111525:0:0:0:0:
192,192,111616,1,0,0:0:0:70:VEC4 Snares 151.wav
448,192,111616,1,0,0:0:0:0:
64,192,111980,128,6,112253:0:0:0:0:
448,192,111980,128,8,112071:0:0:0:0:
320,192,112071,128,8,112162:0:0:0:0:
192,192,112162,128,8,112253:0:0:0:0:
448,192,112253,128,8,112344:0:0:0:0:
192,192,112344,128,8,112435:0:0:0:0:
320,192,112435,128,8,112525:0:0:0:0:
448,192,112525,128,8,112616:0:0:0:0:
192,192,112616,128,8,112707:0:0:0:0:
64,192,112707,128,12,112980:0:0:0:0:
448,192,112707,128,2,112798:0:0:0:0:
320,192,112798,128,8,112889:0:0:0:0:
192,192,112889,128,8,112980:0:0:0:0:
448,192,112980,128,8,113071:0:0:0:0:
192,192,113071,128,8,113162:0:0:0:0:
320,192,113162,128,8,113253:0:0:0:0:
448,192,113253,128,8,113344:0:0:0:0:
192,192,113344,128,8,113435:0:0:0:0:
320,192,113435,128,10,113525:0:0:0:0:
448,192,113435,128,4,113707:0:0:0:0:
192,192,113525,128,8,113616:0:0:0:0:
64,192,113616,128,8,113707:0:0:0:0:
320,192,113707,128,8,113798:0:0:0:0:
64,192,113798,128,8,113889:0:0:0:0:
192,192,113889,128,8,113980:0:0:0:0:
320,192,113980,128,8,114071:0:0:0:0:
64,192,114071,128,8,114162:0:0:0:0:
320,192,114162,128,12,114253:0:0:0:0:
448,192,114162,128,2,114435:0:0:0:0:
192,192,114253,128,8,114344:0:0:0:0:
64,192,114344,128,8,114435:0:0:0:0:
320,192,114435,128,8,114525:0:0:0:0:
192,192,114525,128,0,114707:0:0:0:0:
64,192,114889,128,6,115162:0:0:0:0:
448,192,114889,128,8,115071:0:0:0:0:
320,192,114980,128,8,115071:0:0:0:0:
192,192,115071,128,8,115253:0:0:0:0:
320,192,115162,128,8,115253:0:0:0:0:
64,192,115253,128,6,115435:0:0:0:0:
448,192,115253,128,8,115525:0:0:0:0:
192,192,115344,128,8,115435:0:0:0:0:
320,192,115435,128,8,115616:0:0:0:0:
192,192,115525,128,8,115616:0:0:0:0:
64,192,115616,128,6,115889:0:0:0:0:
448,192,115616,128,8,115798:0:0:0:0:
320,192,115707,128,8,115798:0:0:0:0:
192,192,115798,128,8,115980:0:0:0:0:
320,192,115889,128,8,115980:0:0:0:0:
64,192,115980,128,6,116162:0:0:0:0:
448,192,115980,128,8,116253:0:0:0:0:
192,192,116071,128,8,116162:0:0:0:0:
320,192,116162,128,8,116344:0:0:0:0:
192,192,116253,128,8,116344:0:0:0:0:
64,192,116344,1,2,0:0:0:0:
448,192,116344,128,4,117071:0:0:0:0:
192,192,116525,1,8,0:0:0:0:
64,192,116707,128,8,117313:0:0:0:0:
192,192,116889,1,8,0:0:0:0:
192,192,117071,128,0,117313:0:0:0:70:tom01.wav
320,192,117192,128,0,117435:0:0:0:70:tom02.wav
448,192,117313,128,0,117435:0:0:0:70:tom03.wav
64,192,117435,128,0,117798:0:0:0:70:VEC4 Snares 151.wav
192,192,117435,128,0,117798:0:0:0:0:
320,192,117798,1,2,0:0:0:0:
448,192,117798,1,4,0:0:0:0:
