osu file format v14

[General]
AudioFilename: audio.mp3
AudioLeadIn: 0
PreviewTime: 79980
Countdown: 0
SampleSet: Normal
StackLeniency: 0.7
Mode: 3
LetterboxInBreaks: 0
SpecialStyle: 0
WidescreenStoryboard: 1

[Editor]
DistanceSpacing: 1.5
BeatDivisor: 4
GridSize: 16
TimelineZoom: 1.6

[Metadata]
Title:Chakra
TitleUnicode:Chakra
Artist:uma
ArtistUnicode:uma
Creator:Shima Rin
Version:ADVANCED
Source:SOUND VOLTEX EXCEED GEAR
Tags:Tofu1222 ExNeko Muse Dash FAMoss リリック・リシュナ Lyric Rishuna SDVX 6 VI 制作決定記念 キャラクターテーマ楽曲コンテスト BEMANI Rhythm Video Game Electronic Instrumental
BeatmapID:3146408
BeatmapSetID:1494300

[Difficulty]
HPDrainRate:7
CircleSize:4
OverallDifficulty:7
ApproachRate:5
SliderMultiplier:1.4
SliderTickRate:1

[Events]
//Background and Video events
0,0,"BG.png",0,0
//Break Periods
//Storyboard Layer 0 (Background)
//Storyboard Layer 1 (Fail)
//Storyboard Layer 2 (Pass)
//Storyboard Layer 3 (Foreground)
//Storyboard Layer 4 (Overlay)
//Storyboard Sound Samples

[TimingPoints]
1435,363.636363636364,4,2,1,70,1,0
36707,-100.0,4,2,1,70,0,1
45071,-100.0,4,2,1,70,0,0
48344,-100.0,4,2,1,70,0,1
58162,-100.0,4,2,1,70,0,0
83253,-100.0,4,2,1,70,0,1
94162,-100.0,4,2,1,70,0,0
97435,-100.0,4,2,1,70,0,1
105798,-100.0,4,2,1,70,0,0

[HitObjects]
64,192,1435,1,0,0:0:0:70:FX_IntroKick.wav
320,192,1435,1,0,0:0:0:0:
448,192,1435,1,0,0:0:0:0:
192,192,1616,1,0,0:0:0:0:
320,192,1798,1,0,0:0:0:0:
192,192,1980,1,0,0:0:0:0:
64,192,2162,1,0,0:0:0:0:
192,192,2525,1,0,0:0:0:0:
448,192,2889,1,0,0:0:0:0:
320,192,3071,1,0,0:0:0:0:
192,192,3253,1,0,0:0:0:0:
320,192,3435,1,0,0:0:0:0:
448,192,3616,1,0,0:0:0:0:
320,192,3798,1,0,0:0:0:0:
192,192,3980,1,0,0:0:0:0:
320,192,4525,1,0,0:0:0:0:
192,192,4707,1,0,0:0:0:0:
320,192,4889,1,0,0:0:0:0:
448,192,5071,1,0,0:0:0:0:
320,192,5435,1,0,0:0:0:0:
64,192,5798,1,0,0:0:0:0:
192,192,5980,1,0,0:0:0:0:
320,192,6162,1,0,0:0:0:0:
192,192,6344,1,0,0:0:0:0:
64,192,6525,1,0,0:0:0:0:
192,192,6707,1,0,0:0:0:70:loud3.wav
448,192,6707,1,0,0:0:0:0:
320,192,6889,1,0,0:0:0:0:
64,192,7253,1,0,0:0:0:70:FX_IntroKick.wav
192,192,7253,1,0,0:0:0:0:
448,192,7253,1,0,0:0:0:0:
320,192,7435,1,0,0:0:0:0:
192,192,7616,1,0,0:0:0:0:
320,192,7798,1,0,0:0:0:0:
448,192,7980,1,0,0:0:0:0:
320,192,8344,1,0,0:0:0:0:
64,192,8707,1,0,0:0:0:0:
192,192,8889,1,0,0:0:0:0:
320,192,9071,1,0,0:0:0:0:
192,192,9253,1,0,0:0:0:0:
64,192,9435,1,0,0:0:0:0:
192,192,9616,1,0,0:0:0:0:
320,192,9798,1,0,0:0:0:0:
192,192,10344,1,0,0:0:0:0:
320,192,10525,1,0,0:0:0:0:
192,192,10707,1,0,0:0:0:0:
64,192,10889,1,0,0:0:0:0:
192,192,11253,1,0,0:0:0:0:
448,192,11616,1,0,0:0:0:0:
320,192,11798,1,0,0:0:0:0:
192,192,11980,1,0,0:0:0:0:
320,192,12162,1,0,0:0:0:0:
448,192,12344,1,0,0:0:0:0:
320,192,12525,1,0,0:0:0:0:
64,192,12707,1,0,0:0:0:70:loud3.wav
192,192,12707,1,0,0:0:0:0:
320,192,12828,1,0,0:0:0:50:electronic13.wav
448,192,12828,1,0,0:0:0:0:
192,192,12950,1,0,0:0:0:70:loud3.wav
64,192,13071,1,0,0:0:0:70:FX_IntroKick.wav
320,192,13071,128,0,13435:0:0:0:0:
448,192,13071,1,0,0:0:0:0:
192,192,13435,128,0,14162:0:0:0:50:electronic13.wav
448,192,13435,1,0,0:0:0:0:
320,192,13798,1,0,0:0:0:0:
64,192,14162,1,0,0:0:0:0:
448,192,14162,1,0,0:0:0:0:
320,192,14344,1,0,0:0:0:0:
64,192,14525,1,0,0:0:0:0:
192,192,14525,128,0,15616:0:0:0:0:
448,192,14889,1,0,0:0:0:0:
64,192,15253,1,0,0:0:0:50:electronic13.wav
448,192,15253,1,0,0:0:0:0:
320,192,15525,1,0,0:0:0:50:electronic13.wav
64,192,15616,1,0,0:0:0:0:
448,192,15616,128,0,15980:0:0:0:0:
320,192,15798,1,0,0:0:0:50:electronic13.wav
64,192,15980,128,0,16344:0:0:0:50:electronic13.wav
192,192,15980,1,0,0:0:0:0:
192,192,16344,128,0,16707:0:0:0:0:
320,192,16344,1,0,0:0:0:0:
64,192,16525,1,0,0:0:0:50:electronic13.wav
320,192,16707,128,0,17253:0:0:0:0:
448,192,16707,1,0,0:0:0:0:
192,192,17071,1,0,0:0:0:0:
64,192,17253,1,0,0:0:0:0:
192,192,17435,128,0,18162:0:0:0:0:
448,192,17435,1,0,0:0:0:0:
320,192,17616,1,0,0:0:0:50:electronic13.wav
64,192,17798,1,0,0:0:0:0:
320,192,18162,128,0,18525:0:0:0:50:electronic13.wav
448,192,18162,1,0,0:0:0:0:
64,192,18525,1,0,0:0:0:50:electronic13.wav
192,192,18525,128,0,18889:0:0:0:0:
64,192,18889,128,0,19253:0:0:0:50:electronic13.wav
320,192,18889,1,0,0:0:0:0:
192,192,19253,128,0,19616:0:0:0:50:electronic13.wav
448,192,19253,1,0,0:0:0:0:
64,192,19616,1,0,0:0:0:0:
320,192,19616,128,0,20162:0:0:0:0:
192,192,19980,1,0,0:0:0:0:
64,192,20162,1,0,0:0:0:0:
192,192,20344,128,0,21071:0:0:0:0:
448,192,20344,1,0,0:0:0:0:
320,192,20525,1,0,0:0:0:50:electronic13.wav
64,192,20707,1,0,0:0:0:50:electronic13.wav
320,192,21071,1,0,0:0:0:50:electronic13.wav
448,192,21071,1,0,0:0:0:0:
192,192,21344,1,0,0:0:0:50:electronic13.wav
320,192,21344,1,0,0:0:0:0:
448,192,21435,1,0,0:0:0:0:
64,192,21616,1,0,0:0:0:50:electronic13.wav
192,192,21616,1,0,0:0:0:0:
320,192,21798,1,0,0:0:0:50:electronic13.wav
448,192,21798,128,0,22889:0:0:0:0:
64,192,22162,1,0,0:0:0:0:
192,192,22344,1,0,0:0:0:50:electronic13.wav
320,192,22525,1,0,0:0:0:0:
64,192,22889,1,0,0:0:0:0:
320,192,23071,1,0,0:0:0:0:
64,192,23253,128,2,24344:0:0:0:0:
192,192,23253,1,0,0:0:0:0:
320,192,24344,1,0,0:0:0:0:
192,192,24435,1,0,0:0:0:0:
320,192,24525,1,0,0:0:0:0:
192,192,24616,1,0,0:0:0:0:
64,192,24707,1,2,0:0:0:0:
320,192,24707,1,4,0:0:0:0:
448,192,24707,1,0,0:0:0:0:
320,192,25071,1,8,0:0:0:0:
448,192,25071,1,0,0:0:0:0:
320,192,25435,1,8,0:0:0:0:
448,192,25435,1,0,0:0:0:0:
320,192,25798,1,8,0:0:0:0:
448,192,25798,1,0,0:0:0:0:
64,192,26162,1,8,0:0:0:0:
192,192,26162,1,0,0:0:0:0:
448,192,26435,1,0,0:0:0:0:
64,192,26525,1,8,0:0:0:0:
192,192,26525,1,0,0:0:0:0:
320,192,26707,1,0,0:0:0:0:
64,192,26889,1,8,0:0:0:0:
192,192,26889,1,0,0:0:0:0:
320,192,27071,1,0,0:0:0:0:
448,192,27071,1,0,0:0:0:0:
64,192,27253,1,8,0:0:0:0:
192,192,27253,1,0,0:0:0:0:
64,192,27435,1,8,0:0:0:0:
192,192,27435,1,0,0:0:0:0:
64,192,27616,1,2,0:0:0:0:
320,192,27616,1,4,0:0:0:0:
448,192,27616,1,0,0:0:0:0:
320,192,27980,1,8,0:0:0:0:
448,192,27980,1,0,0:0:0:0:
320,192,28344,1,8,0:0:0:0:
448,192,28344,1,0,0:0:0:0:
320,192,28707,1,8,0:0:0:0:
448,192,28707,1,0,0:0:0:0:
64,192,28889,1,0,0:0:0:0:
320,192,28980,1,0,0:0:0:0:
64,192,29071,1,8,0:0:0:0:
192,192,29071,1,0,0:0:0:0:
448,192,29344,1,0,0:0:0:0:
64,192,29435,1,8,0:0:0:0:
192,192,29435,1,0,0:0:0:0:
320,192,29616,1,0,0:0:0:0:
64,192,29798,1,8,0:0:0:0:
192,192,29798,1,0,0:0:0:0:
64,192,29980,1,8,0:0:0:0:
192,192,29980,1,0,0:0:0:0:
320,192,30162,128,0,30525:0:0:0:0:
448,192,30162,1,0,0:0:0:0:
64,192,30525,1,4,0:0:0:0:
192,192,30525,1,2,0:0:0:0:
448,192,30525,1,8,0:0:0:0:
320,192,30616,1,8,0:0:0:0:
192,192,30707,1,8,0:0:0:0:
448,192,30798,1,8,0:0:0:0:
64,192,30889,1,8,0:0:0:0:
320,192,30980,1,8,0:0:0:0:
192,192,31071,1,8,0:0:0:0:
448,192,31162,1,8,0:0:0:0:
64,192,31253,1,12,0:0:0:0:
320,192,31253,1,2,0:0:0:0:
192,192,31344,1,8,0:0:0:0:
448,192,31435,1,8,0:0:0:0:
64,192,31525,1,8,0:0:0:0:
320,192,31616,1,8,0:0:0:0:
192,192,31707,1,8,0:0:0:0:
448,192,31798,1,8,0:0:0:0:
64,192,31889,1,8,0:0:0:0:
192,192,31980,1,10,0:0:0:0:
320,192,31980,1,4,0:0:0:0:
448,192,32071,1,8,0:0:0:0:
64,192,32162,1,8,0:0:0:0:
320,192,32253,1,8,0:0:0:0:
192,192,32344,1,8,0:0:0:0:
448,192,32435,1,8,0:0:0:0:
64,192,32525,1,8,0:0:0:0:
320,192,32616,1,8,0:0:0:0:
192,192,32707,1,12,0:0:0:0:
448,192,32707,1,2,0:0:0:0:
64,192,32798,1,8,0:0:0:0:
320,192,32889,1,8,0:0:0:0:
192,192,32980,1,8,0:0:0:0:
448,192,33071,128,0,33253:0:0:0:0:
64,192,33435,1,6,0:0:0:0:
192,192,33435,1,8,0:0:0:0:
320,192,33525,1,8,0:0:0:0:
448,192,33616,1,8,0:0:0:0:
64,192,33707,1,8,0:0:0:0:
192,192,33798,1,6,0:0:0:0:
320,192,33798,1,8,0:0:0:0:
448,192,33889,1,8,0:0:0:0:
64,192,33980,1,8,0:0:0:0:
192,192,34071,1,8,0:0:0:0:
320,192,34162,1,6,0:0:0:0:
448,192,34162,1,8,0:0:0:0:
64,192,34253,1,8,0:0:0:0:
192,192,34344,1,8,0:0:0:0:
320,192,34435,1,8,0:0:0:0:
64,192,34525,1,6,0:0:0:0:
448,192,34525,1,8,0:0:0:0:
192,192,34616,1,8,0:0:0:0:
320,192,34707,1,8,0:0:0:0:
448,192,34798,1,8,0:0:0:0:
64,192,34889,128,2,35253:0:0:0:0:
192,192,34889,1,4,0:0:0:0:
448,192,35253,128,8,35616:0:0:0:0:
320,192,35435,1,8,0:0:0:0:
64,192,35616,1,0,0:0:0:70:tom01.wav
192,192,35616,128,0,36344:0:0:0:0:
320,192,35738,1,0,0:0:0:70:tom02.wav
448,192,35859,1,0,0:0:0:70:tom03.wav
64,192,35980,1,0,0:0:0:70:tom04.wav
320,192,36162,1,0,0:0:0:0:
64,192,36344,1,2,0:0:0:0:
448,192,36344,128,0,36707:0:0:0:0:
64,192,36707,1,4,0:0:0:0:
192,192,36707,1,2,0:0:0:0:
320,192,36707,1,0,0:0:0:0:
64,192,36889,1,0,0:0:0:0:
192,192,37071,1,2,0:0:0:0:
448,192,37071,1,0,0:0:0:0:
64,192,37253,1,0,0:0:0:0:
192,192,37344,1,0,0:0:0:0:
320,192,37435,1,2,0:0:0:0:
448,192,37435,1,0,0:0:0:0:
64,192,37525,1,0,0:0:0:0:
192,192,37616,1,0,0:0:0:0:
64,192,37707,1,0,0:0:0:0:
192,192,37798,1,2,0:0:0:0:
320,192,37798,1,0,0:0:0:0:
448,192,37980,1,0,0:0:0:0:
320,192,38071,1,0,0:0:0:0:
64,192,38162,1,2,0:0:0:0:
192,192,38162,1,0,0:0:0:0:
448,192,38253,1,0,0:0:0:0:
320,192,38344,1,0,0:0:0:0:
448,192,38435,1,0,0:0:0:0:
192,192,38525,1,2,0:0:0:0:
320,192,38525,1,0,0:0:0:0:
64,192,38707,1,0,0:0:0:0:
320,192,38889,1,2,0:0:0:0:
448,192,38889,1,0,0:0:0:0:
192,192,39071,1,0,0:0:0:0:
64,192,39253,128,2,39616:0:0:0:0:
448,192,39253,1,0,0:0:0:0:
192,192,39616,1,2,0:0:0:0:
448,192,39616,1,0,0:0:0:0:
448,192,39798,1,0,0:0:0:0:
64,192,39980,1,2,0:0:0:0:
320,192,39980,1,0,0:0:0:0:
448,192,40162,1,0,0:0:0:0:
320,192,40253,1,0,0:0:0:0:
64,192,40344,1,2,0:0:0:0:
192,192,40344,1,0,0:0:0:0:
448,192,40435,1,0,0:0:0:0:
320,192,40525,1,0,0:0:0:0:
448,192,40616,1,0,0:0:0:0:
192,192,40707,1,2,0:0:0:0:
320,192,40707,1,4,0:0:0:0:
64,192,40889,1,0,0:0:0:0:
192,192,40980,1,0,0:0:0:0:
64,192,41162,1,0,0:0:0:0:
192,192,41253,1,0,0:0:0:0:
320,192,41253,1,0,0:0:0:0:
64,192,41344,1,0,0:0:0:0:
192,192,41435,1,0,0:0:0:0:
448,192,41435,1,0,0:0:0:0:
320,192,41616,1,0,0:0:0:0:
192,192,41707,1,0,0:0:0:0:
64,192,41798,1,0,0:0:0:70:VEC4 Snares 151.wav
320,192,41798,1,0,0:0:0:0:
448,192,41798,1,0,0:0:0:0:
192,192,41980,1,0,0:0:0:0:
320,192,42071,1,0,0:0:0:0:
64,192,42162,1,2,0:0:0:0:
448,192,42162,128,4,42525:0:0:0:0:
64,192,42525,1,2,0:0:0:0:
320,192,42525,1,0,0:0:0:0:
320,192,42707,1,0,0:0:0:0:
64,192,42889,1,2,0:0:0:0:
192,192,42889,1,0,0:0:0:0:
320,192,43071,1,0,0:0:0:0:
64,192,43162,1,0,0:0:0:0:
192,192,43253,1,2,0:0:0:0:
448,192,43253,1,0,0:0:0:0:
320,192,43344,1,0,0:0:0:0:
64,192,43435,1,0,0:0:0:0:
320,192,43525,1,0,0:0:0:0:
64,192,43616,1,2,0:0:0:0:
448,192,43616,1,0,0:0:0:0:
192,192,43798,1,0,0:0:0:0:
448,192,43889,1,0,0:0:0:0:
64,192,43980,1,2,0:0:0:0:
320,192,43980,1,0,0:0:0:0:
192,192,44071,1,0,0:0:0:0:
448,192,44162,1,0,0:0:0:0:
192,192,44253,1,0,0:0:0:0:
64,192,44344,1,2,0:0:0:0:
448,192,44344,1,0,0:0:0:0:
320,192,44525,1,0,0:0:0:0:
64,192,44707,1,2,0:0:0:0:
192,192,44707,1,0,0:0:0:0:
448,192,44889,1,0,0:0:0:0:
192,192,45071,1,4,0:0:0:0:
320,192,45071,1,0,0:0:0:70:amenbreak_snare2.wav
64,192,45253,1,0,0:0:0:70:amenbreak_kick1.wav
192,192,45344,1,0,0:0:0:70:amenbreak_kick1.wav
320,192,45435,1,0,0:0:0:70:amenbreak_snare2.wav
448,192,45435,1,0,0:0:0:0:
64,192,45616,1,0,0:0:0:70:amenbreak_kick1.wav
192,192,45707,1,0,0:0:0:70:amenbreak_kick1.wav
448,192,45798,1,0,0:0:0:70:amenbreak_kick1.wav
320,192,45889,1,0,0:0:0:70:amenbreak_snare2.wav
448,192,45980,1,0,0:0:0:0:
320,192,46071,1,0,0:0:0:70:amenbreak_snare2.wav
192,192,46162,1,0,0:0:0:70:amenbreak_snare2a.wav
64,192,46253,1,0,0:0:0:70:amenbreak_snare2a.wav
448,192,46344,1,0,0:0:0:70:amenbreak_snare2b.wav
320,192,46435,1,0,0:0:0:70:amenbreak_snare2b.wav
64,192,46525,128,2,46707:0:0:0:0:
192,192,46525,1,4,0:0:0:0:
64,192,46889,128,4,47071:0:0:0:0:
192,192,46889,128,2,47071:0:0:0:0:
64,192,47253,128,2,47435:0:0:0:0:
192,192,47253,128,4,47435:0:0:0:0:
320,192,47253,128,0,47435:0:0:0:0:
64,192,47616,1,0,0:0:0:70:VEC4 Snares 151.wav
448,192,47616,1,0,0:0:0:0:
192,192,47980,128,2,48344:0:0:0:0:
320,192,47980,1,0,0:0:0:0:
64,192,48344,1,2,0:0:0:0:
320,192,48344,1,4,0:0:0:0:
448,192,48344,1,0,0:0:0:0:
448,192,48525,1,0,0:0:0:0:
64,192,48707,1,2,0:0:0:0:
320,192,48707,1,0,0:0:0:0:
192,192,48889,1,0,0:0:0:0:
192,192,48980,1,0,0:0:0:0:
320,192,49071,1,2,0:0:0:0:
448,192,49071,1,0,0:0:0:0:
64,192,49162,1,0,0:0:0:0:
192,192,49253,1,0,0:0:0:0:
64,192,49344,1,0,0:0:0:0:
192,192,49435,1,2,0:0:0:0:
448,192,49435,1,0,0:0:0:0:
320,192,49616,1,0,0:0:0:0:
320,192,49707,1,0,0:0:0:0:
64,192,49798,1,2,0:0:0:0:
192,192,49798,1,0,0:0:0:0:
448,192,49889,1,0,0:0:0:0:
320,192,49980,1,0,0:0:0:0:
448,192,50071,1,0,0:0:0:0:
64,192,50162,1,2,0:0:0:0:
320,192,50162,1,0,0:0:0:0:
192,192,50344,1,0,0:0:0:0:
64,192,50525,1,2,0:0:0:0:
448,192,50525,1,0,0:0:0:0:
320,192,50707,1,0,0:0:0:0:
192,192,50889,1,2,0:0:0:0:
448,192,50889,128,0,51253:0:0:0:0:
64,192,51253,1,2,0:0:0:0:
320,192,51253,1,0,0:0:0:0:
64,192,51435,1,0,0:0:0:0:
192,192,51616,1,2,0:0:0:0:
448,192,51616,1,0,0:0:0:0:
320,192,51798,1,0,0:0:0:0:
320,192,51889,1,0,0:0:0:0:
64,192,51980,1,2,0:0:0:0:
192,192,51980,1,0,0:0:0:0:
448,192,52071,1,0,0:0:0:0:
320,192,52162,1,0,0:0:0:0:
448,192,52253,1,0,0:0:0:0:
64,192,52344,1,4,0:0:0:0:
320,192,52344,1,2,0:0:0:0:
192,192,52525,1,0,0:0:0:0:
320,192,52616,1,0,0:0:0:0:
192,192,52798,1,0,0:0:0:0:
320,192,52889,1,0,0:0:0:0:
192,192,52980,1,0,0:0:0:0:
64,192,53071,1,0,0:0:0:0:
448,192,53071,1,0,0:0:0:0:
320,192,53253,1,0,0:0:0:0:
64,192,53435,1,0,0:0:0:70:VEC4 Snares 151.wav
192,192,53435,1,0,0:0:0:0:
448,192,53435,1,0,0:0:0:0:
320,192,53616,1,0,0:0:0:0:
192,192,53798,128,6,54162:0:0:0:0:
448,192,53798,1,8,0:0:0:0:
64,192,54162,1,2,0:0:0:0:
320,192,54162,1,8,0:0:0:0:
320,192,54344,1,0,0:0:0:0:
64,192,54525,1,2,0:0:0:0:
448,192,54525,1,8,0:0:0:0:
192,192,54707,1,0,0:0:0:0:
192,192,54798,1,0,0:0:0:0:
64,192,54889,1,2,0:0:0:0:
320,192,54889,1,8,0:0:0:0:
448,192,54980,1,0,0:0:0:0:
192,192,55071,1,0,0:0:0:0:
448,192,55162,1,0,0:0:0:0:
64,192,55253,1,2,0:0:0:0:
192,192,55253,1,8,0:0:0:0:
320,192,55435,1,0,0:0:0:0:
320,192,55525,1,0,0:0:0:0:
192,192,55616,1,2,0:0:0:0:
448,192,55616,1,8,0:0:0:0:
64,192,55707,1,0,0:0:0:0:
320,192,55798,1,0,0:0:0:0:
64,192,55889,1,0,0:0:0:0:
320,192,55980,1,2,0:0:0:0:
448,192,55980,1,8,0:0:0:0:
64,192,56162,1,0,0:0:0:0:
192,192,56344,1,2,0:0:0:0:
448,192,56344,1,8,0:0:0:0:
320,192,56525,1,0,0:0:0:0:
64,192,56707,1,6,0:0:0:0:
448,192,56707,1,8,0:0:0:0:
192,192,56798,1,8,0:0:0:0:
64,192,56889,1,8,0:0:0:0:
192,192,56980,1,8,0:0:0:0:
320,192,57071,1,8,0:0:0:0:
448,192,57162,1,8,0:0:0:0:
320,192,57253,1,8,0:0:0:0:
448,192,57344,1,8,0:0:0:0:
64,192,57435,1,10,0:0:0:0:
192,192,57435,1,4,0:0:0:0:
320,192,57525,1,8,0:0:0:0:
448,192,57616,1,8,0:0:0:0:
64,192,57707,1,8,0:0:0:0:
192,192,57798,1,8,0:0:0:0:
320,192,57889,1,8,0:0:0:0:
448,192,57980,1,8,0:0:0:0:
64,192,58071,1,8,0:0:0:0:
192,192,58162,128,0,58889:0:0:0:0:
64,192,58889,1,0,0:0:0:0:
320,192,58889,128,0,59616:0:0:0:0:
64,192,59616,1,4,0:0:0:0:
192,192,59616,128,2,60707:0:0:0:0:
448,192,59616,1,0,0:0:0:0:
320,192,59980,1,8,0:0:0:0:
64,192,60253,1,2,0:0:0:0:
64,192,60525,1,2,0:0:0:0:
448,192,60707,1,8,0:0:0:0:
320,192,60889,1,0,0:0:0:0:
448,192,60980,1,2,0:0:0:0:
192,192,61071,128,0,62162:0:0:0:0:
448,192,61253,1,2,0:0:0:0:
64,192,61435,1,8,0:0:0:0:
448,192,61616,1,2,0:0:0:0:
320,192,61980,1,2,0:0:0:0:
64,192,62162,1,8,0:0:0:0:
448,192,62162,128,0,62525:0:0:0:0:
64,192,62525,128,2,62889:0:0:0:0:
192,192,62889,128,8,63253:0:0:0:0:
448,192,63162,1,2,0:0:0:0:
320,192,63253,128,0,63798:0:0:0:0:
448,192,63435,1,2,0:0:0:0:
64,192,63616,1,8,0:0:0:0:
448,192,63798,1,0,0:0:0:0:
64,192,63889,1,2,0:0:0:0:
192,192,63980,128,0,65071:0:0:0:0:
64,192,64162,1,2,0:0:0:0:
448,192,64344,1,8,0:0:0:0:
64,192,64525,1,2,0:0:0:0:
64,192,64889,1,2,0:0:0:0:
320,192,65071,128,0,65435:0:0:0:70:VEC4 Snares 151.wav
448,192,65071,1,0,0:0:0:0:
64,192,65435,128,6,65798:0:0:0:0:
192,192,65798,128,8,66162:0:0:0:0:
320,192,65798,1,0,0:0:0:0:
448,192,66071,1,2,0:0:0:0:
320,192,66162,128,0,66707:0:0:0:0:
448,192,66344,1,2,0:0:0:0:
64,192,66525,1,8,0:0:0:0:
448,192,66707,1,0,0:0:0:0:
64,192,66798,1,2,0:0:0:0:
192,192,66889,128,0,67616:0:0:0:0:
64,192,67071,1,2,0:0:0:0:
448,192,67253,1,8,0:0:0:0:
64,192,67435,1,2,0:0:0:0:
448,192,67798,1,2,0:0:0:0:
320,192,67980,1,8,0:0:0:0:
192,192,68162,1,0,0:0:0:0:
64,192,68344,1,4,0:0:0:0:
448,192,68344,128,2,69435:0:0:0:0:
192,192,68707,1,8,0:0:0:0:
64,192,68980,1,2,0:0:0:0:
64,192,69253,1,2,0:0:0:0:
192,192,69435,1,8,0:0:0:0:
320,192,69616,1,0,0:0:0:0:
64,192,69798,128,2,70525:0:0:0:0:
448,192,69798,1,4,0:0:0:0:
448,192,70525,1,0,0:0:0:70:tom01.wav
320,192,70647,1,0,0:0:0:70:tom02.wav
192,192,70768,1,0,0:0:0:70:tom03.wav
64,192,70889,128,0,71253:0:0:0:70:tom04.wav
320,192,71253,1,4,0:0:0:0:
448,192,71253,1,2,0:0:0:0:
320,192,71616,1,8,0:0:0:0:
448,192,71616,1,0,0:0:0:0:
320,192,71980,1,8,0:0:0:0:
448,192,71980,1,0,0:0:0:0:
320,192,72344,1,8,0:0:0:0:
448,192,72344,1,0,0:0:0:0:
64,192,72707,1,8,0:0:0:0:
192,192,72707,1,0,0:0:0:0:
448,192,72980,1,0,0:0:0:0:
64,192,73071,1,8,0:0:0:0:
192,192,73071,1,0,0:0:0:0:
320,192,73253,1,0,0:0:0:0:
64,192,73435,1,8,0:0:0:0:
192,192,73435,1,0,0:0:0:0:
320,192,73616,1,0,0:0:0:0:
448,192,73616,1,0,0:0:0:0:
64,192,73798,1,8,0:0:0:0:
192,192,73798,1,0,0:0:0:0:
64,192,73980,1,8,0:0:0:0:
192,192,73980,1,0,0:0:0:0:
64,192,74162,1,4,0:0:0:0:
320,192,74162,1,2,0:0:0:0:
448,192,74162,1,0,0:0:0:0:
320,192,74525,1,8,0:0:0:0:
448,192,74525,1,0,0:0:0:0:
320,192,74889,1,8,0:0:0:0:
448,192,74889,1,0,0:0:0:0:
320,192,75253,1,8,0:0:0:0:
448,192,75253,1,0,0:0:0:0:
64,192,75435,1,0,0:0:0:0:
320,192,75525,1,0,0:0:0:0:
64,192,75616,1,8,0:0:0:0:
192,192,75616,1,0,0:0:0:0:
448,192,75889,1,0,0:0:0:0:
64,192,75980,1,8,0:0:0:0:
192,192,75980,1,0,0:0:0:0:
320,192,76162,1,0,0:0:0:0:
64,192,76344,1,8,0:0:0:0:
192,192,76344,1,0,0:0:0:0:
64,192,76525,1,8,0:0:0:0:
192,192,76525,1,0,0:0:0:0:
320,192,76707,128,0,77071:0:0:0:0:
448,192,76707,1,0,0:0:0:0:
64,192,77071,1,8,0:0:0:0:
192,192,77071,1,2,0:0:0:0:
448,192,77071,1,4,0:0:0:0:
320,192,77162,1,8,0:0:0:0:
64,192,77253,1,8,0:0:0:0:
192,192,77344,1,8,0:0:0:0:
448,192,77435,1,8,0:0:0:0:
320,192,77525,1,8,0:0:0:0:
64,192,77616,1,8,0:0:0:0:
192,192,77707,1,8,0:0:0:0:
320,192,77798,1,6,0:0:0:0:
448,192,77798,1,8,0:0:0:0:
64,192,77889,1,8,0:0:0:0:
320,192,77980,1,8,0:0:0:0:
192,192,78071,1,8,0:0:0:0:
448,192,78162,1,8,0:0:0:0:
64,192,78253,1,8,0:0:0:0:
320,192,78344,1,8,0:0:0:0:
192,192,78435,1,8,0:0:0:0:
64,192,78525,1,6,0:0:0:0:
448,192,78525,1,8,0:0:0:0:
320,192,78616,1,8,0:0:0:0:
192,192,78707,1,8,0:0:0:0:
448,192,78798,1,8,0:0:0:0:
64,192,78889,1,8,0:0:0:0:
320,192,78980,1,8,0:0:0:0:
192,192,79071,1,8,0:0:0:0:
448,192,79162,1,8,0:0:0:0:
64,192,79253,1,6,0:0:0:0:
192,192,79253,1,8,0:0:0:0:
320,192,79344,1,8,0:0:0:0:
448,192,79435,1,8,0:0:0:0:
192,192,79525,1,8,0:0:0:0:
64,192,79616,128,0,79798:0:0:0:0:
320,192,79980,1,10,0:0:0:0:
448,192,79980,1,4,0:0:0:0:
64,192,80071,1,8,0:0:0:0:
192,192,80162,1,8,0:0:0:0:
320,192,80253,1,8,0:0:0:0:
64,192,80344,1,12,0:0:0:0:
448,192,80344,1,2,0:0:0:0:
192,192,80435,1,8,0:0:0:0:
320,192,80525,1,8,0:0:0:0:
448,192,80616,1,8,0:0:0:0:
64,192,80707,1,10,0:0:0:0:
192,192,80707,1,4,0:0:0:0:
320,192,80798,1,8,0:0:0:0:
448,192,80889,1,8,0:0:0:0:
64,192,80980,1,8,0:0:0:0:
192,192,81071,1,10,0:0:0:0:
320,192,81071,1,4,0:0:0:0:
448,192,81162,1,8,0:0:0:0:
64,192,81253,1,8,0:0:0:0:
192,192,81344,1,8,0:0:0:0:
320,192,81435,1,4,0:0:0:0:
448,192,81435,128,2,81798:0:0:0:0:
64,192,81798,128,8,82162:0:0:0:0:
192,192,81980,1,8,0:0:0:0:
320,192,82162,128,0,82889:0:0:0:70:tom01.wav
448,192,82162,1,0,0:0:0:0:
192,192,82283,1,0,0:0:0:70:tom02.wav
64,192,82404,1,0,0:0:0:70:tom03.wav
448,192,82525,1,0,0:0:0:70:tom04.wav
192,192,82707,1,0,0:0:0:0:
64,192,82889,1,2,0:0:0:0:
448,192,82889,128,0,83253:0:0:0:0:
64,192,83253,1,2,0:0:0:0:
192,192,83253,1,4,0:0:0:0:
320,192,83253,1,0,0:0:0:0:
192,192,83435,1,0,0:0:0:0:
448,192,83435,1,0,0:0:0:0:
64,192,83616,1,2,0:0:0:0:
320,192,83616,1,0,0:0:0:0:
64,192,83798,1,0,0:0:0:0:
192,192,83798,1,0,0:0:0:0:
320,192,83980,1,2,0:0:0:0:
448,192,83980,1,0,0:0:0:0:
192,192,84162,1,0,0:0:0:0:
448,192,84162,1,0,0:0:0:0:
64,192,84344,128,2,84707:0:0:0:0:
320,192,84344,1,0,0:0:0:0:
192,192,84525,1,0,0:0:0:0:
320,192,84707,1,2,0:0:0:0:
448,192,84707,128,0,85071:0:0:0:0:
192,192,84889,1,0,0:0:0:0:
64,192,85071,1,2,0:0:0:0:
320,192,85071,128,0,85435:0:0:0:0:
448,192,85253,1,0,0:0:0:0:
64,192,85435,128,2,85798:0:0:0:0:
192,192,85435,1,0,0:0:0:0:
448,192,85616,1,0,0:0:0:0:
192,192,85798,1,2,0:0:0:0:
320,192,85798,1,0,0:0:0:0:
448,192,85980,1,0,0:0:0:0:
64,192,86162,1,2,0:0:0:0:
192,192,86162,1,0,0:0:0:0:
320,192,86344,1,0,0:0:0:0:
448,192,86344,1,0,0:0:0:0:
64,192,86525,1,2,0:0:0:0:
320,192,86525,1,0,0:0:0:0:
192,192,86707,1,0,0:0:0:0:
448,192,86707,1,0,0:0:0:0:
64,192,86889,1,2,0:0:0:0:
320,192,86889,1,0,0:0:0:0:
64,192,87071,1,0,0:0:0:0:
192,192,87071,1,0,0:0:0:0:
320,192,87253,1,4,0:0:0:0:
448,192,87253,128,2,87616:0:0:0:0:
64,192,87435,1,0,0:0:0:0:
320,192,87616,128,0,87980:0:0:0:0:
64,192,87798,1,0,0:0:0:0:
192,192,87980,128,0,88344:0:0:0:0:
448,192,88162,1,0,0:0:0:0:
64,192,88344,1,0,0:0:0:0:
320,192,88525,1,0,0:0:0:0:
64,192,88707,128,4,89071:0:0:0:0:
192,192,88707,1,2,0:0:0:0:
192,192,89071,1,2,0:0:0:0:
448,192,89071,1,0,0:0:0:0:
64,192,89253,1,0,0:0:0:0:
320,192,89253,1,0,0:0:0:0:
192,192,89435,1,2,0:0:0:0:
448,192,89435,1,0,0:0:0:0:
320,192,89616,1,0,0:0:0:0:
448,192,89616,1,0,0:0:0:0:
64,192,89798,1,2,0:0:0:0:
192,192,89798,1,0,0:0:0:0:
64,192,89980,1,0,0:0:0:0:
320,192,89980,1,0,0:0:0:0:
192,192,90162,1,2,0:0:0:0:
448,192,90162,128,0,90525:0:0:0:0:
320,192,90344,1,0,0:0:0:0:
64,192,90525,128,2,90889:0:0:0:0:
192,192,90525,1,0,0:0:0:0:
320,192,90707,1,0,0:0:0:0:
192,192,90889,128,2,91253:0:0:0:0:
448,192,90889,1,0,0:0:0:0:
64,192,91071,1,0,0:0:0:0:
320,192,91253,1,2,0:0:0:0:
448,192,91253,128,0,91616:0:0:0:0:
64,192,91435,1,0,0:0:0:0:
192,192,91616,1,2,0:0:0:0:
320,192,91616,1,0,0:0:0:0:
448,192,91798,1,0,0:0:0:0:
64,192,91980,1,2,0:0:0:0:
192,192,91980,1,0,0:0:0:0:
320,192,92162,1,0,0:0:0:0:
64,192,92344,1,2,0:0:0:0:
448,192,92344,1,0,0:0:0:0:
192,192,92525,1,0,0:0:0:0:
320,192,92525,1,0,0:0:0:0:
64,192,92707,1,2,0:0:0:0:
448,192,92707,1,0,0:0:0:0:
192,192,92889,1,0,0:0:0:0:
320,192,92889,1,0,0:0:0:0:
64,192,93071,1,4,0:0:0:0:
320,192,93071,1,2,0:0:0:0:
448,192,93071,1,0,0:0:0:0:
64,192,93435,1,4,0:0:0:0:
192,192,93435,1,2,0:0:0:0:
448,192,93435,1,0,0:0:0:0:
64,192,93798,1,4,0:0:0:0:
320,192,93798,1,2,0:0:0:0:
448,192,93798,1,0,0:0:0:0:
192,192,94162,1,0,0:0:0:70:VEC4 Snares 151.wav
320,192,94162,1,0,0:0:0:0:
64,192,94525,128,2,94889:0:0:0:0:
192,192,94525,1,4,0:0:0:0:
448,192,94525,1,0,0:0:0:0:
320,192,94889,1,0,0:0:0:0:
64,192,95253,1,0,0:0:0:0:
192,192,95435,1,0,0:0:0:0:
448,192,95616,1,0,0:0:0:0:
320,192,95798,1,0,0:0:0:0:
64,192,95980,128,4,96344:0:0:0:0:
192,192,95980,1,2,0:0:0:0:
448,192,95980,1,0,0:0:0:0:
448,192,96344,128,0,96707:0:0:0:0:
192,192,96707,1,0,0:0:0:70:tom01.wav
320,192,96707,128,0,97071:0:0:0:0:
64,192,97071,128,0,97435:0:0:0:70:tom02.wav
192,192,97435,1,2,0:0:0:0:
320,192,97435,1,4,0:0:0:0:
448,192,97435,128,0,97798:0:0:0:0:
192,192,97798,1,2,0:0:0:0:
320,192,97798,1,0,0:0:0:0:
64,192,97889,1,0,0:0:0:0:
192,192,97980,1,0,0:0:0:0:
64,192,98071,1,0,0:0:0:0:
320,192,98162,1,2,0:0:0:0:
448,192,98162,1,0,0:0:0:0:
64,192,98344,1,0,0:0:0:0:
320,192,98344,1,0,0:0:0:0:
192,192,98525,1,2,0:0:0:0:
448,192,98525,1,0,0:0:0:0:
64,192,98707,1,0,0:0:0:0:
192,192,98707,1,0,0:0:0:0:
64,192,98889,1,2,0:0:0:0:
320,192,98889,1,4,0:0:0:0:
448,192,98889,128,0,99253:0:0:0:0:
64,192,99253,128,0,99616:0:0:0:0:
320,192,99616,128,0,99980:0:0:0:0:
64,192,99980,1,0,0:0:0:0:
192,192,100162,1,0,0:0:0:0:
64,192,100344,1,2,0:0:0:0:
320,192,100344,1,4,0:0:0:0:
448,192,100344,128,8,100707:0:0:0:0:
64,192,100707,1,2,0:0:0:0:
192,192,100707,1,8,0:0:0:0:
320,192,100889,1,0,0:0:0:0:
448,192,100889,1,0,0:0:0:0:
64,192,101071,1,2,0:0:0:0:
192,192,101071,1,8,0:0:0:0:
192,192,101253,1,0,0:0:0:0:
448,192,101253,1,0,0:0:0:0:
64,192,101435,1,2,0:0:0:0:
320,192,101435,1,8,0:0:0:0:
320,192,101616,1,0,0:0:0:0:
448,192,101616,1,0,0:0:0:0:
64,192,101798,128,2,102162:0:0:0:0:
192,192,101798,1,8,0:0:0:0:
320,192,101980,1,0,0:0:0:0:
192,192,102162,1,2,0:0:0:0:
448,192,102162,128,8,102525:0:0:0:0:
320,192,102344,1,0,0:0:0:0:
64,192,102525,1,2,0:0:0:0:
192,192,102525,128,8,102889:0:0:0:0:
448,192,102707,1,0,0:0:0:0:
64,192,102889,128,2,103253:0:0:0:0:
320,192,102889,1,8,0:0:0:0:
448,192,103071,1,0,0:0:0:0:
192,192,103253,1,12,0:0:0:0:
320,192,103253,1,2,0:0:0:0:
64,192,103435,1,8,0:0:0:0:
320,192,103616,1,2,0:0:0:0:
448,192,103616,1,8,0:0:0:0:
192,192,103798,1,8,0:0:0:0:
64,192,103980,1,12,0:0:0:0:
448,192,103980,1,2,0:0:0:0:
320,192,104071,1,8,0:0:0:0:
192,192,104162,1,8,0:0:0:0:
64,192,104253,1,8,0:0:0:0:
320,192,104344,1,8,0:0:0:0:
448,192,104344,1,0,0:0:0:0:
192,192,104435,1,8,0:0:0:0:
320,192,104525,1,8,0:0:0:0:
192,192,104616,1,8,0:0:0:0:
64,192,104707,1,2,0:0:0:0:
448,192,104707,128,4,105071:0:0:0:0:
320,192,104889,1,0,0:0:0:0:
64,192,105071,128,4,105435:0:0:0:0:
192,192,105071,1,2,0:0:0:0:
448,192,105253,1,0,0:0:0:0:
192,192,105435,1,2,0:0:0:0:
320,192,105435,128,4,105798:0:0:0:0:
64,192,105616,1,0,0:0:0:0:
192,192,105798,1,0,0:0:0:70:electronic13.wav
448,192,105798,1,0,0:0:0:0:
64,192,106162,128,6,106525:0:0:0:0:
448,192,106162,1,8,0:0:0:0:
192,192,106525,1,2,0:0:0:0:
320,192,106525,1,8,0:0:0:0:
448,192,106707,1,0,0:0:0:0:
64,192,106889,128,2,107253:0:0:0:0:
192,192,106889,1,8,0:0:0:0:
320,192,107253,1,2,0:0:0:0:
448,192,107253,1,8,0:0:0:0:
192,192,107435,1,0,0:0:0:0:
64,192,107616,1,2,0:0:0:0:
448,192,107616,128,8,107980:0:0:0:0:
192,192,107980,1,2,0:0:0:0:
320,192,107980,1,8,0:0:0:0:
64,192,108162,1,0,0:0:0:0:
320,192,108344,1,2,0:0:0:0:
448,192,108344,128,8,108707:0:0:0:0:
64,192,108707,1,2,0:0:0:0:
192,192,108707,1,8,0:0:0:0:
320,192,108889,1,8,0:0:0:0:
448,192,108889,1,0,0:0:0:0:
64,192,109071,128,8,109435:0:0:0:0:
192,192,109071,1,2,0:0:0:0:
320,192,109435,1,8,0:0:0:0:
448,192,109435,1,2,0:0:0:0:
192,192,109616,1,0,0:0:0:0:
64,192,109798,128,8,110162:0:0:0:0:
448,192,109798,1,2,0:0:0:0:
192,192,110162,1,8,0:0:0:0:
320,192,110162,1,2,0:0:0:0:
64,192,110344,1,0,0:0:0:0:
320,192,110525,1,10,0:0:0:0:
448,192,110525,128,4,110889:0:0:0:0:
64,192,110889,1,8,0:0:0:0:
192,192,111071,1,0,0:0:0:0:
448,192,111253,1,8,0:0:0:0:
320,192,111435,1,0,0:0:0:0:
64,192,111616,1,0,0:0:0:70:VEC4 Snares 151.wav
192,192,111616,1,0,0:0:0:0:
448,192,111616,1,0,0:0:0:0:
320,192,111980,1,6,0:0:0:0:
448,192,111980,128,8,112344:0:0:0:0:
64,192,112344,1,8,0:0:0:0:
192,192,112435,1,8,0:0:0:0:
320,192,112525,1,8,0:0:0:0:
448,192,112616,1,8,0:0:0:0:
64,192,112707,128,12,113071:0:0:0:0:
192,192,112707,1,2,0:0:0:0:
448,192,113071,1,8,0:0:0:0:
320,192,113162,1,8,0:0:0:0:
192,192,113253,1,8,0:0:0:0:
64,192,113344,1,8,0:0:0:0:
320,192,113435,1,10,0:0:0:0:
448,192,113435,128,4,113798:0:0:0:0:
64,192,113798,1,8,0:0:0:0:
192,192,113889,1,8,0:0:0:0:
320,192,113980,1,8,0:0:0:0:
448,192,114071,1,8,0:0:0:0:
64,192,114162,128,12,114525:0:0:0:0:
192,192,114162,1,2,0:0:0:0:
448,192,114525,1,0,0:0:0:0:
64,192,114889,1,6,0:0:0:0:
192,192,114889,1,8,0:0:0:0:
320,192,114980,1,8,0:0:0:0:
448,192,115071,1,8,0:0:0:0:
64,192,115162,1,8,0:0:0:0:
192,192,115253,1,6,0:0:0:0:
320,192,115253,1,8,0:0:0:0:
448,192,115344,1,8,0:0:0:0:
64,192,115435,1,8,0:0:0:0:
192,192,115525,1,8,0:0:0:0:
320,192,115616,1,6,0:0:0:0:
448,192,115616,1,8,0:0:0:0:
64,192,115707,1,8,0:0:0:0:
192,192,115798,1,8,0:0:0:0:
320,192,115889,1,8,0:0:0:0:
64,192,115980,1,6,0:0:0:0:
448,192,115980,1,8,0:0:0:0:
192,192,116071,1,8,0:0:0:0:
320,192,116162,1,8,0:0:0:0:
448,192,116253,1,8,0:0:0:0:
64,192,116344,128,2,116707:0:0:0:0:
192,192,116344,1,4,0:0:0:0:
448,192,116707,128,8,117071:0:0:0:0:
192,192,116889,1,8,0:0:0:0:
64,192,117071,1,0,0:0:0:70:tom01.wav
320,192,117071,128,0,117435:0:0:0:0:
192,192,117192,1,0,0:0:0:70:tom02.wav
448,192,117313,1,0,0:0:0:70:tom03.wav
64,192,117435,1,0,0:0:0:70:VEC4 Snares 151.wav
192,192,117435,1,0,0:0:0:0:
64,192,117798,1,2,0:0:0:0:
320,192,117798,1,4,0:0:0:0:
448,192,117798,1,0,0:0:0:0:
