osu file format v14

[General]
AudioFilename: audio.mp3
AudioLeadIn: 0
PreviewTime: 5477
Countdown: 0
SampleSet: Soft
StackLeniency: 1
Mode: 1
LetterboxInBreaks: 0
WidescreenStoryboard: 1

[Editor]
DistanceSpacing: 0.8
BeatDivisor: 2
GridSize: 32
TimelineZoom: 1

[Metadata]
Title:look at her
TitleUnicode:look at her
Artist:ulko
ArtistUnicode:ulko
Creator:Vulkin
Version:ulko's kantan
Source:
Tags:lo-fi beats chill piano relax ambient ulqui
BeatmapID:1524017
BeatmapSetID:721756

[Difficulty]
HPDrainRate:9
CircleSize:7
OverallDifficulty:3
ApproachRate:10
SliderMultiplier:1.6
SliderTickRate:1

[Events]
//Background and Video events
0,0,"Paris-France-Storm-Rain-Wet-Water-Wallpaper-1920x1080.jpg",0,0
//Break Periods
//Storyboard Layer 0 (Background)
//Storyboard Layer 1 (Fail)
//Storyboard Layer 2 (Pass)
//Storyboard Layer 3 (Foreground)
//Storyboard Layer 4 (Overlay)
//Storyboard Sound Samples

[TimingPoints]
23,454.545454545455,3,2,0,20,1,0
23,-166.666666666666,3,2,0,20,0,0
5250,-133.333333333333,3,2,0,40,0,0
43659,-133.333333333333,3,2,0,5,0,0
48773,-166.666666666666,3,2,0,10,0,0

[HitObjects]
224,160,23,5,0,0:0:0:0:
224,160,704,1,8,0:0:0:0:
224,160,1159,1,8,0:0:0:0:
192,128,1841,1,8,0:0:0:0:
192,128,2295,1,0,0:0:0:0:
192,128,2750,1,0,0:0:0:0:
192,128,3432,1,8,0:0:0:0:
192,128,3886,1,8,0:0:0:0:
192,128,4568,1,8,0:0:0:0:
192,128,5023,1,0,0:0:0:0:
192,128,5477,1,4,0:0:0:0:
192,128,8204,1,0,0:0:0:0:
256,192,9568,12,0,10477,0:0:0:0:
160,96,10932,5,0,0:0:0:0:
160,128,11841,1,0,0:0:0:0:
160,128,12295,1,8,0:0:0:0:
192,96,13659,1,0,0:0:0:0:
192,96,14341,1,0,0:0:0:0:
192,96,15023,1,8,0:0:0:0:
160,128,15477,1,8,0:0:0:0:
160,128,15932,1,0,0:0:0:0:
192,96,16386,1,0,0:0:0:0:
192,128,17750,1,8,0:0:0:0:
192,96,19113,1,0,0:0:0:0:
192,128,19568,1,0,0:0:0:0:
192,96,20023,1,0,0:0:0:0:
192,128,21841,1,0,0:0:0:0:
192,128,23204,1,8,0:0:0:0:
192,128,23886,1,0,0:0:0:0:
192,128,24568,1,8,0:0:0:0:
192,128,25023,1,0,0:0:0:0:
192,128,25477,1,0,0:0:0:0:
192,128,25932,1,8,0:0:0:0:
192,128,27295,1,0,0:0:0:0:
192,128,28659,1,8,0:0:0:0:
192,128,30023,1,0,0:0:0:0:
192,128,31386,1,8,0:0:0:0:
192,128,32295,1,0,0:0:0:0:
192,128,32750,1,0,0:0:0:0:
160,128,33659,1,0,0:0:0:0:
192,128,34113,1,8,0:0:0:0:
192,96,35477,1,0,0:0:0:0:
160,128,35988,1,8,0:0:0:0:
192,96,36841,1,8,0:0:0:0:
192,96,38204,1,0,0:0:0:0:
192,128,40932,1,8,0:0:0:0:
256,192,43716,12,0,48659,0:0:0:0:
224,160,49113,5,0,0:0:0:0:
224,160,49795,1,8,0:0:0:0:
224,160,50250,1,8,0:0:0:0:
224,160,50932,1,8,0:0:0:0:
224,160,51386,1,0,0:0:0:0:
