osu file format v14

[General]
AudioFilename: audio.mp3
AudioLeadIn: 0
PreviewTime: 5477
Countdown: 0
SampleSet: Soft
StackLeniency: 1
Mode: 1
LetterboxInBreaks: 0
WidescreenStoryboard: 1

[Editor]
DistanceSpacing: 0.8
BeatDivisor: 2
GridSize: 32
TimelineZoom: 2.3

[Metadata]
Title:look at her
TitleUnicode:look at her
Artist:ulko
ArtistUnicode:ulko
Creator:Vulkin
Version:secret love
Source:
Tags:lo-fi beats chill piano relax ambient ulqui
BeatmapID:1524007
BeatmapSetID:721756

[Difficulty]
HPDrainRate:8
CircleSize:7
OverallDifficulty:4
ApproachRate:10
SliderMultiplier:1.4
SliderTickRate:1

[Events]
//Background and Video events
0,0,"Paris-France-Storm-Rain-Wet-Water-Wallpaper-1920x1080.jpg",0,0
//Break Periods
//Storyboard Layer 0 (Background)
//Storyboard Layer 1 (Fail)
//Storyboard Layer 2 (Pass)
//Storyboard Layer 3 (Foreground)
//Storyboard Layer 4 (Overlay)
//Storyboard Sound Samples

[TimingPoints]
23,454.545454545455,3,2,0,20,1,0
23,-166.666666666666,3,2,0,20,0,0
5250,-133.333333333333,3,2,0,40,0,0
44000,-133.333333333333,3,2,0,5,0,0
48773,-166.666666666666,3,2,0,10,0,0

[HitObjects]
256,192,23,5,0,0:0:0:0:
256,192,704,1,8,0:0:0:0:
256,192,932,1,0,0:0:0:0:
256,192,1159,1,8,0:0:0:0:
256,192,1386,1,0,0:0:0:0:
256,192,1841,1,8,0:0:0:0:
256,192,2295,1,0,0:0:0:0:
256,192,2750,1,0,0:0:0:0:
256,192,3432,1,8,0:0:0:0:
256,192,3659,1,0,0:0:0:0:
256,192,3886,1,8,0:0:0:0:
256,192,4113,1,0,0:0:0:0:
256,192,4568,1,8,0:0:0:0:
256,192,5023,1,0,0:0:0:0:
256,192,5477,1,4,0:0:0:0:
256,192,6045,1,8,0:0:0:0:
256,192,6613,1,8,0:0:0:0:
256,192,8204,1,8,0:0:0:0:
256,192,9113,1,0,0:0:0:0:
256,192,9568,12,0,10477,0:0:0:0:
256,192,10932,5,0,0:0:0:0:
256,192,11386,1,8,0:0:0:0:
256,192,11841,1,0,0:0:0:0:
256,192,12295,1,8,0:0:0:0:
256,192,13204,1,8,0:0:0:0:
256,192,13659,1,0,0:0:0:0:
256,192,14113,1,8,0:0:0:0:
256,192,14341,1,0,0:0:0:0:
256,192,14568,1,8,0:0:0:0:
256,192,15022,1,8,0:0:0:0:
256,192,15477,1,0,0:0:0:0:
256,192,15704,1,0,0:0:0:0:
256,192,15932,1,8,0:0:0:0:
256,192,16386,1,0,0:0:0:0:
256,192,16955,1,8,0:0:0:0:
256,192,17522,1,0,0:0:0:0:
256,192,17750,1,8,0:0:0:0:
256,192,18204,1,0,0:0:0:0:
256,192,18659,1,0,0:0:0:0:
256,192,19113,1,8,0:0:0:0:
256,192,19568,1,8,0:0:0:0:
256,192,19795,1,0,0:0:0:0:
256,192,20022,1,8,0:0:0:0:
256,192,21841,1,0,0:0:0:0:
256,192,22295,1,8,0:0:0:0:
256,192,22750,1,0,0:0:0:0:
256,192,23204,1,8,0:0:0:0:
256,192,23659,1,8,0:0:0:0:
256,192,23886,1,0,0:0:0:0:
256,192,24113,1,8,0:0:0:0:
256,192,24568,1,0,0:0:0:0:
256,192,25023,1,8,0:0:0:0:
256,192,25477,1,0,0:0:0:0:
256,192,25932,1,8,0:0:0:0:
256,192,26386,1,0,0:0:0:0:
256,192,26841,1,8,0:0:0:0:
256,192,27068,1,0,0:0:0:0:
256,192,27295,1,0,0:0:0:0:
256,192,27863,1,8,0:0:0:0:
256,192,28432,1,0,0:0:0:0:
256,192,28659,1,8,0:0:0:0:
256,192,30022,1,0,0:0:0:0:
256,192,31386,1,8,0:0:0:0:
256,192,31841,1,8,0:0:0:0:
256,192,32295,1,0,0:0:0:0:
256,192,32750,1,0,0:0:0:0:
256,192,32977,1,8,0:0:0:0:
256,192,33204,1,0,0:0:0:0:
256,192,33432,1,8,0:0:0:0:
256,192,33659,1,8,0:0:0:0:
256,192,34113,1,8,0:0:0:0:
256,192,35477,1,0,0:0:0:0:
256,192,35761,1,8,0:0:0:0:
256,192,35988,1,0,0:0:0:0:
256,192,36244,1,8,0:0:0:0:
256,192,36386,1,8,0:0:0:0:
256,192,36528,1,0,0:0:0:0:
256,192,36841,1,8,0:0:0:0:
256,192,38204,1,0,0:0:0:0:
256,192,40932,1,8,0:0:0:0:
256,192,43716,1,0,0:0:0:0:
256,192,44341,12,0,48659,0:0:0:0:
256,192,49113,5,0,0:0:0:0:
256,192,49795,1,8,0:0:0:0:
256,192,50023,1,0,0:0:0:0:
256,192,50250,1,8,0:0:0:0:
256,192,50477,1,0,0:0:0:0:
256,192,50932,1,8,0:0:0:0:
256,192,51386,1,0,0:0:0:0:
