osu file format v14

[General]
AudioFilename: audio.mp3
AudioLeadIn: 0
PreviewTime: 43293
Countdown: 1
SampleSet: Normal
StackLeniency: 0.7
Mode: 1
LetterboxInBreaks: 0
WidescreenStoryboard: 0

[Editor]
Bookmarks: 579,44007,80579
DistanceSpacing: 1
BeatDivisor: 8
GridSize: 32
TimelineZoom: 3.999999

[Metadata]
Title:chilean twc warm up
TitleUnicode:chilean twc warm up
Artist:ulko
ArtistUnicode:ulko
Creator:Ulqui
Version:zzz
Source:
Tags:eldnl chroma 黑魔 sink to the deep sea world DJ Bryanflow Kale La Evolución Casa Sola mashup meme electronic spanish español novelty
BeatmapID:1980286
BeatmapSetID:948158

[Difficulty]
HPDrainRate:6
CircleSize:5
OverallDifficulty:6
ApproachRate:6
SliderMultiplier:1.4
SliderTickRate:1

[Events]
//Background and Video events
0,0,"285756_1514307480.png",0,0
//Break Periods
//Storyboard Layer 0 (Background)
//Storyboard Layer 1 (Fail)
//Storyboard Layer 2 (Pass)
//Storyboard Layer 3 (Foreground)
//Storyboard Layer 4 (Overlay)
//Storyboard Sound Samples

[TimingPoints]
579,285.714285714286,4,1,0,20,1,0
579,-100,4,1,0,20,0,0
39436,-50,4,1,0,20,0,0
40579,-125,4,1,0,20,0,0
44007,-76.9230769230769,4,1,0,60,0,1
61150,-76.9230769230769,4,1,0,60,0,0
62293,-76.9230769230769,4,1,0,60,0,1
79436,-76.9230769230769,4,1,0,60,0,0
80579,-76.9230769230769,4,1,0,60,0,1
115864,-76.9230769230769,4,1,0,60,0,0

[HitObjects]
178,116,18864,5,4,0:0:0:0:
178,116,19293,1,8,0:0:0:0:
178,116,19436,1,0,0:0:0:0:
178,116,19721,1,8,0:0:0:0:
157,99,20436,1,8,0:0:0:0:
178,116,20579,1,4,0:0:0:0:
132,81,20864,1,8,0:0:0:0:
132,81,21150,1,4,0:0:0:0:
141,130,21579,1,8,0:0:0:0:
141,130,21721,1,0,0:0:0:0:
133,133,22007,1,8,0:0:0:0:
133,133,22721,1,8,0:0:0:0:
133,133,22864,1,4,0:0:0:0:
142,99,23150,1,8,0:0:0:0:
165,84,23293,1,8,0:0:0:0:
142,99,23436,1,4,0:0:0:0:
142,99,23864,1,8,0:0:0:0:
135,106,24007,1,0,0:0:0:0:
169,63,24293,1,8,0:0:0:0:
166,69,25007,1,8,0:0:0:0:
166,69,25150,1,4,0:0:0:0:
166,69,25436,1,8,0:0:0:0:
166,69,25721,1,4,0:0:0:0:
166,69,26150,1,8,0:0:0:0:
166,69,26293,1,0,0:0:0:0:
166,69,26579,1,8,0:0:0:0:
161,48,27293,1,8,0:0:0:0:
161,48,27436,1,4,0:0:0:0:
148,77,27721,1,8,0:0:0:0:
148,77,27864,1,8,0:0:0:0:
148,77,28007,1,4,0:0:0:0:
148,77,28436,1,8,0:0:0:0:
148,77,28579,1,4,0:0:0:0:
148,77,28864,1,8,0:0:0:0:
148,77,29150,1,4,0:0:0:0:
148,77,29293,1,8,0:0:0:0:
165,53,29436,1,8,0:0:0:0:
148,77,29579,1,8,0:0:0:0:
148,77,29721,1,4,0:0:0:0:
165,53,30007,1,8,0:0:0:0:
165,53,30293,1,4,0:0:0:0:
165,53,30721,1,8,0:0:0:0:
165,53,30864,1,4,0:0:0:0:
165,53,31150,1,8,0:0:0:0:
165,53,31436,1,4,0:0:0:0:
162,66,31721,1,8,0:0:0:0:
162,66,31864,1,8,0:0:0:0:
162,66,32007,1,4,0:0:0:0:
158,107,32293,1,8,0:0:0:0:
158,107,32579,1,4,0:0:0:0:
156,90,32864,1,4,0:0:0:0:
156,90,33007,1,8,0:0:0:0:
156,90,33150,1,4,0:0:0:0:
156,90,33436,1,4,0:0:0:0:
178,73,33579,1,8,0:0:0:0:
178,73,33721,1,4,0:0:0:0:
178,73,33864,1,8,0:0:0:0:
178,73,34007,1,4,0:0:0:0:
178,73,34293,1,4,0:0:0:0:
160,88,34579,1,4,0:0:0:0:
160,89,34721,1,8,0:0:0:0:
161,90,34864,1,4,0:0:0:0:
161,91,35150,1,4,0:0:0:0:
160,88,35436,1,4,0:0:0:0:
166,95,35721,1,4,0:0:0:0:
155,102,36007,1,4,0:0:0:0:
155,102,36293,1,4,0:0:0:0:
155,102,36579,1,4,0:0:0:0:
163,57,36864,1,4,0:0:0:0:
151,65,37150,1,4,0:0:0:0:
151,66,37293,1,4,0:0:0:0:
151,65,37436,1,4,0:0:0:0:
151,66,37579,1,4,0:0:0:0:
151,65,37721,1,4,0:0:0:0:
180,53,37864,1,4,0:0:0:0:
156,90,38007,1,4,0:0:0:0:
180,53,38150,1,4,0:0:0:0:
156,90,38293,1,4,0:0:0:0:
180,53,38436,1,4,0:0:0:0:
156,90,38579,1,4,0:0:0:0:
162,92,38721,1,4,0:0:0:0:
162,92,38864,1,4,0:0:0:0:
181,74,39007,1,4,0:0:0:0:
181,74,39150,1,4,0:0:0:0:
181,74,39436,1,4,0:0:0:0:
173,82,41150,1,8,0:0:0:0:
141,116,42864,5,0,0:0:0:0:
141,116,43293,1,0,0:0:0:0:
141,116,43721,1,8,0:0:0:0:
155,127,44007,1,8,0:0:0:0:
152,130,44079,1,8,0:0:0:0:
154,127,44150,1,0,0:0:0:0:
153,127,44221,1,0,0:0:0:0:
152,130,44293,1,8,0:0:0:0:
251,95,44329,1,8,0:0:0:0:
136,71,44436,1,0,0:0:0:0:
136,71,44471,1,0,0:0:0:0:
136,71,44579,1,8,0:0:0:0:
156,56,44614,1,8,0:0:0:0:
156,57,44721,1,8,0:0:0:0:
157,58,44757,1,8,0:0:0:0:
157,58,44864,1,0,0:0:0:0:
157,58,44900,1,0,0:0:0:0:
150,80,45007,1,8,0:0:0:0:
150,80,45043,1,8,0:0:0:0:
174,76,45150,1,0,0:0:0:0:
174,76,45221,1,0,0:0:0:0:
152,82,45293,1,0,0:0:0:0:
152,82,45364,1,0,0:0:0:0:
152,82,45436,1,8,0:0:0:0:
176,83,45471,1,8,0:0:0:0:
145,91,45579,1,0,0:0:0:0:
176,82,45614,1,0,0:0:0:0:
145,91,45721,1,8,0:0:0:0:
175,82,45757,1,8,0:0:0:0:
145,91,45864,1,8,0:0:0:0:
176,83,45900,1,8,0:0:0:0:
145,91,46007,1,0,0:0:0:0:
175,85,46043,1,0,0:0:0:0:
145,91,46150,1,0,0:0:0:0:
173,91,46293,1,8,0:0:0:0:
173,91,46364,1,8,0:0:0:0:
150,62,46436,1,0,0:0:0:0:
147,72,46507,1,0,0:0:0:0:
173,91,46579,1,8,0:0:0:0:
176,83,46614,1,8,0:0:0:0:
174,106,46721,1,0,0:0:0:0:
175,85,46757,1,0,0:0:0:0:
174,106,46864,1,8,0:0:0:0:
175,85,46900,1,8,0:0:0:0:
173,91,47007,1,8,0:0:0:0:
173,91,47043,1,8,0:0:0:0:
174,106,47150,1,0,0:0:0:0:
173,91,47186,1,0,0:0:0:0:
174,106,47293,1,8,0:0:0:0:
173,91,47329,1,8,0:0:0:0:
174,106,47436,1,0,0:0:0:0:
171,88,47471,1,0,0:0:0:0:
174,106,47579,1,0,0:0:0:0:
171,88,47614,1,0,0:0:0:0:
174,106,47721,1,8,0:0:0:0:
173,91,47757,1,8,0:0:0:0:
174,106,47864,1,0,0:0:0:0:
171,88,47900,1,0,0:0:0:0:
174,106,48007,1,8,0:0:0:0:
171,88,48043,1,8,0:0:0:0:
174,106,48150,1,8,0:0:0:0:
171,88,48186,1,8,0:0:0:0:
174,106,48293,1,0,0:0:0:0:
171,88,48329,1,0,0:0:0:0:
174,106,48436,1,0,0:0:0:0:
172,97,48579,1,8,0:0:0:0:
172,97,48650,1,8,0:0:0:0:
172,97,48721,1,0,0:0:0:0:
172,97,48793,1,0,0:0:0:0:
172,97,48864,1,8,0:0:0:0:
171,88,48900,1,8,0:0:0:0:
211,84,49007,1,0,0:0:0:0:
171,88,49043,1,0,0:0:0:0:
211,84,49150,1,8,0:0:0:0:
171,88,49186,1,8,0:0:0:0:
211,84,49293,1,8,0:0:0:0:
171,88,49329,1,8,0:0:0:0:
211,84,49436,1,0,0:0:0:0:
171,88,49471,1,0,0:0:0:0:
211,84,49579,1,8,0:0:0:0:
171,88,49614,1,8,0:0:0:0:
211,84,49721,1,0,0:0:0:0:
211,84,49793,1,0,0:0:0:0:
211,84,49864,1,0,0:0:0:0:
211,84,49936,1,0,0:0:0:0:
211,84,50007,1,8,0:0:0:0:
171,88,50043,1,8,0:0:0:0:
199,103,50150,1,0,0:0:0:0:
171,88,50186,1,0,0:0:0:0:
199,103,50293,1,8,0:0:0:0:
171,88,50329,1,8,0:0:0:0:
199,103,50436,1,8,0:0:0:0:
171,88,50471,1,8,0:0:0:0:
199,103,50579,1,0,0:0:0:0:
171,88,50614,1,0,0:0:0:0:
199,103,50721,1,0,0:0:0:0:
235,79,50864,1,8,0:0:0:0:
235,79,50936,1,8,0:0:0:0:
235,79,51007,1,0,0:0:0:0:
235,79,51079,1,0,0:0:0:0:
235,79,51150,1,8,0:0:0:0:
194,41,51186,1,8,0:0:0:0:
199,103,51293,1,0,0:0:0:0:
194,41,51329,1,0,0:0:0:0:
199,103,51436,1,8,0:0:0:0:
194,41,51471,1,8,0:0:0:0:
194,41,51579,1,8,0:0:0:0:
194,41,51614,1,8,0:0:0:0:
199,103,51721,1,0,0:0:0:0:
194,41,51757,1,0,0:0:0:0:
199,103,51864,1,8,0:0:0:0:
194,41,51900,1,8,0:0:0:0:
199,103,52007,1,0,0:0:0:0:
194,41,52043,1,0,0:0:0:0:
199,103,52150,1,0,0:0:0:0:
194,41,52186,1,0,0:0:0:0:
199,103,52293,1,8,0:0:0:0:
194,41,52329,1,8,0:0:0:0:
194,41,52436,1,0,0:0:0:0:
194,41,52471,1,0,0:0:0:0:
199,103,52579,1,8,0:0:0:0:
194,41,52614,1,8,0:0:0:0:
199,103,52721,1,8,0:0:0:0:
188,41,52757,1,8,0:0:0:0:
199,103,52864,1,0,0:0:0:0:
186,42,52900,1,0,0:0:0:0:
166,80,53007,1,0,0:0:0:0:
155,127,53150,1,8,0:0:0:0:
152,130,53221,1,8,0:0:0:0:
154,127,53293,1,0,0:0:0:0:
153,127,53364,1,0,0:0:0:0:
152,130,53436,1,8,0:0:0:0:
251,95,53471,1,8,0:0:0:0:
136,71,53579,1,0,0:0:0:0:
136,71,53614,1,0,0:0:0:0:
136,71,53721,1,8,0:0:0:0:
156,56,53757,1,8,0:0:0:0:
156,57,53864,1,8,0:0:0:0:
157,58,53900,1,8,0:0:0:0:
157,58,54007,1,0,0:0:0:0:
157,58,54043,1,0,0:0:0:0:
150,80,54150,1,8,0:0:0:0:
150,80,54186,1,8,0:0:0:0:
174,76,54293,1,0,0:0:0:0:
174,76,54364,1,0,0:0:0:0:
152,82,54436,1,0,0:0:0:0:
152,82,54507,1,0,0:0:0:0:
152,82,54579,1,8,0:0:0:0:
176,83,54614,1,8,0:0:0:0:
145,91,54721,1,0,0:0:0:0:
176,82,54757,1,0,0:0:0:0:
145,91,54864,1,8,0:0:0:0:
175,82,54900,1,8,0:0:0:0:
145,91,55007,1,8,0:0:0:0:
176,83,55043,1,8,0:0:0:0:
145,91,55150,1,0,0:0:0:0:
175,85,55186,1,0,0:0:0:0:
145,91,55293,1,0,0:0:0:0:
173,91,55436,1,8,0:0:0:0:
173,91,55507,1,8,0:0:0:0:
150,62,55579,1,0,0:0:0:0:
147,72,55650,1,0,0:0:0:0:
173,91,55721,1,8,0:0:0:0:
176,83,55757,1,8,0:0:0:0:
174,106,55864,1,0,0:0:0:0:
175,85,55900,1,0,0:0:0:0:
174,106,56007,1,8,0:0:0:0:
175,85,56043,1,8,0:0:0:0:
173,91,56150,1,8,0:0:0:0:
173,91,56186,1,8,0:0:0:0:
174,106,56293,1,0,0:0:0:0:
173,91,56329,1,0,0:0:0:0:
174,106,56436,1,8,0:0:0:0:
173,91,56471,1,8,0:0:0:0:
174,106,56579,1,0,0:0:0:0:
171,88,56614,1,0,0:0:0:0:
174,106,56721,1,0,0:0:0:0:
171,88,56757,1,0,0:0:0:0:
174,106,56864,1,8,0:0:0:0:
173,91,56900,1,8,0:0:0:0:
174,106,57007,1,0,0:0:0:0:
171,88,57043,1,0,0:0:0:0:
174,106,57150,1,8,0:0:0:0:
171,88,57186,1,8,0:0:0:0:
174,106,57293,1,8,0:0:0:0:
171,88,57329,1,8,0:0:0:0:
174,106,57436,1,0,0:0:0:0:
171,88,57471,1,0,0:0:0:0:
174,106,57579,1,0,0:0:0:0:
172,97,57721,1,8,0:0:0:0:
172,97,57793,1,8,0:0:0:0:
172,97,57864,1,0,0:0:0:0:
172,97,57936,1,0,0:0:0:0:
172,97,58007,1,8,0:0:0:0:
171,88,58043,1,8,0:0:0:0:
211,84,58150,1,0,0:0:0:0:
171,88,58186,1,0,0:0:0:0:
211,84,58293,1,8,0:0:0:0:
171,88,58329,1,8,0:0:0:0:
211,84,58436,1,8,0:0:0:0:
171,88,58471,1,8,0:0:0:0:
211,84,58579,1,0,0:0:0:0:
171,88,58614,1,0,0:0:0:0:
211,84,58721,1,8,0:0:0:0:
171,88,58757,1,8,0:0:0:0:
211,84,58864,1,0,0:0:0:0:
211,84,58936,1,0,0:0:0:0:
211,84,59007,1,0,0:0:0:0:
211,84,59079,1,0,0:0:0:0:
211,84,59150,1,8,0:0:0:0:
171,88,59186,1,8,0:0:0:0:
199,103,59293,1,0,0:0:0:0:
171,88,59329,1,0,0:0:0:0:
199,103,59436,1,8,0:0:0:0:
171,88,59471,1,8,0:0:0:0:
199,103,59579,1,8,0:0:0:0:
171,88,59614,1,8,0:0:0:0:
199,103,59721,1,0,0:0:0:0:
171,88,59757,1,0,0:0:0:0:
199,103,59864,1,0,0:0:0:0:
235,79,60007,1,8,0:0:0:0:
235,79,60079,1,8,0:0:0:0:
235,79,60150,1,0,0:0:0:0:
235,79,60221,1,0,0:0:0:0:
235,79,60293,1,8,0:0:0:0:
194,41,60329,1,8,0:0:0:0:
199,103,60436,1,0,0:0:0:0:
194,41,60471,1,0,0:0:0:0:
199,103,60579,1,8,0:0:0:0:
194,41,60614,1,8,0:0:0:0:
194,41,60721,1,8,0:0:0:0:
194,41,60757,1,8,0:0:0:0:
199,103,60864,1,0,0:0:0:0:
194,41,60900,1,0,0:0:0:0:
199,103,61007,1,8,0:0:0:0:
194,41,61043,1,8,0:0:0:0:
199,103,61150,1,0,0:0:0:0:
130,138,61436,1,0,0:0:0:0:
130,138,61579,1,8,0:0:0:0:
130,138,61721,1,0,0:0:0:0:
130,138,62007,1,0,0:0:0:0:
130,138,62150,1,8,0:0:0:0:
155,127,62293,1,8,0:0:0:0:
152,130,62364,1,8,0:0:0:0:
154,127,62436,1,0,0:0:0:0:
153,127,62507,1,0,0:0:0:0:
152,130,62579,1,8,0:0:0:0:
251,95,62614,1,8,0:0:0:0:
136,71,62721,1,0,0:0:0:0:
136,71,62757,1,0,0:0:0:0:
136,71,62864,1,8,0:0:0:0:
156,56,62900,1,8,0:0:0:0:
156,57,63007,1,8,0:0:0:0:
157,58,63043,1,8,0:0:0:0:
157,58,63150,1,0,0:0:0:0:
157,58,63186,1,0,0:0:0:0:
150,80,63293,1,8,0:0:0:0:
150,80,63329,1,8,0:0:0:0:
174,76,63436,1,0,0:0:0:0:
174,76,63507,1,0,0:0:0:0:
152,82,63579,1,0,0:0:0:0:
152,82,63650,1,0,0:0:0:0:
152,82,63721,1,8,0:0:0:0:
176,83,63757,1,8,0:0:0:0:
145,91,63864,1,0,0:0:0:0:
176,82,63900,1,0,0:0:0:0:
145,91,64007,1,8,0:0:0:0:
175,82,64043,1,8,0:0:0:0:
145,91,64150,1,8,0:0:0:0:
176,83,64186,1,8,0:0:0:0:
145,91,64293,1,0,0:0:0:0:
175,85,64329,1,0,0:0:0:0:
145,91,64436,1,0,0:0:0:0:
173,91,64579,1,8,0:0:0:0:
173,91,64650,1,8,0:0:0:0:
150,62,64721,1,0,0:0:0:0:
147,72,64793,1,0,0:0:0:0:
173,91,64864,1,8,0:0:0:0:
176,83,64900,1,8,0:0:0:0:
174,106,65007,1,0,0:0:0:0:
175,85,65043,1,0,0:0:0:0:
174,106,65150,1,8,0:0:0:0:
175,85,65186,1,8,0:0:0:0:
173,91,65293,1,8,0:0:0:0:
173,91,65329,1,8,0:0:0:0:
174,106,65436,1,0,0:0:0:0:
173,91,65471,1,0,0:0:0:0:
174,106,65579,1,8,0:0:0:0:
173,91,65614,1,8,0:0:0:0:
174,106,65721,1,0,0:0:0:0:
171,88,65757,1,0,0:0:0:0:
174,106,65864,1,0,0:0:0:0:
171,88,65900,1,0,0:0:0:0:
174,106,66007,1,8,0:0:0:0:
173,91,66043,1,8,0:0:0:0:
174,106,66150,1,0,0:0:0:0:
171,88,66186,1,0,0:0:0:0:
174,106,66293,1,8,0:0:0:0:
171,88,66329,1,8,0:0:0:0:
174,106,66436,1,8,0:0:0:0:
171,88,66471,1,8,0:0:0:0:
174,106,66579,1,0,0:0:0:0:
171,88,66614,1,0,0:0:0:0:
174,106,66721,1,0,0:0:0:0:
172,97,66864,1,8,0:0:0:0:
172,97,66936,1,8,0:0:0:0:
172,97,67007,1,0,0:0:0:0:
172,97,67079,1,0,0:0:0:0:
172,97,67150,1,8,0:0:0:0:
171,88,67186,1,8,0:0:0:0:
211,84,67293,1,0,0:0:0:0:
171,88,67329,1,0,0:0:0:0:
211,84,67436,1,8,0:0:0:0:
171,88,67471,1,8,0:0:0:0:
211,84,67579,1,8,0:0:0:0:
171,88,67614,1,8,0:0:0:0:
211,84,67721,1,0,0:0:0:0:
171,88,67757,1,0,0:0:0:0:
211,84,67864,1,8,0:0:0:0:
171,88,67900,1,8,0:0:0:0:
211,84,68007,1,0,0:0:0:0:
211,84,68079,1,0,0:0:0:0:
211,84,68150,1,0,0:0:0:0:
211,84,68221,1,0,0:0:0:0:
211,84,68293,1,8,0:0:0:0:
171,88,68329,1,8,0:0:0:0:
199,103,68436,1,0,0:0:0:0:
171,88,68471,1,0,0:0:0:0:
199,103,68579,1,8,0:0:0:0:
171,88,68614,1,8,0:0:0:0:
199,103,68721,1,8,0:0:0:0:
171,88,68757,1,8,0:0:0:0:
199,103,68864,1,0,0:0:0:0:
171,88,68900,1,0,0:0:0:0:
199,103,69007,1,0,0:0:0:0:
235,79,69150,1,8,0:0:0:0:
235,79,69221,1,8,0:0:0:0:
235,79,69293,1,0,0:0:0:0:
235,79,69364,1,0,0:0:0:0:
235,79,69436,1,8,0:0:0:0:
194,41,69471,1,8,0:0:0:0:
199,103,69579,1,0,0:0:0:0:
194,41,69614,1,0,0:0:0:0:
199,103,69721,1,8,0:0:0:0:
194,41,69757,1,8,0:0:0:0:
194,41,69864,1,8,0:0:0:0:
194,41,69900,1,8,0:0:0:0:
199,103,70007,1,0,0:0:0:0:
194,41,70043,1,0,0:0:0:0:
199,103,70150,1,8,0:0:0:0:
194,41,70186,1,8,0:0:0:0:
199,103,70293,1,0,0:0:0:0:
194,41,70329,1,0,0:0:0:0:
199,103,70436,1,0,0:0:0:0:
194,41,70471,1,0,0:0:0:0:
199,103,70579,1,8,0:0:0:0:
194,41,70614,1,8,0:0:0:0:
194,41,70721,1,0,0:0:0:0:
194,41,70757,1,0,0:0:0:0:
199,103,70864,1,8,0:0:0:0:
194,41,70900,1,8,0:0:0:0:
199,103,71007,1,8,0:0:0:0:
188,41,71043,1,8,0:0:0:0:
199,103,71150,1,0,0:0:0:0:
186,42,71186,1,0,0:0:0:0:
166,80,71293,1,0,0:0:0:0:
155,127,71436,1,8,0:0:0:0:
152,130,71507,1,8,0:0:0:0:
154,127,71579,1,0,0:0:0:0:
153,127,71650,1,0,0:0:0:0:
152,130,71721,1,8,0:0:0:0:
251,95,71757,1,8,0:0:0:0:
136,71,71864,1,0,0:0:0:0:
136,71,71900,1,0,0:0:0:0:
136,71,72007,1,8,0:0:0:0:
156,56,72043,1,8,0:0:0:0:
156,57,72150,1,8,0:0:0:0:
157,58,72186,1,8,0:0:0:0:
157,58,72293,1,0,0:0:0:0:
157,58,72329,1,0,0:0:0:0:
150,80,72436,1,8,0:0:0:0:
150,80,72471,1,8,0:0:0:0:
174,76,72579,1,0,0:0:0:0:
174,76,72650,1,0,0:0:0:0:
152,82,72721,1,0,0:0:0:0:
152,82,72793,1,0,0:0:0:0:
152,82,72864,1,8,0:0:0:0:
176,83,72900,1,8,0:0:0:0:
145,91,73007,1,0,0:0:0:0:
176,82,73043,1,0,0:0:0:0:
145,91,73150,1,8,0:0:0:0:
175,82,73186,1,8,0:0:0:0:
145,91,73293,1,8,0:0:0:0:
176,83,73329,1,8,0:0:0:0:
145,91,73436,1,0,0:0:0:0:
175,85,73471,1,0,0:0:0:0:
145,91,73579,1,0,0:0:0:0:
173,91,73721,1,8,0:0:0:0:
173,91,73793,1,8,0:0:0:0:
150,62,73864,1,0,0:0:0:0:
147,72,73936,1,0,0:0:0:0:
173,91,74007,1,8,0:0:0:0:
176,83,74043,1,8,0:0:0:0:
174,106,74150,1,0,0:0:0:0:
175,85,74186,1,0,0:0:0:0:
174,106,74293,1,8,0:0:0:0:
175,85,74329,1,8,0:0:0:0:
173,91,74436,1,8,0:0:0:0:
173,91,74471,1,8,0:0:0:0:
174,106,74579,1,0,0:0:0:0:
173,91,74614,1,0,0:0:0:0:
174,106,74721,1,8,0:0:0:0:
173,91,74757,1,8,0:0:0:0:
174,106,74864,1,0,0:0:0:0:
171,88,74900,1,0,0:0:0:0:
174,106,75007,1,0,0:0:0:0:
171,88,75043,1,0,0:0:0:0:
174,106,75150,1,8,0:0:0:0:
173,91,75186,1,8,0:0:0:0:
174,106,75293,1,0,0:0:0:0:
171,88,75329,1,0,0:0:0:0:
174,106,75436,1,8,0:0:0:0:
171,88,75471,1,8,0:0:0:0:
174,106,75579,1,8,0:0:0:0:
171,88,75614,1,8,0:0:0:0:
174,106,75721,1,0,0:0:0:0:
171,88,75757,1,0,0:0:0:0:
174,106,75864,1,0,0:0:0:0:
172,97,76007,1,8,0:0:0:0:
172,97,76079,1,8,0:0:0:0:
172,97,76150,1,0,0:0:0:0:
172,97,76221,1,0,0:0:0:0:
172,97,76293,1,8,0:0:0:0:
171,88,76329,1,8,0:0:0:0:
211,84,76436,1,0,0:0:0:0:
171,88,76471,1,0,0:0:0:0:
211,84,76579,1,8,0:0:0:0:
171,88,76614,1,8,0:0:0:0:
211,84,76721,1,8,0:0:0:0:
171,88,76757,1,8,0:0:0:0:
211,84,76864,1,0,0:0:0:0:
171,88,76900,1,0,0:0:0:0:
211,84,77007,1,8,0:0:0:0:
171,88,77043,1,8,0:0:0:0:
211,84,77150,1,0,0:0:0:0:
211,84,77221,1,0,0:0:0:0:
211,84,77293,1,0,0:0:0:0:
211,84,77364,1,0,0:0:0:0:
211,84,77436,1,8,0:0:0:0:
171,88,77471,1,8,0:0:0:0:
199,103,77579,1,0,0:0:0:0:
171,88,77614,1,0,0:0:0:0:
199,103,77721,1,8,0:0:0:0:
171,88,77757,1,8,0:0:0:0:
199,103,77864,1,8,0:0:0:0:
171,88,77900,1,8,0:0:0:0:
199,103,78007,1,0,0:0:0:0:
171,88,78043,1,0,0:0:0:0:
199,103,78150,1,0,0:0:0:0:
235,79,78293,1,8,0:0:0:0:
235,79,78364,1,8,0:0:0:0:
235,79,78436,1,0,0:0:0:0:
235,79,78507,1,0,0:0:0:0:
235,79,78579,1,8,0:0:0:0:
194,41,78614,1,8,0:0:0:0:
199,103,78721,1,0,0:0:0:0:
194,41,78757,1,0,0:0:0:0:
199,103,78864,1,8,0:0:0:0:
194,41,78900,1,8,0:0:0:0:
194,41,79007,1,8,0:0:0:0:
194,41,79043,1,8,0:0:0:0:
199,103,79150,1,0,0:0:0:0:
194,41,79186,1,0,0:0:0:0:
199,103,79293,1,8,0:0:0:0:
194,41,79329,1,8,0:0:0:0:
199,103,79436,1,0,0:0:0:0:
157,100,79579,1,8,0:0:0:0:
157,100,79721,1,0,0:0:0:0:
157,100,79864,1,8,0:0:0:0:
157,100,80007,1,0,0:0:0:0:
157,100,80150,1,8,0:0:0:0:
157,100,80293,1,0,0:0:0:0:
157,100,80436,1,8,0:0:0:0:
155,127,80579,1,8,0:0:0:0:
152,130,80650,1,8,0:0:0:0:
154,127,80721,1,0,0:0:0:0:
153,127,80793,1,0,0:0:0:0:
152,130,80864,1,8,0:0:0:0:
251,95,80900,1,8,0:0:0:0:
136,71,81007,1,0,0:0:0:0:
136,71,81043,1,0,0:0:0:0:
136,71,81150,1,8,0:0:0:0:
156,56,81186,1,8,0:0:0:0:
156,57,81293,1,8,0:0:0:0:
157,58,81329,1,8,0:0:0:0:
157,58,81436,1,0,0:0:0:0:
157,58,81471,1,0,0:0:0:0:
150,80,81579,1,8,0:0:0:0:
150,80,81614,1,8,0:0:0:0:
174,76,81721,1,0,0:0:0:0:
174,76,81793,1,0,0:0:0:0:
152,82,81864,1,0,0:0:0:0:
152,82,81936,1,0,0:0:0:0:
152,82,82007,1,8,0:0:0:0:
176,83,82043,1,8,0:0:0:0:
145,91,82150,1,0,0:0:0:0:
176,82,82186,1,0,0:0:0:0:
145,91,82293,1,8,0:0:0:0:
175,82,82329,1,8,0:0:0:0:
145,91,82436,1,8,0:0:0:0:
176,83,82471,1,8,0:0:0:0:
145,91,82579,1,0,0:0:0:0:
175,85,82614,1,0,0:0:0:0:
145,91,82721,1,0,0:0:0:0:
173,91,82864,1,8,0:0:0:0:
173,91,82936,1,8,0:0:0:0:
150,62,83007,1,0,0:0:0:0:
147,72,83079,1,0,0:0:0:0:
173,91,83150,1,8,0:0:0:0:
176,83,83186,1,8,0:0:0:0:
174,106,83293,1,0,0:0:0:0:
175,85,83329,1,0,0:0:0:0:
174,106,83436,1,8,0:0:0:0:
175,85,83471,1,8,0:0:0:0:
173,91,83579,1,8,0:0:0:0:
173,91,83614,1,8,0:0:0:0:
174,106,83721,1,0,0:0:0:0:
173,91,83757,1,0,0:0:0:0:
174,106,83864,1,8,0:0:0:0:
173,91,83900,1,8,0:0:0:0:
174,106,84007,1,0,0:0:0:0:
171,88,84043,1,0,0:0:0:0:
174,106,84150,1,0,0:0:0:0:
171,88,84186,1,0,0:0:0:0:
174,106,84293,1,8,0:0:0:0:
173,91,84329,1,8,0:0:0:0:
174,106,84436,1,0,0:0:0:0:
171,88,84471,1,0,0:0:0:0:
174,106,84579,1,8,0:0:0:0:
171,88,84614,1,8,0:0:0:0:
174,106,84721,1,8,0:0:0:0:
171,88,84757,1,8,0:0:0:0:
174,106,84864,1,0,0:0:0:0:
171,88,84900,1,0,0:0:0:0:
174,106,85007,1,0,0:0:0:0:
172,97,85150,1,8,0:0:0:0:
172,97,85221,1,8,0:0:0:0:
172,97,85293,1,0,0:0:0:0:
172,97,85364,1,0,0:0:0:0:
172,97,85436,1,8,0:0:0:0:
171,88,85471,1,8,0:0:0:0:
211,84,85579,1,0,0:0:0:0:
171,88,85614,1,0,0:0:0:0:
211,84,85721,1,8,0:0:0:0:
171,88,85757,1,8,0:0:0:0:
211,84,85864,1,8,0:0:0:0:
171,88,85900,1,8,0:0:0:0:
211,84,86007,1,0,0:0:0:0:
171,88,86043,1,0,0:0:0:0:
211,84,86150,1,8,0:0:0:0:
171,88,86186,1,8,0:0:0:0:
211,84,86293,1,0,0:0:0:0:
211,84,86364,1,0,0:0:0:0:
211,84,86436,1,0,0:0:0:0:
211,84,86507,1,0,0:0:0:0:
211,84,86579,1,8,0:0:0:0:
171,88,86614,1,8,0:0:0:0:
199,103,86721,1,0,0:0:0:0:
171,88,86757,1,0,0:0:0:0:
199,103,86864,1,8,0:0:0:0:
171,88,86900,1,8,0:0:0:0:
199,103,87007,1,8,0:0:0:0:
171,88,87043,1,8,0:0:0:0:
199,103,87150,1,0,0:0:0:0:
171,88,87186,1,0,0:0:0:0:
199,103,87293,1,0,0:0:0:0:
235,79,87436,1,8,0:0:0:0:
235,79,87507,1,8,0:0:0:0:
235,79,87579,1,0,0:0:0:0:
235,79,87650,1,0,0:0:0:0:
235,79,87721,1,8,0:0:0:0:
194,41,87757,1,8,0:0:0:0:
199,103,87864,1,0,0:0:0:0:
194,41,87900,1,0,0:0:0:0:
199,103,88007,1,8,0:0:0:0:
194,41,88043,1,8,0:0:0:0:
194,41,88150,1,8,0:0:0:0:
194,41,88186,1,8,0:0:0:0:
199,103,88293,1,0,0:0:0:0:
194,41,88329,1,0,0:0:0:0:
199,103,88436,1,8,0:0:0:0:
194,41,88471,1,8,0:0:0:0:
199,103,88579,1,0,0:0:0:0:
194,41,88614,1,0,0:0:0:0:
199,103,88721,1,0,0:0:0:0:
194,41,88757,1,0,0:0:0:0:
199,103,88864,1,8,0:0:0:0:
194,41,88900,1,8,0:0:0:0:
194,41,89007,1,0,0:0:0:0:
194,41,89043,1,0,0:0:0:0:
199,103,89150,1,8,0:0:0:0:
194,41,89186,1,8,0:0:0:0:
199,103,89293,1,8,0:0:0:0:
188,41,89329,1,8,0:0:0:0:
199,103,89436,1,0,0:0:0:0:
186,42,89471,1,0,0:0:0:0:
166,80,89579,1,0,0:0:0:0:
155,127,89721,1,8,0:0:0:0:
152,130,89793,1,8,0:0:0:0:
154,127,89864,1,0,0:0:0:0:
153,127,89936,1,0,0:0:0:0:
152,130,90007,1,8,0:0:0:0:
251,95,90043,1,8,0:0:0:0:
136,71,90150,1,0,0:0:0:0:
136,71,90186,1,0,0:0:0:0:
136,71,90293,1,8,0:0:0:0:
156,56,90329,1,8,0:0:0:0:
156,57,90436,1,8,0:0:0:0:
157,58,90471,1,8,0:0:0:0:
157,58,90579,1,0,0:0:0:0:
157,58,90614,1,0,0:0:0:0:
150,80,90721,1,8,0:0:0:0:
150,80,90757,1,8,0:0:0:0:
174,76,90864,1,0,0:0:0:0:
174,76,90936,1,0,0:0:0:0:
152,82,91007,1,0,0:0:0:0:
152,82,91079,1,0,0:0:0:0:
152,82,91150,1,8,0:0:0:0:
176,83,91186,1,8,0:0:0:0:
145,91,91293,1,0,0:0:0:0:
176,82,91329,1,0,0:0:0:0:
145,91,91436,1,8,0:0:0:0:
175,82,91471,1,8,0:0:0:0:
145,91,91579,1,8,0:0:0:0:
176,83,91614,1,8,0:0:0:0:
145,91,91721,1,0,0:0:0:0:
175,85,91757,1,0,0:0:0:0:
145,91,91864,1,0,0:0:0:0:
173,91,92007,1,8,0:0:0:0:
173,91,92079,1,8,0:0:0:0:
150,62,92150,1,0,0:0:0:0:
147,72,92221,1,0,0:0:0:0:
173,91,92293,1,8,0:0:0:0:
176,83,92329,1,8,0:0:0:0:
174,106,92436,1,0,0:0:0:0:
175,85,92471,1,0,0:0:0:0:
174,106,92579,1,8,0:0:0:0:
175,85,92614,1,8,0:0:0:0:
173,91,92721,1,8,0:0:0:0:
173,91,92757,1,8,0:0:0:0:
174,106,92864,1,0,0:0:0:0:
173,91,92900,1,0,0:0:0:0:
174,106,93007,1,8,0:0:0:0:
173,91,93043,1,8,0:0:0:0:
174,106,93150,1,0,0:0:0:0:
171,88,93186,1,0,0:0:0:0:
174,106,93293,1,0,0:0:0:0:
171,88,93329,1,0,0:0:0:0:
174,106,93436,1,8,0:0:0:0:
173,91,93471,1,8,0:0:0:0:
174,106,93579,1,0,0:0:0:0:
171,88,93614,1,0,0:0:0:0:
174,106,93721,1,8,0:0:0:0:
171,88,93757,1,8,0:0:0:0:
174,106,93864,1,8,0:0:0:0:
171,88,93900,1,8,0:0:0:0:
174,106,94007,1,0,0:0:0:0:
171,88,94043,1,0,0:0:0:0:
174,106,94150,1,0,0:0:0:0:
172,97,94293,1,8,0:0:0:0:
172,97,94364,1,8,0:0:0:0:
172,97,94436,1,0,0:0:0:0:
172,97,94507,1,0,0:0:0:0:
172,97,94579,1,8,0:0:0:0:
171,88,94614,1,8,0:0:0:0:
211,84,94721,1,0,0:0:0:0:
171,88,94757,1,0,0:0:0:0:
211,84,94864,1,8,0:0:0:0:
171,88,94900,1,8,0:0:0:0:
211,84,95007,1,8,0:0:0:0:
171,88,95043,1,8,0:0:0:0:
211,84,95150,1,0,0:0:0:0:
171,88,95186,1,0,0:0:0:0:
211,84,95293,1,8,0:0:0:0:
171,88,95329,1,8,0:0:0:0:
211,84,95436,1,0,0:0:0:0:
211,84,95507,1,0,0:0:0:0:
211,84,95579,1,0,0:0:0:0:
211,84,95650,1,0,0:0:0:0:
211,84,95721,1,8,0:0:0:0:
171,88,95757,1,8,0:0:0:0:
199,103,95864,1,0,0:0:0:0:
171,88,95900,1,0,0:0:0:0:
199,103,96007,1,8,0:0:0:0:
171,88,96043,1,8,0:0:0:0:
199,103,96150,1,8,0:0:0:0:
171,88,96186,1,8,0:0:0:0:
199,103,96293,1,0,0:0:0:0:
171,88,96329,1,0,0:0:0:0:
199,103,96436,1,0,0:0:0:0:
235,79,96579,1,8,0:0:0:0:
235,79,96650,1,8,0:0:0:0:
235,79,96721,1,0,0:0:0:0:
235,79,96793,1,0,0:0:0:0:
235,79,96864,1,8,0:0:0:0:
194,41,96900,1,8,0:0:0:0:
199,103,97007,1,0,0:0:0:0:
194,41,97043,1,0,0:0:0:0:
199,103,97150,1,8,0:0:0:0:
194,41,97186,1,8,0:0:0:0:
194,41,97293,1,8,0:0:0:0:
194,41,97329,1,8,0:0:0:0:
199,103,97436,1,0,0:0:0:0:
194,41,97471,1,0,0:0:0:0:
199,103,97579,1,8,0:0:0:0:
194,41,97614,1,8,0:0:0:0:
199,103,97721,1,0,0:0:0:0:
194,41,97757,1,0,0:0:0:0:
199,103,97864,1,0,0:0:0:0:
194,41,97900,1,0,0:0:0:0:
199,103,98007,1,8,0:0:0:0:
194,41,98043,1,8,0:0:0:0:
171,81,98150,1,0,0:0:0:0:
156,112,98579,1,8,0:0:0:0:
156,112,98721,1,8,0:0:0:0:
155,127,98864,1,8,0:0:0:0:
152,130,98936,1,8,0:0:0:0:
154,127,99007,1,0,0:0:0:0:
153,127,99079,1,0,0:0:0:0:
152,130,99150,1,8,0:0:0:0:
251,95,99186,1,8,0:0:0:0:
136,71,99293,1,0,0:0:0:0:
136,71,99329,1,0,0:0:0:0:
136,71,99436,1,8,0:0:0:0:
156,56,99471,1,8,0:0:0:0:
156,57,99579,1,8,0:0:0:0:
157,58,99614,1,8,0:0:0:0:
157,58,99721,1,0,0:0:0:0:
157,58,99757,1,0,0:0:0:0:
150,80,99864,1,8,0:0:0:0:
150,80,99900,1,8,0:0:0:0:
174,76,100007,1,0,0:0:0:0:
174,76,100079,1,0,0:0:0:0:
152,82,100150,1,0,0:0:0:0:
152,82,100221,1,0,0:0:0:0:
152,82,100293,1,8,0:0:0:0:
176,83,100329,1,8,0:0:0:0:
145,91,100436,1,0,0:0:0:0:
176,82,100471,1,0,0:0:0:0:
145,91,100579,1,8,0:0:0:0:
175,82,100614,1,8,0:0:0:0:
145,91,100721,1,8,0:0:0:0:
176,83,100757,1,8,0:0:0:0:
145,91,100864,1,0,0:0:0:0:
175,85,100900,1,0,0:0:0:0:
145,91,101007,1,0,0:0:0:0:
173,91,101150,1,8,0:0:0:0:
173,91,101221,1,8,0:0:0:0:
150,62,101293,1,0,0:0:0:0:
147,72,101364,1,0,0:0:0:0:
173,91,101436,1,8,0:0:0:0:
176,83,101471,1,8,0:0:0:0:
174,106,101579,1,0,0:0:0:0:
175,85,101614,1,0,0:0:0:0:
174,106,101721,1,8,0:0:0:0:
175,85,101757,1,8,0:0:0:0:
173,91,101864,1,8,0:0:0:0:
173,91,101900,1,8,0:0:0:0:
174,106,102007,1,0,0:0:0:0:
173,91,102043,1,0,0:0:0:0:
174,106,102150,1,8,0:0:0:0:
173,91,102186,1,8,0:0:0:0:
174,106,102293,1,0,0:0:0:0:
171,88,102329,1,0,0:0:0:0:
174,106,102436,1,0,0:0:0:0:
171,88,102471,1,0,0:0:0:0:
174,106,102579,1,8,0:0:0:0:
173,91,102614,1,8,0:0:0:0:
174,106,102721,1,0,0:0:0:0:
171,88,102757,1,0,0:0:0:0:
174,106,102864,1,8,0:0:0:0:
171,88,102900,1,8,0:0:0:0:
174,106,103007,1,8,0:0:0:0:
171,88,103043,1,8,0:0:0:0:
174,106,103150,1,0,0:0:0:0:
171,88,103186,1,0,0:0:0:0:
174,106,103293,1,0,0:0:0:0:
172,97,103436,1,8,0:0:0:0:
172,97,103507,1,8,0:0:0:0:
172,97,103579,1,0,0:0:0:0:
172,97,103650,1,0,0:0:0:0:
172,97,103721,1,8,0:0:0:0:
171,88,103757,1,8,0:0:0:0:
211,84,103864,1,0,0:0:0:0:
171,88,103900,1,0,0:0:0:0:
211,84,104007,1,8,0:0:0:0:
171,88,104043,1,8,0:0:0:0:
211,84,104150,1,8,0:0:0:0:
171,88,104186,1,8,0:0:0:0:
211,84,104293,1,0,0:0:0:0:
171,88,104329,1,0,0:0:0:0:
211,84,104436,1,8,0:0:0:0:
171,88,104471,1,8,0:0:0:0:
211,84,104579,1,0,0:0:0:0:
211,84,104650,1,0,0:0:0:0:
211,84,104721,1,0,0:0:0:0:
211,84,104793,1,0,0:0:0:0:
211,84,104864,1,8,0:0:0:0:
171,88,104900,1,8,0:0:0:0:
199,103,105007,1,0,0:0:0:0:
171,88,105043,1,0,0:0:0:0:
199,103,105150,1,8,0:0:0:0:
171,88,105186,1,8,0:0:0:0:
199,103,105293,1,8,0:0:0:0:
171,88,105329,1,8,0:0:0:0:
199,103,105436,1,0,0:0:0:0:
171,88,105471,1,0,0:0:0:0:
199,103,105579,1,0,0:0:0:0:
235,79,105721,1,8,0:0:0:0:
235,79,105793,1,8,0:0:0:0:
235,79,105864,1,0,0:0:0:0:
235,79,105936,1,0,0:0:0:0:
235,79,106007,1,8,0:0:0:0:
194,41,106043,1,8,0:0:0:0:
199,103,106150,1,0,0:0:0:0:
194,41,106186,1,0,0:0:0:0:
199,103,106293,1,8,0:0:0:0:
194,41,106329,1,8,0:0:0:0:
194,41,106436,1,8,0:0:0:0:
194,41,106471,1,8,0:0:0:0:
199,103,106579,1,0,0:0:0:0:
194,41,106614,1,0,0:0:0:0:
199,103,106721,1,8,0:0:0:0:
194,41,106757,1,8,0:0:0:0:
199,103,106864,1,0,0:0:0:0:
194,41,106900,1,0,0:0:0:0:
199,103,107007,1,0,0:0:0:0:
194,41,107043,1,0,0:0:0:0:
199,103,107150,1,8,0:0:0:0:
194,41,107186,1,8,0:0:0:0:
194,41,107293,1,0,0:0:0:0:
194,41,107329,1,0,0:0:0:0:
199,103,107436,1,8,0:0:0:0:
194,41,107471,1,8,0:0:0:0:
199,103,107579,1,8,0:0:0:0:
188,41,107614,1,8,0:0:0:0:
199,103,107721,1,0,0:0:0:0:
186,42,107757,1,0,0:0:0:0:
166,80,107864,1,0,0:0:0:0:
155,127,108007,1,8,0:0:0:0:
152,130,108079,1,8,0:0:0:0:
154,127,108150,1,0,0:0:0:0:
153,127,108221,1,0,0:0:0:0:
152,130,108293,1,8,0:0:0:0:
251,95,108329,1,8,0:0:0:0:
136,71,108436,1,0,0:0:0:0:
136,71,108471,1,0,0:0:0:0:
136,71,108579,1,8,0:0:0:0:
156,56,108614,1,8,0:0:0:0:
156,57,108721,1,8,0:0:0:0:
157,58,108757,1,8,0:0:0:0:
157,58,108864,1,0,0:0:0:0:
157,58,108900,1,0,0:0:0:0:
150,80,109007,1,8,0:0:0:0:
150,80,109043,1,8,0:0:0:0:
174,76,109150,1,0,0:0:0:0:
174,76,109221,1,0,0:0:0:0:
152,82,109293,1,0,0:0:0:0:
152,82,109364,1,0,0:0:0:0:
152,82,109436,1,8,0:0:0:0:
176,83,109471,1,8,0:0:0:0:
145,91,109579,1,0,0:0:0:0:
176,82,109614,1,0,0:0:0:0:
145,91,109721,1,8,0:0:0:0:
175,82,109757,1,8,0:0:0:0:
145,91,109864,1,8,0:0:0:0:
176,83,109900,1,8,0:0:0:0:
145,91,110007,1,0,0:0:0:0:
175,85,110043,1,0,0:0:0:0:
145,91,110150,1,0,0:0:0:0:
173,91,110293,1,8,0:0:0:0:
173,91,110364,1,8,0:0:0:0:
150,62,110436,1,0,0:0:0:0:
147,72,110507,1,0,0:0:0:0:
173,91,110579,1,8,0:0:0:0:
176,83,110614,1,8,0:0:0:0:
174,106,110721,1,0,0:0:0:0:
175,85,110757,1,0,0:0:0:0:
174,106,110864,1,8,0:0:0:0:
175,85,110900,1,8,0:0:0:0:
173,91,111007,1,8,0:0:0:0:
173,91,111043,1,8,0:0:0:0:
174,106,111150,1,0,0:0:0:0:
173,91,111186,1,0,0:0:0:0:
174,106,111293,1,8,0:0:0:0:
173,91,111329,1,8,0:0:0:0:
174,106,111436,1,0,0:0:0:0:
171,88,111471,1,0,0:0:0:0:
174,106,111579,1,0,0:0:0:0:
171,88,111614,1,0,0:0:0:0:
174,106,111721,1,8,0:0:0:0:
173,91,111757,1,8,0:0:0:0:
174,106,111864,1,0,0:0:0:0:
171,88,111900,1,0,0:0:0:0:
174,106,112007,1,8,0:0:0:0:
171,88,112043,1,8,0:0:0:0:
174,106,112150,1,8,0:0:0:0:
171,88,112186,1,8,0:0:0:0:
174,106,112293,1,0,0:0:0:0:
171,88,112329,1,0,0:0:0:0:
174,106,112436,1,0,0:0:0:0:
172,97,112579,1,8,0:0:0:0:
172,97,112650,1,8,0:0:0:0:
172,97,112721,1,0,0:0:0:0:
172,97,112793,1,0,0:0:0:0:
172,97,112864,1,8,0:0:0:0:
171,88,112900,1,8,0:0:0:0:
211,84,113007,1,0,0:0:0:0:
171,88,113043,1,0,0:0:0:0:
211,84,113150,1,8,0:0:0:0:
171,88,113186,1,8,0:0:0:0:
211,84,113293,1,8,0:0:0:0:
171,88,113329,1,8,0:0:0:0:
211,84,113436,1,0,0:0:0:0:
171,88,113471,1,0,0:0:0:0:
211,84,113579,1,8,0:0:0:0:
171,88,113614,1,8,0:0:0:0:
211,84,113721,1,0,0:0:0:0:
211,84,113793,1,0,0:0:0:0:
211,84,113864,1,0,0:0:0:0:
211,84,113936,1,0,0:0:0:0:
211,84,114007,1,8,0:0:0:0:
171,88,114043,1,8,0:0:0:0:
199,103,114150,1,0,0:0:0:0:
171,88,114186,1,0,0:0:0:0:
199,103,114293,1,8,0:0:0:0:
171,88,114329,1,8,0:0:0:0:
199,103,114436,1,8,0:0:0:0:
171,88,114471,1,8,0:0:0:0:
199,103,114579,1,0,0:0:0:0:
171,88,114614,1,0,0:0:0:0:
199,103,114721,1,0,0:0:0:0:
235,79,114864,1,8,0:0:0:0:
235,79,114936,1,8,0:0:0:0:
235,79,115007,1,0,0:0:0:0:
235,79,115079,1,0,0:0:0:0:
235,79,115150,1,8,0:0:0:0:
194,41,115186,1,8,0:0:0:0:
199,103,115293,1,0,0:0:0:0:
194,41,115329,1,0,0:0:0:0:
199,103,115436,1,8,0:0:0:0:
194,41,115471,1,8,0:0:0:0:
194,41,115579,1,8,0:0:0:0:
194,41,115614,1,8,0:0:0:0:
199,103,115721,1,0,0:0:0:0:
194,41,115757,1,0,0:0:0:0:
199,103,115864,1,8,0:0:0:0:
