osu file format v14

[General]
AudioFilename: audio.mp3
AudioLeadIn: 0
PreviewTime: 240012
Countdown: 0
SampleSet: Soft
StackLeniency: 0.7
Mode: 3
LetterboxInBreaks: 0
SpecialStyle: 0
WidescreenStoryboard: 0

[Editor]
Bookmarks: 14412,33614,78014,141614,160814,239712,336012
DistanceSpacing: 4.4
BeatDivisor: 6
GridSize: 32
TimelineZoom: 2.2

[Metadata]
Title:REGGAETON BUT IT HAS AMEN BREAKS
TitleUnicode:REGGAETON BUT IT HAS AMEN BREAKS
Artist:ulko
ArtistUnicode:ulko
Creator:frenanfloo
Version:ATREVETE
Source:
Tags:Spanish Electronic Reggaeton Regueton Streams Jacks Flaite Breakcore Amen Breaks Instrumental Daddy Yankee Calle 13 Tito el bambino Plan b Don omar Kanye West I love it Siente El Boom Solo por un beso Lil Pump Adele Givens Tu Recuerdo Ricky Martin La Factoria Perdoname Eddy Lover Candy Atrevete te te El señor de la noche El Ritmo No Perdona Aventura El Patrón ulqui
BeatmapID:2658168
BeatmapSetID:1279587

[Difficulty]
HPDrainRate:9
CircleSize:4
OverallDifficulty:9
ApproachRate:5
SliderMultiplier:1.4
SliderTickRate:1

[Events]
//Background and Video events
0,0,"bg.jpg",0,0
//Break Periods
//Storyboard Layer 0 (Background)
//Storyboard Layer 1 (Fail)
//Storyboard Layer 2 (Pass)
//Storyboard Layer 3 (Foreground)
//Storyboard Layer 4 (Overlay)
//Storyboard Sound Samples

[TimingPoints]
14,300,4,2,1,60,1,0
33576,-50,4,2,1,60,0,0
33614,-200,4,2,1,60,0,0
33876,-50,4,2,1,60,0,0
33914,-200,4,2,1,60,0,0
34026,-50,4,2,1,60,0,0
34064,-200,4,2,1,60,0,0
34176,-50,4,2,1,60,0,0
34214,-200,4,2,1,60,0,0
34326,-50,4,2,1,60,0,0
34364,-200,4,2,1,60,0,0
34476,-50,4,2,1,60,0,0
34514,-200,4,2,1,60,0,0
34626,-50,4,2,1,60,0,0
34664,-200,4,2,1,60,0,0
34776,-50,4,2,1,60,0,0
34814,-200,4,2,1,60,0,0
35001,-62.5,4,2,1,60,0,0
35039,-250,4,2,1,60,0,0
35076,-62.5,4,2,1,60,0,0
35114,-250,4,2,1,60,0,0
35226,-50,4,2,1,60,0,0
35264,-200,4,2,1,60,0,0
35376,-50,4,2,1,60,0,0
35414,-200,4,2,1,60,0,0
35526,-50,4,2,1,60,0,0
35564,-200,4,2,1,60,0,0
35676,-50,4,2,1,60,0,0
35714,-200,4,2,1,60,0,0
35826,-52.6315789473684,4,2,1,60,0,0
35864,-200,4,2,1,60,0,0
35901,-62.5,4,2,1,60,0,0
35939,-250,4,2,1,60,0,0
35976,-62.5,4,2,1,60,0,0
36014,-250,4,2,1,60,0,0
36126,-62.5,4,2,1,60,0,0
36164,-250,4,2,1,60,0,0
36201,-62.5,4,2,1,60,0,0
36239,-250,4,2,1,60,0,0
36276,-62.5,4,2,1,60,0,0
36314,-250,4,2,1,60,0,0
36426,-50,4,2,1,60,0,0
36464,-200,4,2,1,60,0,0
36576,-50,4,2,1,60,0,0
36614,-200,4,2,1,60,0,0
36726,-50,4,2,1,60,0,0
36764,-200,4,2,1,60,0,0
36876,-50,4,2,1,60,0,0
36914,-200,4,2,1,60,0,0
37026,-50,4,2,1,60,0,0
37064,-200,4,2,1,60,0,0
37176,-50,4,2,1,60,0,0
37214,-200,4,2,1,60,0,0
37326,-50,4,2,1,60,0,0
37364,-200,4,2,1,60,0,0
37476,-50,4,2,1,60,0,0
37514,-200,4,2,1,60,0,0
37626,-50,4,2,1,60,0,0
37664,-200,4,2,1,60,0,0
37776,-50,4,2,1,60,0,0
37814,-200,4,2,1,60,0,0
37945,-33.112582781457,4,2,1,60,0,0
37964,-1000,4,2,1,60,0,0
38020,-33.112582781457,4,2,1,60,0,0
38039,-1000,4,2,1,60,0,0
38095,-29.2397660818713,4,2,1,60,0,0
38114,-333.333333333333,4,2,1,60,0,0
38245,-33.112582781457,4,2,1,60,0,0
38264,-294.117647058823,4,2,1,60,0,0
38282,-277.777777777778,4,2,1,60,0,0
38301,-263.157894736842,4,2,1,60,0,0
38320,-250,4,2,1,60,0,0
38339,-238.095238095238,4,2,1,60,0,0
38357,-227.272727272727,4,2,1,60,0,0
38376,-217.391304347826,4,2,1,60,0,0
38395,-208.333333333333,4,2,1,60,0,0
38414,-200,4,2,1,60,0,0
38451,-185.185185185185,4,2,1,60,0,0
38489,-172.413793103448,4,2,1,60,0,0
38526,-161.290322580645,4,2,1,60,0,0
38564,-151.515151515152,4,2,1,60,0,0
38601,-142.857142857143,4,2,1,60,0,0
38639,-135.135135135135,4,2,1,60,0,0
38676,-128.205128205128,4,2,1,60,0,0
38714,-121.951219512195,4,2,1,60,0,0
38751,-116.279069767442,4,2,1,60,0,0
38789,-111.111111111111,4,2,1,60,0,0
38826,-106.382978723404,4,2,1,60,0,0
38864,-100,4,2,1,60,0,0
61214,-62.5,4,2,1,60,0,0
61247,-133.333333333334,4,2,1,60,0,0
61364,-62.5,4,2,1,60,0,0
61397,-133.333333333334,4,2,1,60,0,0
61514,-62.5,4,2,1,60,0,0
61547,-133.333333333334,4,2,1,60,0,0
61664,-62.5,4,2,1,60,0,0
61697,-133.333333333334,4,2,1,60,0,0
61814,-62.5,4,2,1,60,0,0
61847,-133.333333333334,4,2,1,60,0,0
61964,-62.5,4,2,1,60,0,0
61997,-133.333333333334,4,2,1,60,0,0
62114,-62.5,4,2,1,60,0,0
62147,-133.333333333334,4,2,1,60,0,0
62264,-62.5,4,2,1,60,0,0
62297,-133.333333333334,4,2,1,60,0,0
62395,-33.112582781457,4,2,1,60,0,0
62414,-294.117647058823,4,2,1,60,0,0
62432,-277.777777777778,4,2,1,60,0,0
62451,-263.157894736842,4,2,1,60,0,0
62470,-250,4,2,1,60,0,0
62489,-238.095238095238,4,2,1,60,0,0
62507,-227.272727272727,4,2,1,60,0,0
62526,-217.391304347826,4,2,1,60,0,0
62545,-208.333333333333,4,2,1,60,0,0
62564,-200,4,2,1,60,0,0
62601,-185.185185185185,4,2,1,60,0,0
62639,-172.413793103448,4,2,1,60,0,0
62676,-161.290322580645,4,2,1,60,0,0
62714,-151.515151515152,4,2,1,60,0,0
62751,-142.857142857143,4,2,1,60,0,0
62789,-135.135135135135,4,2,1,60,0,0
62826,-128.205128205128,4,2,1,60,0,0
62864,-121.951219512195,4,2,1,60,0,0
62901,-116.279069767442,4,2,1,60,0,0
62939,-111.111111111111,4,2,1,60,0,0
62976,-106.382978723404,4,2,1,60,0,0
63014,-100,4,2,1,60,0,0
68414,-54.9450549450549,4,2,1,60,0,0
68447,-138.888888888889,4,2,1,60,0,0
68714,-54.9450549450549,4,2,1,60,0,0
68747,-138.888888888889,4,2,1,60,0,0
69014,-54.9450549450549,4,2,1,60,0,0
69047,-138.888888888889,4,2,1,60,0,0
69164,-54.9450549450549,4,2,1,60,0,0
69197,-138.888888888889,4,2,1,60,0,0
69314,-54.9450549450549,4,2,1,60,0,0
69347,-250.000000000001,4,2,1,60,0,0
69389,-54.9450549450549,4,2,1,60,0,0
69422,-250.000000000001,4,2,1,60,0,0
69464,-54.9450549450549,4,2,1,60,0,0
69497,-250.000000000001,4,2,1,60,0,0
69539,-54.9450549450549,4,2,1,60,0,0
69572,-250.000000000001,4,2,1,60,0,0
69614,-100,4,2,1,60,0,0
78014,-50,4,2,1,60,0,0
78089,-222.222222222223,4,2,1,60,0,0
78314,-142.857142857143,4,2,1,60,0,0
78389,-129.87012987013,4,2,1,60,0,0
78464,-116.279069767442,4,2,1,60,0,0
78539,-106.382978723404,4,2,1,60,0,0
78614,-100,4,2,1,60,0,0
98712,-52.6315789473684,4,2,1,60,0,0
98745,-181.818181818182,4,2,1,60,0,0
98862,-52.6315789473684,4,2,1,60,0,0
98895,-181.818181818182,4,2,1,60,0,0
99162,-52.6315789473684,4,2,1,60,0,0
99195,-181.818181818182,4,2,1,60,0,0
99312,-52.6315789473684,4,2,1,60,0,0
99345,-181.818181818182,4,2,1,60,0,0
99612,-33.3333333333333,4,2,1,60,0,0
99645,-1000,4,2,1,60,0,0
99762,-33.3333333333333,4,2,1,60,0,0
99795,-1000,4,2,1,60,0,0
99912,-33.3333333333333,4,2,1,60,0,0
99945,-1000,4,2,1,60,0,0
100062,-33.3333333333333,4,2,1,60,0,0
100095,-1000,4,2,1,60,0,0
100212,-52.6315789473684,4,2,1,60,0,0
100245,-1000,4,2,1,60,0,0
100287,-52.6315789473684,4,2,1,60,0,0
100320,-1000,4,2,1,60,0,0
100362,-52.6315789473684,4,2,1,60,0,0
100395,-1000,4,2,1,60,0,0
100437,-52.6315789473684,4,2,1,60,0,0
100470,-1000,4,2,1,60,0,0
100512,-52.6315789473684,4,2,1,60,0,0
100545,-1000,4,2,1,60,0,0
100549,-80,4,2,1,60,0,0
100568,-1000,4,2,1,60,0,0
100587,-80,4,2,1,60,0,0
100606,-1000,4,2,1,60,0,0
100624,-80,4,2,1,60,0,0
100643,-1000,4,2,1,60,0,0
100662,-80,4,2,1,60,0,0
100681,-1000,4,2,1,60,0,0
100699,-80,4,2,1,60,0,0
100718,-1000,4,2,1,60,0,0
100737,-80,4,2,1,60,0,0
100756,-1000,4,2,1,60,0,0
100774,-80,4,2,1,60,0,0
100793,-45.4545454545455,4,2,1,60,0,0
100812,-100,4,2,1,60,0,0
160812,-41.6666666666667,4,2,1,60,0,0
160845,-250,4,2,1,60,0,0
161112,-41.6666666666667,4,2,1,60,0,0
161145,-250,4,2,1,60,0,0
161412,-27.4725274725275,4,2,1,60,0,0
161430,-68.4931506849315,4,2,1,60,0,0
161449,-200,4,2,1,60,0,0
161562,-27.4725274725275,4,2,1,60,0,0
161580,-68.4931506849315,4,2,1,60,0,0
161599,-200,4,2,1,60,0,0
161712,-27.4725274725275,4,2,1,60,0,0
161730,-68.4931506849315,4,2,1,60,0,0
161749,-200,4,2,1,60,0,0
161862,-27.4725274725275,4,2,1,60,0,0
161880,-68.4931506849315,4,2,1,60,0,0
161899,-200,4,2,1,60,0,0
162012,-111.111111111111,4,2,1,60,0,0
162612,-105.263157894737,4,2,1,60,0,0
162762,-102.040816326531,4,2,1,60,0,0
162912,-100,4,2,1,60,0,0
172814,-100,4,2,1,60,0,1
180012,-62.5,4,2,1,60,0,1
180045,-133.333333333334,4,2,1,60,0,1
180162,-62.5,4,2,1,60,0,1
180195,-133.333333333334,4,2,1,60,0,1
180312,-62.5,4,2,1,60,0,1
180345,-133.333333333334,4,2,1,60,0,1
180462,-62.5,4,2,1,60,0,1
180495,-133.333333333334,4,2,1,60,0,1
180612,-62.5,4,2,1,60,0,1
180645,-133.333333333334,4,2,1,60,0,1
180762,-62.5,4,2,1,60,0,1
180795,-133.333333333334,4,2,1,60,0,1
180912,-62.5,4,2,1,60,0,1
180945,-133.333333333334,4,2,1,60,0,1
181062,-62.5,4,2,1,60,0,1
181095,-133.333333333334,4,2,1,60,0,1
181214,-62.5,4,2,1,60,0,1
181247,-133.333333333334,4,2,1,60,0,1
181289,-62.5,4,2,1,60,0,1
181322,-133.333333333334,4,2,1,60,0,1
181364,-62.5,4,2,1,60,0,1
181397,-133.333333333334,4,2,1,60,0,1
181439,-62.5,4,2,1,60,0,1
181472,-133.333333333334,4,2,1,60,0,1
181514,-62.5,4,2,1,60,0,1
181547,-133.333333333334,4,2,1,60,0,1
181589,-62.5,4,2,1,60,0,1
181622,-133.333333333334,4,2,1,60,0,1
181664,-294.117647058823,4,2,1,60,0,0
181682,-277.777777777778,4,2,1,60,0,0
181701,-263.157894736842,4,2,1,60,0,0
181720,-250,4,2,1,60,0,0
181739,-238.095238095238,4,2,1,60,0,0
181757,-227.272727272727,4,2,1,60,0,0
181776,-217.391304347826,4,2,1,60,0,0
181795,-208.333333333333,4,2,1,60,0,0
181814,-200,4,2,1,60,0,0
181851,-185.185185185185,4,2,1,60,0,0
181889,-172.413793103448,4,2,1,60,0,0
181926,-161.290322580645,4,2,1,60,0,0
181964,-151.515151515152,4,2,1,60,0,0
182001,-142.857142857143,4,2,1,60,0,0
182039,-135.135135135135,4,2,1,60,0,0
182076,-128.205128205128,4,2,1,60,0,0
182114,-121.951219512195,4,2,1,60,0,0
182151,-116.279069767442,4,2,1,60,0,0
182189,-111.111111111111,4,2,1,60,0,0
182226,-106.382978723404,4,2,1,60,0,0
182264,-100,4,2,1,60,0,0
220512,-454.545454545455,4,2,1,60,0,0
220737,-45.045045045045,4,2,1,60,0,0
220814,-100,4,2,1,60,0,1
230414,-100,4,2,1,60,0,0
239712,-23.8095238095238,4,2,1,60,0,0
239730,-117.64705882353,4,2,1,60,0,0
239749,-125,4,2,1,60,0,0
239768,-133.333333333333,4,2,1,60,0,0
239787,-142.857142857143,4,2,1,60,0,0
239805,-153.846153846153,4,2,1,60,0,0
239824,-166.666666666667,4,2,1,60,0,0
239843,-181.818181818182,4,2,1,60,0,0
239862,-200,4,2,1,60,0,0
239880,-222.222222222223,4,2,1,60,0,0
239899,-250,4,2,1,60,0,0
240014,-100,4,2,1,60,0,1
248414,-62.5,4,2,1,60,0,0
248447,-133.333333333334,4,2,1,60,0,0
248564,-62.5,4,2,1,60,0,0
248597,-133.333333333334,4,2,1,60,0,0
248714,-62.5,4,2,1,60,0,0
248747,-133.333333333334,4,2,1,60,0,0
248864,-62.5,4,2,1,60,0,0
248897,-133.333333333334,4,2,1,60,0,0
249014,-62.5,4,2,1,60,0,0
249047,-133.333333333334,4,2,1,60,0,0
249164,-62.5,4,2,1,60,0,0
249197,-133.333333333334,4,2,1,60,0,0
249314,-454.545454545455,4,2,1,60,0,0
249539,-45.045045045045,4,2,1,60,0,0
249614,-100,4,2,1,60,0,1
259214,-100,4,2,1,60,0,0
297614,-62.5,4,2,1,60,0,0
297647,-133.333333333334,4,2,1,60,0,0
297764,-62.5,4,2,1,60,0,0
297797,-133.333333333334,4,2,1,60,0,0
297914,-62.5,4,2,1,60,0,0
297947,-133.333333333334,4,2,1,60,0,0
298064,-62.5,4,2,1,60,0,0
298097,-133.333333333334,4,2,1,60,0,0
298214,-62.5,4,2,1,60,0,0
298247,-133.333333333334,4,2,1,60,0,0
298364,-62.5,4,2,1,60,0,0
298397,-133.333333333334,4,2,1,60,0,0
298514,-62.5,4,2,1,60,0,0
298547,-133.333333333334,4,2,1,60,0,0
298664,-62.5,4,2,1,60,0,0
298697,-133.333333333334,4,2,1,60,0,0
298814,-62.5,4,2,1,60,0,0
298847,-133.333333333334,4,2,1,60,0,0
298964,-62.5,4,2,1,60,0,0
298997,-133.333333333334,4,2,1,60,0,0
299114,-62.5,4,2,1,60,0,0
299147,-133.333333333334,4,2,1,60,0,0
299264,-62.5,4,2,1,60,0,0
299297,-133.333333333334,4,2,1,60,0,0
299414,-62.5,4,2,1,60,0,0
299447,-133.333333333334,4,2,1,60,0,0
299564,-62.5,4,2,1,60,0,0
299597,-133.333333333334,4,2,1,60,0,0
299714,-62.5,4,2,1,60,0,0
299747,-133.333333333334,4,2,1,60,0,0
299864,-62.5,4,2,1,60,0,0
299897,-133.333333333334,4,2,1,60,0,0
300014,-62.5,4,2,1,60,0,0
300047,-133.333333333334,4,2,1,60,0,0
300164,-62.5,4,2,1,60,0,0
300197,-133.333333333334,4,2,1,60,0,0
300314,-62.5,4,2,1,60,0,0
300347,-133.333333333334,4,2,1,60,0,0
300464,-62.5,4,2,1,60,0,0
300497,-133.333333333334,4,2,1,60,0,0
300614,-62.5,4,2,1,60,0,0
300647,-133.333333333334,4,2,1,60,0,0
300764,-62.5,4,2,1,60,0,0
300797,-133.333333333334,4,2,1,60,0,0
300914,-62.5,4,2,1,60,0,0
300947,-133.333333333334,4,2,1,60,0,0
301064,-62.5,4,2,1,60,0,0
301097,-133.333333333334,4,2,1,60,0,0
301214,-62.5,4,2,1,60,0,0
301247,-133.333333333334,4,2,1,60,0,0
301364,-62.5,4,2,1,60,0,0
301397,-133.333333333334,4,2,1,60,0,0
301514,-62.5,4,2,1,60,0,0
301547,-133.333333333334,4,2,1,60,0,0
301664,-62.5,4,2,1,60,0,0
301697,-133.333333333334,4,2,1,60,0,0
301814,-62.5,4,2,1,60,0,0
301847,-133.333333333334,4,2,1,60,0,0
301964,-62.5,4,2,1,60,0,0
301997,-133.333333333334,4,2,1,60,0,0
302114,-62.5,4,2,1,60,0,0
302147,-133.333333333334,4,2,1,60,0,0
302264,-62.5,4,2,1,60,0,0
302297,-133.333333333334,4,2,1,60,0,0
302414,-62.5,4,2,1,60,0,0
302447,-133.333333333334,4,2,1,60,0,0
302470,-60.2409638554217,4,2,1,60,0,0
302489,-303.030303030303,4,2,1,60,0,0
302507,-60.2409638554217,4,2,1,60,0,0
302526,-303.030303030303,4,2,1,60,0,0
302545,-60.2409638554217,4,2,1,60,0,0
302564,-303.030303030303,4,2,1,60,0,0
302582,-60.2409638554217,4,2,1,60,0,0
302601,-303.030303030303,4,2,1,60,0,0
302620,-60.2409638554217,4,2,1,60,0,0
302639,-303.030303030303,4,2,1,60,0,0
302657,-60.2409638554217,4,2,1,60,0,0
302676,-303.030303030303,4,2,1,60,0,0
302695,-60.2409638554217,4,2,1,60,0,0
302714,-303.030303030303,4,2,1,60,0,0
302732,-60.2409638554217,4,2,1,60,0,0
302751,-303.030303030303,4,2,1,60,0,0
302770,-60.2409638554217,4,2,1,60,0,0
302789,-303.030303030303,4,2,1,60,0,0
302807,-60.2409638554217,4,2,1,60,0,0
302826,-303.030303030303,4,2,1,60,0,0
302845,-60.2409638554217,4,2,1,60,0,0
302864,-303.030303030303,4,2,1,60,0,0
302882,-60.2409638554217,4,2,1,60,0,0
302901,-303.030303030303,4,2,1,60,0,0
302920,-60.2409638554217,4,2,1,60,0,0
302939,-303.030303030303,4,2,1,60,0,0
302957,-60.2409638554217,4,2,1,60,0,0
302976,-303.030303030303,4,2,1,60,0,0
302995,-60.2409638554217,4,2,1,60,0,0
303014,-303.030303030303,4,2,1,60,0,0
303032,-60.2409638554217,4,2,1,60,0,0
303051,-303.030303030303,4,2,1,60,0,0
303070,-60.2409638554217,4,2,1,60,0,0
303089,-303.030303030303,4,2,1,60,0,0
303107,-60.2409638554217,4,2,1,60,0,0
303126,-303.030303030303,4,2,1,60,0,0
303145,-60.2409638554217,4,2,1,60,0,0
303164,-303.030303030303,4,2,1,60,0,0
303182,-60.2409638554217,4,2,1,60,0,0
303201,-303.030303030303,4,2,1,60,0,0
303220,-60.2409638554217,4,2,1,60,0,0
303239,-303.030303030303,4,2,1,60,0,0
303257,-60.2409638554217,4,2,1,60,0,0
303276,-303.030303030303,4,2,1,60,0,0
303295,-60.2409638554217,4,2,1,60,0,0
303314,-303.030303030303,4,2,1,60,0,0
303332,-60.2409638554217,4,2,1,60,0,0
303351,-303.030303030303,4,2,1,60,0,0
303370,-60.2409638554217,4,2,1,60,0,0
303389,-303.030303030303,4,2,1,60,0,0
303407,-60.2409638554217,4,2,1,60,0,0
303426,-303.030303030303,4,2,1,60,0,0
303445,-60.2409638554217,4,2,1,60,0,0
303464,-303.030303030303,4,2,1,60,0,0
303482,-60.2409638554217,4,2,1,60,0,0
303501,-303.030303030303,4,2,1,60,0,0
303520,-60.2409638554217,4,2,1,60,0,0
303539,-303.030303030303,4,2,1,60,0,0
303557,-60.2409638554217,4,2,1,60,0,0
303576,-303.030303030303,4,2,1,60,0,0
303595,-60.2409638554217,4,2,1,60,0,0
303614,-303.030303030303,4,2,1,60,0,0
303632,-60.2409638554217,4,2,1,60,0,0
303651,-303.030303030303,4,2,1,60,0,0
303670,-60.2409638554217,4,2,1,60,0,0
303689,-303.030303030303,4,2,1,60,0,0
303707,-60.2409638554217,4,2,1,60,0,0
303726,-303.030303030303,4,2,1,60,0,0
303745,-60.2409638554217,4,2,1,60,0,0
303764,-303.030303030303,4,2,1,60,0,0
303782,-60.2409638554217,4,2,1,60,0,0
303801,-303.030303030303,4,2,1,60,0,0
303820,-60.2409638554217,4,2,1,60,0,0
303839,-303.030303030303,4,2,1,60,0,0
303857,-60.2409638554217,4,2,1,60,0,0
303876,-303.030303030303,4,2,1,60,0,0
303895,-60.2409638554217,4,2,1,60,0,0
303914,-303.030303030303,4,2,1,60,0,0
303932,-60.2409638554217,4,2,1,60,0,0
303951,-303.030303030303,4,2,1,60,0,0
303970,-60.2409638554217,4,2,1,60,0,0
303989,-303.030303030303,4,2,1,60,0,0
304007,-60.2409638554217,4,2,1,60,0,0
304026,-303.030303030303,4,2,1,60,0,0
304045,-60.2409638554217,4,2,1,60,0,0
304064,-303.030303030303,4,2,1,60,0,0
304082,-60.2409638554217,4,2,1,60,0,0
304101,-303.030303030303,4,2,1,60,0,0
304120,-60.2409638554217,4,2,1,60,0,0
304139,-303.030303030303,4,2,1,60,0,0
304157,-60.2409638554217,4,2,1,60,0,0
304176,-303.030303030303,4,2,1,60,0,0
304195,-60.2409638554217,4,2,1,60,0,0
304214,-303.030303030303,4,2,1,60,0,0
304232,-60.2409638554217,4,2,1,60,0,0
304251,-303.030303030303,4,2,1,60,0,0
304270,-60.2409638554217,4,2,1,60,0,0
304289,-303.030303030303,4,2,1,60,0,0
304307,-60.2409638554217,4,2,1,60,0,0
304326,-303.030303030303,4,2,1,60,0,0
304345,-60.2409638554217,4,2,1,60,0,0
304364,-303.030303030303,4,2,1,60,0,0
304382,-60.2409638554217,4,2,1,60,0,0
304401,-303.030303030303,4,2,1,60,0,0
304420,-60.2409638554217,4,2,1,60,0,0
304439,-303.030303030303,4,2,1,60,0,0
304457,-60.2409638554217,4,2,1,60,0,0
304476,-303.030303030303,4,2,1,60,0,0
304495,-60.2409638554217,4,2,1,60,0,0
304514,-303.030303030303,4,2,1,60,0,0
304532,-60.2409638554217,4,2,1,60,0,0
304551,-303.030303030303,4,2,1,60,0,0
304570,-60.2409638554217,4,2,1,60,0,0
304589,-303.030303030303,4,2,1,60,0,0
304607,-60.2409638554217,4,2,1,60,0,0
304626,-303.030303030303,4,2,1,60,0,0
304645,-60.2409638554217,4,2,1,60,0,0
304664,-303.030303030303,4,2,1,60,0,0
304682,-60.2409638554217,4,2,1,60,0,0
304701,-303.030303030303,4,2,1,60,0,0
304720,-60.2409638554217,4,2,1,60,0,0
304739,-303.030303030303,4,2,1,60,0,0
304757,-60.2409638554217,4,2,1,60,0,0
304776,-303.030303030303,4,2,1,60,0,0
304795,-60.2409638554217,4,2,1,60,0,0
304814,-100,4,2,1,60,0,0
307214,-100,4,2,1,60,0,1
316814,-100,4,2,1,60,0,0
336014,-27.4725274725275,4,2,1,60,0,1
336030,-68.4931506849315,4,2,1,60,0,1
336049,-200,4,2,1,60,0,1
336162,-27.4725274725275,4,2,1,60,0,1
336180,-68.4931506849315,4,2,1,60,0,1
336199,-200,4,2,1,60,0,1
336312,-27.4725274725275,4,2,1,60,0,1
336330,-68.4931506849315,4,2,1,60,0,1
336349,-200,4,2,1,60,0,1
336462,-27.4725274725275,4,2,1,60,0,1
336480,-68.4931506849315,4,2,1,60,0,1
336499,-200,4,2,1,60,0,1
336612,-27.4725274725275,4,2,1,60,0,1
336630,-68.4931506849315,4,2,1,60,0,1
336649,-200,4,2,1,60,0,1
336762,-27.4725274725275,4,2,1,60,0,1
336780,-68.4931506849315,4,2,1,60,0,1
336799,-200,4,2,1,60,0,1
336912,-27.4725274725275,4,2,1,60,0,1
336930,-68.4931506849315,4,2,1,60,0,1
336949,-200,4,2,1,60,0,1
337062,-27.4725274725275,4,2,1,60,0,1
337080,-68.4931506849315,4,2,1,60,0,1
337099,-200,4,2,1,60,0,1
337212,-27.4725274725275,4,2,1,60,0,1
337230,-68.4931506849315,4,2,1,60,0,1
337249,-200,4,2,1,60,0,1
337362,-27.4725274725275,4,2,1,60,0,1
337380,-68.4931506849315,4,2,1,60,0,1
337399,-200,4,2,1,60,0,1
337512,-27.4725274725275,4,2,1,60,0,1
337530,-68.4931506849315,4,2,1,60,0,1
337549,-200,4,2,1,60,0,1
337662,-27.4725274725275,4,2,1,60,0,1
337680,-68.4931506849315,4,2,1,60,0,1
337699,-200,4,2,1,60,0,1
337812,-27.4725274725275,4,2,1,60,0,1
337830,-68.4931506849315,4,2,1,60,0,1
337849,-200,4,2,1,60,0,1
337962,-27.4725274725275,4,2,1,60,0,1
337980,-68.4931506849315,4,2,1,60,0,1
337999,-200,4,2,1,60,0,1
338112,-27.4725274725275,4,2,1,60,0,1
338130,-68.4931506849315,4,2,1,60,0,1
338149,-500,4,2,1,60,0,1
338262,-27.4725274725275,4,2,1,60,0,1
338280,-68.4931506849315,4,2,1,60,0,1
338299,-500,4,2,1,60,0,1
338412,-27.4725274725275,4,2,1,60,0,1
338430,-68.4931506849315,4,2,1,60,0,1
338449,-500,4,2,1,60,0,1
338562,-27.4725274725275,4,2,1,60,0,1
338580,-68.4931506849315,4,2,1,60,0,1
338599,-200,4,2,1,60,0,1
338712,-27.4725274725275,4,2,1,60,0,1
338730,-68.4931506849315,4,2,1,60,0,1
338749,-200,4,2,1,60,0,1
338862,-27.4725274725275,4,2,1,60,0,1
338880,-68.4931506849315,4,2,1,60,0,1
338899,-200,4,2,1,60,0,1
339012,-27.4725274725275,4,2,1,60,0,1
339030,-68.4931506849315,4,2,1,60,0,1
339049,-200,4,2,1,60,0,1
339162,-27.4725274725275,4,2,1,60,0,1
339180,-68.4931506849315,4,2,1,60,0,1
339199,-200,4,2,1,60,0,1
339312,-27.4725274725275,4,2,1,60,0,1
339330,-68.4931506849315,4,2,1,60,0,1
339349,-200,4,2,1,60,0,1
339462,-27.4725274725275,4,2,1,60,0,1
339480,-68.4931506849315,4,2,1,60,0,1
339499,-200,4,2,1,60,0,1
339612,-27.4725274725275,4,2,1,60,0,1
339630,-68.4931506849315,4,2,1,60,0,1
339649,-200,4,2,1,60,0,1
339762,-27.4725274725275,4,2,1,60,0,1
339780,-68.4931506849315,4,2,1,60,0,1
339799,-200,4,2,1,60,0,1
339912,-27.4725274725275,4,2,1,60,0,1
339930,-68.4931506849315,4,2,1,60,0,1
339949,-200,4,2,1,60,0,1
340062,-27.4725274725275,4,2,1,60,0,1
340080,-68.4931506849315,4,2,1,60,0,1
340099,-200,4,2,1,60,0,1
340212,-27.4725274725275,4,2,1,60,0,1
340230,-68.4931506849315,4,2,1,60,0,1
340249,-200,4,2,1,60,0,1
340362,-27.4725274725275,4,2,1,60,0,1
340380,-68.4931506849315,4,2,1,60,0,1
340399,-200,4,2,1,60,0,1
340512,-27.4725274725275,4,2,1,60,0,1
340530,-68.4931506849315,4,2,1,60,0,1
340549,-500,4,2,1,60,0,1
340662,-27.4725274725275,4,2,1,60,0,1
340680,-68.4931506849315,4,2,1,60,0,1
340699,-500,4,2,1,60,0,1
340812,-27.4725274725275,4,2,1,60,0,1
340830,-68.4931506849315,4,2,1,60,0,1
340849,-500,4,2,1,60,0,1
340962,-27.4725274725275,4,2,1,60,0,1
340980,-68.4931506849315,4,2,1,60,0,1
340999,-200,4,2,1,60,0,1
341112,-27.4725274725275,4,2,1,60,0,1
341130,-68.4931506849315,4,2,1,60,0,1
341149,-200,4,2,1,60,0,1
341262,-27.4725274725275,4,2,1,60,0,1
341280,-68.4931506849315,4,2,1,60,0,1
341299,-200,4,2,1,60,0,1
341412,-27.4725274725275,4,2,1,60,0,1
341430,-68.4931506849315,4,2,1,60,0,1
341449,-200,4,2,1,60,0,1
341562,-27.4725274725275,4,2,1,60,0,1
341580,-68.4931506849315,4,2,1,60,0,1
341599,-200,4,2,1,60,0,1
341712,-27.4725274725275,4,2,1,60,0,1
341730,-68.4931506849315,4,2,1,60,0,1
341749,-200,4,2,1,60,0,1
341862,-27.4725274725275,4,2,1,60,0,1
341880,-68.4931506849315,4,2,1,60,0,1
341899,-200,4,2,1,60,0,1
342012,-27.4725274725275,4,2,1,60,0,1
342030,-68.4931506849315,4,2,1,60,0,1
342049,-200,4,2,1,60,0,1
342162,-27.4725274725275,4,2,1,60,0,1
342180,-68.4931506849315,4,2,1,60,0,1
342199,-200,4,2,1,60,0,1
342312,-27.4725274725275,4,2,1,60,0,1
342330,-68.4931506849315,4,2,1,60,0,1
342349,-200,4,2,1,60,0,1
342462,-27.4725274725275,4,2,1,60,0,1
342480,-68.4931506849315,4,2,1,60,0,1
342499,-200,4,2,1,60,0,1
342612,-27.4725274725275,4,2,1,60,0,1
342630,-68.4931506849315,4,2,1,60,0,1
342649,-200,4,2,1,60,0,1
342762,-27.4725274725275,4,2,1,60,0,1
342780,-68.4931506849315,4,2,1,60,0,1
342799,-200,4,2,1,60,0,1
342912,-27.4725274725275,4,2,1,60,0,1
342930,-68.4931506849315,4,2,1,60,0,1
342949,-500,4,2,1,60,0,1
343062,-27.4725274725275,4,2,1,60,0,1
343080,-68.4931506849315,4,2,1,60,0,1
343099,-500,4,2,1,60,0,1
343212,-27.4725274725275,4,2,1,60,0,1
343230,-68.4931506849315,4,2,1,60,0,1
343249,-500,4,2,1,60,0,1
343362,-27.4725274725275,4,2,1,60,0,1
343380,-68.4931506849315,4,2,1,60,0,1
343399,-200,4,2,1,60,0,1
343512,-27.4725274725275,4,2,1,60,0,1
343530,-68.4931506849315,4,2,1,60,0,1
343549,-200,4,2,1,60,0,1
343662,-27.4725274725275,4,2,1,60,0,1
343680,-68.4931506849315,4,2,1,60,0,1
343699,-200,4,2,1,60,0,1
343812,-27.4725274725275,4,2,1,60,0,1
343830,-68.4931506849315,4,2,1,60,0,1
343849,-200,4,2,1,60,0,1
343962,-27.4725274725275,4,2,1,60,0,1
343980,-68.4931506849315,4,2,1,60,0,1
343999,-200,4,2,1,60,0,1
344112,-27.4725274725275,4,2,1,60,0,1
344130,-68.4931506849315,4,2,1,60,0,1
344149,-200,4,2,1,60,0,1
344262,-27.4725274725275,4,2,1,60,0,1
344280,-68.4931506849315,4,2,1,60,0,1
344299,-200,4,2,1,60,0,1
344412,-27.4725274725275,4,2,1,60,0,1
344430,-68.4931506849315,4,2,1,60,0,1
344449,-200,4,2,1,60,0,1
344562,-27.4725274725275,4,2,1,60,0,1
344580,-68.4931506849315,4,2,1,60,0,1
344599,-200,4,2,1,60,0,1
344712,-27.4725274725275,4,2,1,60,0,1
344730,-68.4931506849315,4,2,1,60,0,1
344749,-200,4,2,1,60,0,1
344862,-27.4725274725275,4,2,1,60,0,1
344880,-68.4931506849315,4,2,1,60,0,1
344899,-200,4,2,1,60,0,1
345012,-27.4725274725275,4,2,1,60,0,1
345030,-68.4931506849315,4,2,1,60,0,1
345049,-200,4,2,1,60,0,1
345162,-35.2112676056338,4,2,1,60,0,1
345180,-68.4931506849315,4,2,1,60,0,1
345199,-666.666666666667,4,2,1,60,0,1
345312,-35.2112676056338,4,2,1,60,0,1
345330,-68.4931506849315,4,2,1,60,0,1
345349,-666.666666666667,4,2,1,60,0,1
345462,-35.2112676056338,4,2,1,60,0,1
345480,-68.4931506849315,4,2,1,60,0,1
345499,-666.666666666667,4,2,1,60,0,1
345614,-100,4,2,1,60,0,0
356412,-44.6428571428571,4,2,1,60,0,0
356430,-79.3650793650794,4,2,1,60,0,0
356449,-250,4,2,1,60,0,0
356712,-44.6428571428571,4,2,1,60,0,0
356730,-79.3650793650794,4,2,1,60,0,0
356749,-250,4,2,1,60,0,0
357012,-32.8947368421053,4,2,1,60,0,0
357030,-79.3650793650794,4,2,1,60,0,0
357049,-142.857142857143,4,2,1,60,0,0
357162,-32.8947368421053,4,2,1,60,0,0
357180,-79.3650793650794,4,2,1,60,0,0
357199,-142.857142857143,4,2,1,60,0,0
357312,-32.8947368421053,4,2,1,60,0,0
357330,-79.3650793650794,4,2,1,60,0,0
357349,-142.857142857143,4,2,1,60,0,0
357462,-32.8947368421053,4,2,1,60,0,0
357480,-79.3650793650794,4,2,1,60,0,0
357499,-142.857142857143,4,2,1,60,0,0
357612,-100,4,2,1,60,0,0
374414,-40.983606557377,4,2,1,60,0,0
374432,-68.4931506849315,4,2,1,60,0,0
374451,-333.333333333333,4,2,1,60,0,0
374564,-40.983606557377,4,2,1,60,0,0
374582,-68.4931506849315,4,2,1,60,0,0
374601,-333.333333333333,4,2,1,60,0,0
374714,-40.983606557377,4,2,1,60,0,0
374732,-68.4931506849315,4,2,1,60,0,0
374751,-333.333333333333,4,2,1,60,0,0
374864,-40.983606557377,4,2,1,60,0,0
374882,-68.4931506849315,4,2,1,60,0,0
374901,-333.333333333333,4,2,1,60,0,0
375014,-32.8947368421053,4,2,1,60,0,0
375032,-68.4931506849315,4,2,1,60,0,0
375051,-200,4,2,1,60,0,0
375164,-40.983606557377,4,2,1,60,0,0
375182,-68.4931506849315,4,2,1,60,0,0
375201,-333.333333333333,4,2,1,60,0,0
375314,-32.8947368421053,4,2,1,60,0,0
375332,-68.4931506849315,4,2,1,60,0,0
375351,-200,4,2,1,60,0,0
375464,-40.983606557377,4,2,1,60,0,0
375482,-68.4931506849315,4,2,1,60,0,0
375501,-333.333333333333,4,2,1,60,0,0
375614,-40.983606557377,4,2,1,60,0,0
375632,-68.4931506849315,4,2,1,60,0,0
375651,-333.333333333333,4,2,1,60,0,0
375764,-40.983606557377,4,2,1,60,0,0
375782,-68.4931506849315,4,2,1,60,0,0
375801,-333.333333333333,4,2,1,60,0,0
375914,-40.983606557377,4,2,1,60,0,0
375932,-68.4931506849315,4,2,1,60,0,0
375951,-333.333333333333,4,2,1,60,0,0
376064,-40.983606557377,4,2,1,60,0,0
376082,-68.4931506849315,4,2,1,60,0,0
376101,-333.333333333333,4,2,1,60,0,0
376214,-32.8947368421053,4,2,1,60,0,0
376232,-68.4931506849315,4,2,1,60,0,0
376251,-200,4,2,1,60,0,0
376364,-40.983606557377,4,2,1,60,0,0
376382,-68.4931506849315,4,2,1,60,0,0
376401,-333.333333333333,4,2,1,60,0,0
376514,-32.8947368421053,4,2,1,60,0,0
376532,-68.4931506849315,4,2,1,60,0,0
376551,-200,4,2,1,60,0,0
376664,-40.983606557377,4,2,1,60,0,0
376682,-68.4931506849315,4,2,1,60,0,0
376701,-333.333333333333,4,2,1,60,0,0
376814,-40.983606557377,4,2,1,60,0,0
376832,-68.4931506849315,4,2,1,60,0,0
376851,-333.333333333333,4,2,1,60,0,0
376964,-40.983606557377,4,2,1,60,0,0
376982,-68.4931506849315,4,2,1,60,0,0
377001,-333.333333333333,4,2,1,60,0,0
377114,-40.983606557377,4,2,1,60,0,0
377132,-68.4931506849315,4,2,1,60,0,0
377151,-333.333333333333,4,2,1,60,0,0
377264,-40.983606557377,4,2,1,60,0,0
377282,-68.4931506849315,4,2,1,60,0,0
377301,-333.333333333333,4,2,1,60,0,0
377414,-32.8947368421053,4,2,1,60,0,0
377432,-68.4931506849315,4,2,1,60,0,0
377451,-200,4,2,1,60,0,0
377564,-40.983606557377,4,2,1,60,0,0
377582,-68.4931506849315,4,2,1,60,0,0
377601,-333.333333333333,4,2,1,60,0,0
377714,-32.8947368421053,4,2,1,60,0,0
377732,-68.4931506849315,4,2,1,60,0,0
377751,-200,4,2,1,60,0,0
377864,-40.983606557377,4,2,1,60,0,0
377882,-68.4931506849315,4,2,1,60,0,0
377901,-333.333333333333,4,2,1,60,0,0
378014,-40.983606557377,4,2,1,60,0,0
378032,-68.4931506849315,4,2,1,60,0,0
378051,-333.333333333333,4,2,1,60,0,0
378164,-40.983606557377,4,2,1,60,0,0
378182,-68.4931506849315,4,2,1,60,0,0
378201,-333.333333333333,4,2,1,60,0,0
378314,-40.983606557377,4,2,1,60,0,0
378332,-68.4931506849315,4,2,1,60,0,0
378351,-333.333333333333,4,2,1,60,0,0
378464,-40.983606557377,4,2,1,60,0,0
378482,-68.4931506849315,4,2,1,60,0,0
378501,-333.333333333333,4,2,1,60,0,0
378614,-32.8947368421053,4,2,1,60,0,0
378632,-68.4931506849315,4,2,1,60,0,0
378651,-200,4,2,1,60,0,0
378764,-40.983606557377,4,2,1,60,0,0
378782,-68.4931506849315,4,2,1,60,0,0
378801,-333.333333333333,4,2,1,60,0,0
378914,-32.8947368421053,4,2,1,60,0,0
378932,-68.4931506849315,4,2,1,60,0,0
378951,-200,4,2,1,60,0,0
379064,-40.983606557377,4,2,1,60,0,0
379082,-68.4931506849315,4,2,1,60,0,0
379101,-333.333333333333,4,2,1,60,0,0
379214,-40.983606557377,4,2,1,60,0,0
379232,-68.4931506849315,4,2,1,60,0,0
379251,-333.333333333333,4,2,1,60,0,0
379364,-40.983606557377,4,2,1,60,0,0
379382,-68.4931506849315,4,2,1,60,0,0
379401,-333.333333333333,4,2,1,60,0,0
379514,-40.983606557377,4,2,1,60,0,0
379532,-68.4931506849315,4,2,1,60,0,0
379551,-333.333333333333,4,2,1,60,0,0
379664,-40.983606557377,4,2,1,60,0,0
379682,-68.4931506849315,4,2,1,60,0,0
379701,-333.333333333333,4,2,1,60,0,0
379814,-32.8947368421053,4,2,1,60,0,0
379832,-68.4931506849315,4,2,1,60,0,0
379851,-200,4,2,1,60,0,0
379964,-40.983606557377,4,2,1,60,0,0
379982,-68.4931506849315,4,2,1,60,0,0
380001,-333.333333333333,4,2,1,60,0,0
380114,-32.8947368421053,4,2,1,60,0,0
380132,-68.4931506849315,4,2,1,60,0,0
380151,-200,4,2,1,60,0,0
380264,-40.983606557377,4,2,1,60,0,0
380282,-68.4931506849315,4,2,1,60,0,0
380301,-333.333333333333,4,2,1,60,0,0
380414,-40.983606557377,4,2,1,60,0,0
380432,-68.4931506849315,4,2,1,60,0,0
380451,-333.333333333333,4,2,1,60,0,0
380564,-40.983606557377,4,2,1,60,0,0
380582,-68.4931506849315,4,2,1,60,0,0
380601,-333.333333333333,4,2,1,60,0,0
380714,-40.983606557377,4,2,1,60,0,0
380732,-68.4931506849315,4,2,1,60,0,0
380751,-333.333333333333,4,2,1,60,0,0
380864,-40.983606557377,4,2,1,60,0,0
380882,-68.4931506849315,4,2,1,60,0,0
380901,-333.333333333333,4,2,1,60,0,0
381014,-32.8947368421053,4,2,1,60,0,0
381032,-68.4931506849315,4,2,1,60,0,0
381051,-200,4,2,1,60,0,0
381164,-40.983606557377,4,2,1,60,0,0
381182,-68.4931506849315,4,2,1,60,0,0
381201,-333.333333333333,4,2,1,60,0,0
381314,-40.983606557377,4,2,1,60,0,0
381332,-68.4931506849315,4,2,1,60,0,0
381351,-333.333333333333,4,2,1,60,0,0
381464,-40.983606557377,4,2,1,60,0,0
381482,-68.4931506849315,4,2,1,60,0,0
381501,-333.333333333333,4,2,1,60,0,0
381614,-100,4,2,1,60,0,0

[HitObjects]
448,192,14,5,0,0:0:0:0:
64,192,14,1,0,0:0:0:0:
64,192,314,1,0,0:0:0:0:
320,192,314,1,0,0:0:0:0:
192,192,314,1,0,0:0:0:0:
448,192,764,1,0,0:0:0:0:
192,192,764,1,0,0:0:0:0:
192,192,914,1,0,0:0:0:0:
320,192,914,1,0,0:0:0:0:
64,192,914,1,0,0:0:0:0:
64,192,1214,1,0,0:0:0:0:
448,192,1214,1,0,0:0:0:0:
192,192,1514,1,0,0:0:0:0:
448,192,1514,1,0,0:0:0:0:
320,192,1514,1,0,0:0:0:0:
320,192,1964,1,0,0:0:0:0:
64,192,1964,1,0,0:0:0:0:
192,192,2114,1,0,0:0:0:0:
320,192,2114,1,0,0:0:0:0:
448,192,2114,1,0,0:0:0:0:
192,192,2414,1,0,0:0:0:0:
320,192,2414,1,0,0:0:0:0:
64,192,2714,1,0,0:0:0:0:
448,192,2714,1,0,0:0:0:0:
320,192,2714,1,0,0:0:0:0:
448,192,3014,128,0,3164:0:0:0:0:
64,192,3014,1,0,0:0:0:0:
320,192,3164,128,0,3314:0:0:0:0:
192,192,3314,1,0,0:0:0:0:
448,192,3314,1,0,0:0:0:0:
64,192,3314,1,0,0:0:0:0:
64,192,3464,128,0,3539:0:0:0:0:
192,192,3539,128,0,3614:0:0:0:0:
448,192,3614,128,0,3914:0:0:0:0:
320,192,3614,1,0,0:0:0:0:
64,192,3764,1,0,0:0:0:0:
320,192,3764,1,0,0:0:0:0:
192,192,3914,1,0,0:0:0:0:
320,192,3914,1,0,0:0:0:0:
64,192,3914,1,0,0:0:0:0:
448,192,4064,128,0,4364:0:0:0:0:
192,192,4064,1,0,0:0:0:0:
64,192,4064,1,0,0:0:0:0:
320,192,4214,1,0,0:0:0:0:
192,192,4289,1,0,0:0:0:0:
64,192,4364,1,0,0:0:0:0:
192,192,4514,1,0,0:0:0:0:
320,192,4514,1,0,0:0:0:0:
448,192,4514,1,0,0:0:0:0:
320,192,4814,1,0,0:0:0:0:
64,192,4814,1,0,0:0:0:0:
64,192,5114,1,0,0:0:0:0:
448,192,5114,1,0,0:0:0:0:
320,192,5114,1,0,0:0:0:0:
320,192,5414,1,0,0:0:0:0:
448,192,5414,1,0,0:0:0:0:
64,192,5564,1,0,0:0:0:0:
192,192,5564,1,0,0:0:0:0:
320,192,5714,1,0,0:0:0:0:
64,192,5714,1,0,0:0:0:0:
448,192,5714,1,0,0:0:0:0:
192,192,5864,1,0,0:0:0:0:
320,192,6014,1,0,0:0:0:0:
448,192,6014,1,0,0:0:0:0:
448,192,6164,1,0,0:0:0:0:
320,192,6164,1,0,0:0:0:0:
64,192,6314,1,0,0:0:0:0:
448,192,6314,1,0,0:0:0:0:
192,192,6314,1,0,0:0:0:0:
64,192,6464,1,0,0:0:0:0:
192,192,6464,1,0,0:0:0:0:
320,192,6539,1,0,0:0:0:0:
448,192,6614,128,0,6689:0:0:0:0:
64,192,6614,1,0,0:0:0:0:
320,192,6764,1,0,0:0:0:0:
448,192,6764,1,0,0:0:0:0:
192,192,6839,1,0,0:0:0:0:
448,192,6914,1,0,0:0:0:0:
320,192,6914,1,0,0:0:0:0:
64,192,6914,1,0,0:0:0:0:
64,192,7064,1,0,0:0:0:0:
192,192,7064,1,0,0:0:0:0:
448,192,7214,1,0,0:0:0:0:
64,192,7214,1,0,0:0:0:0:
192,192,7214,1,0,0:0:0:0:
320,192,7364,1,0,0:0:0:0:
448,192,7364,1,0,0:0:0:0:
192,192,7514,1,0,0:0:0:0:
448,192,7514,1,0,0:0:0:0:
64,192,7514,1,0,0:0:0:0:
64,192,7664,1,0,0:0:0:0:
320,192,7664,1,0,0:0:0:0:
192,192,7739,1,0,0:0:0:0:
320,192,7814,1,0,0:0:0:0:
448,192,7814,1,0,0:0:0:0:
448,192,7964,1,0,0:0:0:0:
64,192,7964,1,0,0:0:0:0:
64,192,8114,1,0,0:0:0:0:
192,192,8114,1,0,0:0:0:0:
448,192,8114,1,0,0:0:0:0:
320,192,8189,1,0,0:0:0:0:
192,192,8264,1,0,0:0:0:0:
64,192,8264,1,0,0:0:0:0:
448,192,8414,1,0,0:0:0:0:
64,192,8414,128,0,8714:0:0:0:0:
192,192,8414,1,0,0:0:0:0:
448,192,8714,128,0,8864:0:0:0:0:
64,192,8864,128,0,9014:0:0:0:0:
448,192,9014,1,0,0:0:0:0:
320,192,9014,1,0,0:0:0:0:
192,192,9014,1,0,0:0:0:0:
192,192,9164,1,0,0:0:0:0:
448,192,9164,1,0,0:0:0:0:
320,192,9164,1,0,0:0:0:0:
192,192,9314,1,0,0:0:0:0:
320,192,9314,1,0,0:0:0:0:
448,192,9314,1,0,0:0:0:0:
320,192,9464,1,0,0:0:0:0:
192,192,9464,1,0,0:0:0:0:
448,192,9464,1,0,0:0:0:0:
64,192,9614,1,0,0:0:0:0:
192,192,9614,1,0,0:0:0:0:
448,192,9614,1,0,0:0:0:0:
64,192,9764,1,0,0:0:0:0:
320,192,9764,1,0,0:0:0:0:
448,192,9914,1,0,0:0:0:0:
192,192,9914,1,0,0:0:0:0:
64,192,9914,1,0,0:0:0:0:
320,192,10064,1,0,0:0:0:0:
192,192,10214,1,0,0:0:0:0:
64,192,10214,1,0,0:0:0:0:
448,192,10289,1,0,0:0:0:0:
64,192,10364,1,0,0:0:0:0:
192,192,10364,1,0,0:0:0:0:
320,192,10364,1,0,0:0:0:0:
64,192,10514,1,0,0:0:0:0:
448,192,10514,1,0,0:0:0:0:
320,192,10514,1,0,0:0:0:0:
192,192,10664,1,0,0:0:0:0:
192,192,10814,1,0,0:0:0:0:
448,192,10814,1,0,0:0:0:0:
320,192,10814,1,0,0:0:0:0:
64,192,10964,1,0,0:0:0:0:
320,192,10964,1,0,0:0:0:0:
192,192,11114,1,0,0:0:0:0:
64,192,11114,1,0,0:0:0:0:
448,192,11114,1,0,0:0:0:0:
192,192,11264,1,0,0:0:0:0:
320,192,11414,1,0,0:0:0:0:
448,192,11414,1,0,0:0:0:0:
64,192,11489,1,0,0:0:0:0:
448,192,11564,1,0,0:0:0:0:
320,192,11564,1,0,0:0:0:0:
192,192,11564,1,0,0:0:0:0:
320,192,11714,1,0,0:0:0:0:
192,192,11714,1,0,0:0:0:0:
64,192,11714,1,0,0:0:0:0:
448,192,11864,1,0,0:0:0:0:
64,192,12014,1,0,0:0:0:0:
192,192,12014,1,0,0:0:0:0:
448,192,12014,1,0,0:0:0:0:
192,192,12164,1,0,0:0:0:0:
320,192,12164,1,0,0:0:0:0:
320,192,12314,1,0,0:0:0:0:
448,192,12314,1,0,0:0:0:0:
64,192,12314,1,0,0:0:0:0:
320,192,12464,1,0,0:0:0:0:
192,192,12614,1,0,0:0:0:0:
64,192,12614,1,0,0:0:0:0:
448,192,12689,1,0,0:0:0:0:
320,192,12764,1,0,0:0:0:0:
64,192,12764,1,0,0:0:0:0:
192,192,12764,1,0,0:0:0:0:
192,192,12914,1,0,0:0:0:0:
448,192,12914,1,0,0:0:0:0:
64,192,12914,1,0,0:0:0:0:
320,192,13064,1,0,0:0:0:0:
448,192,13064,1,0,0:0:0:0:
192,192,13139,1,0,0:0:0:0:
64,192,13214,1,0,0:0:0:0:
320,192,13214,1,0,0:0:0:0:
448,192,13289,1,0,0:0:0:0:
192,192,13364,1,0,0:0:0:0:
64,192,13364,1,0,0:0:0:0:
320,192,13364,1,0,0:0:0:0:
64,192,13514,1,0,0:0:0:0:
448,192,13514,1,0,0:0:0:0:
320,192,13514,1,0,0:0:0:0:
192,192,13664,1,0,0:0:0:0:
448,192,13739,1,0,0:0:0:0:
320,192,13739,1,0,0:0:0:0:
64,192,13814,1,0,0:0:0:0:
192,192,13814,1,0,0:0:0:0:
448,192,13889,1,0,0:0:0:0:
64,192,13964,1,0,0:0:0:0:
320,192,13964,1,0,0:0:0:0:
192,192,14039,1,0,0:0:0:0:
448,192,14114,1,0,0:0:0:0:
320,192,14114,1,0,0:0:0:0:
64,192,14164,1,0,0:0:0:0:
192,192,14214,1,0,0:0:0:0:
448,192,14264,1,0,0:0:0:0:
64,192,14314,1,0,0:0:0:0:
192,192,14364,1,0,0:0:0:0:
448,192,14414,1,0,0:0:0:0:
320,192,14414,1,0,0:0:0:0:
64,192,14564,1,0,0:0:0:0:
192,192,14564,1,0,0:0:0:0:
320,192,14714,1,0,0:0:0:0:
448,192,14714,1,0,0:0:0:0:
64,192,14714,1,0,0:0:0:0:
192,192,14864,1,0,0:0:0:0:
448,192,14864,1,0,0:0:0:0:
320,192,14939,1,0,0:0:0:0:
64,192,15014,1,0,0:0:0:0:
192,192,15014,1,0,0:0:0:0:
320,192,15089,1,0,0:0:0:0:
448,192,15164,1,0,0:0:0:0:
192,192,15164,1,0,0:0:0:0:
64,192,15164,1,0,0:0:0:0:
192,192,15314,1,0,0:0:0:0:
320,192,15314,1,0,0:0:0:0:
448,192,15314,1,0,0:0:0:0:
64,192,15464,1,0,0:0:0:0:
320,192,15464,1,0,0:0:0:0:
192,192,15539,1,0,0:0:0:0:
320,192,15614,1,0,0:0:0:0:
448,192,15614,1,0,0:0:0:0:
64,192,15614,1,0,0:0:0:0:
192,192,15764,1,0,0:0:0:0:
448,192,15764,1,0,0:0:0:0:
64,192,15914,1,0,0:0:0:0:
320,192,15914,1,0,0:0:0:0:
448,192,15914,1,0,0:0:0:0:
192,192,16064,1,0,0:0:0:0:
448,192,16214,1,0,0:0:0:0:
64,192,16214,1,0,0:0:0:0:
192,192,16289,1,0,0:0:0:0:
320,192,16364,1,0,0:0:0:0:
448,192,16364,1,0,0:0:0:0:
64,192,16364,1,0,0:0:0:0:
192,192,16514,1,0,0:0:0:0:
320,192,16514,1,0,0:0:0:0:
448,192,16514,1,0,0:0:0:0:
320,192,16664,1,0,0:0:0:0:
448,192,16814,1,0,0:0:0:0:
192,192,16814,1,0,0:0:0:0:
64,192,16814,1,0,0:0:0:0:
320,192,16964,1,0,0:0:0:0:
64,192,16964,1,0,0:0:0:0:
64,192,17114,1,0,0:0:0:0:
192,192,17114,1,0,0:0:0:0:
448,192,17114,1,0,0:0:0:0:
320,192,17264,1,0,0:0:0:0:
64,192,17414,1,0,0:0:0:0:
192,192,17414,1,0,0:0:0:0:
448,192,17489,1,0,0:0:0:0:
320,192,17564,1,0,0:0:0:0:
192,192,17564,1,0,0:0:0:0:
64,192,17564,1,0,0:0:0:0:
320,192,17714,1,0,0:0:0:0:
448,192,17714,1,0,0:0:0:0:
64,192,17714,1,0,0:0:0:0:
192,192,17864,1,0,0:0:0:0:
320,192,18014,1,0,0:0:0:0:
448,192,18014,1,0,0:0:0:0:
192,192,18014,1,0,0:0:0:0:
320,192,18164,1,0,0:0:0:0:
64,192,18164,1,0,0:0:0:0:
448,192,18314,1,0,0:0:0:0:
64,192,18314,1,0,0:0:0:0:
192,192,18314,1,0,0:0:0:0:
64,192,18464,1,0,0:0:0:0:
192,192,18464,1,0,0:0:0:0:
320,192,18514,1,0,0:0:0:0:
448,192,18564,1,0,0:0:0:0:
64,192,18614,1,0,0:0:0:0:
320,192,18664,1,0,0:0:0:0:
192,192,18714,1,0,0:0:0:0:
448,192,18764,1,0,0:0:0:0:
64,192,18814,1,0,0:0:0:0:
192,192,18864,1,0,0:0:0:0:
320,192,18914,1,0,0:0:0:0:
64,192,18964,1,0,0:0:0:0:
192,192,19014,1,0,0:0:0:0:
448,192,19064,1,0,0:0:0:0:
320,192,19114,1,0,0:0:0:0:
64,192,19164,1,0,0:0:0:0:
192,192,19214,1,0,0:0:0:0:
448,192,19214,1,0,0:0:0:0:
64,192,19364,1,0,0:0:0:0:
320,192,19364,1,0,0:0:0:0:
448,192,19514,1,0,0:0:0:0:
192,192,19514,1,0,0:0:0:0:
64,192,19514,1,0,0:0:0:0:
320,192,19664,1,0,0:0:0:0:
192,192,19814,1,0,0:0:0:0:
64,192,19814,1,0,0:0:0:0:
448,192,19889,1,0,0:0:0:0:
64,192,19964,1,0,0:0:0:0:
192,192,19964,1,0,0:0:0:0:
320,192,19964,1,0,0:0:0:0:
64,192,20114,1,0,0:0:0:0:
448,192,20114,1,0,0:0:0:0:
320,192,20114,1,0,0:0:0:0:
192,192,20264,1,0,0:0:0:0:
192,192,20414,1,0,0:0:0:0:
448,192,20414,1,0,0:0:0:0:
320,192,20414,1,0,0:0:0:0:
64,192,20564,1,0,0:0:0:0:
320,192,20564,1,0,0:0:0:0:
320,192,20714,1,0,0:0:0:0:
64,192,20714,1,0,0:0:0:0:
448,192,20714,1,0,0:0:0:0:
192,192,20864,1,0,0:0:0:0:
320,192,21014,1,0,0:0:0:0:
448,192,21014,1,0,0:0:0:0:
64,192,21089,1,0,0:0:0:0:
448,192,21164,1,0,0:0:0:0:
320,192,21164,1,0,0:0:0:0:
192,192,21164,1,0,0:0:0:0:
448,192,21314,1,0,0:0:0:0:
192,192,21314,1,0,0:0:0:0:
64,192,21314,1,0,0:0:0:0:
320,192,21464,1,0,0:0:0:0:
64,192,21614,1,0,0:0:0:0:
448,192,21614,1,0,0:0:0:0:
320,192,21614,1,0,0:0:0:0:
192,192,21764,1,0,0:0:0:0:
320,192,21764,1,0,0:0:0:0:
320,192,21914,1,0,0:0:0:0:
448,192,21914,1,0,0:0:0:0:
64,192,21914,1,0,0:0:0:0:
320,192,22064,1,0,0:0:0:0:
192,192,22214,1,0,0:0:0:0:
64,192,22214,1,0,0:0:0:0:
448,192,22289,1,0,0:0:0:0:
320,192,22364,1,0,0:0:0:0:
64,192,22364,1,0,0:0:0:0:
192,192,22364,1,0,0:0:0:0:
192,192,22514,1,0,0:0:0:0:
448,192,22514,1,0,0:0:0:0:
64,192,22514,1,0,0:0:0:0:
320,192,22664,1,0,0:0:0:0:
448,192,22664,1,0,0:0:0:0:
192,192,22739,1,0,0:0:0:0:
64,192,22814,1,0,0:0:0:0:
320,192,22814,1,0,0:0:0:0:
448,192,22889,1,0,0:0:0:0:
192,192,22964,1,0,0:0:0:0:
64,192,22964,1,0,0:0:0:0:
320,192,22964,1,0,0:0:0:0:
64,192,23114,1,0,0:0:0:0:
448,192,23114,1,0,0:0:0:0:
320,192,23114,1,0,0:0:0:0:
192,192,23264,1,0,0:0:0:0:
448,192,23339,1,0,0:0:0:0:
320,192,23339,1,0,0:0:0:0:
64,192,23414,1,0,0:0:0:0:
192,192,23414,1,0,0:0:0:0:
448,192,23489,1,0,0:0:0:0:
64,192,23564,1,0,0:0:0:0:
320,192,23564,1,0,0:0:0:0:
192,192,23639,1,0,0:0:0:0:
448,192,23714,1,0,0:0:0:0:
320,192,23714,1,0,0:0:0:0:
64,192,23764,1,0,0:0:0:0:
192,192,23814,1,0,0:0:0:0:
448,192,23864,1,0,0:0:0:0:
64,192,23914,1,0,0:0:0:0:
192,192,23964,1,0,0:0:0:0:
448,192,24014,1,0,0:0:0:0:
320,192,24014,1,0,0:0:0:0:
448,192,24164,1,0,0:0:0:0:
64,192,24164,1,0,0:0:0:0:
64,192,24314,1,0,0:0:0:0:
192,192,24314,1,0,0:0:0:0:
320,192,24314,1,0,0:0:0:0:
192,192,24464,1,0,0:0:0:0:
448,192,24614,1,0,0:0:0:0:
320,192,24614,1,0,0:0:0:0:
192,192,24689,1,0,0:0:0:0:
320,192,24764,1,0,0:0:0:0:
448,192,24764,1,0,0:0:0:0:
64,192,24764,1,0,0:0:0:0:
192,192,24914,1,0,0:0:0:0:
448,192,24914,1,0,0:0:0:0:
64,192,24914,1,0,0:0:0:0:
320,192,25064,1,0,0:0:0:0:
320,192,25214,1,0,0:0:0:0:
448,192,25214,1,0,0:0:0:0:
192,192,25214,1,0,0:0:0:0:
320,192,25364,1,0,0:0:0:0:
64,192,25364,1,0,0:0:0:0:
448,192,25514,1,0,0:0:0:0:
64,192,25514,1,0,0:0:0:0:
192,192,25514,1,0,0:0:0:0:
64,192,25664,1,0,0:0:0:0:
448,192,25814,1,0,0:0:0:0:
320,192,25814,1,0,0:0:0:0:
64,192,25889,1,0,0:0:0:0:
192,192,25964,1,0,0:0:0:0:
320,192,25964,1,0,0:0:0:0:
448,192,25964,1,0,0:0:0:0:
64,192,26114,1,0,0:0:0:0:
192,192,26114,1,0,0:0:0:0:
320,192,26114,1,0,0:0:0:0:
192,192,26264,1,0,0:0:0:0:
448,192,26414,1,0,0:0:0:0:
192,192,26414,1,0,0:0:0:0:
64,192,26414,1,0,0:0:0:0:
320,192,26564,1,0,0:0:0:0:
64,192,26564,1,0,0:0:0:0:
192,192,26714,1,0,0:0:0:0:
448,192,26714,1,0,0:0:0:0:
320,192,26714,1,0,0:0:0:0:
320,192,26864,1,0,0:0:0:0:
64,192,27014,1,0,0:0:0:0:
192,192,27014,1,0,0:0:0:0:
448,192,27089,1,0,0:0:0:0:
192,192,27164,1,0,0:0:0:0:
64,192,27164,1,0,0:0:0:0:
320,192,27164,1,0,0:0:0:0:
64,192,27314,1,0,0:0:0:0:
448,192,27314,1,0,0:0:0:0:
192,192,27314,1,0,0:0:0:0:
448,192,27464,1,0,0:0:0:0:
320,192,27464,1,0,0:0:0:0:
192,192,27539,1,0,0:0:0:0:
320,192,27614,1,0,0:0:0:0:
64,192,27614,1,0,0:0:0:0:
448,192,27689,1,0,0:0:0:0:
320,192,27764,1,0,0:0:0:0:
64,192,27764,1,0,0:0:0:0:
192,192,27764,1,0,0:0:0:0:
320,192,27914,5,0,0:0:0:0:
448,192,27914,1,0,0:0:0:0:
64,192,27914,1,0,0:0:0:0:
192,192,28064,1,0,0:0:0:0:
320,192,28139,1,0,0:0:0:0:
448,192,28139,1,0,0:0:0:0:
192,192,28214,1,0,0:0:0:0:
64,192,28214,1,0,0:0:0:0:
448,192,28289,1,0,0:0:0:0:
320,192,28364,1,0,0:0:0:0:
64,192,28364,1,0,0:0:0:0:
192,192,28439,1,0,0:0:0:0:
320,192,28514,1,0,0:0:0:0:
448,192,28514,1,0,0:0:0:0:
64,192,28564,1,0,0:0:0:0:
192,192,28614,1,0,0:0:0:0:
320,192,28664,1,0,0:0:0:0:
64,192,28714,1,0,0:0:0:0:
192,192,28764,1,0,0:0:0:0:
320,192,28814,1,0,0:0:0:0:
448,192,28814,1,0,0:0:0:0:
64,192,28964,5,0,0:0:0:0:
320,192,28964,1,0,0:0:0:0:
192,192,29114,1,0,0:0:0:0:
64,192,29114,1,0,0:0:0:0:
448,192,29114,1,0,0:0:0:0:
320,192,29264,1,0,0:0:0:0:
448,192,29264,1,0,0:0:0:0:
192,192,29339,1,0,0:0:0:0:
192,192,29489,1,0,0:0:0:0:
320,192,29564,1,0,0:0:0:0:
448,192,29564,1,0,0:0:0:0:
64,192,29714,1,0,0:0:0:0:
192,192,29714,1,0,0:0:0:0:
448,192,29714,1,0,0:0:0:0:
320,192,29864,1,0,0:0:0:0:
64,192,29864,1,0,0:0:0:0:
192,192,29939,1,0,0:0:0:0:
320,192,30014,1,0,0:0:0:0:
448,192,30014,1,0,0:0:0:0:
192,192,30164,1,0,0:0:0:0:
448,192,30164,1,0,0:0:0:0:
64,192,30314,1,0,0:0:0:0:
320,192,30314,1,0,0:0:0:0:
448,192,30314,1,0,0:0:0:0:
192,192,30464,1,0,0:0:0:0:
448,192,30539,1,0,0:0:0:0:
320,192,30614,1,0,0:0:0:0:
192,192,30689,1,0,0:0:0:0:
320,192,30764,1,0,0:0:0:0:
448,192,30764,1,0,0:0:0:0:
64,192,30839,1,0,0:0:0:0:
192,192,30914,1,0,0:0:0:0:
448,192,30914,1,0,0:0:0:0:
320,192,30914,1,0,0:0:0:0:
64,192,31064,1,0,0:0:0:0:
320,192,31064,1,0,0:0:0:0:
192,192,31214,1,0,0:0:0:0:
320,192,31214,1,0,0:0:0:0:
448,192,31364,1,0,0:0:0:0:
320,192,31364,1,0,0:0:0:0:
64,192,31514,1,0,0:0:0:0:
448,192,31514,1,0,0:0:0:0:
320,192,31514,1,0,0:0:0:0:
192,192,31664,1,0,0:0:0:0:
448,192,31664,1,0,0:0:0:0:
320,192,31739,1,0,0:0:0:0:
64,192,31814,1,0,0:0:0:0:
192,192,31889,1,0,0:0:0:0:
448,192,31964,1,0,0:0:0:0:
320,192,31964,1,0,0:0:0:0:
192,192,32039,1,0,0:0:0:0:
64,192,32114,1,0,0:0:0:0:
320,192,32114,1,0,0:0:0:0:
448,192,32114,1,0,0:0:0:0:
192,192,32264,1,0,0:0:0:0:
448,192,32264,1,0,0:0:0:0:
320,192,32339,1,0,0:0:0:0:
192,192,32414,1,0,0:0:0:0:
64,192,32414,1,0,0:0:0:0:
192,192,32564,1,0,0:0:0:0:
448,192,32564,1,0,0:0:0:0:
320,192,32714,1,0,0:0:0:0:
64,192,32714,1,0,0:0:0:0:
448,192,32714,1,0,0:0:0:0:
192,192,32864,1,0,0:0:0:0:
320,192,32939,1,0,0:0:0:0:
448,192,33014,1,0,0:0:0:0:
192,192,33014,1,0,0:0:0:0:
64,192,33089,1,0,0:0:0:0:
320,192,33164,1,0,0:0:0:0:
448,192,33164,1,0,0:0:0:0:
64,192,33314,128,0,33614:0:0:0:0:
448,192,33314,1,0,0:0:0:0:
192,192,33314,1,0,0:0:0:0:
448,192,33464,1,0,0:0:0:0:
192,192,33539,1,0,0:0:0:0:
320,192,33614,1,0,0:0:0:0:
448,192,33614,1,0,0:0:0:0:
320,192,33914,1,0,0:0:0:0:
448,192,33914,1,0,0:0:0:0:
64,192,34064,1,0,0:0:0:0:
192,192,34064,1,0,0:0:0:0:
448,192,34214,1,0,0:0:0:0:
192,192,34214,1,0,0:0:0:0:
320,192,34364,128,0,34439:0:0:0:0:
192,192,34514,1,0,0:0:0:0:
448,192,34514,1,0,0:0:0:0:
64,192,34664,128,0,34739:0:0:0:0:
192,192,34814,1,0,0:0:0:0:
448,192,34814,1,0,0:0:0:0:
320,192,34989,128,0,35039:0:0:0:0:
192,192,35114,1,0,0:0:0:0:
64,192,35114,1,0,0:0:0:0:
64,192,35289,128,0,35339:0:0:0:0:
448,192,35414,128,0,35714:0:0:0:0:
320,192,35414,1,0,0:0:0:0:
64,192,35564,1,0,0:0:0:0:
192,192,35714,1,0,0:0:0:0:
64,192,35714,128,0,35789:0:0:0:0:
448,192,35889,128,0,35939:0:0:0:0:
64,192,36014,1,0,0:0:0:0:
192,192,36014,1,0,0:0:0:0:
64,192,36164,128,0,36239:0:0:0:0:
192,192,36239,128,0,36314:0:0:0:0:
320,192,36314,1,0,0:0:0:0:
448,192,36314,1,0,0:0:0:0:
320,192,36464,128,0,36539:0:0:0:0:
192,192,36614,1,0,0:0:0:0:
448,192,36614,1,0,0:0:0:0:
192,192,36764,128,0,36839:0:0:0:0:
64,192,36914,1,0,0:0:0:0:
320,192,36914,1,0,0:0:0:0:
320,192,37064,128,0,37139:0:0:0:0:
192,192,37214,1,0,0:0:0:0:
64,192,37214,1,0,0:0:0:0:
320,192,37364,128,0,37439:0:0:0:0:
192,192,37514,1,0,0:0:0:0:
64,192,37514,1,0,0:0:0:0:
320,192,37664,128,0,37739:0:0:0:0:
192,192,37814,1,0,0:0:0:0:
64,192,37814,128,0,37964:0:0:0:0:
320,192,37964,128,0,38039:0:0:0:0:
192,192,38039,128,0,38114:0:0:0:0:
320,192,38114,128,0,38189:0:0:0:0:
320,192,38264,128,0,38414:0:0:0:0:
192,192,38864,128,0,39014:0:0:0:0:
448,192,39014,128,0,39164:0:0:0:0:
192,192,39164,128,0,39314:0:0:0:0:
320,192,39314,128,0,39464:0:0:0:0:
64,192,39464,128,0,39539:0:0:0:0:
192,192,39614,1,0,0:0:0:0:
64,192,39614,1,0,0:0:0:0:
448,192,39614,1,0,0:0:0:0:
320,192,39689,1,0,0:0:0:0:
192,192,39764,1,0,0:0:0:0:
64,192,39764,1,0,0:0:0:0:
448,192,39839,1,0,0:0:0:0:
64,192,39914,1,0,0:0:0:0:
320,192,39914,1,0,0:0:0:0:
192,192,39914,1,0,0:0:0:0:
448,192,39989,1,0,0:0:0:0:
64,192,40064,1,0,0:0:0:0:
320,192,40064,1,0,0:0:0:0:
192,192,40139,1,0,0:0:0:0:
448,192,40214,1,0,0:0:0:0:
320,192,40214,1,0,0:0:0:0:
64,192,40289,1,0,0:0:0:0:
448,192,40364,1,0,0:0:0:0:
192,192,40364,1,0,0:0:0:0:
320,192,40439,1,0,0:0:0:0:
192,192,40514,1,0,0:0:0:0:
64,192,40514,1,0,0:0:0:0:
448,192,40514,1,0,0:0:0:0:
320,192,40589,1,0,0:0:0:0:
192,192,40664,1,0,0:0:0:0:
64,192,40664,1,0,0:0:0:0:
320,192,40739,1,0,0:0:0:0:
448,192,40814,1,0,0:0:0:0:
64,192,40814,1,0,0:0:0:0:
192,192,40889,1,0,0:0:0:0:
320,192,40964,1,0,0:0:0:0:
448,192,40964,1,0,0:0:0:0:
192,192,41039,1,0,0:0:0:0:
64,192,41114,1,0,0:0:0:0:
448,192,41114,1,0,0:0:0:0:
320,192,41114,1,0,0:0:0:0:
192,192,41189,1,0,0:0:0:0:
320,192,41264,1,0,0:0:0:0:
64,192,41264,1,0,0:0:0:0:
448,192,41339,1,0,0:0:0:0:
64,192,41414,1,0,0:0:0:0:
192,192,41414,1,0,0:0:0:0:
320,192,41489,1,0,0:0:0:0:
192,192,41564,1,0,0:0:0:0:
64,192,41564,1,0,0:0:0:0:
320,192,41639,1,0,0:0:0:0:
192,192,41714,1,0,0:0:0:0:
448,192,41714,1,0,0:0:0:0:
64,192,41714,1,0,0:0:0:0:
320,192,41789,1,0,0:0:0:0:
448,192,41864,1,0,0:0:0:0:
192,192,41864,1,0,0:0:0:0:
64,192,41939,1,0,0:0:0:0:
448,192,42014,1,0,0:0:0:0:
192,192,42014,1,0,0:0:0:0:
320,192,42089,1,0,0:0:0:0:
192,192,42164,1,0,0:0:0:0:
64,192,42164,1,0,0:0:0:0:
448,192,42239,1,0,0:0:0:0:
320,192,42314,1,0,0:0:0:0:
192,192,42314,1,0,0:0:0:0:
64,192,42314,1,0,0:0:0:0:
448,192,42389,1,0,0:0:0:0:
192,192,42464,1,0,0:0:0:0:
320,192,42464,1,0,0:0:0:0:
64,192,42539,1,0,0:0:0:0:
192,192,42614,1,0,0:0:0:0:
448,192,42614,1,0,0:0:0:0:
320,192,42689,1,0,0:0:0:0:
192,192,42764,1,0,0:0:0:0:
64,192,42764,1,0,0:0:0:0:
320,192,42839,1,0,0:0:0:0:
64,192,42914,1,0,0:0:0:0:
448,192,42914,1,0,0:0:0:0:
192,192,42914,1,0,0:0:0:0:
320,192,42989,1,0,0:0:0:0:
64,192,43064,1,0,0:0:0:0:
448,192,43064,1,0,0:0:0:0:
192,192,43139,1,0,0:0:0:0:
64,192,43214,1,0,0:0:0:0:
320,192,43214,1,0,0:0:0:0:
192,192,43289,1,0,0:0:0:0:
320,192,43364,1,0,0:0:0:0:
448,192,43364,1,0,0:0:0:0:
192,192,43439,1,0,0:0:0:0:
320,192,43514,1,0,0:0:0:0:
448,192,43514,1,0,0:0:0:0:
64,192,43514,1,0,0:0:0:0:
192,192,43589,1,0,0:0:0:0:
448,192,43664,1,0,0:0:0:0:
64,192,43664,1,0,0:0:0:0:
320,192,43739,5,0,0:0:0:0:
192,192,43814,1,0,0:0:0:0:
64,192,43814,1,0,0:0:0:0:
448,192,43889,1,0,0:0:0:0:
64,192,43964,1,0,0:0:0:0:
192,192,43964,1,0,0:0:0:0:
320,192,44014,1,0,0:0:0:0:
448,192,44064,1,0,0:0:0:0:
64,192,44114,1,0,0:0:0:0:
192,192,44164,1,0,0:0:0:0:
448,192,44214,1,0,0:0:0:0:
64,192,44264,1,0,0:0:0:0:
192,192,44314,1,0,0:0:0:0:
448,192,44364,1,0,0:0:0:0:
64,192,44414,1,0,0:0:0:0:
320,192,44414,1,0,0:0:0:0:
192,192,44489,1,0,0:0:0:0:
320,192,44564,1,0,0:0:0:0:
64,192,44639,1,0,0:0:0:0:
448,192,44714,1,0,0:0:0:0:
320,192,44714,1,0,0:0:0:0:
192,192,44714,1,0,0:0:0:0:
64,192,44789,1,0,0:0:0:0:
448,192,44864,1,0,0:0:0:0:
192,192,44864,1,0,0:0:0:0:
320,192,44939,1,0,0:0:0:0:
64,192,45014,1,0,0:0:0:0:
192,192,45014,1,0,0:0:0:0:
448,192,45089,1,0,0:0:0:0:
320,192,45164,1,0,0:0:0:0:
64,192,45164,1,0,0:0:0:0:
192,192,45239,1,0,0:0:0:0:
64,192,45314,1,0,0:0:0:0:
448,192,45314,1,0,0:0:0:0:
320,192,45314,1,0,0:0:0:0:
192,192,45389,1,0,0:0:0:0:
320,192,45464,1,0,0:0:0:0:
448,192,45464,1,0,0:0:0:0:
64,192,45539,1,0,0:0:0:0:
192,192,45614,1,0,0:0:0:0:
320,192,45614,1,0,0:0:0:0:
448,192,45689,1,0,0:0:0:0:
64,192,45764,1,0,0:0:0:0:
320,192,45764,1,0,0:0:0:0:
192,192,45839,1,0,0:0:0:0:
64,192,45914,1,0,0:0:0:0:
448,192,45914,1,0,0:0:0:0:
320,192,45914,1,0,0:0:0:0:
192,192,45989,1,0,0:0:0:0:
448,192,46064,1,0,0:0:0:0:
320,192,46064,1,0,0:0:0:0:
192,192,46139,1,0,0:0:0:0:
64,192,46214,1,0,0:0:0:0:
320,192,46214,1,0,0:0:0:0:
448,192,46289,1,0,0:0:0:0:
64,192,46364,1,0,0:0:0:0:
320,192,46364,1,0,0:0:0:0:
192,192,46439,1,0,0:0:0:0:
64,192,46514,1,0,0:0:0:0:
448,192,46514,1,0,0:0:0:0:
320,192,46514,1,0,0:0:0:0:
192,192,46589,1,0,0:0:0:0:
320,192,46664,1,0,0:0:0:0:
448,192,46664,1,0,0:0:0:0:
64,192,46739,1,0,0:0:0:0:
320,192,46814,1,0,0:0:0:0:
448,192,46814,1,0,0:0:0:0:
192,192,46889,1,0,0:0:0:0:
64,192,46964,1,0,0:0:0:0:
448,192,46964,1,0,0:0:0:0:
320,192,47039,1,0,0:0:0:0:
64,192,47114,1,0,0:0:0:0:
192,192,47114,1,0,0:0:0:0:
448,192,47114,1,0,0:0:0:0:
320,192,47189,1,0,0:0:0:0:
64,192,47264,1,0,0:0:0:0:
192,192,47264,1,0,0:0:0:0:
448,192,47339,1,0,0:0:0:0:
64,192,47414,1,0,0:0:0:0:
320,192,47414,1,0,0:0:0:0:
192,192,47489,1,0,0:0:0:0:
320,192,47564,1,0,0:0:0:0:
448,192,47564,1,0,0:0:0:0:
192,192,47639,1,0,0:0:0:0:
320,192,47714,1,0,0:0:0:0:
448,192,47714,1,0,0:0:0:0:
64,192,47714,1,0,0:0:0:0:
192,192,47789,1,0,0:0:0:0:
448,192,47864,1,0,0:0:0:0:
64,192,47864,1,0,0:0:0:0:
320,192,47939,1,0,0:0:0:0:
192,192,48014,1,0,0:0:0:0:
448,192,48014,1,0,0:0:0:0:
320,192,48089,1,0,0:0:0:0:
64,192,48164,1,0,0:0:0:0:
192,192,48164,1,0,0:0:0:0:
320,192,48239,1,0,0:0:0:0:
64,192,48314,1,0,0:0:0:0:
448,192,48314,1,0,0:0:0:0:
192,192,48314,1,0,0:0:0:0:
320,192,48389,1,0,0:0:0:0:
192,192,48464,1,0,0:0:0:0:
64,192,48464,1,0,0:0:0:0:
320,192,48539,1,0,0:0:0:0:
448,192,48614,1,0,0:0:0:0:
192,192,48614,1,0,0:0:0:0:
64,192,48689,1,0,0:0:0:0:
320,192,48764,1,0,0:0:0:0:
448,192,48764,1,0,0:0:0:0:
192,192,48814,1,0,0:0:0:0:
64,192,48864,1,0,0:0:0:0:
448,192,48914,1,0,0:0:0:0:
320,192,48964,1,0,0:0:0:0:
192,192,49014,1,0,0:0:0:0:
64,192,49064,1,0,0:0:0:0:
448,192,49114,1,0,0:0:0:0:
320,192,49164,1,0,0:0:0:0:
192,192,49214,1,0,0:0:0:0:
64,192,49214,1,0,0:0:0:0:
448,192,49289,1,0,0:0:0:0:
64,192,49364,1,0,0:0:0:0:
320,192,49439,1,0,0:0:0:0:
192,192,49514,1,0,0:0:0:0:
448,192,49514,1,0,0:0:0:0:
64,192,49514,1,0,0:0:0:0:
320,192,49589,1,0,0:0:0:0:
192,192,49664,1,0,0:0:0:0:
448,192,49664,1,0,0:0:0:0:
64,192,49739,1,0,0:0:0:0:
320,192,49814,1,0,0:0:0:0:
192,192,49814,1,0,0:0:0:0:
64,192,49889,1,0,0:0:0:0:
320,192,49964,1,0,0:0:0:0:
448,192,49964,1,0,0:0:0:0:
192,192,50039,1,0,0:0:0:0:
448,192,50114,1,0,0:0:0:0:
320,192,50114,1,0,0:0:0:0:
64,192,50114,1,0,0:0:0:0:
192,192,50189,1,0,0:0:0:0:
64,192,50264,1,0,0:0:0:0:
320,192,50264,1,0,0:0:0:0:
448,192,50339,1,0,0:0:0:0:
192,192,50414,1,0,0:0:0:0:
64,192,50414,1,0,0:0:0:0:
320,192,50489,1,0,0:0:0:0:
448,192,50564,1,0,0:0:0:0:
192,192,50564,1,0,0:0:0:0:
64,192,50639,1,0,0:0:0:0:
448,192,50714,1,0,0:0:0:0:
320,192,50714,1,0,0:0:0:0:
192,192,50714,1,0,0:0:0:0:
64,192,50789,1,0,0:0:0:0:
320,192,50864,1,0,0:0:0:0:
192,192,50864,1,0,0:0:0:0:
448,192,50939,1,0,0:0:0:0:
64,192,51014,1,0,0:0:0:0:
192,192,51014,1,0,0:0:0:0:
320,192,51089,1,0,0:0:0:0:
448,192,51164,1,0,0:0:0:0:
192,192,51164,1,0,0:0:0:0:
64,192,51239,1,0,0:0:0:0:
448,192,51314,1,0,0:0:0:0:
320,192,51314,1,0,0:0:0:0:
192,192,51314,1,0,0:0:0:0:
64,192,51389,1,0,0:0:0:0:
448,192,51464,1,0,0:0:0:0:
192,192,51464,1,0,0:0:0:0:
320,192,51539,1,0,0:0:0:0:
64,192,51614,1,0,0:0:0:0:
192,192,51614,1,0,0:0:0:0:
448,192,51689,1,0,0:0:0:0:
64,192,51764,1,0,0:0:0:0:
320,192,51764,1,0,0:0:0:0:
192,192,51839,1,0,0:0:0:0:
320,192,51914,1,0,0:0:0:0:
64,192,51914,1,0,0:0:0:0:
448,192,51914,1,0,0:0:0:0:
192,192,51989,1,0,0:0:0:0:
320,192,52064,1,0,0:0:0:0:
448,192,52064,1,0,0:0:0:0:
192,192,52139,1,0,0:0:0:0:
64,192,52214,1,0,0:0:0:0:
320,192,52214,1,0,0:0:0:0:
448,192,52289,1,0,0:0:0:0:
64,192,52364,1,0,0:0:0:0:
320,192,52364,1,0,0:0:0:0:
192,192,52439,1,0,0:0:0:0:
64,192,52514,1,0,0:0:0:0:
448,192,52514,1,0,0:0:0:0:
320,192,52514,1,0,0:0:0:0:
192,192,52589,1,0,0:0:0:0:
448,192,52664,1,0,0:0:0:0:
320,192,52664,1,0,0:0:0:0:
192,192,52739,1,0,0:0:0:0:
320,192,52814,1,0,0:0:0:0:
64,192,52814,1,0,0:0:0:0:
448,192,52889,1,0,0:0:0:0:
64,192,52964,1,0,0:0:0:0:
192,192,52964,1,0,0:0:0:0:
320,192,53039,1,0,0:0:0:0:
192,192,53114,1,0,0:0:0:0:
448,192,53114,1,0,0:0:0:0:
64,192,53114,1,0,0:0:0:0:
320,192,53189,1,0,0:0:0:0:
448,192,53264,1,0,0:0:0:0:
64,192,53264,1,0,0:0:0:0:
192,192,53339,1,0,0:0:0:0:
320,192,53414,1,0,0:0:0:0:
448,192,53414,1,0,0:0:0:0:
64,192,53489,1,0,0:0:0:0:
192,192,53564,1,0,0:0:0:0:
448,192,53564,1,0,0:0:0:0:
64,192,53714,1,0,0:0:0:0:
320,192,53714,1,0,0:0:0:0:
192,192,53714,1,0,0:0:0:0:
448,192,53789,1,0,0:0:0:0:
320,192,53864,1,0,0:0:0:0:
192,192,53864,1,0,0:0:0:0:
64,192,53939,1,0,0:0:0:0:
192,192,54014,1,0,0:0:0:0:
448,192,54014,1,0,0:0:0:0:
320,192,54089,1,0,0:0:0:0:
64,192,54164,1,0,0:0:0:0:
192,192,54164,1,0,0:0:0:0:
320,192,54239,1,0,0:0:0:0:
448,192,54314,1,0,0:0:0:0:
192,192,54314,1,0,0:0:0:0:
64,192,54314,1,0,0:0:0:0:
320,192,54389,1,0,0:0:0:0:
64,192,54464,1,0,0:0:0:0:
448,192,54464,1,0,0:0:0:0:
192,192,54539,1,0,0:0:0:0:
448,192,54614,1,0,0:0:0:0:
320,192,54614,1,0,0:0:0:0:
64,192,54689,1,0,0:0:0:0:
192,192,54764,1,0,0:0:0:0:
320,192,54764,1,0,0:0:0:0:
448,192,54839,1,0,0:0:0:0:
64,192,54914,1,0,0:0:0:0:
192,192,54914,1,0,0:0:0:0:
320,192,54914,1,0,0:0:0:0:
448,192,54989,1,0,0:0:0:0:
64,192,55064,1,0,0:0:0:0:
320,192,55064,1,0,0:0:0:0:
192,192,55139,1,0,0:0:0:0:
448,192,55214,1,0,0:0:0:0:
320,192,55214,1,0,0:0:0:0:
64,192,55289,1,0,0:0:0:0:
192,192,55364,1,0,0:0:0:0:
448,192,55364,1,0,0:0:0:0:
320,192,55439,1,0,0:0:0:0:
192,192,55514,1,0,0:0:0:0:
448,192,55514,1,0,0:0:0:0:
64,192,55514,1,0,0:0:0:0:
320,192,55589,1,0,0:0:0:0:
64,192,55664,1,0,0:0:0:0:
448,192,55664,1,0,0:0:0:0:
192,192,55739,1,0,0:0:0:0:
320,192,55814,1,0,0:0:0:0:
448,192,55814,1,0,0:0:0:0:
64,192,55889,1,0,0:0:0:0:
320,192,55964,1,0,0:0:0:0:
192,192,55964,1,0,0:0:0:0:
448,192,56039,1,0,0:0:0:0:
64,192,56114,1,0,0:0:0:0:
192,192,56114,1,0,0:0:0:0:
320,192,56114,1,0,0:0:0:0:
448,192,56189,1,0,0:0:0:0:
64,192,56264,1,0,0:0:0:0:
192,192,56264,1,0,0:0:0:0:
448,192,56339,1,0,0:0:0:0:
192,192,56414,1,0,0:0:0:0:
320,192,56414,1,0,0:0:0:0:
64,192,56489,1,0,0:0:0:0:
192,192,56564,1,0,0:0:0:0:
448,192,56564,1,0,0:0:0:0:
320,192,56639,1,0,0:0:0:0:
192,192,56714,1,0,0:0:0:0:
448,192,56714,1,0,0:0:0:0:
64,192,56714,1,0,0:0:0:0:
320,192,56789,1,0,0:0:0:0:
192,192,56864,1,0,0:0:0:0:
64,192,56864,1,0,0:0:0:0:
448,192,56939,1,0,0:0:0:0:
320,192,57014,1,0,0:0:0:0:
192,192,57014,1,0,0:0:0:0:
448,192,57089,1,0,0:0:0:0:
192,192,57164,1,0,0:0:0:0:
64,192,57164,1,0,0:0:0:0:
320,192,57214,1,0,0:0:0:0:
448,192,57264,1,0,0:0:0:0:
64,192,57314,1,0,0:0:0:0:
320,192,57364,1,0,0:0:0:0:
192,192,57414,1,0,0:0:0:0:
448,192,57464,1,0,0:0:0:0:
64,192,57514,1,0,0:0:0:0:
192,192,57564,1,0,0:0:0:0:
320,192,57614,1,0,0:0:0:0:
448,192,57614,1,0,0:0:0:0:
64,192,57689,1,0,0:0:0:0:
192,192,57764,1,0,0:0:0:0:
448,192,57764,1,0,0:0:0:0:
320,192,57839,1,0,0:0:0:0:
64,192,57914,1,0,0:0:0:0:
448,192,57914,1,0,0:0:0:0:
192,192,57914,1,0,0:0:0:0:
320,192,57989,1,0,0:0:0:0:
64,192,58064,1,0,0:0:0:0:
448,192,58064,1,0,0:0:0:0:
192,192,58139,1,0,0:0:0:0:
320,192,58214,1,0,0:0:0:0:
448,192,58214,1,0,0:0:0:0:
192,192,58289,1,0,0:0:0:0:
64,192,58364,1,0,0:0:0:0:
448,192,58364,1,0,0:0:0:0:
320,192,58439,1,0,0:0:0:0:
192,192,58514,1,0,0:0:0:0:
448,192,58514,1,0,0:0:0:0:
64,192,58514,1,0,0:0:0:0:
320,192,58589,1,0,0:0:0:0:
448,192,58664,1,0,0:0:0:0:
64,192,58664,1,0,0:0:0:0:
192,192,58739,1,0,0:0:0:0:
64,192,58814,1,0,0:0:0:0:
320,192,58814,1,0,0:0:0:0:
448,192,58889,1,0,0:0:0:0:
192,192,58964,1,0,0:0:0:0:
64,192,58964,1,0,0:0:0:0:
320,192,59039,1,0,0:0:0:0:
448,192,59114,1,0,0:0:0:0:
64,192,59114,1,0,0:0:0:0:
192,192,59114,1,0,0:0:0:0:
320,192,59189,1,0,0:0:0:0:
192,192,59264,1,0,0:0:0:0:
64,192,59264,1,0,0:0:0:0:
448,192,59339,1,0,0:0:0:0:
64,192,59414,1,0,0:0:0:0:
320,192,59414,1,0,0:0:0:0:
192,192,59489,1,0,0:0:0:0:
320,192,59564,1,0,0:0:0:0:
448,192,59564,1,0,0:0:0:0:
192,192,59639,1,0,0:0:0:0:
64,192,59714,1,0,0:0:0:0:
320,192,59714,1,0,0:0:0:0:
448,192,59714,1,0,0:0:0:0:
192,192,59789,1,0,0:0:0:0:
448,192,59864,1,0,0:0:0:0:
320,192,59864,1,0,0:0:0:0:
64,192,59939,1,0,0:0:0:0:
192,192,60014,1,0,0:0:0:0:
448,192,60014,1,0,0:0:0:0:
320,192,60089,1,0,0:0:0:0:
64,192,60164,1,0,0:0:0:0:
192,192,60164,1,0,0:0:0:0:
320,192,60239,1,0,0:0:0:0:
448,192,60314,1,0,0:0:0:0:
192,192,60314,1,0,0:0:0:0:
64,192,60314,1,0,0:0:0:0:
320,192,60389,1,0,0:0:0:0:
192,192,60464,1,0,0:0:0:0:
448,192,60464,1,0,0:0:0:0:
64,192,60539,1,0,0:0:0:0:
320,192,60614,1,0,0:0:0:0:
192,192,60614,1,0,0:0:0:0:
448,192,60689,1,0,0:0:0:0:
64,192,60764,1,0,0:0:0:0:
192,192,60764,1,0,0:0:0:0:
320,192,60839,1,0,0:0:0:0:
192,192,60914,1,0,0:0:0:0:
448,192,60914,1,0,0:0:0:0:
64,192,60914,1,0,0:0:0:0:
320,192,60989,1,0,0:0:0:0:
192,192,61064,1,0,0:0:0:0:
64,192,61064,1,0,0:0:0:0:
448,192,61139,1,0,0:0:0:0:
192,192,61214,1,0,0:0:0:0:
320,192,61214,1,0,0:0:0:0:
64,192,61214,1,0,0:0:0:0:
64,192,61364,1,0,0:0:0:0:
192,192,61364,1,0,0:0:0:0:
448,192,61364,1,0,0:0:0:0:
192,192,61514,1,0,0:0:0:0:
64,192,61514,1,0,0:0:0:0:
320,192,61514,1,0,0:0:0:0:
448,192,61664,1,0,0:0:0:0:
192,192,61664,1,0,0:0:0:0:
64,192,61664,1,0,0:0:0:0:
320,192,61814,1,0,0:0:0:0:
64,192,61814,1,0,0:0:0:0:
192,192,61814,1,0,0:0:0:0:
448,192,61964,1,0,0:0:0:0:
192,192,61964,1,0,0:0:0:0:
64,192,61964,1,0,0:0:0:0:
192,192,62114,1,0,0:0:0:0:
320,192,62114,1,0,0:0:0:0:
64,192,62114,1,0,0:0:0:0:
192,192,62264,1,0,0:0:0:0:
64,192,62264,1,0,0:0:0:0:
448,192,62264,1,0,0:0:0:0:
192,192,62414,128,0,62864:0:0:0:0:
320,192,62864,128,0,63014:0:0:0:0:
64,192,63014,128,0,63164:0:0:0:0:
320,192,63164,128,0,63314:0:0:0:0:
192,192,63314,128,0,63464:0:0:0:0:
448,192,63464,128,0,63539:0:0:0:0:
320,192,63614,1,0,0:0:0:0:
448,192,63614,1,0,0:0:0:0:
64,192,63614,1,0,0:0:0:0:
192,192,63689,1,0,0:0:0:0:
448,192,63764,1,0,0:0:0:0:
320,192,63764,1,0,0:0:0:0:
192,192,63839,1,0,0:0:0:0:
320,192,63914,1,0,0:0:0:0:
448,192,63914,1,0,0:0:0:0:
64,192,63914,1,0,0:0:0:0:
192,192,63989,1,0,0:0:0:0:
448,192,64064,1,0,0:0:0:0:
64,192,64064,1,0,0:0:0:0:
320,192,64139,1,0,0:0:0:0:
192,192,64214,1,0,0:0:0:0:
448,192,64214,1,0,0:0:0:0:
64,192,64289,1,0,0:0:0:0:
192,192,64364,1,0,0:0:0:0:
448,192,64364,1,0,0:0:0:0:
320,192,64439,1,0,0:0:0:0:
64,192,64514,1,0,0:0:0:0:
192,192,64514,1,0,0:0:0:0:
448,192,64514,1,0,0:0:0:0:
320,192,64589,1,0,0:0:0:0:
448,192,64664,1,0,0:0:0:0:
64,192,64664,1,0,0:0:0:0:
192,192,64739,1,0,0:0:0:0:
320,192,64814,1,0,0:0:0:0:
448,192,64814,1,0,0:0:0:0:
64,192,64889,1,0,0:0:0:0:
448,192,64964,1,0,0:0:0:0:
192,192,64964,1,0,0:0:0:0:
320,192,65039,1,0,0:0:0:0:
192,192,65114,1,0,0:0:0:0:
448,192,65114,1,0,0:0:0:0:
64,192,65114,1,0,0:0:0:0:
320,192,65189,1,0,0:0:0:0:
64,192,65264,1,0,0:0:0:0:
448,192,65264,1,0,0:0:0:0:
192,192,65339,1,0,0:0:0:0:
320,192,65414,1,0,0:0:0:0:
448,192,65414,1,0,0:0:0:0:
64,192,65489,1,0,0:0:0:0:
192,192,65564,1,0,0:0:0:0:
448,192,65564,1,0,0:0:0:0:
320,192,65639,1,0,0:0:0:0:
64,192,65714,1,0,0:0:0:0:
192,192,65714,1,0,0:0:0:0:
448,192,65714,1,0,0:0:0:0:
320,192,65789,1,0,0:0:0:0:
192,192,65864,1,0,0:0:0:0:
64,192,65864,1,0,0:0:0:0:
448,192,65939,1,0,0:0:0:0:
320,192,66014,1,0,0:0:0:0:
64,192,66014,1,0,0:0:0:0:
192,192,66089,1,0,0:0:0:0:
448,192,66164,1,0,0:0:0:0:
64,192,66164,1,0,0:0:0:0:
320,192,66239,1,0,0:0:0:0:
192,192,66314,1,0,0:0:0:0:
448,192,66314,1,0,0:0:0:0:
64,192,66314,1,0,0:0:0:0:
320,192,66389,1,0,0:0:0:0:
448,192,66464,1,0,0:0:0:0:
64,192,66464,1,0,0:0:0:0:
192,192,66539,1,0,0:0:0:0:
448,192,66614,1,0,0:0:0:0:
64,192,66614,1,0,0:0:0:0:
320,192,66689,1,0,0:0:0:0:
192,192,66764,1,0,0:0:0:0:
64,192,66764,1,0,0:0:0:0:
448,192,66839,1,0,0:0:0:0:
64,192,66914,1,0,0:0:0:0:
192,192,66914,1,0,0:0:0:0:
320,192,66914,1,0,0:0:0:0:
448,192,66989,1,0,0:0:0:0:
64,192,67064,1,0,0:0:0:0:
320,192,67064,1,0,0:0:0:0:
192,192,67139,1,0,0:0:0:0:
448,192,67214,1,0,0:0:0:0:
64,192,67214,1,0,0:0:0:0:
320,192,67289,1,0,0:0:0:0:
64,192,67364,1,0,0:0:0:0:
448,192,67364,1,0,0:0:0:0:
192,192,67439,1,0,0:0:0:0:
448,192,67514,1,0,0:0:0:0:
64,192,67514,1,0,0:0:0:0:
320,192,67514,1,0,0:0:0:0:
192,192,67589,1,0,0:0:0:0:
448,192,67664,1,0,0:0:0:0:
320,192,67664,1,0,0:0:0:0:
64,192,67739,1,0,0:0:0:0:
448,192,67814,1,0,0:0:0:0:
320,192,67814,1,0,0:0:0:0:
192,192,67889,1,0,0:0:0:0:
64,192,67964,1,0,0:0:0:0:
448,192,67964,1,0,0:0:0:0:
320,192,68014,1,0,0:0:0:0:
192,192,68064,1,0,0:0:0:0:
64,192,68114,1,0,0:0:0:0:
448,192,68164,1,0,0:0:0:0:
320,192,68214,1,0,0:0:0:0:
64,192,68264,1,0,0:0:0:0:
192,192,68314,1,0,0:0:0:0:
448,192,68364,1,0,0:0:0:0:
320,192,68414,1,0,0:0:0:0:
320,192,68714,1,0,0:0:0:0:
320,192,69014,1,0,0:0:0:0:
320,192,69164,1,0,0:0:0:0:
320,192,69314,1,0,0:0:0:0:
192,192,69389,1,0,0:0:0:0:
320,192,69464,1,0,0:0:0:0:
192,192,69539,1,0,0:0:0:0:
448,192,69614,1,0,0:0:0:0:
64,192,69614,1,0,0:0:0:0:
320,192,69614,1,0,0:0:0:0:
64,192,69764,1,0,0:0:0:0:
192,192,69764,1,0,0:0:0:0:
64,192,69914,1,0,0:0:0:0:
320,192,69914,1,0,0:0:0:0:
448,192,69914,1,0,0:0:0:0:
192,192,70064,1,0,0:0:0:0:
320,192,70139,1,0,0:0:0:0:
64,192,70214,1,0,0:0:0:0:
448,192,70289,1,0,0:0:0:0:
192,192,70364,1,0,0:0:0:0:
64,192,70364,1,0,0:0:0:0:
320,192,70439,1,0,0:0:0:0:
64,192,70514,1,0,0:0:0:0:
192,192,70514,1,0,0:0:0:0:
448,192,70514,1,0,0:0:0:0:
192,192,70664,1,0,0:0:0:0:
448,192,70664,1,0,0:0:0:0:
64,192,70814,1,0,0:0:0:0:
192,192,70814,1,0,0:0:0:0:
320,192,70814,1,0,0:0:0:0:
64,192,70964,1,0,0:0:0:0:
320,192,70964,1,0,0:0:0:0:
320,192,71114,1,0,0:0:0:0:
448,192,71114,1,0,0:0:0:0:
64,192,71114,1,0,0:0:0:0:
192,192,71264,1,0,0:0:0:0:
64,192,71264,1,0,0:0:0:0:
448,192,71339,1,0,0:0:0:0:
64,192,71414,1,0,0:0:0:0:
320,192,71489,1,0,0:0:0:0:
448,192,71564,1,0,0:0:0:0:
64,192,71564,1,0,0:0:0:0:
192,192,71639,1,0,0:0:0:0:
320,192,71714,1,0,0:0:0:0:
448,192,71714,1,0,0:0:0:0:
64,192,71714,1,0,0:0:0:0:
192,192,71864,1,0,0:0:0:0:
320,192,71864,1,0,0:0:0:0:
320,192,72014,1,0,0:0:0:0:
448,192,72014,1,0,0:0:0:0:
64,192,72014,1,0,0:0:0:0:
192,192,72089,1,0,0:0:0:0:
448,192,72164,1,0,0:0:0:0:
320,192,72164,1,0,0:0:0:0:
64,192,72239,1,0,0:0:0:0:
320,192,72314,1,0,0:0:0:0:
448,192,72314,1,0,0:0:0:0:
192,192,72314,1,0,0:0:0:0:
64,192,72389,1,0,0:0:0:0:
448,192,72464,1,0,0:0:0:0:
64,192,72539,1,0,0:0:0:0:
192,192,72614,1,0,0:0:0:0:
448,192,72689,1,0,0:0:0:0:
64,192,72764,1,0,0:0:0:0:
192,192,72764,1,0,0:0:0:0:
320,192,72839,1,0,0:0:0:0:
192,192,72914,1,0,0:0:0:0:
64,192,72914,1,0,0:0:0:0:
448,192,72914,1,0,0:0:0:0:
192,192,73064,1,0,0:0:0:0:
448,192,73064,1,0,0:0:0:0:
320,192,73139,1,0,0:0:0:0:
192,192,73214,1,0,0:0:0:0:
64,192,73214,1,0,0:0:0:0:
320,192,73289,1,0,0:0:0:0:
64,192,73364,1,0,0:0:0:0:
192,192,73364,1,0,0:0:0:0:
320,192,73439,1,0,0:0:0:0:
64,192,73514,1,0,0:0:0:0:
192,192,73514,1,0,0:0:0:0:
448,192,73514,1,0,0:0:0:0:
192,192,73664,1,0,0:0:0:0:
448,192,73664,1,0,0:0:0:0:
320,192,73739,1,0,0:0:0:0:
64,192,73814,1,0,0:0:0:0:
192,192,73814,1,0,0:0:0:0:
320,192,73889,1,0,0:0:0:0:
64,192,73964,1,0,0:0:0:0:
192,192,73964,1,0,0:0:0:0:
448,192,74014,1,0,0:0:0:0:
320,192,74064,1,0,0:0:0:0:
64,192,74114,1,0,0:0:0:0:
192,192,74164,1,0,0:0:0:0:
448,192,74214,1,0,0:0:0:0:
320,192,74264,1,0,0:0:0:0:
64,192,74314,1,0,0:0:0:0:
192,192,74364,1,0,0:0:0:0:
320,192,74414,1,0,0:0:0:0:
448,192,74414,1,0,0:0:0:0:
64,192,74564,1,0,0:0:0:0:
320,192,74564,1,0,0:0:0:0:
64,192,74714,1,0,0:0:0:0:
192,192,74714,1,0,0:0:0:0:
448,192,74714,1,0,0:0:0:0:
320,192,74864,1,0,0:0:0:0:
192,192,74939,1,0,0:0:0:0:
448,192,75014,1,0,0:0:0:0:
64,192,75014,1,0,0:0:0:0:
320,192,75089,1,0,0:0:0:0:
64,192,75164,1,0,0:0:0:0:
192,192,75164,1,0,0:0:0:0:
448,192,75239,1,0,0:0:0:0:
320,192,75314,1,0,0:0:0:0:
192,192,75314,1,0,0:0:0:0:
64,192,75314,1,0,0:0:0:0:
448,192,75389,1,0,0:0:0:0:
192,192,75464,1,0,0:0:0:0:
320,192,75539,1,0,0:0:0:0:
192,192,75614,1,0,0:0:0:0:
64,192,75614,1,0,0:0:0:0:
192,192,75764,1,0,0:0:0:0:
448,192,75764,1,0,0:0:0:0:
320,192,75914,1,0,0:0:0:0:
192,192,75914,1,0,0:0:0:0:
64,192,75914,1,0,0:0:0:0:
448,192,75989,1,0,0:0:0:0:
64,192,76064,1,0,0:0:0:0:
320,192,76064,1,0,0:0:0:0:
192,192,76139,1,0,0:0:0:0:
320,192,76214,1,0,0:0:0:0:
448,192,76214,1,0,0:0:0:0:
64,192,76289,1,0,0:0:0:0:
448,192,76364,1,0,0:0:0:0:
320,192,76364,1,0,0:0:0:0:
64,192,76439,1,0,0:0:0:0:
320,192,76514,1,0,0:0:0:0:
192,192,76514,1,0,0:0:0:0:
448,192,76514,128,0,76664:0:0:0:0:
192,192,76664,128,0,76964:0:0:0:0:
320,192,76814,1,0,0:0:0:0:
448,192,76814,1,0,0:0:0:0:
64,192,76964,128,0,77339:0:0:0:0:
448,192,76964,1,0,0:0:0:0:
448,192,77114,1,0,0:0:0:0:
192,192,77114,1,0,0:0:0:0:
320,192,77264,1,0,0:0:0:0:
448,192,77414,1,0,0:0:0:0:
64,192,77414,1,0,0:0:0:0:
320,192,77414,1,0,0:0:0:0:
192,192,77489,128,0,77564:0:0:0:0:
320,192,77564,128,0,77639:0:0:0:0:
64,192,77639,1,0,0:0:0:0:
448,192,77714,1,0,0:0:0:0:
192,192,77714,128,0,77789:0:0:0:0:
64,192,77789,1,0,0:0:0:0:
320,192,77864,1,0,0:0:0:0:
448,192,77864,1,0,0:0:0:0:
64,192,77939,128,0,78014:0:0:0:0:
320,192,78014,128,0,78314:0:0:0:0:
448,192,78014,1,0,0:0:0:0:
64,192,78464,128,0,78614:0:0:0:0:
320,192,78614,128,0,78764:0:0:0:0:
192,192,78764,128,0,78914:0:0:0:0:
448,192,78914,128,0,79214:0:0:0:0:
320,192,79214,1,0,0:0:0:0:
64,192,79214,1,0,0:0:0:0:
192,192,79214,1,0,0:0:0:0:
192,192,79364,1,0,0:0:0:0:
448,192,79364,1,0,0:0:0:0:
320,192,79514,1,0,0:0:0:0:
64,192,79514,1,0,0:0:0:0:
448,192,79514,1,0,0:0:0:0:
192,192,79664,1,0,0:0:0:0:
64,192,79664,1,0,0:0:0:0:
448,192,79739,1,0,0:0:0:0:
64,192,79814,1,0,0:0:0:0:
320,192,79889,1,0,0:0:0:0:
192,192,79964,1,0,0:0:0:0:
448,192,79964,1,0,0:0:0:0:
64,192,80039,1,0,0:0:0:0:
192,192,80114,1,0,0:0:0:0:
320,192,80114,1,0,0:0:0:0:
448,192,80114,1,0,0:0:0:0:
64,192,80264,1,0,0:0:0:0:
192,192,80264,1,0,0:0:0:0:
320,192,80414,1,0,0:0:0:0:
448,192,80414,1,0,0:0:0:0:
64,192,80414,1,0,0:0:0:0:
192,192,80564,1,0,0:0:0:0:
320,192,80564,1,0,0:0:0:0:
64,192,80714,1,0,0:0:0:0:
448,192,80714,1,0,0:0:0:0:
192,192,80714,1,0,0:0:0:0:
320,192,80864,1,0,0:0:0:0:
192,192,80864,1,0,0:0:0:0:
64,192,81014,1,0,0:0:0:0:
320,192,81014,1,0,0:0:0:0:
448,192,81089,1,0,0:0:0:0:
320,192,81164,1,0,0:0:0:0:
64,192,81164,1,0,0:0:0:0:
192,192,81239,1,0,0:0:0:0:
64,192,81314,1,0,0:0:0:0:
320,192,81314,1,0,0:0:0:0:
448,192,81314,1,0,0:0:0:0:
192,192,81464,1,0,0:0:0:0:
448,192,81464,1,0,0:0:0:0:
320,192,81614,1,0,0:0:0:0:
192,192,81614,1,0,0:0:0:0:
64,192,81614,1,0,0:0:0:0:
320,192,81764,1,0,0:0:0:0:
448,192,81764,1,0,0:0:0:0:
192,192,81914,1,0,0:0:0:0:
64,192,81914,1,0,0:0:0:0:
448,192,81914,1,0,0:0:0:0:
192,192,82064,1,0,0:0:0:0:
448,192,82064,1,0,0:0:0:0:
320,192,82214,1,0,0:0:0:0:
192,192,82214,1,0,0:0:0:0:
64,192,82289,1,0,0:0:0:0:
448,192,82364,1,0,0:0:0:0:
320,192,82364,1,0,0:0:0:0:
64,192,82439,1,0,0:0:0:0:
320,192,82514,1,0,0:0:0:0:
192,192,82514,1,0,0:0:0:0:
448,192,82514,1,0,0:0:0:0:
64,192,82664,1,0,0:0:0:0:
320,192,82664,1,0,0:0:0:0:
192,192,82814,1,0,0:0:0:0:
64,192,82814,1,0,0:0:0:0:
320,192,82889,1,0,0:0:0:0:
64,192,82964,1,0,0:0:0:0:
448,192,82964,1,0,0:0:0:0:
320,192,83039,1,0,0:0:0:0:
192,192,83114,1,0,0:0:0:0:
64,192,83114,1,0,0:0:0:0:
448,192,83114,1,0,0:0:0:0:
320,192,83189,1,0,0:0:0:0:
192,192,83264,1,0,0:0:0:0:
320,192,83339,1,0,0:0:0:0:
448,192,83414,1,0,0:0:0:0:
64,192,83414,1,0,0:0:0:0:
192,192,83489,1,0,0:0:0:0:
448,192,83564,1,0,0:0:0:0:
320,192,83564,1,0,0:0:0:0:
192,192,83614,1,0,0:0:0:0:
64,192,83664,1,0,0:0:0:0:
448,192,83714,1,0,0:0:0:0:
320,192,83764,1,0,0:0:0:0:
192,192,83814,1,0,0:0:0:0:
64,192,83864,1,0,0:0:0:0:
448,192,83914,1,0,0:0:0:0:
320,192,83964,1,0,0:0:0:0:
192,192,84014,1,0,0:0:0:0:
64,192,84014,1,0,0:0:0:0:
192,192,84164,1,0,0:0:0:0:
448,192,84164,1,0,0:0:0:0:
320,192,84314,1,0,0:0:0:0:
64,192,84314,1,0,0:0:0:0:
448,192,84314,1,0,0:0:0:0:
192,192,84464,1,0,0:0:0:0:
448,192,84464,1,0,0:0:0:0:
320,192,84614,1,0,0:0:0:0:
64,192,84614,1,0,0:0:0:0:
192,192,84689,1,0,0:0:0:0:
448,192,84764,1,0,0:0:0:0:
64,192,84764,1,0,0:0:0:0:
320,192,84839,1,0,0:0:0:0:
192,192,84914,1,0,0:0:0:0:
64,192,84914,1,0,0:0:0:0:
448,192,84914,1,0,0:0:0:0:
320,192,85064,1,0,0:0:0:0:
448,192,85064,1,0,0:0:0:0:
64,192,85214,1,0,0:0:0:0:
192,192,85214,1,0,0:0:0:0:
448,192,85214,1,0,0:0:0:0:
192,192,85364,1,0,0:0:0:0:
320,192,85364,1,0,0:0:0:0:
64,192,85514,1,0,0:0:0:0:
448,192,85514,1,0,0:0:0:0:
320,192,85514,1,0,0:0:0:0:
64,192,85664,1,0,0:0:0:0:
320,192,85664,1,0,0:0:0:0:
192,192,85814,1,0,0:0:0:0:
448,192,85814,1,0,0:0:0:0:
320,192,85889,1,0,0:0:0:0:
64,192,85964,1,0,0:0:0:0:
192,192,85964,1,0,0:0:0:0:
448,192,86039,1,0,0:0:0:0:
320,192,86114,1,0,0:0:0:0:
192,192,86114,1,0,0:0:0:0:
64,192,86114,1,0,0:0:0:0:
448,192,86264,1,0,0:0:0:0:
320,192,86264,1,0,0:0:0:0:
64,192,86414,1,0,0:0:0:0:
192,192,86414,1,0,0:0:0:0:
448,192,86414,1,0,0:0:0:0:
192,192,86564,1,0,0:0:0:0:
448,192,86564,1,0,0:0:0:0:
64,192,86714,1,0,0:0:0:0:
192,192,86714,1,0,0:0:0:0:
320,192,86714,1,0,0:0:0:0:
448,192,86864,1,0,0:0:0:0:
192,192,86864,1,0,0:0:0:0:
64,192,87014,1,0,0:0:0:0:
320,192,87014,1,0,0:0:0:0:
192,192,87089,1,0,0:0:0:0:
320,192,87164,1,0,0:0:0:0:
448,192,87164,1,0,0:0:0:0:
64,192,87239,1,0,0:0:0:0:
192,192,87314,1,0,0:0:0:0:
320,192,87314,1,0,0:0:0:0:
448,192,87314,1,0,0:0:0:0:
64,192,87464,1,0,0:0:0:0:
320,192,87464,1,0,0:0:0:0:
192,192,87614,1,0,0:0:0:0:
64,192,87614,1,0,0:0:0:0:
448,192,87614,1,0,0:0:0:0:
320,192,87689,1,0,0:0:0:0:
192,192,87764,1,0,0:0:0:0:
64,192,87764,1,0,0:0:0:0:
320,192,87839,1,0,0:0:0:0:
64,192,87914,1,0,0:0:0:0:
448,192,87914,1,0,0:0:0:0:
320,192,87989,1,0,0:0:0:0:
192,192,88064,1,0,0:0:0:0:
64,192,88064,1,0,0:0:0:0:
320,192,88139,1,0,0:0:0:0:
192,192,88214,1,0,0:0:0:0:
64,192,88214,1,0,0:0:0:0:
448,192,88289,1,0,0:0:0:0:
64,192,88364,1,0,0:0:0:0:
192,192,88364,1,0,0:0:0:0:
320,192,88414,1,0,0:0:0:0:
448,192,88464,1,0,0:0:0:0:
64,192,88514,1,0,0:0:0:0:
320,192,88564,1,0,0:0:0:0:
192,192,88614,1,0,0:0:0:0:
448,192,88664,1,0,0:0:0:0:
320,192,88714,1,0,0:0:0:0:
64,192,88764,1,0,0:0:0:0:
192,192,88814,1,0,0:0:0:0:
448,192,88814,1,0,0:0:0:0:
64,192,88964,1,0,0:0:0:0:
320,192,88964,1,0,0:0:0:0:
64,192,89114,1,0,0:0:0:0:
192,192,89114,1,0,0:0:0:0:
448,192,89114,1,0,0:0:0:0:
320,192,89264,1,0,0:0:0:0:
192,192,89264,1,0,0:0:0:0:
448,192,89339,1,0,0:0:0:0:
64,192,89414,1,0,0:0:0:0:
320,192,89414,1,0,0:0:0:0:
192,192,89489,1,0,0:0:0:0:
448,192,89564,1,0,0:0:0:0:
64,192,89564,1,0,0:0:0:0:
320,192,89639,1,0,0:0:0:0:
64,192,89714,1,0,0:0:0:0:
192,192,89714,1,0,0:0:0:0:
448,192,89714,1,0,0:0:0:0:
320,192,89864,1,0,0:0:0:0:
448,192,89864,1,0,0:0:0:0:
192,192,90014,1,0,0:0:0:0:
320,192,90014,1,0,0:0:0:0:
448,192,90014,1,0,0:0:0:0:
192,192,90164,1,0,0:0:0:0:
320,192,90164,1,0,0:0:0:0:
64,192,90314,1,0,0:0:0:0:
448,192,90314,1,0,0:0:0:0:
192,192,90314,1,0,0:0:0:0:
448,192,90464,1,0,0:0:0:0:
192,192,90464,1,0,0:0:0:0:
320,192,90539,1,0,0:0:0:0:
64,192,90614,1,0,0:0:0:0:
192,192,90614,1,0,0:0:0:0:
320,192,90689,1,0,0:0:0:0:
192,192,90764,1,0,0:0:0:0:
64,192,90764,1,0,0:0:0:0:
448,192,90764,1,0,0:0:0:0:
192,192,90914,1,0,0:0:0:0:
320,192,90914,1,0,0:0:0:0:
448,192,90914,1,0,0:0:0:0:
64,192,91064,1,0,0:0:0:0:
320,192,91064,1,0,0:0:0:0:
448,192,91214,1,0,0:0:0:0:
320,192,91214,1,0,0:0:0:0:
64,192,91214,1,0,0:0:0:0:
192,192,91364,1,0,0:0:0:0:
448,192,91364,1,0,0:0:0:0:
320,192,91514,1,0,0:0:0:0:
192,192,91514,1,0,0:0:0:0:
448,192,91514,1,0,0:0:0:0:
64,192,91664,1,0,0:0:0:0:
192,192,91664,1,0,0:0:0:0:
64,192,91814,1,0,0:0:0:0:
448,192,91814,1,0,0:0:0:0:
192,192,91889,1,0,0:0:0:0:
320,192,91964,1,0,0:0:0:0:
448,192,91964,1,0,0:0:0:0:
192,192,92039,1,0,0:0:0:0:
64,192,92114,1,0,0:0:0:0:
448,192,92114,1,0,0:0:0:0:
320,192,92114,1,0,0:0:0:0:
320,192,92264,1,0,0:0:0:0:
192,192,92264,1,0,0:0:0:0:
64,192,92414,1,0,0:0:0:0:
448,192,92414,1,0,0:0:0:0:
192,192,92489,1,0,0:0:0:0:
320,192,92564,1,0,0:0:0:0:
448,192,92564,1,0,0:0:0:0:
64,192,92639,1,0,0:0:0:0:
192,192,92714,1,0,0:0:0:0:
320,192,92714,1,0,0:0:0:0:
448,192,92714,1,0,0:0:0:0:
64,192,92864,1,0,0:0:0:0:
320,192,92864,1,0,0:0:0:0:
192,192,92939,1,0,0:0:0:0:
320,192,93014,1,0,0:0:0:0:
448,192,93014,1,0,0:0:0:0:
192,192,93089,1,0,0:0:0:0:
64,192,93164,1,0,0:0:0:0:
448,192,93164,1,0,0:0:0:0:
320,192,93214,1,0,0:0:0:0:
192,192,93264,1,0,0:0:0:0:
448,192,93314,1,0,0:0:0:0:
64,192,93364,1,0,0:0:0:0:
192,192,93414,1,0,0:0:0:0:
320,192,93464,1,0,0:0:0:0:
64,192,93514,1,0,0:0:0:0:
192,192,93564,1,0,0:0:0:0:
320,192,93614,1,0,0:0:0:0:
448,192,93614,1,0,0:0:0:0:
192,192,93689,1,0,0:0:0:0:
64,192,93764,1,0,0:0:0:0:
448,192,93839,1,0,0:0:0:0:
320,192,93914,1,0,0:0:0:0:
192,192,93914,1,0,0:0:0:0:
64,192,93914,1,0,0:0:0:0:
448,192,93989,1,0,0:0:0:0:
320,192,94064,1,0,0:0:0:0:
64,192,94064,1,0,0:0:0:0:
192,192,94139,1,0,0:0:0:0:
64,192,94214,1,0,0:0:0:0:
448,192,94214,1,0,0:0:0:0:
192,192,94289,1,0,0:0:0:0:
320,192,94364,1,0,0:0:0:0:
64,192,94364,1,0,0:0:0:0:
448,192,94439,1,0,0:0:0:0:
320,192,94514,1,0,0:0:0:0:
192,192,94514,1,0,0:0:0:0:
64,192,94514,1,0,0:0:0:0:
448,192,94589,1,0,0:0:0:0:
64,192,94664,1,0,0:0:0:0:
320,192,94664,1,0,0:0:0:0:
192,192,94739,1,0,0:0:0:0:
320,192,94814,1,0,0:0:0:0:
448,192,94814,1,0,0:0:0:0:
64,192,94889,1,0,0:0:0:0:
192,192,94964,1,0,0:0:0:0:
448,192,94964,1,0,0:0:0:0:
320,192,95039,1,0,0:0:0:0:
448,192,95114,1,0,0:0:0:0:
192,192,95114,1,0,0:0:0:0:
64,192,95114,1,0,0:0:0:0:
320,192,95189,1,0,0:0:0:0:
448,192,95264,1,0,0:0:0:0:
192,192,95264,1,0,0:0:0:0:
64,192,95339,1,0,0:0:0:0:
448,192,95414,1,0,0:0:0:0:
320,192,95414,1,0,0:0:0:0:
192,192,95489,1,0,0:0:0:0:
320,192,95564,1,0,0:0:0:0:
64,192,95564,1,0,0:0:0:0:
192,192,95639,1,0,0:0:0:0:
64,192,95714,1,0,0:0:0:0:
320,192,95714,1,0,0:0:0:0:
448,192,95714,1,0,0:0:0:0:
192,192,95789,1,0,0:0:0:0:
448,192,95864,1,0,0:0:0:0:
64,192,95864,1,0,0:0:0:0:
320,192,95939,1,0,0:0:0:0:
448,192,96014,1,0,0:0:0:0:
192,192,96014,1,0,0:0:0:0:
64,192,96089,1,0,0:0:0:0:
320,192,96164,1,0,0:0:0:0:
448,192,96164,1,0,0:0:0:0:
192,192,96239,1,0,0:0:0:0:
64,192,96314,1,0,0:0:0:0:
448,192,96314,1,0,0:0:0:0:
320,192,96314,1,0,0:0:0:0:
192,192,96389,1,0,0:0:0:0:
320,192,96464,1,0,0:0:0:0:
448,192,96464,1,0,0:0:0:0:
192,192,96539,1,0,0:0:0:0:
320,192,96614,1,0,0:0:0:0:
64,192,96614,1,0,0:0:0:0:
192,192,96689,1,0,0:0:0:0:
320,192,96764,1,0,0:0:0:0:
448,192,96764,1,0,0:0:0:0:
64,192,96839,1,0,0:0:0:0:
192,192,96914,1,0,0:0:0:0:
320,192,96914,1,0,0:0:0:0:
448,192,96914,1,0,0:0:0:0:
64,192,96989,1,0,0:0:0:0:
192,192,97064,1,0,0:0:0:0:
320,192,97064,1,0,0:0:0:0:
448,192,97139,1,0,0:0:0:0:
64,192,97214,1,0,0:0:0:0:
192,192,97214,1,0,0:0:0:0:
320,192,97289,1,0,0:0:0:0:
192,192,97364,1,0,0:0:0:0:
64,192,97364,1,0,0:0:0:0:
320,192,97439,1,0,0:0:0:0:
64,192,97514,5,0,0:0:0:0:
448,192,97514,1,0,0:0:0:0:
192,192,97514,1,0,0:0:0:0:
320,192,97589,1,0,0:0:0:0:
448,192,97664,1,0,0:0:0:0:
64,192,97664,1,0,0:0:0:0:
192,192,97739,1,0,0:0:0:0:
320,192,97814,1,0,0:0:0:0:
448,192,97814,1,0,0:0:0:0:
64,192,97889,1,0,0:0:0:0:
192,192,97889,1,0,0:0:0:0:
448,192,97964,1,0,0:0:0:0:
320,192,97964,1,0,0:0:0:0:
192,192,98014,1,0,0:0:0:0:
64,192,98064,1,0,0:0:0:0:
448,192,98114,1,0,0:0:0:0:
192,192,98164,1,0,0:0:0:0:
320,192,98214,1,0,0:0:0:0:
64,192,98264,1,0,0:0:0:0:
192,192,98314,1,0,0:0:0:0:
320,192,98364,1,0,0:0:0:0:
64,192,98414,1,0,0:0:0:0:
448,192,98414,1,0,0:0:0:0:
192,192,98714,1,0,0:0:0:0:
320,192,98714,1,0,0:0:0:0:
64,192,98864,1,0,0:0:0:0:
192,192,98864,1,0,0:0:0:0:
448,192,98864,1,0,0:0:0:0:
320,192,99164,1,0,0:0:0:0:
448,192,99164,1,0,0:0:0:0:
192,192,99314,1,0,0:0:0:0:
448,192,99314,1,0,0:0:0:0:
320,192,99314,1,0,0:0:0:0:
192,192,99614,1,0,0:0:0:0:
192,192,99764,1,0,0:0:0:0:
192,192,99914,1,0,0:0:0:0:
192,192,100064,1,0,0:0:0:0:
320,192,100214,1,0,0:0:0:0:
192,192,100289,1,0,0:0:0:0:
320,192,100364,1,0,0:0:0:0:
192,192,100439,1,0,0:0:0:0:
320,192,100514,128,0,100814:0:0:0:0:
64,192,100814,1,0,0:0:0:0:
192,192,100814,1,0,0:0:0:0:
448,192,100814,1,0,0:0:0:0:
320,192,100964,1,0,0:0:0:0:
448,192,100964,1,0,0:0:0:0:
192,192,101114,1,0,0:0:0:0:
448,192,101114,1,0,0:0:0:0:
64,192,101114,1,0,0:0:0:0:
320,192,101264,1,0,0:0:0:0:
64,192,101339,1,0,0:0:0:0:
448,192,101414,1,0,0:0:0:0:
192,192,101414,1,0,0:0:0:0:
320,192,101489,1,0,0:0:0:0:
192,192,101564,1,0,0:0:0:0:
64,192,101564,1,0,0:0:0:0:
448,192,101714,1,0,0:0:0:0:
320,192,101714,1,0,0:0:0:0:
64,192,101714,1,0,0:0:0:0:
192,192,101864,1,0,0:0:0:0:
320,192,101864,1,0,0:0:0:0:
64,192,102014,1,0,0:0:0:0:
192,192,102014,1,0,0:0:0:0:
448,192,102014,1,0,0:0:0:0:
320,192,102164,1,0,0:0:0:0:
448,192,102164,1,0,0:0:0:0:
64,192,102314,1,0,0:0:0:0:
320,192,102314,1,0,0:0:0:0:
448,192,102314,1,0,0:0:0:0:
192,192,102464,1,0,0:0:0:0:
320,192,102539,1,0,0:0:0:0:
192,192,102614,1,0,0:0:0:0:
64,192,102614,1,0,0:0:0:0:
448,192,102689,1,0,0:0:0:0:
320,192,102689,1,0,0:0:0:0:
64,192,102764,1,0,0:0:0:0:
192,192,102839,1,0,0:0:0:0:
320,192,102914,1,0,0:0:0:0:
448,192,102914,1,0,0:0:0:0:
64,192,102989,1,0,0:0:0:0:
192,192,102989,1,0,0:0:0:0:
448,192,103064,1,0,0:0:0:0:
320,192,103139,1,0,0:0:0:0:
192,192,103214,1,0,0:0:0:0:
64,192,103214,1,0,0:0:0:0:
448,192,103214,1,0,0:0:0:0:
64,192,103364,1,0,0:0:0:0:
320,192,103364,1,0,0:0:0:0:
64,192,103514,1,0,0:0:0:0:
192,192,103514,1,0,0:0:0:0:
448,192,103514,1,0,0:0:0:0:
320,192,103664,1,0,0:0:0:0:
192,192,103664,1,0,0:0:0:0:
320,192,103814,1,0,0:0:0:0:
448,192,103814,1,0,0:0:0:0:
64,192,103814,1,0,0:0:0:0:
192,192,103889,1,0,0:0:0:0:
448,192,103964,1,0,0:0:0:0:
320,192,103964,1,0,0:0:0:0:
64,192,104039,1,0,0:0:0:0:
320,192,104114,1,0,0:0:0:0:
192,192,104114,1,0,0:0:0:0:
448,192,104114,1,0,0:0:0:0:
64,192,104264,1,0,0:0:0:0:
192,192,104264,1,0,0:0:0:0:
192,192,104414,1,0,0:0:0:0:
448,192,104414,1,0,0:0:0:0:
320,192,104489,1,0,0:0:0:0:
64,192,104564,1,0,0:0:0:0:
192,192,104564,1,0,0:0:0:0:
320,192,104639,1,0,0:0:0:0:
64,192,104714,1,0,0:0:0:0:
192,192,104714,1,0,0:0:0:0:
448,192,104714,1,0,0:0:0:0:
320,192,104864,1,0,0:0:0:0:
448,192,104864,1,0,0:0:0:0:
192,192,104939,1,0,0:0:0:0:
64,192,105014,1,0,0:0:0:0:
448,192,105014,1,0,0:0:0:0:
320,192,105089,1,0,0:0:0:0:
64,192,105164,1,0,0:0:0:0:
192,192,105214,1,0,0:0:0:0:
448,192,105264,1,0,0:0:0:0:
64,192,105314,1,0,0:0:0:0:
320,192,105364,1,0,0:0:0:0:
192,192,105414,1,0,0:0:0:0:
448,192,105464,1,0,0:0:0:0:
320,192,105514,1,0,0:0:0:0:
192,192,105564,1,0,0:0:0:0:
448,192,105614,1,0,0:0:0:0:
64,192,105614,1,0,0:0:0:0:
320,192,105764,1,0,0:0:0:0:
192,192,105764,1,0,0:0:0:0:
448,192,105914,1,0,0:0:0:0:
320,192,105914,1,0,0:0:0:0:
64,192,105914,1,0,0:0:0:0:
192,192,106064,1,0,0:0:0:0:
320,192,106139,1,0,0:0:0:0:
64,192,106214,1,0,0:0:0:0:
448,192,106214,1,0,0:0:0:0:
320,192,106289,1,0,0:0:0:0:
64,192,106364,1,0,0:0:0:0:
192,192,106364,1,0,0:0:0:0:
448,192,106439,1,0,0:0:0:0:
64,192,106514,1,0,0:0:0:0:
192,192,106514,1,0,0:0:0:0:
320,192,106514,1,0,0:0:0:0:
448,192,106664,1,0,0:0:0:0:
320,192,106664,1,0,0:0:0:0:
448,192,106814,1,0,0:0:0:0:
320,192,106814,1,0,0:0:0:0:
64,192,106814,1,0,0:0:0:0:
192,192,106964,1,0,0:0:0:0:
320,192,106964,1,0,0:0:0:0:
64,192,107114,1,0,0:0:0:0:
448,192,107114,1,0,0:0:0:0:
192,192,107114,1,0,0:0:0:0:
320,192,107264,1,0,0:0:0:0:
192,192,107339,1,0,0:0:0:0:
448,192,107414,1,0,0:0:0:0:
320,192,107414,1,0,0:0:0:0:
64,192,107489,1,0,0:0:0:0:
448,192,107564,1,0,0:0:0:0:
192,192,107564,1,0,0:0:0:0:
320,192,107639,1,0,0:0:0:0:
192,192,107714,1,0,0:0:0:0:
64,192,107714,1,0,0:0:0:0:
448,192,107714,1,0,0:0:0:0:
320,192,107789,1,0,0:0:0:0:
192,192,107939,1,0,0:0:0:0:
448,192,108014,1,0,0:0:0:0:
320,192,108014,1,0,0:0:0:0:
64,192,108089,1,0,0:0:0:0:
192,192,108164,1,0,0:0:0:0:
320,192,108239,1,0,0:0:0:0:
64,192,108314,1,0,0:0:0:0:
448,192,108314,1,0,0:0:0:0:
192,192,108314,1,0,0:0:0:0:
320,192,108389,1,0,0:0:0:0:
448,192,108464,1,0,0:0:0:0:
320,192,108539,1,0,0:0:0:0:
448,192,108614,1,0,0:0:0:0:
64,192,108614,1,0,0:0:0:0:
192,192,108689,1,0,0:0:0:0:
64,192,108764,1,0,0:0:0:0:
192,192,108839,1,0,0:0:0:0:
64,192,108914,1,0,0:0:0:0:
320,192,108914,1,0,0:0:0:0:
448,192,108914,1,0,0:0:0:0:
192,192,108989,1,0,0:0:0:0:
448,192,109064,1,0,0:0:0:0:
320,192,109064,1,0,0:0:0:0:
192,192,109139,1,0,0:0:0:0:
64,192,109139,1,0,0:0:0:0:
320,192,109214,1,0,0:0:0:0:
448,192,109214,1,0,0:0:0:0:
64,192,109289,1,0,0:0:0:0:
192,192,109364,1,0,0:0:0:0:
448,192,109364,1,0,0:0:0:0:
320,192,109439,1,0,0:0:0:0:
192,192,109514,1,0,0:0:0:0:
64,192,109514,1,0,0:0:0:0:
448,192,109589,1,0,0:0:0:0:
64,192,109664,1,0,0:0:0:0:
192,192,109739,1,0,0:0:0:0:
320,192,109814,1,0,0:0:0:0:
64,192,109889,1,0,0:0:0:0:
448,192,109964,1,0,0:0:0:0:
320,192,110014,1,0,0:0:0:0:
192,192,110064,1,0,0:0:0:0:
64,192,110114,1,0,0:0:0:0:
448,192,110164,1,0,0:0:0:0:
192,192,110214,1,0,0:0:0:0:
320,192,110264,1,0,0:0:0:0:
64,192,110314,1,0,0:0:0:0:
192,192,110364,1,0,0:0:0:0:
320,192,110414,5,0,0:0:0:0:
448,192,110414,1,0,0:0:0:0:
320,192,110564,1,0,0:0:0:0:
448,192,110564,1,0,0:0:0:0:
320,192,110714,1,0,0:0:0:0:
448,192,110714,1,0,0:0:0:0:
64,192,110864,1,0,0:0:0:0:
448,192,110864,1,0,0:0:0:0:
192,192,110864,128,0,111239:0:0:0:0:
448,192,111239,128,0,111314:0:0:0:0:
320,192,111314,128,0,111614:0:0:0:0:
64,192,111614,1,0,0:0:0:0:
448,192,111614,128,0,111689:0:0:0:0:
192,192,111689,1,0,0:0:0:0:
320,192,111764,1,0,0:0:0:0:
192,192,111839,1,0,0:0:0:0:
448,192,111914,1,0,0:0:0:0:
320,192,111914,1,0,0:0:0:0:
64,192,111914,1,0,0:0:0:0:
192,192,111989,1,0,0:0:0:0:
320,192,112064,128,0,112139:0:0:0:0:
448,192,112064,1,0,0:0:0:0:
64,192,112139,1,0,0:0:0:0:
448,192,112214,128,0,112289:0:0:0:0:
192,192,112214,1,0,0:0:0:0:
64,192,112289,1,0,0:0:0:0:
192,192,112364,1,0,0:0:0:0:
448,192,112364,1,0,0:0:0:0:
320,192,112439,1,0,0:0:0:0:
64,192,112514,1,0,0:0:0:0:
192,192,112514,1,0,0:0:0:0:
448,192,112514,1,0,0:0:0:0:
320,192,112589,1,0,0:0:0:0:
64,192,112664,1,0,0:0:0:0:
192,192,112739,1,0,0:0:0:0:
320,192,112814,1,0,0:0:0:0:
448,192,112814,1,0,0:0:0:0:
64,192,112889,1,0,0:0:0:0:
448,192,112964,1,0,0:0:0:0:
320,192,113039,1,0,0:0:0:0:
64,192,113114,1,0,0:0:0:0:
448,192,113114,1,0,0:0:0:0:
192,192,113114,1,0,0:0:0:0:
320,192,113189,1,0,0:0:0:0:
64,192,113264,128,0,113339:0:0:0:0:
448,192,113339,1,0,0:0:0:0:
192,192,113414,1,0,0:0:0:0:
64,192,113489,1,0,0:0:0:0:
320,192,113564,1,0,0:0:0:0:
448,192,113564,1,0,0:0:0:0:
192,192,113639,1,0,0:0:0:0:
64,192,113714,1,0,0:0:0:0:
320,192,113714,1,0,0:0:0:0:
448,192,113714,128,0,113789:0:0:0:0:
192,192,113789,1,0,0:0:0:0:
320,192,113864,1,0,0:0:0:0:
448,192,113939,1,0,0:0:0:0:
64,192,114014,1,0,0:0:0:0:
192,192,114014,128,0,114089:0:0:0:0:
448,192,114089,1,0,0:0:0:0:
320,192,114164,1,0,0:0:0:0:
64,192,114239,1,0,0:0:0:0:
192,192,114314,1,0,0:0:0:0:
320,192,114314,1,0,0:0:0:0:
448,192,114314,1,0,0:0:0:0:
64,192,114389,1,0,0:0:0:0:
448,192,114464,128,0,114539:0:0:0:0:
192,192,114464,1,0,0:0:0:0:
320,192,114539,1,0,0:0:0:0:
64,192,114614,128,0,114689:0:0:0:0:
192,192,114614,1,0,0:0:0:0:
448,192,114689,1,0,0:0:0:0:
192,192,114764,1,0,0:0:0:0:
64,192,114764,1,0,0:0:0:0:
320,192,114839,1,0,0:0:0:0:
192,192,114914,1,0,0:0:0:0:
448,192,114914,1,0,0:0:0:0:
64,192,114914,1,0,0:0:0:0:
320,192,114989,1,0,0:0:0:0:
64,192,115064,1,0,0:0:0:0:
192,192,115139,1,0,0:0:0:0:
448,192,115214,128,0,115289:0:0:0:0:
320,192,115214,1,0,0:0:0:0:
192,192,115289,1,0,0:0:0:0:
64,192,115364,1,0,0:0:0:0:
320,192,115364,1,0,0:0:0:0:
192,192,115439,1,0,0:0:0:0:
320,192,115514,1,0,0:0:0:0:
448,192,115514,1,0,0:0:0:0:
64,192,115514,1,0,0:0:0:0:
192,192,115589,1,0,0:0:0:0:
448,192,115664,1,0,0:0:0:0:
64,192,115739,1,0,0:0:0:0:
320,192,115814,1,0,0:0:0:0:
192,192,115889,1,0,0:0:0:0:
64,192,115964,1,0,0:0:0:0:
448,192,116014,1,0,0:0:0:0:
192,192,116064,1,0,0:0:0:0:
320,192,116114,1,0,0:0:0:0:
448,192,116164,1,0,0:0:0:0:
64,192,116214,1,0,0:0:0:0:
192,192,116264,1,0,0:0:0:0:
448,192,116314,1,0,0:0:0:0:
320,192,116364,1,0,0:0:0:0:
192,192,116414,1,0,0:0:0:0:
64,192,116414,128,0,116489:0:0:0:0:
448,192,116489,1,0,0:0:0:0:
320,192,116564,1,0,0:0:0:0:
192,192,116639,1,0,0:0:0:0:
448,192,116714,1,0,0:0:0:0:
320,192,116714,1,0,0:0:0:0:
64,192,116714,1,0,0:0:0:0:
192,192,116789,1,0,0:0:0:0:
448,192,116864,1,0,0:0:0:0:
320,192,116939,1,0,0:0:0:0:
448,192,117014,128,0,117089:0:0:0:0:
192,192,117014,1,0,0:0:0:0:
320,192,117089,1,0,0:0:0:0:
64,192,117164,1,0,0:0:0:0:
192,192,117164,1,0,0:0:0:0:
320,192,117239,1,0,0:0:0:0:
448,192,117314,1,0,0:0:0:0:
64,192,117314,1,0,0:0:0:0:
192,192,117314,1,0,0:0:0:0:
320,192,117389,1,0,0:0:0:0:
192,192,117464,1,0,0:0:0:0:
448,192,117539,1,0,0:0:0:0:
64,192,117614,128,0,117689:0:0:0:0:
320,192,117614,1,0,0:0:0:0:
192,192,117764,1,0,0:0:0:0:
448,192,117764,1,0,0:0:0:0:
320,192,117839,1,0,0:0:0:0:
64,192,117914,1,0,0:0:0:0:
192,192,117914,1,0,0:0:0:0:
448,192,117914,1,0,0:0:0:0:
320,192,118064,1,0,0:0:0:0:
192,192,118064,1,0,0:0:0:0:
64,192,118214,1,0,0:0:0:0:
448,192,118214,1,0,0:0:0:0:
320,192,118214,1,0,0:0:0:0:
192,192,118289,1,0,0:0:0:0:
64,192,118364,1,0,0:0:0:0:
320,192,118439,1,0,0:0:0:0:
448,192,118514,1,0,0:0:0:0:
192,192,118514,1,0,0:0:0:0:
64,192,118514,1,0,0:0:0:0:
320,192,118589,1,0,0:0:0:0:
64,192,118664,1,0,0:0:0:0:
192,192,118739,1,0,0:0:0:0:
64,192,118814,1,0,0:0:0:0:
320,192,118814,1,0,0:0:0:0:
448,192,118814,1,0,0:0:0:0:
192,192,118889,1,0,0:0:0:0:
320,192,118964,1,0,0:0:0:0:
192,192,119039,1,0,0:0:0:0:
64,192,119114,1,0,0:0:0:0:
320,192,119114,1,0,0:0:0:0:
448,192,119114,1,0,0:0:0:0:
320,192,119264,1,0,0:0:0:0:
64,192,119264,128,0,120014:0:0:0:0:
192,192,119339,1,0,0:0:0:0:
320,192,119414,1,0,0:0:0:0:
448,192,119414,1,0,0:0:0:0:
192,192,119489,1,0,0:0:0:0:
320,192,119564,1,0,0:0:0:0:
448,192,119564,1,0,0:0:0:0:
192,192,119714,1,0,0:0:0:0:
320,192,119714,1,0,0:0:0:0:
448,192,119714,1,0,0:0:0:0:
320,192,119864,1,0,0:0:0:0:
192,192,120014,1,0,0:0:0:0:
448,192,120014,1,0,0:0:0:0:
320,192,120089,1,0,0:0:0:0:
64,192,120164,1,0,0:0:0:0:
192,192,120239,1,0,0:0:0:0:
64,192,120314,1,0,0:0:0:0:
320,192,120389,1,0,0:0:0:0:
192,192,120464,1,0,0:0:0:0:
64,192,120539,1,0,0:0:0:0:
448,192,120614,128,0,121139:0:0:0:0:
320,192,120614,1,0,0:0:0:0:
192,192,120764,1,0,0:0:0:0:
64,192,120764,1,0,0:0:0:0:
320,192,120914,1,0,0:0:0:0:
64,192,120964,1,0,0:0:0:0:
192,192,121014,1,0,0:0:0:0:
320,192,121064,1,0,0:0:0:0:
64,192,121114,1,0,0:0:0:0:
192,192,121164,1,0,0:0:0:0:
448,192,121214,1,0,0:0:0:0:
320,192,121214,1,0,0:0:0:0:
64,192,121364,1,0,0:0:0:0:
320,192,121364,1,0,0:0:0:0:
64,192,121514,1,0,0:0:0:0:
192,192,121514,1,0,0:0:0:0:
448,192,121514,1,0,0:0:0:0:
192,192,121664,1,0,0:0:0:0:
448,192,121664,1,0,0:0:0:0:
64,192,121739,1,0,0:0:0:0:
320,192,121814,1,0,0:0:0:0:
448,192,121814,1,0,0:0:0:0:
192,192,121889,1,0,0:0:0:0:
64,192,121964,1,0,0:0:0:0:
320,192,122039,1,0,0:0:0:0:
192,192,122114,1,0,0:0:0:0:
448,192,122114,1,0,0:0:0:0:
64,192,122114,1,0,0:0:0:0:
192,192,122264,1,0,0:0:0:0:
320,192,122264,1,0,0:0:0:0:
64,192,122414,1,0,0:0:0:0:
320,192,122414,1,0,0:0:0:0:
192,192,122564,1,0,0:0:0:0:
64,192,122564,1,0,0:0:0:0:
64,192,122714,1,0,0:0:0:0:
320,192,122714,1,0,0:0:0:0:
448,192,122714,1,0,0:0:0:0:
192,192,122864,1,0,0:0:0:0:
448,192,122864,1,0,0:0:0:0:
64,192,122939,1,0,0:0:0:0:
320,192,123014,1,0,0:0:0:0:
192,192,123089,1,0,0:0:0:0:
320,192,123164,1,0,0:0:0:0:
64,192,123239,1,0,0:0:0:0:
192,192,123314,1,0,0:0:0:0:
448,192,123314,1,0,0:0:0:0:
320,192,123314,1,0,0:0:0:0:
64,192,123389,1,0,0:0:0:0:
320,192,123464,1,0,0:0:0:0:
192,192,123539,1,0,0:0:0:0:
64,192,123614,1,0,0:0:0:0:
448,192,123614,1,0,0:0:0:0:
320,192,123614,1,0,0:0:0:0:
192,192,123764,1,0,0:0:0:0:
448,192,123764,1,0,0:0:0:0:
192,192,123914,1,0,0:0:0:0:
320,192,123914,1,0,0:0:0:0:
64,192,123914,1,0,0:0:0:0:
448,192,124064,1,0,0:0:0:0:
64,192,124064,1,0,0:0:0:0:
320,192,124139,1,0,0:0:0:0:
192,192,124214,1,0,0:0:0:0:
448,192,124289,1,0,0:0:0:0:
64,192,124364,1,0,0:0:0:0:
320,192,124364,1,0,0:0:0:0:
192,192,124439,1,0,0:0:0:0:
64,192,124514,1,0,0:0:0:0:
320,192,124514,1,0,0:0:0:0:
448,192,124514,1,0,0:0:0:0:
192,192,124664,1,0,0:0:0:0:
448,192,124664,1,0,0:0:0:0:
64,192,124814,1,0,0:0:0:0:
320,192,124814,1,0,0:0:0:0:
448,192,124889,1,0,0:0:0:0:
192,192,124964,1,0,0:0:0:0:
64,192,124964,1,0,0:0:0:0:
320,192,125039,1,0,0:0:0:0:
64,192,125114,1,0,0:0:0:0:
192,192,125114,1,0,0:0:0:0:
448,192,125114,1,0,0:0:0:0:
192,192,125264,1,0,0:0:0:0:
320,192,125264,1,0,0:0:0:0:
448,192,125339,1,0,0:0:0:0:
64,192,125414,1,0,0:0:0:0:
320,192,125489,1,0,0:0:0:0:
64,192,125564,1,0,0:0:0:0:
192,192,125564,1,0,0:0:0:0:
320,192,125614,1,0,0:0:0:0:
448,192,125664,1,0,0:0:0:0:
64,192,125714,1,0,0:0:0:0:
320,192,125764,1,0,0:0:0:0:
192,192,125814,1,0,0:0:0:0:
448,192,125864,1,0,0:0:0:0:
64,192,125914,1,0,0:0:0:0:
192,192,125964,1,0,0:0:0:0:
320,192,126014,1,0,0:0:0:0:
448,192,126014,1,0,0:0:0:0:
64,192,126164,1,0,0:0:0:0:
320,192,126164,1,0,0:0:0:0:
64,192,126314,1,0,0:0:0:0:
192,192,126314,1,0,0:0:0:0:
320,192,126314,1,0,0:0:0:0:
64,192,126464,1,0,0:0:0:0:
320,192,126464,1,0,0:0:0:0:
448,192,126539,1,0,0:0:0:0:
192,192,126614,1,0,0:0:0:0:
320,192,126689,1,0,0:0:0:0:
64,192,126764,1,0,0:0:0:0:
448,192,126839,1,0,0:0:0:0:
192,192,126914,1,0,0:0:0:0:
64,192,126914,1,0,0:0:0:0:
320,192,126914,1,0,0:0:0:0:
192,192,127064,1,0,0:0:0:0:
320,192,127064,1,0,0:0:0:0:
448,192,127214,1,0,0:0:0:0:
64,192,127214,1,0,0:0:0:0:
192,192,127289,1,0,0:0:0:0:
320,192,127364,1,0,0:0:0:0:
192,192,127439,1,0,0:0:0:0:
64,192,127514,1,0,0:0:0:0:
320,192,127514,1,0,0:0:0:0:
448,192,127514,1,0,0:0:0:0:
192,192,127589,1,0,0:0:0:0:
320,192,127664,1,0,0:0:0:0:
448,192,127739,1,0,0:0:0:0:
64,192,127814,1,0,0:0:0:0:
320,192,127889,1,0,0:0:0:0:
192,192,127964,1,0,0:0:0:0:
448,192,127964,1,0,0:0:0:0:
64,192,128039,1,0,0:0:0:0:
320,192,128114,1,0,0:0:0:0:
192,192,128114,1,0,0:0:0:0:
448,192,128189,1,0,0:0:0:0:
64,192,128264,1,0,0:0:0:0:
320,192,128339,1,0,0:0:0:0:
192,192,128414,1,0,0:0:0:0:
448,192,128489,1,0,0:0:0:0:
192,192,128564,1,0,0:0:0:0:
320,192,128639,1,0,0:0:0:0:
192,192,128714,1,0,0:0:0:0:
320,192,128789,1,0,0:0:0:0:
448,192,128864,1,0,0:0:0:0:
320,192,128939,1,0,0:0:0:0:
192,192,129014,1,0,0:0:0:0:
64,192,129089,1,0,0:0:0:0:
192,192,129164,1,0,0:0:0:0:
64,192,129239,1,0,0:0:0:0:
192,192,129314,1,0,0:0:0:0:
448,192,129314,1,0,0:0:0:0:
64,192,129464,1,0,0:0:0:0:
320,192,129464,1,0,0:0:0:0:
192,192,129614,1,0,0:0:0:0:
64,192,129614,1,0,0:0:0:0:
448,192,129614,1,0,0:0:0:0:
320,192,129689,1,0,0:0:0:0:
192,192,129764,1,0,0:0:0:0:
64,192,129764,1,0,0:0:0:0:
320,192,129839,1,0,0:0:0:0:
192,192,129914,1,0,0:0:0:0:
448,192,129914,1,0,0:0:0:0:
64,192,129914,1,0,0:0:0:0:
320,192,130064,1,0,0:0:0:0:
192,192,130139,1,0,0:0:0:0:
64,192,130214,1,0,0:0:0:0:
448,192,130214,1,0,0:0:0:0:
320,192,130364,1,0,0:0:0:0:
448,192,130364,1,0,0:0:0:0:
64,192,130414,1,0,0:0:0:0:
192,192,130464,1,0,0:0:0:0:
448,192,130514,1,0,0:0:0:0:
64,192,130564,1,0,0:0:0:0:
320,192,130614,1,0,0:0:0:0:
192,192,130664,1,0,0:0:0:0:
448,192,130714,1,0,0:0:0:0:
320,192,130764,1,0,0:0:0:0:
64,192,130814,1,0,0:0:0:0:
320,192,130964,1,0,0:0:0:0:
64,192,131039,1,0,0:0:0:0:
192,192,131114,1,0,0:0:0:0:
320,192,131189,1,0,0:0:0:0:
448,192,131264,1,0,0:0:0:0:
320,192,131339,1,0,0:0:0:0:
64,192,131414,128,0,131714:0:0:0:0:
192,192,131414,1,0,0:0:0:0:
320,192,131714,128,0,131789:0:0:0:0:
320,192,131864,128,0,131939:0:0:0:0:
64,192,132014,1,0,0:0:0:0:
192,192,132014,1,0,0:0:0:0:
448,192,132014,128,0,132314:0:0:0:0:
192,192,132164,1,0,0:0:0:0:
64,192,132164,1,0,0:0:0:0:
64,192,132314,128,0,132614:0:0:0:0:
320,192,132314,1,0,0:0:0:0:
192,192,132314,1,0,0:0:0:0:
192,192,132464,1,0,0:0:0:0:
448,192,132614,128,0,132839:0:0:0:0:
320,192,132614,1,0,0:0:0:0:
192,192,132689,1,0,0:0:0:0:
320,192,132764,1,0,0:0:0:0:
64,192,132839,1,0,0:0:0:0:
192,192,132914,1,0,0:0:0:0:
320,192,132914,1,0,0:0:0:0:
448,192,132914,1,0,0:0:0:0:
192,192,133064,1,0,0:0:0:0:
64,192,133064,1,0,0:0:0:0:
448,192,133139,128,0,133214:0:0:0:0:
64,192,133214,1,0,0:0:0:0:
192,192,133214,128,0,133364:0:0:0:0:
320,192,133364,128,0,133439:0:0:0:0:
448,192,133439,128,0,133514:0:0:0:0:
64,192,133514,1,0,0:0:0:0:
192,192,133514,1,0,0:0:0:0:
320,192,133514,1,0,0:0:0:0:
448,192,133589,128,0,133739:0:0:0:0:
192,192,133664,1,0,0:0:0:0:
64,192,133739,128,0,133814:0:0:0:0:
320,192,133814,1,0,0:0:0:0:
64,192,133889,128,0,133964:0:0:0:0:
192,192,133889,1,0,0:0:0:0:
320,192,133964,128,0,134039:0:0:0:0:
448,192,133964,1,0,0:0:0:0:
192,192,134114,1,0,0:0:0:0:
448,192,134114,1,0,0:0:0:0:
320,192,134114,128,0,134189:0:0:0:0:
64,192,134264,128,0,134339:0:0:0:0:
192,192,134264,1,0,0:0:0:0:
64,192,134414,1,0,0:0:0:0:
320,192,134414,1,0,0:0:0:0:
448,192,134414,128,0,134714:0:0:0:0:
192,192,134564,1,0,0:0:0:0:
320,192,134714,1,0,0:0:0:0:
64,192,134714,128,0,135014:0:0:0:0:
192,192,134714,1,0,0:0:0:0:
192,192,134864,1,0,0:0:0:0:
448,192,134864,1,0,0:0:0:0:
320,192,135014,128,0,135314:0:0:0:0:
448,192,135014,1,0,0:0:0:0:
192,192,135089,1,0,0:0:0:0:
64,192,135164,1,0,0:0:0:0:
448,192,135164,1,0,0:0:0:0:
64,192,135314,1,0,0:0:0:0:
192,192,135314,1,0,0:0:0:0:
448,192,135314,1,0,0:0:0:0:
64,192,135464,128,0,135614:0:0:0:0:
192,192,135464,1,0,0:0:0:0:
192,192,135614,128,0,135764:0:0:0:0:
448,192,135614,1,0,0:0:0:0:
320,192,135689,1,0,0:0:0:0:
448,192,135764,1,0,0:0:0:0:
64,192,135764,1,0,0:0:0:0:
192,192,135914,1,0,0:0:0:0:
320,192,135914,1,0,0:0:0:0:
448,192,135914,1,0,0:0:0:0:
64,192,135914,128,0,136064:0:0:0:0:
192,192,136064,1,0,0:0:0:0:
320,192,136139,1,0,0:0:0:0:
64,192,136214,128,0,136364:0:0:0:0:
448,192,136214,1,0,0:0:0:0:
192,192,136214,1,0,0:0:0:0:
320,192,136289,1,0,0:0:0:0:
192,192,136364,1,0,0:0:0:0:
320,192,136414,1,0,0:0:0:0:
448,192,136464,1,0,0:0:0:0:
64,192,136514,1,0,0:0:0:0:
192,192,136564,1,0,0:0:0:0:
320,192,136614,1,0,0:0:0:0:
448,192,136664,1,0,0:0:0:0:
64,192,136714,1,0,0:0:0:0:
192,192,136764,1,0,0:0:0:0:
448,192,136814,1,0,0:0:0:0:
320,192,136814,1,0,0:0:0:0:
64,192,136814,128,0,137114:0:0:0:0:
192,192,136964,1,0,0:0:0:0:
448,192,136964,1,0,0:0:0:0:
320,192,137114,128,0,137414:0:0:0:0:
192,192,137114,1,0,0:0:0:0:
448,192,137114,1,0,0:0:0:0:
64,192,137264,1,0,0:0:0:0:
448,192,137414,128,0,137639:0:0:0:0:
192,192,137414,1,0,0:0:0:0:
64,192,137489,1,0,0:0:0:0:
192,192,137564,1,0,0:0:0:0:
320,192,137639,1,0,0:0:0:0:
64,192,137714,1,0,0:0:0:0:
192,192,137714,1,0,0:0:0:0:
448,192,137714,1,0,0:0:0:0:
320,192,137864,1,0,0:0:0:0:
448,192,137864,1,0,0:0:0:0:
448,192,138014,1,0,0:0:0:0:
320,192,138014,128,0,138164:0:0:0:0:
192,192,138164,128,0,138239:0:0:0:0:
64,192,138239,128,0,138314:0:0:0:0:
448,192,138314,1,0,0:0:0:0:
320,192,138314,1,0,0:0:0:0:
192,192,138314,1,0,0:0:0:0:
64,192,138389,128,0,138539:0:0:0:0:
320,192,138464,1,0,0:0:0:0:
448,192,138539,128,0,138614:0:0:0:0:
192,192,138614,1,0,0:0:0:0:
448,192,138689,128,0,138764:0:0:0:0:
320,192,138689,1,0,0:0:0:0:
192,192,138764,128,0,138839:0:0:0:0:
64,192,138764,1,0,0:0:0:0:
320,192,138914,1,0,0:0:0:0:
64,192,138914,1,0,0:0:0:0:
192,192,138914,128,0,138989:0:0:0:0:
448,192,139064,128,0,139139:0:0:0:0:
320,192,139064,1,0,0:0:0:0:
448,192,139214,1,0,0:0:0:0:
192,192,139214,1,0,0:0:0:0:
64,192,139214,128,0,139514:0:0:0:0:
320,192,139364,1,0,0:0:0:0:
192,192,139514,1,0,0:0:0:0:
448,192,139514,128,0,139814:0:0:0:0:
320,192,139514,1,0,0:0:0:0:
320,192,139664,1,0,0:0:0:0:
64,192,139664,1,0,0:0:0:0:
192,192,139814,128,0,140114:0:0:0:0:
64,192,139814,1,0,0:0:0:0:
320,192,139889,1,0,0:0:0:0:
448,192,139964,1,0,0:0:0:0:
64,192,139964,1,0,0:0:0:0:
448,192,140114,1,0,0:0:0:0:
320,192,140114,1,0,0:0:0:0:
64,192,140114,1,0,0:0:0:0:
320,192,140264,1,0,0:0:0:0:
320,192,140414,128,0,140564:0:0:0:0:
64,192,140414,1,0,0:0:0:0:
192,192,140489,1,0,0:0:0:0:
64,192,140564,1,0,0:0:0:0:
448,192,140564,1,0,0:0:0:0:
192,192,140714,1,0,0:0:0:0:
64,192,140714,1,0,0:0:0:0:
448,192,140714,1,0,0:0:0:0:
192,192,140864,1,0,0:0:0:0:
320,192,140939,1,0,0:0:0:0:
448,192,141014,128,0,141239:0:0:0:0:
192,192,141014,1,0,0:0:0:0:
64,192,141014,1,0,0:0:0:0:
320,192,141089,1,0,0:0:0:0:
192,192,141164,1,0,0:0:0:0:
64,192,141164,1,0,0:0:0:0:
192,192,141314,128,0,141614:0:0:0:0:
448,192,141314,128,0,141614:0:0:0:0:
320,192,141614,1,0,0:0:0:0:
64,192,141614,1,0,0:0:0:0:
448,192,141689,5,0,0:0:0:0:
192,192,141764,1,0,0:0:0:0:
320,192,141839,1,0,0:0:0:0:
192,192,141914,1,0,0:0:0:0:
64,192,141914,1,0,0:0:0:0:
448,192,141989,1,0,0:0:0:0:
320,192,142064,1,0,0:0:0:0:
64,192,142139,1,0,0:0:0:0:
192,192,142214,1,0,0:0:0:0:
320,192,142289,1,0,0:0:0:0:
64,192,142364,1,0,0:0:0:0:
448,192,142364,1,0,0:0:0:0:
192,192,142439,1,0,0:0:0:0:
448,192,142514,1,0,0:0:0:0:
320,192,142514,1,0,0:0:0:0:
64,192,142589,1,0,0:0:0:0:
320,192,142664,1,0,0:0:0:0:
192,192,142739,1,0,0:0:0:0:
64,192,142814,1,0,0:0:0:0:
320,192,142814,1,0,0:0:0:0:
448,192,142889,1,0,0:0:0:0:
192,192,142964,1,0,0:0:0:0:
320,192,143039,1,0,0:0:0:0:
448,192,143114,1,0,0:0:0:0:
64,192,143114,1,0,0:0:0:0:
192,192,143189,1,0,0:0:0:0:
448,192,143264,1,0,0:0:0:0:
64,192,143339,1,0,0:0:0:0:
320,192,143414,1,0,0:0:0:0:
192,192,143489,1,0,0:0:0:0:
64,192,143564,1,0,0:0:0:0:
320,192,143564,1,0,0:0:0:0:
448,192,143639,1,0,0:0:0:0:
192,192,143714,1,0,0:0:0:0:
64,192,143714,1,0,0:0:0:0:
320,192,143789,1,0,0:0:0:0:
64,192,143864,1,0,0:0:0:0:
448,192,143939,1,0,0:0:0:0:
192,192,144014,1,0,0:0:0:0:
64,192,144014,1,0,0:0:0:0:
320,192,144089,1,0,0:0:0:0:
448,192,144164,1,0,0:0:0:0:
192,192,144239,1,0,0:0:0:0:
64,192,144314,1,0,0:0:0:0:
448,192,144314,1,0,0:0:0:0:
320,192,144389,1,0,0:0:0:0:
192,192,144464,1,0,0:0:0:0:
320,192,144539,1,0,0:0:0:0:
64,192,144614,1,0,0:0:0:0:
192,192,144689,1,0,0:0:0:0:
320,192,144764,1,0,0:0:0:0:
448,192,144764,1,0,0:0:0:0:
192,192,144839,1,0,0:0:0:0:
64,192,144914,1,0,0:0:0:0:
320,192,144914,1,0,0:0:0:0:
448,192,144989,1,0,0:0:0:0:
64,192,145064,1,0,0:0:0:0:
320,192,145139,1,0,0:0:0:0:
192,192,145214,1,0,0:0:0:0:
448,192,145289,1,0,0:0:0:0:
192,192,145364,1,0,0:0:0:0:
320,192,145364,1,0,0:0:0:0:
64,192,145439,1,0,0:0:0:0:
448,192,145514,1,0,0:0:0:0:
320,192,145514,1,0,0:0:0:0:
192,192,145589,1,0,0:0:0:0:
64,192,145664,1,0,0:0:0:0:
448,192,145739,1,0,0:0:0:0:
320,192,145739,1,0,0:0:0:0:
192,192,145814,1,0,0:0:0:0:
320,192,145889,1,0,0:0:0:0:
448,192,145889,1,0,0:0:0:0:
192,192,145964,1,0,0:0:0:0:
64,192,145964,1,0,0:0:0:0:
448,192,146039,1,0,0:0:0:0:
320,192,146114,1,0,0:0:0:0:
192,192,146164,1,0,0:0:0:0:
64,192,146214,1,0,0:0:0:0:
448,192,146264,1,0,0:0:0:0:
192,192,146314,1,0,0:0:0:0:
320,192,146364,1,0,0:0:0:0:
448,192,146414,1,0,0:0:0:0:
64,192,146414,1,0,0:0:0:0:
192,192,146489,1,0,0:0:0:0:
320,192,146564,1,0,0:0:0:0:
64,192,146639,1,0,0:0:0:0:
192,192,146714,1,0,0:0:0:0:
448,192,146714,1,0,0:0:0:0:
320,192,146789,1,0,0:0:0:0:
448,192,146864,1,0,0:0:0:0:
192,192,146939,1,0,0:0:0:0:
64,192,147014,1,0,0:0:0:0:
320,192,147089,1,0,0:0:0:0:
448,192,147089,1,0,0:0:0:0:
64,192,147164,1,0,0:0:0:0:
192,192,147239,1,0,0:0:0:0:
320,192,147314,1,0,0:0:0:0:
448,192,147314,1,0,0:0:0:0:
192,192,147389,1,0,0:0:0:0:
320,192,147464,1,0,0:0:0:0:
64,192,147539,1,0,0:0:0:0:
320,192,147614,1,0,0:0:0:0:
448,192,147614,1,0,0:0:0:0:
192,192,147689,1,0,0:0:0:0:
448,192,147764,1,0,0:0:0:0:
320,192,147839,1,0,0:0:0:0:
448,192,147914,1,0,0:0:0:0:
64,192,147914,1,0,0:0:0:0:
192,192,147989,1,0,0:0:0:0:
320,192,148064,1,0,0:0:0:0:
64,192,148139,1,0,0:0:0:0:
192,192,148139,1,0,0:0:0:0:
448,192,148214,1,0,0:0:0:0:
320,192,148289,1,0,0:0:0:0:
64,192,148364,1,0,0:0:0:0:
192,192,148364,1,0,0:0:0:0:
448,192,148439,1,0,0:0:0:0:
320,192,148514,1,0,0:0:0:0:
64,192,148514,1,0,0:0:0:0:
192,192,148589,1,0,0:0:0:0:
448,192,148664,1,0,0:0:0:0:
64,192,148739,1,0,0:0:0:0:
448,192,148814,1,0,0:0:0:0:
192,192,148814,1,0,0:0:0:0:
320,192,148889,1,0,0:0:0:0:
64,192,148964,1,0,0:0:0:0:
448,192,149039,1,0,0:0:0:0:
64,192,149114,1,0,0:0:0:0:
192,192,149114,1,0,0:0:0:0:
448,192,149189,1,0,0:0:0:0:
64,192,149264,1,0,0:0:0:0:
320,192,149339,1,0,0:0:0:0:
192,192,149414,1,0,0:0:0:0:
64,192,149414,1,0,0:0:0:0:
448,192,149489,1,0,0:0:0:0:
192,192,149564,1,0,0:0:0:0:
64,192,149564,1,0,0:0:0:0:
320,192,149639,1,0,0:0:0:0:
448,192,149714,1,0,0:0:0:0:
64,192,149714,1,0,0:0:0:0:
192,192,149789,1,0,0:0:0:0:
448,192,149864,1,0,0:0:0:0:
320,192,149939,1,0,0:0:0:0:
192,192,150014,1,0,0:0:0:0:
320,192,150089,1,0,0:0:0:0:
448,192,150164,1,0,0:0:0:0:
64,192,150164,1,0,0:0:0:0:
320,192,150239,1,0,0:0:0:0:
64,192,150314,1,0,0:0:0:0:
192,192,150314,1,0,0:0:0:0:
320,192,150389,1,0,0:0:0:0:
64,192,150464,1,0,0:0:0:0:
192,192,150539,1,0,0:0:0:0:
448,192,150614,1,0,0:0:0:0:
320,192,150689,1,0,0:0:0:0:
64,192,150764,1,0,0:0:0:0:
192,192,150764,1,0,0:0:0:0:
448,192,150814,1,0,0:0:0:0:
320,192,150864,1,0,0:0:0:0:
64,192,150914,1,0,0:0:0:0:
192,192,150964,1,0,0:0:0:0:
448,192,151014,1,0,0:0:0:0:
64,192,151064,1,0,0:0:0:0:
192,192,151114,1,0,0:0:0:0:
320,192,151164,1,0,0:0:0:0:
64,192,151214,1,0,0:0:0:0:
448,192,151214,1,0,0:0:0:0:
192,192,151364,1,0,0:0:0:0:
320,192,151364,1,0,0:0:0:0:
64,192,151514,1,0,0:0:0:0:
320,192,151514,1,0,0:0:0:0:
448,192,151514,1,0,0:0:0:0:
192,192,151664,1,0,0:0:0:0:
320,192,151739,1,0,0:0:0:0:
448,192,151814,1,0,0:0:0:0:
64,192,151889,1,0,0:0:0:0:
192,192,151964,1,0,0:0:0:0:
448,192,152014,1,0,0:0:0:0:
320,192,152064,1,0,0:0:0:0:
64,192,152114,1,0,0:0:0:0:
192,192,152164,1,0,0:0:0:0:
448,192,152214,1,0,0:0:0:0:
320,192,152264,1,0,0:0:0:0:
64,192,152314,1,0,0:0:0:0:
192,192,152364,1,0,0:0:0:0:
320,192,152414,1,0,0:0:0:0:
448,192,152414,1,0,0:0:0:0:
192,192,152564,1,0,0:0:0:0:
320,192,152564,1,0,0:0:0:0:
448,192,152714,1,0,0:0:0:0:
64,192,152714,1,0,0:0:0:0:
192,192,152714,1,0,0:0:0:0:
320,192,152864,1,0,0:0:0:0:
64,192,152939,1,0,0:0:0:0:
448,192,153014,1,0,0:0:0:0:
320,192,153089,1,0,0:0:0:0:
192,192,153164,1,0,0:0:0:0:
64,192,153214,1,0,0:0:0:0:
448,192,153264,1,0,0:0:0:0:
192,192,153314,1,0,0:0:0:0:
320,192,153364,1,0,0:0:0:0:
448,192,153414,1,0,0:0:0:0:
64,192,153464,1,0,0:0:0:0:
320,192,153539,1,0,0:0:0:0:
192,192,153614,1,0,0:0:0:0:
64,192,153614,1,0,0:0:0:0:
448,192,153614,1,0,0:0:0:0:
320,192,153689,1,0,0:0:0:0:
64,192,153764,1,0,0:0:0:0:
192,192,153839,1,0,0:0:0:0:
64,192,153914,1,0,0:0:0:0:
448,192,153914,1,0,0:0:0:0:
320,192,153989,1,0,0:0:0:0:
192,192,154064,1,0,0:0:0:0:
320,192,154139,1,0,0:0:0:0:
64,192,154214,1,0,0:0:0:0:
192,192,154214,1,0,0:0:0:0:
320,192,154264,1,0,0:0:0:0:
448,192,154314,1,0,0:0:0:0:
64,192,154364,1,0,0:0:0:0:
320,192,154414,1,0,0:0:0:0:
192,192,154464,1,0,0:0:0:0:
64,192,154514,1,0,0:0:0:0:
448,192,154514,1,0,0:0:0:0:
192,192,154664,1,0,0:0:0:0:
448,192,154664,1,0,0:0:0:0:
320,192,154739,1,0,0:0:0:0:
64,192,154814,1,0,0:0:0:0:
192,192,154814,1,0,0:0:0:0:
448,192,154889,1,0,0:0:0:0:
320,192,154964,1,0,0:0:0:0:
64,192,154964,1,0,0:0:0:0:
192,192,155039,1,0,0:0:0:0:
320,192,155114,1,0,0:0:0:0:
448,192,155114,1,0,0:0:0:0:
64,192,155189,1,0,0:0:0:0:
192,192,155264,1,0,0:0:0:0:
448,192,155264,1,0,0:0:0:0:
320,192,155339,1,0,0:0:0:0:
192,192,155414,1,0,0:0:0:0:
64,192,155414,1,0,0:0:0:0:
448,192,155489,1,0,0:0:0:0:
64,192,155564,1,0,0:0:0:0:
320,192,155564,1,0,0:0:0:0:
192,192,155614,1,0,0:0:0:0:
448,192,155664,1,0,0:0:0:0:
64,192,155714,1,0,0:0:0:0:
192,192,155764,1,0,0:0:0:0:
320,192,155814,1,0,0:0:0:0:
448,192,155864,1,0,0:0:0:0:
64,192,155914,1,0,0:0:0:0:
192,192,155964,1,0,0:0:0:0:
320,192,156014,1,0,0:0:0:0:
448,192,156014,1,0,0:0:0:0:
64,192,156089,1,0,0:0:0:0:
192,192,156164,1,0,0:0:0:0:
320,192,156164,1,0,0:0:0:0:
448,192,156239,1,0,0:0:0:0:
64,192,156314,1,0,0:0:0:0:
192,192,156314,1,0,0:0:0:0:
320,192,156389,1,0,0:0:0:0:
448,192,156464,1,0,0:0:0:0:
192,192,156464,1,0,0:0:0:0:
64,192,156539,1,0,0:0:0:0:
320,192,156614,1,0,0:0:0:0:
448,192,156614,1,0,0:0:0:0:
192,192,156689,1,0,0:0:0:0:
64,192,156764,1,0,0:0:0:0:
448,192,156764,1,0,0:0:0:0:
320,192,156839,1,0,0:0:0:0:
192,192,156914,1,0,0:0:0:0:
448,192,156914,1,0,0:0:0:0:
64,192,156989,1,0,0:0:0:0:
192,192,157064,1,0,0:0:0:0:
320,192,157064,1,0,0:0:0:0:
448,192,157139,1,0,0:0:0:0:
64,192,157214,1,0,0:0:0:0:
320,192,157214,1,0,0:0:0:0:
192,192,157289,1,0,0:0:0:0:
320,192,157364,1,0,0:0:0:0:
448,192,157364,1,0,0:0:0:0:
64,192,157439,1,0,0:0:0:0:
192,192,157514,1,0,0:0:0:0:
448,192,157514,1,0,0:0:0:0:
320,192,157589,1,0,0:0:0:0:
192,192,157664,1,0,0:0:0:0:
448,192,157664,1,0,0:0:0:0:
320,192,157739,1,0,0:0:0:0:
64,192,157814,1,0,0:0:0:0:
192,192,157814,1,0,0:0:0:0:
448,192,157889,1,0,0:0:0:0:
64,192,157964,1,0,0:0:0:0:
192,192,157964,1,0,0:0:0:0:
320,192,158014,1,0,0:0:0:0:
448,192,158064,1,0,0:0:0:0:
64,192,158114,1,0,0:0:0:0:
320,192,158164,1,0,0:0:0:0:
192,192,158214,1,0,0:0:0:0:
448,192,158264,1,0,0:0:0:0:
64,192,158339,1,0,0:0:0:0:
192,192,158414,1,0,0:0:0:0:
320,192,158414,1,0,0:0:0:0:
448,192,158489,1,0,0:0:0:0:
64,192,158564,1,0,0:0:0:0:
320,192,158564,1,0,0:0:0:0:
192,192,158639,1,0,0:0:0:0:
448,192,158714,1,0,0:0:0:0:
320,192,158714,1,0,0:0:0:0:
64,192,158789,1,0,0:0:0:0:
192,192,158864,1,0,0:0:0:0:
448,192,158864,1,0,0:0:0:0:
320,192,158939,1,0,0:0:0:0:
192,192,159014,1,0,0:0:0:0:
448,192,159014,1,0,0:0:0:0:
64,192,159089,1,0,0:0:0:0:
320,192,159164,1,0,0:0:0:0:
448,192,159164,1,0,0:0:0:0:
192,192,159239,1,0,0:0:0:0:
64,192,159314,1,0,0:0:0:0:
448,192,159314,1,0,0:0:0:0:
320,192,159389,1,0,0:0:0:0:
192,192,159464,1,0,0:0:0:0:
64,192,159464,1,0,0:0:0:0:
448,192,159539,1,0,0:0:0:0:
192,192,159614,1,0,0:0:0:0:
320,192,159689,1,0,0:0:0:0:
192,192,159764,1,0,0:0:0:0:
64,192,159764,1,0,0:0:0:0:
320,192,159839,1,0,0:0:0:0:
192,192,159914,1,0,0:0:0:0:
64,192,159914,1,0,0:0:0:0:
448,192,159914,1,0,0:0:0:0:
320,192,159989,1,0,0:0:0:0:
192,192,160064,1,0,0:0:0:0:
320,192,160139,1,0,0:0:0:0:
64,192,160214,5,0,0:0:0:0:
448,192,160214,1,0,0:0:0:0:
320,192,160289,1,0,0:0:0:0:
192,192,160364,1,0,0:0:0:0:
64,192,160364,1,0,0:0:0:0:
448,192,160414,1,0,0:0:0:0:
320,192,160464,1,0,0:0:0:0:
64,192,160514,1,0,0:0:0:0:
192,192,160564,1,0,0:0:0:0:
320,192,160614,1,0,0:0:0:0:
64,192,160664,1,0,0:0:0:0:
448,192,160714,1,0,0:0:0:0:
320,192,160764,1,0,0:0:0:0:
192,192,160814,1,0,0:0:0:0:
64,192,160814,1,0,0:0:0:0:
448,192,161114,1,0,0:0:0:0:
64,192,161114,1,0,0:0:0:0:
192,192,161414,1,0,0:0:0:0:
448,192,161414,1,0,0:0:0:0:
320,192,161564,1,0,0:0:0:0:
448,192,161564,1,0,0:0:0:0:
64,192,161714,1,0,0:0:0:0:
192,192,161714,1,0,0:0:0:0:
192,192,161864,1,0,0:0:0:0:
64,192,161864,1,0,0:0:0:0:
320,192,162014,128,0,162089:0:0:0:0:
448,192,162164,128,0,162239:0:0:0:0:
64,192,162314,128,0,162389:0:0:0:0:
448,192,162464,128,0,162539:0:0:0:0:
192,192,162614,128,0,162689:0:0:0:0:
64,192,162614,1,0,0:0:0:0:
320,192,162764,128,0,162839:0:0:0:0:
64,192,162764,1,0,0:0:0:0:
192,192,162914,128,0,162989:0:0:0:0:
448,192,162914,1,0,0:0:0:0:
64,192,163064,128,0,163139:0:0:0:0:
320,192,163064,1,0,0:0:0:0:
448,192,163214,128,0,163289:0:0:0:0:
192,192,163214,1,0,0:0:0:0:
64,192,163214,1,0,0:0:0:0:
320,192,163364,1,0,0:0:0:0:
64,192,163514,128,0,163589:0:0:0:0:
192,192,163514,1,0,0:0:0:0:
320,192,163664,1,0,0:0:0:0:
64,192,163814,1,0,0:0:0:0:
448,192,163814,1,0,0:0:0:0:
320,192,163814,128,0,163889:0:0:0:0:
192,192,163964,1,0,0:0:0:0:
64,192,163964,1,0,0:0:0:0:
320,192,164114,128,0,164189:0:0:0:0:
192,192,164264,1,0,0:0:0:0:
64,192,164264,1,0,0:0:0:0:
448,192,164414,1,0,0:0:0:0:
192,192,164414,128,0,164489:0:0:0:0:
64,192,164564,1,0,0:0:0:0:
448,192,164714,1,0,0:0:0:0:
320,192,164714,128,0,164789:0:0:0:0:
64,192,164714,1,0,0:0:0:0:
192,192,164864,1,0,0:0:0:0:
320,192,165014,1,0,0:0:0:0:
64,192,165014,1,0,0:0:0:0:
448,192,165014,128,0,165089:0:0:0:0:
192,192,165164,1,0,0:0:0:0:
320,192,165314,1,0,0:0:0:0:
448,192,165314,128,0,165389:0:0:0:0:
64,192,165464,1,0,0:0:0:0:
320,192,165464,1,0,0:0:0:0:
192,192,165614,1,0,0:0:0:0:
448,192,165614,128,0,165689:0:0:0:0:
192,192,165764,1,0,0:0:0:0:
448,192,165914,1,0,0:0:0:0:
320,192,165914,128,0,165989:0:0:0:0:
192,192,166064,1,0,0:0:0:0:
64,192,166214,1,0,0:0:0:0:
192,192,166214,128,0,166289:0:0:0:0:
320,192,166364,1,0,0:0:0:0:
320,192,166514,1,0,0:0:0:0:
448,192,166514,128,0,166589:0:0:0:0:
64,192,166664,1,0,0:0:0:0:
192,192,166814,1,0,0:0:0:0:
64,192,166814,128,0,166889:0:0:0:0:
320,192,166964,1,0,0:0:0:0:
320,192,167114,1,0,0:0:0:0:
64,192,167114,1,0,0:0:0:0:
448,192,167114,128,0,167189:0:0:0:0:
192,192,167264,1,0,0:0:0:0:
64,192,167414,1,0,0:0:0:0:
192,192,167414,128,0,167489:0:0:0:0:
448,192,167414,1,0,0:0:0:0:
320,192,167564,1,0,0:0:0:0:
64,192,167714,1,0,0:0:0:0:
192,192,167714,128,0,167789:0:0:0:0:
64,192,168014,1,0,0:0:0:0:
320,192,168014,1,0,0:0:0:0:
448,192,168014,128,0,168089:0:0:0:0:
192,192,168089,1,0,0:0:0:0:
320,192,168164,1,0,0:0:0:0:
192,192,168239,1,0,0:0:0:0:
320,192,168314,1,0,0:0:0:0:
448,192,168314,128,0,168389:0:0:0:0:
192,192,168389,1,0,0:0:0:0:
64,192,168464,1,0,0:0:0:0:
320,192,168539,1,0,0:0:0:0:
192,192,168614,128,0,168689:0:0:0:0:
64,192,168614,1,0,0:0:0:0:
448,192,168689,1,0,0:0:0:0:
192,192,168764,1,0,0:0:0:0:
64,192,168764,1,0,0:0:0:0:
320,192,168839,1,0,0:0:0:0:
448,192,168914,1,0,0:0:0:0:
64,192,168914,128,0,168989:0:0:0:0:
192,192,168989,1,0,0:0:0:0:
448,192,169064,1,0,0:0:0:0:
320,192,169139,1,0,0:0:0:0:
64,192,169214,1,0,0:0:0:0:
192,192,169214,128,0,169289:0:0:0:0:
320,192,169289,1,0,0:0:0:0:
64,192,169364,1,0,0:0:0:0:
192,192,169439,1,0,0:0:0:0:
448,192,169514,1,0,0:0:0:0:
320,192,169514,128,0,169589:0:0:0:0:
64,192,169589,1,0,0:0:0:0:
320,192,169664,1,0,0:0:0:0:
448,192,169664,1,0,0:0:0:0:
192,192,169739,1,0,0:0:0:0:
64,192,169814,1,0,0:0:0:0:
448,192,169814,128,0,169889:0:0:0:0:
320,192,169889,1,0,0:0:0:0:
192,192,169964,1,0,0:0:0:0:
64,192,169964,1,0,0:0:0:0:
320,192,170039,1,0,0:0:0:0:
448,192,170114,1,0,0:0:0:0:
64,192,170114,128,0,170189:0:0:0:0:
192,192,170189,1,0,0:0:0:0:
448,192,170264,1,0,0:0:0:0:
320,192,170339,1,0,0:0:0:0:
64,192,170414,1,0,0:0:0:0:
192,192,170414,128,0,170489:0:0:0:0:
448,192,170489,1,0,0:0:0:0:
192,192,170564,1,0,0:0:0:0:
64,192,170564,1,0,0:0:0:0:
320,192,170639,1,0,0:0:0:0:
64,192,170714,1,0,0:0:0:0:
192,192,170714,128,0,170789:0:0:0:0:
448,192,170789,1,0,0:0:0:0:
64,192,170864,1,0,0:0:0:0:
320,192,170864,1,0,0:0:0:0:
192,192,170939,1,0,0:0:0:0:
448,192,171014,1,0,0:0:0:0:
320,192,171014,128,0,171089:0:0:0:0:
64,192,171089,1,0,0:0:0:0:
320,192,171164,1,0,0:0:0:0:
448,192,171164,1,0,0:0:0:0:
192,192,171239,1,0,0:0:0:0:
448,192,171314,1,0,0:0:0:0:
64,192,171314,1,0,0:0:0:0:
320,192,171314,128,0,171389:0:0:0:0:
192,192,171389,1,0,0:0:0:0:
448,192,171464,1,0,0:0:0:0:
320,192,171539,1,0,0:0:0:0:
192,192,171614,1,0,0:0:0:0:
448,192,171614,1,0,0:0:0:0:
64,192,171614,1,0,0:0:0:0:
320,192,171764,1,0,0:0:0:0:
64,192,171764,1,0,0:0:0:0:
192,192,171839,1,0,0:0:0:0:
320,192,171914,1,0,0:0:0:0:
64,192,171914,1,0,0:0:0:0:
448,192,171914,1,0,0:0:0:0:
192,192,172064,1,0,0:0:0:0:
64,192,172064,1,0,0:0:0:0:
320,192,172139,1,0,0:0:0:0:
192,192,172214,1,0,0:0:0:0:
448,192,172214,1,0,0:0:0:0:
320,192,172289,1,0,0:0:0:0:
192,192,172364,1,0,0:0:0:0:
64,192,172364,1,0,0:0:0:0:
320,192,172414,1,0,0:0:0:0:
448,192,172464,1,0,0:0:0:0:
64,192,172514,1,0,0:0:0:0:
192,192,172564,1,0,0:0:0:0:
448,192,172614,1,0,0:0:0:0:
64,192,172664,1,0,0:0:0:0:
320,192,172714,1,0,0:0:0:0:
192,192,172764,1,0,0:0:0:0:
64,192,172814,1,0,0:0:0:0:
448,192,172814,1,0,0:0:0:0:
320,192,172964,1,0,0:0:0:0:
448,192,172964,1,0,0:0:0:0:
192,192,173039,1,0,0:0:0:0:
64,192,173114,1,0,0:0:0:0:
448,192,173114,1,0,0:0:0:0:
320,192,173114,1,0,0:0:0:0:
192,192,173264,1,0,0:0:0:0:
320,192,173264,1,0,0:0:0:0:
64,192,173339,1,0,0:0:0:0:
192,192,173414,1,0,0:0:0:0:
320,192,173414,1,0,0:0:0:0:
448,192,173414,1,0,0:0:0:0:
64,192,173564,1,0,0:0:0:0:
320,192,173564,1,0,0:0:0:0:
448,192,173639,1,0,0:0:0:0:
64,192,173714,1,0,0:0:0:0:
192,192,173714,1,0,0:0:0:0:
320,192,173714,1,0,0:0:0:0:
448,192,173864,1,0,0:0:0:0:
192,192,173864,1,0,0:0:0:0:
320,192,173939,1,0,0:0:0:0:
64,192,174014,1,0,0:0:0:0:
448,192,174014,1,0,0:0:0:0:
192,192,174014,1,0,0:0:0:0:
320,192,174089,1,0,0:0:0:0:
64,192,174164,1,0,0:0:0:0:
448,192,174164,1,0,0:0:0:0:
192,192,174239,1,0,0:0:0:0:
64,192,174314,1,0,0:0:0:0:
448,192,174314,1,0,0:0:0:0:
320,192,174389,1,0,0:0:0:0:
64,192,174464,1,0,0:0:0:0:
192,192,174464,1,0,0:0:0:0:
320,192,174539,1,0,0:0:0:0:
448,192,174614,1,0,0:0:0:0:
64,192,174614,1,0,0:0:0:0:
192,192,174614,1,0,0:0:0:0:
320,192,174689,1,0,0:0:0:0:
448,192,174764,1,0,0:0:0:0:
192,192,174764,1,0,0:0:0:0:
64,192,174839,1,0,0:0:0:0:
320,192,174914,1,0,0:0:0:0:
192,192,174914,1,0,0:0:0:0:
448,192,174914,1,0,0:0:0:0:
320,192,175064,1,0,0:0:0:0:
192,192,175064,1,0,0:0:0:0:
320,192,175214,1,0,0:0:0:0:
448,192,175214,1,0,0:0:0:0:
64,192,175214,1,0,0:0:0:0:
192,192,175289,1,0,0:0:0:0:
448,192,175364,1,0,0:0:0:0:
320,192,175364,1,0,0:0:0:0:
64,192,175439,1,0,0:0:0:0:
320,192,175514,1,0,0:0:0:0:
192,192,175514,1,0,0:0:0:0:
448,192,175514,1,0,0:0:0:0:
64,192,175589,1,0,0:0:0:0:
192,192,175664,1,0,0:0:0:0:
448,192,175664,1,0,0:0:0:0:
320,192,175739,1,0,0:0:0:0:
64,192,175814,1,0,0:0:0:0:
192,192,175814,1,0,0:0:0:0:
448,192,175814,1,0,0:0:0:0:
320,192,175889,1,0,0:0:0:0:
192,192,175964,1,0,0:0:0:0:
64,192,175964,1,0,0:0:0:0:
320,192,176039,1,0,0:0:0:0:
448,192,176114,1,0,0:0:0:0:
64,192,176114,1,0,0:0:0:0:
192,192,176114,1,0,0:0:0:0:
320,192,176189,1,0,0:0:0:0:
448,192,176264,1,0,0:0:0:0:
64,192,176264,1,0,0:0:0:0:
192,192,176339,1,0,0:0:0:0:
320,192,176414,1,0,0:0:0:0:
64,192,176414,1,0,0:0:0:0:
448,192,176414,1,0,0:0:0:0:
320,192,176564,1,0,0:0:0:0:
192,192,176564,1,0,0:0:0:0:
64,192,176639,1,0,0:0:0:0:
192,192,176714,1,0,0:0:0:0:
320,192,176714,1,0,0:0:0:0:
448,192,176714,1,0,0:0:0:0:
64,192,176864,1,0,0:0:0:0:
448,192,176864,1,0,0:0:0:0:
64,192,177014,1,0,0:0:0:0:
192,192,177014,1,0,0:0:0:0:
320,192,177014,1,0,0:0:0:0:
448,192,177089,1,0,0:0:0:0:
64,192,177164,1,0,0:0:0:0:
192,192,177164,1,0,0:0:0:0:
320,192,177214,1,0,0:0:0:0:
448,192,177264,1,0,0:0:0:0:
64,192,177314,1,0,0:0:0:0:
320,192,177364,1,0,0:0:0:0:
192,192,177414,1,0,0:0:0:0:
448,192,177464,1,0,0:0:0:0:
320,192,177514,1,0,0:0:0:0:
192,192,177564,1,0,0:0:0:0:
64,192,177614,1,0,0:0:0:0:
448,192,177614,1,0,0:0:0:0:
64,192,177764,1,0,0:0:0:0:
192,192,177764,1,0,0:0:0:0:
320,192,177839,1,0,0:0:0:0:
192,192,177914,1,0,0:0:0:0:
64,192,177914,1,0,0:0:0:0:
448,192,177914,1,0,0:0:0:0:
320,192,178064,1,0,0:0:0:0:
448,192,178064,1,0,0:0:0:0:
192,192,178139,1,0,0:0:0:0:
320,192,178214,1,0,0:0:0:0:
448,192,178214,1,0,0:0:0:0:
64,192,178364,1,0,0:0:0:0:
192,192,178364,1,0,0:0:0:0:
320,192,178514,1,0,0:0:0:0:
64,192,178514,1,0,0:0:0:0:
192,192,178514,1,0,0:0:0:0:
64,192,178664,1,0,0:0:0:0:
320,192,178664,1,0,0:0:0:0:
192,192,178739,1,0,0:0:0:0:
320,192,178814,1,0,0:0:0:0:
448,192,178814,1,0,0:0:0:0:
192,192,178889,1,0,0:0:0:0:
64,192,178964,1,0,0:0:0:0:
448,192,179114,1,0,0:0:0:0:
192,192,179114,1,0,0:0:0:0:
64,192,179114,1,0,0:0:0:0:
320,192,179189,1,0,0:0:0:0:
192,192,179264,1,0,0:0:0:0:
64,192,179414,1,0,0:0:0:0:
320,192,179414,1,0,0:0:0:0:
192,192,179489,1,0,0:0:0:0:
320,192,179564,1,0,0:0:0:0:
448,192,179564,1,0,0:0:0:0:
64,192,179714,1,0,0:0:0:0:
192,192,179714,1,0,0:0:0:0:
448,192,179714,1,0,0:0:0:0:
64,192,179864,1,0,0:0:0:0:
320,192,179864,1,0,0:0:0:0:
192,192,180014,1,0,0:0:0:0:
64,192,180014,1,0,0:0:0:0:
448,192,180014,1,0,0:0:0:0:
64,192,180164,1,0,0:0:0:0:
448,192,180164,1,0,0:0:0:0:
192,192,180164,1,0,0:0:0:0:
64,192,180314,1,0,0:0:0:0:
192,192,180314,1,0,0:0:0:0:
320,192,180314,1,0,0:0:0:0:
64,192,180464,1,0,0:0:0:0:
192,192,180464,1,0,0:0:0:0:
448,192,180464,1,0,0:0:0:0:
64,192,180614,1,0,0:0:0:0:
192,192,180614,1,0,0:0:0:0:
320,192,180614,1,0,0:0:0:0:
64,192,180764,1,0,0:0:0:0:
192,192,180764,1,0,0:0:0:0:
448,192,180764,1,0,0:0:0:0:
64,192,180914,1,0,0:0:0:0:
320,192,180914,1,0,0:0:0:0:
192,192,180914,1,0,0:0:0:0:
64,192,181064,1,0,0:0:0:0:
192,192,181064,1,0,0:0:0:0:
448,192,181064,1,0,0:0:0:0:
64,192,181214,1,0,0:0:0:0:
192,192,181214,1,0,0:0:0:0:
320,192,181289,1,0,0:0:0:0:
448,192,181289,1,0,0:0:0:0:
192,192,181364,1,0,0:0:0:0:
64,192,181364,1,0,0:0:0:0:
448,192,181439,1,0,0:0:0:0:
320,192,181439,1,0,0:0:0:0:
192,192,181514,1,0,0:0:0:0:
64,192,181514,1,0,0:0:0:0:
320,192,181589,1,0,0:0:0:0:
448,192,181589,1,0,0:0:0:0:
192,192,181664,1,0,0:0:0:0:
64,192,181664,1,0,0:0:0:0:
320,192,181964,128,0,182114:0:0:0:0:
192,192,182114,128,0,182264:0:0:0:0:
320,192,182264,128,0,182414:0:0:0:0:
192,192,182414,1,0,0:0:0:0:
64,192,182414,1,0,0:0:0:0:
448,192,182414,1,0,0:0:0:0:
320,192,182489,1,0,0:0:0:0:
64,192,182564,1,0,0:0:0:0:
192,192,182639,1,0,0:0:0:0:
320,192,182714,1,0,0:0:0:0:
448,192,182714,1,0,0:0:0:0:
64,192,182714,1,0,0:0:0:0:
192,192,182789,1,0,0:0:0:0:
448,192,182864,1,0,0:0:0:0:
320,192,182864,1,0,0:0:0:0:
64,192,182939,1,0,0:0:0:0:
192,192,183014,1,0,0:0:0:0:
448,192,183014,1,0,0:0:0:0:
320,192,183089,1,0,0:0:0:0:
192,192,183164,1,0,0:0:0:0:
64,192,183164,1,0,0:0:0:0:
320,192,183239,1,0,0:0:0:0:
192,192,183314,1,0,0:0:0:0:
64,192,183314,1,0,0:0:0:0:
448,192,183314,1,0,0:0:0:0:
320,192,183389,1,0,0:0:0:0:
64,192,183464,1,0,0:0:0:0:
192,192,183539,1,0,0:0:0:0:
320,192,183614,1,0,0:0:0:0:
448,192,183614,1,0,0:0:0:0:
64,192,183689,1,0,0:0:0:0:
192,192,183764,1,0,0:0:0:0:
448,192,183764,1,0,0:0:0:0:
320,192,183839,1,0,0:0:0:0:
192,192,183914,1,0,0:0:0:0:
64,192,183914,1,0,0:0:0:0:
448,192,183914,1,0,0:0:0:0:
320,192,183989,1,0,0:0:0:0:
64,192,184064,1,0,0:0:0:0:
192,192,184139,1,0,0:0:0:0:
320,192,184214,1,0,0:0:0:0:
448,192,184214,1,0,0:0:0:0:
64,192,184289,1,0,0:0:0:0:
192,192,184364,1,0,0:0:0:0:
448,192,184364,1,0,0:0:0:0:
320,192,184439,1,0,0:0:0:0:
192,192,184514,1,0,0:0:0:0:
64,192,184514,1,0,0:0:0:0:
448,192,184514,1,0,0:0:0:0:
320,192,184589,1,0,0:0:0:0:
192,192,184664,1,0,0:0:0:0:
64,192,184664,1,0,0:0:0:0:
448,192,184739,1,0,0:0:0:0:
64,192,184814,1,0,0:0:0:0:
320,192,184814,1,0,0:0:0:0:
192,192,184889,1,0,0:0:0:0:
320,192,184964,1,0,0:0:0:0:
448,192,184964,1,0,0:0:0:0:
64,192,185039,1,0,0:0:0:0:
320,192,185114,1,0,0:0:0:0:
192,192,185114,1,0,0:0:0:0:
448,192,185114,1,0,0:0:0:0:
64,192,185189,1,0,0:0:0:0:
320,192,185264,1,0,0:0:0:0:
192,192,185264,1,0,0:0:0:0:
448,192,185339,1,0,0:0:0:0:
64,192,185414,1,0,0:0:0:0:
320,192,185414,1,0,0:0:0:0:
192,192,185489,1,0,0:0:0:0:
64,192,185564,1,0,0:0:0:0:
448,192,185564,1,0,0:0:0:0:
320,192,185639,1,0,0:0:0:0:
64,192,185714,1,0,0:0:0:0:
192,192,185714,1,0,0:0:0:0:
448,192,185714,1,0,0:0:0:0:
320,192,185789,1,0,0:0:0:0:
192,192,185864,1,0,0:0:0:0:
320,192,185939,1,0,0:0:0:0:
192,192,186014,1,0,0:0:0:0:
64,192,186014,1,0,0:0:0:0:
320,192,186089,1,0,0:0:0:0:
192,192,186164,1,0,0:0:0:0:
64,192,186164,1,0,0:0:0:0:
448,192,186239,1,0,0:0:0:0:
320,192,186314,1,0,0:0:0:0:
64,192,186314,1,0,0:0:0:0:
192,192,186314,1,0,0:0:0:0:
448,192,186389,1,0,0:0:0:0:
320,192,186464,1,0,0:0:0:0:
192,192,186464,1,0,0:0:0:0:
64,192,186539,1,0,0:0:0:0:
192,192,186614,1,0,0:0:0:0:
448,192,186614,1,0,0:0:0:0:
320,192,186689,1,0,0:0:0:0:
64,192,186764,1,0,0:0:0:0:
192,192,186764,1,0,0:0:0:0:
320,192,186814,1,0,0:0:0:0:
448,192,186864,1,0,0:0:0:0:
64,192,186914,1,0,0:0:0:0:
320,192,186964,1,0,0:0:0:0:
192,192,187014,1,0,0:0:0:0:
64,192,187064,1,0,0:0:0:0:
448,192,187114,1,0,0:0:0:0:
320,192,187164,1,0,0:0:0:0:
192,192,187214,1,0,0:0:0:0:
64,192,187214,1,0,0:0:0:0:
448,192,187289,1,0,0:0:0:0:
320,192,187364,1,0,0:0:0:0:
64,192,187364,1,0,0:0:0:0:
192,192,187439,1,0,0:0:0:0:
320,192,187514,1,0,0:0:0:0:
448,192,187514,1,0,0:0:0:0:
64,192,187514,1,0,0:0:0:0:
192,192,187589,1,0,0:0:0:0:
320,192,187664,1,0,0:0:0:0:
192,192,187739,1,0,0:0:0:0:
320,192,187814,1,0,0:0:0:0:
448,192,187814,1,0,0:0:0:0:
64,192,187889,1,0,0:0:0:0:
320,192,187964,1,0,0:0:0:0:
448,192,187964,1,0,0:0:0:0:
192,192,188039,1,0,0:0:0:0:
64,192,188114,1,0,0:0:0:0:
448,192,188114,1,0,0:0:0:0:
320,192,188114,1,0,0:0:0:0:
192,192,188189,1,0,0:0:0:0:
64,192,188264,1,0,0:0:0:0:
448,192,188264,1,0,0:0:0:0:
320,192,188339,1,0,0:0:0:0:
192,192,188414,1,0,0:0:0:0:
64,192,188414,1,0,0:0:0:0:
448,192,188489,1,0,0:0:0:0:
192,192,188564,1,0,0:0:0:0:
320,192,188639,1,0,0:0:0:0:
192,192,188714,1,0,0:0:0:0:
64,192,188714,1,0,0:0:0:0:
448,192,188714,1,0,0:0:0:0:
320,192,188789,1,0,0:0:0:0:
192,192,188864,1,0,0:0:0:0:
64,192,188939,1,0,0:0:0:0:
320,192,189014,1,0,0:0:0:0:
448,192,189014,1,0,0:0:0:0:
192,192,189089,1,0,0:0:0:0:
448,192,189164,1,0,0:0:0:0:
320,192,189164,1,0,0:0:0:0:
64,192,189239,1,0,0:0:0:0:
192,192,189314,1,0,0:0:0:0:
448,192,189314,1,0,0:0:0:0:
320,192,189314,1,0,0:0:0:0:
64,192,189389,1,0,0:0:0:0:
192,192,189464,1,0,0:0:0:0:
320,192,189539,1,0,0:0:0:0:
192,192,189614,1,0,0:0:0:0:
64,192,189614,1,0,0:0:0:0:
320,192,189689,1,0,0:0:0:0:
64,192,189764,1,0,0:0:0:0:
192,192,189839,1,0,0:0:0:0:
64,192,189914,1,0,0:0:0:0:
320,192,189914,1,0,0:0:0:0:
448,192,189914,1,0,0:0:0:0:
192,192,189989,1,0,0:0:0:0:
320,192,190064,1,0,0:0:0:0:
64,192,190139,1,0,0:0:0:0:
192,192,190214,1,0,0:0:0:0:
448,192,190214,1,0,0:0:0:0:
320,192,190289,1,0,0:0:0:0:
192,192,190364,1,0,0:0:0:0:
64,192,190364,1,0,0:0:0:0:
448,192,190439,1,0,0:0:0:0:
320,192,190514,1,0,0:0:0:0:
192,192,190514,1,0,0:0:0:0:
64,192,190514,1,0,0:0:0:0:
448,192,190589,1,0,0:0:0:0:
320,192,190664,1,0,0:0:0:0:
192,192,190739,1,0,0:0:0:0:
448,192,190814,1,0,0:0:0:0:
64,192,190814,1,0,0:0:0:0:
320,192,190889,1,0,0:0:0:0:
192,192,190964,1,0,0:0:0:0:
64,192,190964,1,0,0:0:0:0:
320,192,191039,1,0,0:0:0:0:
448,192,191114,1,0,0:0:0:0:
64,192,191114,1,0,0:0:0:0:
192,192,191114,1,0,0:0:0:0:
320,192,191189,1,0,0:0:0:0:
448,192,191264,1,0,0:0:0:0:
64,192,191264,1,0,0:0:0:0:
192,192,191339,1,0,0:0:0:0:
64,192,191414,1,0,0:0:0:0:
448,192,191414,1,0,0:0:0:0:
320,192,191489,1,0,0:0:0:0:
192,192,191564,1,0,0:0:0:0:
64,192,191564,1,0,0:0:0:0:
448,192,191614,1,0,0:0:0:0:
320,192,191664,1,0,0:0:0:0:
64,192,191714,1,0,0:0:0:0:
192,192,191764,1,0,0:0:0:0:
448,192,191814,1,0,0:0:0:0:
64,192,191864,1,0,0:0:0:0:
320,192,191914,1,0,0:0:0:0:
192,192,191964,1,0,0:0:0:0:
64,192,192014,1,0,0:0:0:0:
448,192,192014,1,0,0:0:0:0:
320,192,192089,1,0,0:0:0:0:
192,192,192164,1,0,0:0:0:0:
64,192,192164,1,0,0:0:0:0:
320,192,192239,1,0,0:0:0:0:
64,192,192314,1,0,0:0:0:0:
448,192,192314,1,0,0:0:0:0:
192,192,192314,1,0,0:0:0:0:
320,192,192389,1,0,0:0:0:0:
64,192,192464,1,0,0:0:0:0:
192,192,192539,1,0,0:0:0:0:
320,192,192614,1,0,0:0:0:0:
448,192,192614,1,0,0:0:0:0:
64,192,192689,1,0,0:0:0:0:
320,192,192764,1,0,0:0:0:0:
448,192,192764,1,0,0:0:0:0:
192,192,192839,1,0,0:0:0:0:
64,192,192914,1,0,0:0:0:0:
320,192,192914,1,0,0:0:0:0:
448,192,192914,1,0,0:0:0:0:
192,192,192989,1,0,0:0:0:0:
448,192,193064,1,0,0:0:0:0:
64,192,193139,1,0,0:0:0:0:
192,192,193214,1,0,0:0:0:0:
448,192,193214,1,0,0:0:0:0:
320,192,193289,1,0,0:0:0:0:
64,192,193364,1,0,0:0:0:0:
192,192,193364,1,0,0:0:0:0:
320,192,193439,1,0,0:0:0:0:
192,192,193514,1,0,0:0:0:0:
448,192,193514,1,0,0:0:0:0:
64,192,193514,1,0,0:0:0:0:
320,192,193589,1,0,0:0:0:0:
64,192,193664,1,0,0:0:0:0:
192,192,193739,1,0,0:0:0:0:
320,192,193814,1,0,0:0:0:0:
448,192,193814,1,0,0:0:0:0:
192,192,193889,1,0,0:0:0:0:
448,192,193964,1,0,0:0:0:0:
64,192,193964,1,0,0:0:0:0:
320,192,194039,1,0,0:0:0:0:
64,192,194114,1,0,0:0:0:0:
192,192,194114,1,0,0:0:0:0:
448,192,194114,1,0,0:0:0:0:
320,192,194189,1,0,0:0:0:0:
64,192,194264,1,0,0:0:0:0:
192,192,194339,1,0,0:0:0:0:
320,192,194414,1,0,0:0:0:0:
448,192,194414,1,0,0:0:0:0:
64,192,194489,1,0,0:0:0:0:
320,192,194564,1,0,0:0:0:0:
448,192,194564,1,0,0:0:0:0:
64,192,194639,1,0,0:0:0:0:
192,192,194714,1,0,0:0:0:0:
320,192,194714,1,0,0:0:0:0:
448,192,194714,1,0,0:0:0:0:
64,192,194789,1,0,0:0:0:0:
448,192,194864,1,0,0:0:0:0:
192,192,194864,1,0,0:0:0:0:
320,192,194939,1,0,0:0:0:0:
64,192,195014,1,0,0:0:0:0:
192,192,195014,1,0,0:0:0:0:
448,192,195089,1,0,0:0:0:0:
64,192,195164,1,0,0:0:0:0:
320,192,195164,1,0,0:0:0:0:
192,192,195239,1,0,0:0:0:0:
64,192,195314,1,0,0:0:0:0:
448,192,195314,1,0,0:0:0:0:
320,192,195314,1,0,0:0:0:0:
192,192,195389,1,0,0:0:0:0:
64,192,195464,1,0,0:0:0:0:
320,192,195539,1,0,0:0:0:0:
192,192,195614,1,0,0:0:0:0:
448,192,195614,1,0,0:0:0:0:
64,192,195689,1,0,0:0:0:0:
192,192,195764,1,0,0:0:0:0:
320,192,195764,1,0,0:0:0:0:
448,192,195839,1,0,0:0:0:0:
64,192,195914,1,0,0:0:0:0:
320,192,195914,1,0,0:0:0:0:
192,192,195914,1,0,0:0:0:0:
448,192,195989,1,0,0:0:0:0:
192,192,196064,1,0,0:0:0:0:
64,192,196064,1,0,0:0:0:0:
320,192,196139,1,0,0:0:0:0:
448,192,196214,1,0,0:0:0:0:
64,192,196214,1,0,0:0:0:0:
192,192,196289,1,0,0:0:0:0:
320,192,196364,1,0,0:0:0:0:
448,192,196364,1,0,0:0:0:0:
192,192,196414,1,0,0:0:0:0:
64,192,196464,1,0,0:0:0:0:
448,192,196514,1,0,0:0:0:0:
192,192,196564,1,0,0:0:0:0:
320,192,196614,1,0,0:0:0:0:
64,192,196664,1,0,0:0:0:0:
448,192,196714,1,0,0:0:0:0:
320,192,196764,1,0,0:0:0:0:
192,192,196814,1,0,0:0:0:0:
64,192,196814,1,0,0:0:0:0:
448,192,196889,1,0,0:0:0:0:
64,192,196964,1,0,0:0:0:0:
320,192,196964,1,0,0:0:0:0:
192,192,197039,1,0,0:0:0:0:
320,192,197114,1,0,0:0:0:0:
448,192,197114,1,0,0:0:0:0:
64,192,197114,1,0,0:0:0:0:
192,192,197189,1,0,0:0:0:0:
448,192,197264,1,0,0:0:0:0:
64,192,197339,1,0,0:0:0:0:
320,192,197414,1,0,0:0:0:0:
192,192,197414,1,0,0:0:0:0:
448,192,197489,1,0,0:0:0:0:
320,192,197564,1,0,0:0:0:0:
64,192,197564,1,0,0:0:0:0:
192,192,197639,1,0,0:0:0:0:
64,192,197714,1,0,0:0:0:0:
448,192,197714,1,0,0:0:0:0:
320,192,197714,1,0,0:0:0:0:
192,192,197789,1,0,0:0:0:0:
448,192,197864,1,0,0:0:0:0:
64,192,197864,1,0,0:0:0:0:
320,192,197939,1,0,0:0:0:0:
192,192,198014,1,0,0:0:0:0:
64,192,198014,1,0,0:0:0:0:
320,192,198089,1,0,0:0:0:0:
448,192,198164,1,0,0:0:0:0:
192,192,198164,1,0,0:0:0:0:
64,192,198239,1,0,0:0:0:0:
320,192,198314,1,0,0:0:0:0:
448,192,198314,1,0,0:0:0:0:
192,192,198314,1,0,0:0:0:0:
64,192,198389,1,0,0:0:0:0:
320,192,198464,1,0,0:0:0:0:
192,192,198539,1,0,0:0:0:0:
320,192,198614,1,0,0:0:0:0:
448,192,198614,1,0,0:0:0:0:
64,192,198689,1,0,0:0:0:0:
192,192,198764,1,0,0:0:0:0:
448,192,198764,1,0,0:0:0:0:
320,192,198839,1,0,0:0:0:0:
64,192,198914,1,0,0:0:0:0:
192,192,198914,1,0,0:0:0:0:
448,192,198914,1,0,0:0:0:0:
320,192,198989,1,0,0:0:0:0:
64,192,199064,1,0,0:0:0:0:
192,192,199064,1,0,0:0:0:0:
448,192,199139,1,0,0:0:0:0:
320,192,199214,1,0,0:0:0:0:
192,192,199214,1,0,0:0:0:0:
64,192,199289,1,0,0:0:0:0:
448,192,199364,1,0,0:0:0:0:
192,192,199364,1,0,0:0:0:0:
320,192,199439,1,0,0:0:0:0:
448,192,199514,1,0,0:0:0:0:
64,192,199514,1,0,0:0:0:0:
192,192,199514,1,0,0:0:0:0:
320,192,199589,1,0,0:0:0:0:
64,192,199664,1,0,0:0:0:0:
192,192,199739,1,0,0:0:0:0:
448,192,199814,1,0,0:0:0:0:
320,192,199814,1,0,0:0:0:0:
192,192,199889,1,0,0:0:0:0:
320,192,199964,1,0,0:0:0:0:
64,192,199964,1,0,0:0:0:0:
448,192,200039,1,0,0:0:0:0:
320,192,200114,1,0,0:0:0:0:
64,192,200114,1,0,0:0:0:0:
192,192,200114,1,0,0:0:0:0:
448,192,200189,1,0,0:0:0:0:
64,192,200264,1,0,0:0:0:0:
320,192,200264,1,0,0:0:0:0:
192,192,200339,1,0,0:0:0:0:
320,192,200414,1,0,0:0:0:0:
448,192,200414,1,0,0:0:0:0:
64,192,200489,1,0,0:0:0:0:
192,192,200564,1,0,0:0:0:0:
448,192,200564,1,0,0:0:0:0:
320,192,200639,1,0,0:0:0:0:
448,192,200714,1,0,0:0:0:0:
192,192,200714,1,0,0:0:0:0:
64,192,200714,1,0,0:0:0:0:
320,192,200789,1,0,0:0:0:0:
192,192,200864,1,0,0:0:0:0:
64,192,200864,1,0,0:0:0:0:
320,192,200939,1,0,0:0:0:0:
448,192,201014,1,0,0:0:0:0:
192,192,201014,1,0,0:0:0:0:
320,192,201089,1,0,0:0:0:0:
64,192,201164,1,0,0:0:0:0:
448,192,201164,1,0,0:0:0:0:
192,192,201214,1,0,0:0:0:0:
320,192,201264,1,0,0:0:0:0:
64,192,201314,1,0,0:0:0:0:
448,192,201364,1,0,0:0:0:0:
192,192,201414,1,0,0:0:0:0:
320,192,201464,1,0,0:0:0:0:
448,192,201514,1,0,0:0:0:0:
64,192,201564,1,0,0:0:0:0:
192,192,201614,1,0,0:0:0:0:
320,192,201614,1,0,0:0:0:0:
448,192,201689,1,0,0:0:0:0:
192,192,201764,1,0,0:0:0:0:
320,192,201839,1,0,0:0:0:0:
64,192,201914,1,0,0:0:0:0:
448,192,201914,1,0,0:0:0:0:
192,192,201914,1,0,0:0:0:0:
320,192,201989,1,0,0:0:0:0:
64,192,202064,1,0,0:0:0:0:
192,192,202139,1,0,0:0:0:0:
320,192,202214,1,0,0:0:0:0:
448,192,202214,1,0,0:0:0:0:
64,192,202289,1,0,0:0:0:0:
448,192,202364,1,0,0:0:0:0:
192,192,202364,1,0,0:0:0:0:
320,192,202439,1,0,0:0:0:0:
192,192,202514,1,0,0:0:0:0:
448,192,202514,1,0,0:0:0:0:
64,192,202514,1,0,0:0:0:0:
320,192,202589,1,0,0:0:0:0:
192,192,202664,1,0,0:0:0:0:
320,192,202739,1,0,0:0:0:0:
64,192,202814,1,0,0:0:0:0:
448,192,202814,1,0,0:0:0:0:
192,192,202889,1,0,0:0:0:0:
64,192,202964,1,0,0:0:0:0:
448,192,202964,1,0,0:0:0:0:
320,192,203039,1,0,0:0:0:0:
64,192,203114,1,0,0:0:0:0:
192,192,203114,1,0,0:0:0:0:
448,192,203114,1,0,0:0:0:0:
320,192,203189,1,0,0:0:0:0:
64,192,203264,1,0,0:0:0:0:
192,192,203264,1,0,0:0:0:0:
320,192,203339,1,0,0:0:0:0:
448,192,203414,1,0,0:0:0:0:
192,192,203414,1,0,0:0:0:0:
64,192,203489,1,0,0:0:0:0:
448,192,203564,1,0,0:0:0:0:
320,192,203564,1,0,0:0:0:0:
192,192,203639,1,0,0:0:0:0:
448,192,203714,1,0,0:0:0:0:
64,192,203714,1,0,0:0:0:0:
320,192,203714,1,0,0:0:0:0:
192,192,203789,1,0,0:0:0:0:
64,192,203864,1,0,0:0:0:0:
448,192,203864,1,0,0:0:0:0:
320,192,203939,1,0,0:0:0:0:
64,192,204014,1,0,0:0:0:0:
192,192,204014,1,0,0:0:0:0:
448,192,204164,1,0,0:0:0:0:
192,192,204164,1,0,0:0:0:0:
320,192,204239,1,0,0:0:0:0:
64,192,204314,1,0,0:0:0:0:
192,192,204314,1,0,0:0:0:0:
448,192,204314,1,0,0:0:0:0:
320,192,204389,1,0,0:0:0:0:
64,192,204464,1,0,0:0:0:0:
448,192,204464,1,0,0:0:0:0:
192,192,204539,1,0,0:0:0:0:
320,192,204614,1,0,0:0:0:0:
448,192,204614,1,0,0:0:0:0:
64,192,204689,1,0,0:0:0:0:
192,192,204764,1,0,0:0:0:0:
320,192,204764,1,0,0:0:0:0:
448,192,204839,1,0,0:0:0:0:
64,192,204914,1,0,0:0:0:0:
192,192,204914,1,0,0:0:0:0:
320,192,204914,1,0,0:0:0:0:
448,192,204989,1,0,0:0:0:0:
64,192,205064,1,0,0:0:0:0:
320,192,205064,1,0,0:0:0:0:
192,192,205139,1,0,0:0:0:0:
320,192,205214,1,0,0:0:0:0:
448,192,205214,1,0,0:0:0:0:
64,192,205289,1,0,0:0:0:0:
320,192,205364,1,0,0:0:0:0:
192,192,205364,1,0,0:0:0:0:
64,192,205439,1,0,0:0:0:0:
320,192,205514,1,0,0:0:0:0:
448,192,205514,1,0,0:0:0:0:
192,192,205514,1,0,0:0:0:0:
64,192,205589,1,0,0:0:0:0:
448,192,205664,1,0,0:0:0:0:
320,192,205664,1,0,0:0:0:0:
64,192,205739,1,0,0:0:0:0:
192,192,205814,1,0,0:0:0:0:
448,192,205814,1,0,0:0:0:0:
320,192,205889,1,0,0:0:0:0:
192,192,205964,1,0,0:0:0:0:
64,192,205964,1,0,0:0:0:0:
320,192,206014,1,0,0:0:0:0:
448,192,206064,1,0,0:0:0:0:
64,192,206114,1,0,0:0:0:0:
192,192,206164,1,0,0:0:0:0:
448,192,206214,1,0,0:0:0:0:
320,192,206264,1,0,0:0:0:0:
64,192,206314,1,0,0:0:0:0:
192,192,206364,1,0,0:0:0:0:
320,192,206414,1,0,0:0:0:0:
448,192,206414,1,0,0:0:0:0:
64,192,206489,1,0,0:0:0:0:
192,192,206564,1,0,0:0:0:0:
320,192,206564,1,0,0:0:0:0:
448,192,206639,1,0,0:0:0:0:
64,192,206714,1,0,0:0:0:0:
320,192,206714,1,0,0:0:0:0:
192,192,206714,1,0,0:0:0:0:
448,192,206789,1,0,0:0:0:0:
64,192,206864,1,0,0:0:0:0:
320,192,206864,1,0,0:0:0:0:
448,192,206939,1,0,0:0:0:0:
192,192,207014,1,0,0:0:0:0:
64,192,207014,1,0,0:0:0:0:
320,192,207089,1,0,0:0:0:0:
64,192,207164,1,0,0:0:0:0:
448,192,207164,1,0,0:0:0:0:
192,192,207239,1,0,0:0:0:0:
64,192,207314,1,0,0:0:0:0:
448,192,207314,1,0,0:0:0:0:
320,192,207314,1,0,0:0:0:0:
192,192,207389,1,0,0:0:0:0:
448,192,207464,1,0,0:0:0:0:
320,192,207464,1,0,0:0:0:0:
64,192,207539,1,0,0:0:0:0:
192,192,207614,1,0,0:0:0:0:
320,192,207614,1,0,0:0:0:0:
448,192,207689,1,0,0:0:0:0:
64,192,207764,1,0,0:0:0:0:
320,192,207764,1,0,0:0:0:0:
192,192,207839,1,0,0:0:0:0:
64,192,207914,1,0,0:0:0:0:
320,192,207914,1,0,0:0:0:0:
448,192,207914,1,0,0:0:0:0:
192,192,207989,1,0,0:0:0:0:
448,192,208064,1,0,0:0:0:0:
320,192,208064,1,0,0:0:0:0:
64,192,208139,1,0,0:0:0:0:
192,192,208214,1,0,0:0:0:0:
320,192,208214,1,0,0:0:0:0:
448,192,208289,1,0,0:0:0:0:
320,192,208364,1,0,0:0:0:0:
64,192,208364,1,0,0:0:0:0:
192,192,208439,1,0,0:0:0:0:
64,192,208514,1,0,0:0:0:0:
320,192,208514,1,0,0:0:0:0:
448,192,208514,1,0,0:0:0:0:
192,192,208589,1,0,0:0:0:0:
64,192,208664,1,0,0:0:0:0:
320,192,208739,1,0,0:0:0:0:
192,192,208814,1,0,0:0:0:0:
448,192,208814,1,0,0:0:0:0:
64,192,208889,1,0,0:0:0:0:
320,192,208964,1,0,0:0:0:0:
192,192,208964,1,0,0:0:0:0:
64,192,209039,1,0,0:0:0:0:
192,192,209114,1,0,0:0:0:0:
320,192,209114,1,0,0:0:0:0:
448,192,209114,1,0,0:0:0:0:
64,192,209189,1,0,0:0:0:0:
448,192,209264,1,0,0:0:0:0:
192,192,209264,1,0,0:0:0:0:
320,192,209339,5,0,0:0:0:0:
64,192,209414,1,0,0:0:0:0:
192,192,209414,1,0,0:0:0:0:
448,192,209489,1,0,0:0:0:0:
64,192,209564,1,0,0:0:0:0:
320,192,209564,1,0,0:0:0:0:
192,192,209639,1,0,0:0:0:0:
320,192,209714,1,0,0:0:0:0:
448,192,209714,1,0,0:0:0:0:
64,192,209714,1,0,0:0:0:0:
192,192,209789,1,0,0:0:0:0:
448,192,209864,1,0,0:0:0:0:
64,192,209864,1,0,0:0:0:0:
192,192,209939,1,0,0:0:0:0:
320,192,210014,1,0,0:0:0:0:
448,192,210014,1,0,0:0:0:0:
64,192,210089,1,0,0:0:0:0:
192,192,210164,1,0,0:0:0:0:
320,192,210164,1,0,0:0:0:0:
448,192,210239,1,0,0:0:0:0:
64,192,210314,1,0,0:0:0:0:
192,192,210314,1,0,0:0:0:0:
320,192,210314,1,0,0:0:0:0:
448,192,210389,1,0,0:0:0:0:
320,192,210464,1,0,0:0:0:0:
64,192,210539,1,0,0:0:0:0:
192,192,210539,1,0,0:0:0:0:
320,192,210614,5,0,0:0:0:0:
448,192,210614,1,0,0:0:0:0:
192,192,210689,1,0,0:0:0:0:
64,192,210764,5,0,0:0:0:0:
448,192,210764,1,0,0:0:0:0:
192,192,210814,1,0,0:0:0:0:
320,192,210864,1,0,0:0:0:0:
64,192,210914,1,0,0:0:0:0:
448,192,210964,1,0,0:0:0:0:
192,192,211014,1,0,0:0:0:0:
64,192,211064,1,0,0:0:0:0:
448,192,211114,1,0,0:0:0:0:
320,192,211164,1,0,0:0:0:0:
64,192,211214,5,0,0:0:0:0:
192,192,211214,1,0,0:0:0:0:
320,192,211814,1,0,0:0:0:0:
448,192,211814,1,0,0:0:0:0:
64,192,212414,1,0,0:0:0:0:
192,192,212414,1,0,0:0:0:0:
320,192,213014,1,0,0:0:0:0:
64,192,213014,1,0,0:0:0:0:
192,192,213614,1,0,0:0:0:0:
448,192,213614,1,0,0:0:0:0:
192,192,214214,1,0,0:0:0:0:
320,192,214214,1,0,0:0:0:0:
64,192,214814,1,0,0:0:0:0:
192,192,214814,1,0,0:0:0:0:
320,192,215414,1,0,0:0:0:0:
448,192,215414,1,0,0:0:0:0:
64,192,216014,1,0,0:0:0:0:
192,192,216014,1,0,0:0:0:0:
192,192,216314,1,0,0:0:0:0:
448,192,216314,1,0,0:0:0:0:
64,192,216614,1,0,0:0:0:0:
320,192,216614,1,0,0:0:0:0:
192,192,216914,1,0,0:0:0:0:
64,192,216914,1,0,0:0:0:0:
448,192,217214,1,0,0:0:0:0:
320,192,217214,1,0,0:0:0:0:
192,192,217514,1,0,0:0:0:0:
320,192,217514,1,0,0:0:0:0:
64,192,217814,1,0,0:0:0:0:
192,192,217814,1,0,0:0:0:0:
192,192,218114,1,0,0:0:0:0:
448,192,218114,1,0,0:0:0:0:
448,192,218414,1,0,0:0:0:0:
192,192,218414,1,0,0:0:0:0:
64,192,218564,1,0,0:0:0:0:
192,192,218564,1,0,0:0:0:0:
320,192,218714,1,0,0:0:0:0:
448,192,218714,1,0,0:0:0:0:
64,192,218864,1,0,0:0:0:0:
320,192,218864,1,0,0:0:0:0:
320,192,219014,1,0,0:0:0:0:
448,192,219014,1,0,0:0:0:0:
64,192,219164,1,0,0:0:0:0:
192,192,219164,1,0,0:0:0:0:
448,192,219314,1,0,0:0:0:0:
320,192,219314,1,0,0:0:0:0:
320,192,219464,1,0,0:0:0:0:
192,192,219464,1,0,0:0:0:0:
64,192,219614,1,0,0:0:0:0:
320,192,219764,1,0,0:0:0:0:
192,192,219914,1,0,0:0:0:0:
320,192,220214,1,0,0:0:0:0:
64,192,220514,1,0,0:0:0:0:
64,192,220814,1,0,0:0:0:0:
192,192,220814,1,0,0:0:0:0:
448,192,220814,1,0,0:0:0:0:
320,192,220814,1,0,0:0:0:0:
320,192,220964,1,0,0:0:0:0:
64,192,220964,1,0,0:0:0:0:
64,192,221114,1,0,0:0:0:0:
192,192,221114,1,0,0:0:0:0:
448,192,221114,1,0,0:0:0:0:
192,192,221264,1,0,0:0:0:0:
448,192,221264,1,0,0:0:0:0:
64,192,221339,1,0,0:0:0:0:
448,192,221414,1,0,0:0:0:0:
320,192,221414,1,0,0:0:0:0:
64,192,221489,1,0,0:0:0:0:
192,192,221564,1,0,0:0:0:0:
320,192,221564,1,0,0:0:0:0:
64,192,221714,1,0,0:0:0:0:
192,192,221714,1,0,0:0:0:0:
448,192,221714,1,0,0:0:0:0:
64,192,221864,1,0,0:0:0:0:
320,192,221864,1,0,0:0:0:0:
448,192,222014,1,0,0:0:0:0:
320,192,222014,1,0,0:0:0:0:
192,192,222014,1,0,0:0:0:0:
192,192,222164,1,0,0:0:0:0:
448,192,222164,1,0,0:0:0:0:
320,192,222314,1,0,0:0:0:0:
192,192,222314,1,0,0:0:0:0:
64,192,222314,1,0,0:0:0:0:
320,192,222464,1,0,0:0:0:0:
64,192,222464,1,0,0:0:0:0:
192,192,222539,1,0,0:0:0:0:
448,192,222614,1,0,0:0:0:0:
320,192,222614,1,0,0:0:0:0:
64,192,222689,1,0,0:0:0:0:
192,192,222764,1,0,0:0:0:0:
448,192,222764,1,0,0:0:0:0:
64,192,222914,1,0,0:0:0:0:
192,192,222914,1,0,0:0:0:0:
320,192,222914,1,0,0:0:0:0:
448,192,223064,1,0,0:0:0:0:
320,192,223064,1,0,0:0:0:0:
64,192,223214,1,0,0:0:0:0:
192,192,223214,1,0,0:0:0:0:
448,192,223214,1,0,0:0:0:0:
320,192,223364,1,0,0:0:0:0:
192,192,223364,1,0,0:0:0:0:
448,192,223514,1,0,0:0:0:0:
320,192,223514,1,0,0:0:0:0:
64,192,223514,1,0,0:0:0:0:
192,192,223664,1,0,0:0:0:0:
448,192,223664,1,0,0:0:0:0:
320,192,223739,1,0,0:0:0:0:
64,192,223814,1,0,0:0:0:0:
192,192,223814,1,0,0:0:0:0:
448,192,223889,1,0,0:0:0:0:
64,192,223964,1,0,0:0:0:0:
320,192,223964,1,0,0:0:0:0:
192,192,224114,5,0,0:0:0:0:
320,192,224114,1,0,0:0:0:0:
448,192,224114,1,0,0:0:0:0:
64,192,224264,1,0,0:0:0:0:
320,192,224264,1,0,0:0:0:0:
192,192,224414,1,0,0:0:0:0:
320,192,224414,1,0,0:0:0:0:
64,192,224564,1,0,0:0:0:0:
192,192,224564,1,0,0:0:0:0:
320,192,224714,1,0,0:0:0:0:
448,192,224714,1,0,0:0:0:0:
64,192,224714,1,0,0:0:0:0:
192,192,224864,1,0,0:0:0:0:
448,192,224864,1,0,0:0:0:0:
320,192,224939,1,0,0:0:0:0:
64,192,225014,1,0,0:0:0:0:
192,192,225089,1,0,0:0:0:0:
448,192,225164,5,0,0:0:0:0:
320,192,225164,1,0,0:0:0:0:
192,192,225214,1,0,0:0:0:0:
64,192,225264,1,0,0:0:0:0:
448,192,225314,1,0,0:0:0:0:
320,192,225364,1,0,0:0:0:0:
192,192,225414,1,0,0:0:0:0:
64,192,225464,1,0,0:0:0:0:
448,192,225514,1,0,0:0:0:0:
320,192,225564,1,0,0:0:0:0:
192,192,225614,1,0,0:0:0:0:
64,192,225614,1,0,0:0:0:0:
448,192,225764,1,0,0:0:0:0:
320,192,225764,1,0,0:0:0:0:
192,192,225839,1,0,0:0:0:0:
64,192,225914,1,0,0:0:0:0:
320,192,225914,1,0,0:0:0:0:
448,192,225914,1,0,0:0:0:0:
320,192,226064,1,0,0:0:0:0:
192,192,226064,1,0,0:0:0:0:
448,192,226139,1,0,0:0:0:0:
64,192,226214,1,0,0:0:0:0:
320,192,226214,1,0,0:0:0:0:
64,192,226364,1,0,0:0:0:0:
448,192,226364,1,0,0:0:0:0:
192,192,226514,1,0,0:0:0:0:
320,192,226514,1,0,0:0:0:0:
448,192,226514,1,0,0:0:0:0:
192,192,226664,1,0,0:0:0:0:
64,192,226664,1,0,0:0:0:0:
320,192,226814,1,0,0:0:0:0:
448,192,226814,1,0,0:0:0:0:
64,192,226814,1,0,0:0:0:0:
192,192,226889,1,0,0:0:0:0:
320,192,226964,1,0,0:0:0:0:
448,192,227114,1,0,0:0:0:0:
192,192,227114,1,0,0:0:0:0:
64,192,227114,1,0,0:0:0:0:
320,192,227189,1,0,0:0:0:0:
192,192,227264,1,0,0:0:0:0:
448,192,227414,1,0,0:0:0:0:
320,192,227414,1,0,0:0:0:0:
192,192,227414,1,0,0:0:0:0:
64,192,227489,1,0,0:0:0:0:
192,192,227564,1,0,0:0:0:0:
320,192,227714,1,0,0:0:0:0:
192,192,227714,1,0,0:0:0:0:
64,192,227714,1,0,0:0:0:0:
448,192,227789,1,0,0:0:0:0:
320,192,227864,1,0,0:0:0:0:
192,192,227939,1,0,0:0:0:0:
64,192,228014,1,0,0:0:0:0:
320,192,228014,1,0,0:0:0:0:
448,192,228014,1,0,0:0:0:0:
192,192,228164,1,0,0:0:0:0:
320,192,228164,1,0,0:0:0:0:
448,192,228314,1,0,0:0:0:0:
320,192,228314,1,0,0:0:0:0:
64,192,228464,1,0,0:0:0:0:
320,192,228464,1,0,0:0:0:0:
192,192,228539,1,0,0:0:0:0:
320,192,228614,1,0,0:0:0:0:
64,192,228614,1,0,0:0:0:0:
448,192,228689,1,0,0:0:0:0:
192,192,228764,1,0,0:0:0:0:
64,192,228764,1,0,0:0:0:0:
320,192,228914,1,0,0:0:0:0:
192,192,228914,1,0,0:0:0:0:
448,192,228914,1,0,0:0:0:0:
320,192,229064,1,0,0:0:0:0:
448,192,229064,1,0,0:0:0:0:
64,192,229214,5,0,0:0:0:0:
192,192,229214,1,0,0:0:0:0:
448,192,229214,1,0,0:0:0:0:
320,192,229289,1,0,0:0:0:0:
64,192,229364,1,0,0:0:0:0:
192,192,229439,1,0,0:0:0:0:
320,192,229514,1,0,0:0:0:0:
448,192,229514,1,0,0:0:0:0:
192,192,229589,1,0,0:0:0:0:
64,192,229664,1,0,0:0:0:0:
448,192,229739,1,0,0:0:0:0:
64,192,229814,1,0,0:0:0:0:
192,192,229814,1,0,0:0:0:0:
320,192,229889,1,0,0:0:0:0:
192,192,229964,1,0,0:0:0:0:
64,192,229964,1,0,0:0:0:0:
448,192,230014,1,0,0:0:0:0:
320,192,230064,1,0,0:0:0:0:
64,192,230114,1,0,0:0:0:0:
192,192,230164,1,0,0:0:0:0:
448,192,230214,1,0,0:0:0:0:
320,192,230264,1,0,0:0:0:0:
64,192,230314,1,0,0:0:0:0:
192,192,230364,1,0,0:0:0:0:
320,192,230414,1,0,0:0:0:0:
448,192,230414,1,0,0:0:0:0:
64,192,230564,1,0,0:0:0:0:
192,192,230564,1,0,0:0:0:0:
192,192,230714,1,0,0:0:0:0:
320,192,230714,1,0,0:0:0:0:
448,192,230714,1,0,0:0:0:0:
448,192,230864,1,0,0:0:0:0:
320,192,230939,1,0,0:0:0:0:
64,192,231014,1,0,0:0:0:0:
192,192,231014,1,0,0:0:0:0:
320,192,231089,1,0,0:0:0:0:
64,192,231164,1,0,0:0:0:0:
192,192,231164,1,0,0:0:0:0:
448,192,231164,1,0,0:0:0:0:
192,192,231314,1,0,0:0:0:0:
320,192,231314,1,0,0:0:0:0:
448,192,231314,1,0,0:0:0:0:
320,192,231464,1,0,0:0:0:0:
64,192,231614,1,0,0:0:0:0:
192,192,231614,1,0,0:0:0:0:
192,192,231764,1,0,0:0:0:0:
448,192,231764,1,0,0:0:0:0:
320,192,231914,1,0,0:0:0:0:
192,192,231914,1,0,0:0:0:0:
64,192,231914,1,0,0:0:0:0:
64,192,232064,1,0,0:0:0:0:
192,192,232139,1,0,0:0:0:0:
320,192,232214,1,0,0:0:0:0:
448,192,232214,1,0,0:0:0:0:
192,192,232289,1,0,0:0:0:0:
320,192,232364,1,0,0:0:0:0:
448,192,232364,1,0,0:0:0:0:
64,192,232364,1,0,0:0:0:0:
192,192,232514,1,0,0:0:0:0:
448,192,232514,1,0,0:0:0:0:
320,192,232514,1,0,0:0:0:0:
448,192,232664,1,0,0:0:0:0:
64,192,232664,1,0,0:0:0:0:
448,192,232814,1,0,0:0:0:0:
320,192,232814,1,0,0:0:0:0:
64,192,232964,1,0,0:0:0:0:
192,192,232964,1,0,0:0:0:0:
64,192,233114,1,0,0:0:0:0:
448,192,233114,1,0,0:0:0:0:
320,192,233114,1,0,0:0:0:0:
192,192,233264,1,0,0:0:0:0:
448,192,233339,1,0,0:0:0:0:
320,192,233339,1,0,0:0:0:0:
192,192,233414,1,0,0:0:0:0:
448,192,233489,1,0,0:0:0:0:
320,192,233564,1,0,0:0:0:0:
64,192,233564,1,0,0:0:0:0:
448,192,233714,1,0,0:0:0:0:
320,192,233714,1,0,0:0:0:0:
192,192,233714,1,0,0:0:0:0:
192,192,233864,1,0,0:0:0:0:
64,192,233864,1,0,0:0:0:0:
320,192,234014,1,0,0:0:0:0:
448,192,234014,1,0,0:0:0:0:
192,192,234089,1,0,0:0:0:0:
320,192,234164,1,0,0:0:0:0:
448,192,234164,1,0,0:0:0:0:
64,192,234239,1,0,0:0:0:0:
320,192,234314,1,0,0:0:0:0:
448,192,234314,1,0,0:0:0:0:
448,192,234464,1,0,0:0:0:0:
192,192,234464,1,0,0:0:0:0:
64,192,234539,1,0,0:0:0:0:
192,192,234614,1,0,0:0:0:0:
448,192,234614,1,0,0:0:0:0:
320,192,234689,1,0,0:0:0:0:
192,192,234764,1,0,0:0:0:0:
64,192,234764,1,0,0:0:0:0:
448,192,234764,1,0,0:0:0:0:
320,192,234839,1,0,0:0:0:0:
192,192,234914,1,0,0:0:0:0:
448,192,234964,1,0,0:0:0:0:
320,192,235014,1,0,0:0:0:0:
64,192,235064,1,0,0:0:0:0:
192,192,235114,1,0,0:0:0:0:
320,192,235214,128,0,235364:0:0:0:0:
64,192,235214,1,0,0:0:0:0:
64,192,235364,128,0,235514:0:0:0:0:
192,192,235364,1,0,0:0:0:0:
320,192,235514,128,0,235664:0:0:0:0:
448,192,235514,1,0,0:0:0:0:
192,192,235514,1,0,0:0:0:0:
192,192,235664,128,0,235814:0:0:0:0:
448,192,235814,128,0,235964:0:0:0:0:
64,192,235814,128,0,235889:0:0:0:0:
320,192,235889,1,0,0:0:0:0:
64,192,235964,128,0,236114:0:0:0:0:
192,192,235964,1,0,0:0:0:0:
320,192,236114,128,0,236264:0:0:0:0:
448,192,236114,1,0,0:0:0:0:
192,192,236114,1,0,0:0:0:0:
192,192,236264,128,0,236414:0:0:0:0:
448,192,236264,1,0,0:0:0:0:
448,192,236414,128,0,236564:0:0:0:0:
64,192,236414,1,0,0:0:0:0:
320,192,236414,128,0,236489:0:0:0:0:
192,192,236564,128,0,236714:0:0:0:0:
64,192,236564,1,0,0:0:0:0:
64,192,236714,128,0,236864:0:0:0:0:
320,192,236714,1,0,0:0:0:0:
448,192,236714,1,0,0:0:0:0:
320,192,236864,128,0,237014:0:0:0:0:
448,192,236864,1,0,0:0:0:0:
192,192,237014,128,0,237164:0:0:0:0:
64,192,237014,128,0,237089:0:0:0:0:
448,192,237089,1,0,0:0:0:0:
64,192,237164,128,0,237314:0:0:0:0:
320,192,237164,1,0,0:0:0:0:
448,192,237314,128,0,237464:0:0:0:0:
320,192,237314,1,0,0:0:0:0:
64,192,237464,1,0,0:0:0:0:
192,192,237464,128,0,237614:0:0:0:0:
448,192,237614,128,0,237689:0:0:0:0:
64,192,237614,1,0,0:0:0:0:
320,192,237689,1,0,0:0:0:0:
192,192,237764,1,0,0:0:0:0:
320,192,237839,1,0,0:0:0:0:
192,192,237914,1,0,0:0:0:0:
64,192,237914,1,0,0:0:0:0:
448,192,237989,1,0,0:0:0:0:
192,192,238064,1,0,0:0:0:0:
320,192,238064,1,0,0:0:0:0:
64,192,238139,1,0,0:0:0:0:
320,192,238214,1,0,0:0:0:0:
448,192,238214,128,0,238289:0:0:0:0:
192,192,238289,1,0,0:0:0:0:
320,192,238364,1,0,0:0:0:0:
448,192,238364,1,0,0:0:0:0:
64,192,238439,1,0,0:0:0:0:
192,192,238514,1,0,0:0:0:0:
320,192,238514,1,0,0:0:0:0:
448,192,238514,1,0,0:0:0:0:
64,192,238664,1,0,0:0:0:0:
192,192,238664,1,0,0:0:0:0:
448,192,238739,1,0,0:0:0:0:
192,192,238814,1,0,0:0:0:0:
320,192,238889,1,0,0:0:0:0:
192,192,238964,1,0,0:0:0:0:
320,192,239039,1,0,0:0:0:0:
192,192,239114,1,0,0:0:0:0:
64,192,239114,1,0,0:0:0:0:
448,192,239189,1,0,0:0:0:0:
320,192,239264,1,0,0:0:0:0:
64,192,239339,1,0,0:0:0:0:
320,192,239414,1,0,0:0:0:0:
64,192,239489,1,0,0:0:0:0:
320,192,239564,1,0,0:0:0:0:
448,192,239714,1,0,0:0:0:0:
192,192,239714,128,0,240014:0:0:0:0:
64,192,239714,128,0,240014:0:0:0:0:
448,192,240014,1,0,0:0:0:0:
320,192,240014,1,0,0:0:0:0:
192,192,240164,1,0,0:0:0:0:
448,192,240164,1,0,0:0:0:0:
64,192,240239,1,0,0:0:0:0:
448,192,240314,1,0,0:0:0:0:
320,192,240314,1,0,0:0:0:0:
192,192,240314,1,0,0:0:0:0:
64,192,240389,1,0,0:0:0:0:
448,192,240464,1,0,0:0:0:0:
192,192,240464,1,0,0:0:0:0:
320,192,240539,1,0,0:0:0:0:
448,192,240614,1,0,0:0:0:0:
64,192,240614,1,0,0:0:0:0:
192,192,240689,1,0,0:0:0:0:
448,192,240764,1,0,0:0:0:0:
320,192,240764,1,0,0:0:0:0:
64,192,240764,1,0,0:0:0:0:
192,192,240914,1,0,0:0:0:0:
64,192,240914,1,0,0:0:0:0:
320,192,240914,1,0,0:0:0:0:
448,192,240989,1,0,0:0:0:0:
192,192,241064,1,0,0:0:0:0:
64,192,241139,1,0,0:0:0:0:
320,192,241214,1,0,0:0:0:0:
448,192,241214,1,0,0:0:0:0:
192,192,241214,1,0,0:0:0:0:
64,192,241289,1,0,0:0:0:0:
320,192,241364,1,0,0:0:0:0:
448,192,241364,1,0,0:0:0:0:
192,192,241439,1,0,0:0:0:0:
320,192,241514,1,0,0:0:0:0:
64,192,241514,1,0,0:0:0:0:
448,192,241514,1,0,0:0:0:0:
192,192,241589,1,0,0:0:0:0:
448,192,241664,1,0,0:0:0:0:
320,192,241739,1,0,0:0:0:0:
64,192,241814,1,0,0:0:0:0:
192,192,241814,1,0,0:0:0:0:
320,192,241889,1,0,0:0:0:0:
192,192,241964,1,0,0:0:0:0:
448,192,241964,1,0,0:0:0:0:
64,192,241964,1,0,0:0:0:0:
64,192,242114,1,0,0:0:0:0:
448,192,242114,1,0,0:0:0:0:
320,192,242114,1,0,0:0:0:0:
192,192,242189,1,0,0:0:0:0:
320,192,242264,1,0,0:0:0:0:
448,192,242339,1,0,0:0:0:0:
192,192,242414,1,0,0:0:0:0:
64,192,242414,1,0,0:0:0:0:
320,192,242414,1,0,0:0:0:0:
448,192,242489,1,0,0:0:0:0:
320,192,242564,1,0,0:0:0:0:
64,192,242639,1,0,0:0:0:0:
192,192,242714,1,0,0:0:0:0:
320,192,242714,1,0,0:0:0:0:
448,192,242714,1,0,0:0:0:0:
64,192,242789,1,0,0:0:0:0:
320,192,242864,1,0,0:0:0:0:
448,192,242864,1,0,0:0:0:0:
192,192,242939,1,0,0:0:0:0:
64,192,243014,1,0,0:0:0:0:
448,192,243014,1,0,0:0:0:0:
192,192,243089,1,0,0:0:0:0:
64,192,243164,1,0,0:0:0:0:
320,192,243164,1,0,0:0:0:0:
448,192,243164,1,0,0:0:0:0:
64,192,243314,1,0,0:0:0:0:
192,192,243314,1,0,0:0:0:0:
320,192,243314,1,0,0:0:0:0:
448,192,243389,1,0,0:0:0:0:
192,192,243464,1,0,0:0:0:0:
64,192,243464,1,0,0:0:0:0:
320,192,243539,1,0,0:0:0:0:
448,192,243614,1,0,0:0:0:0:
192,192,243614,1,0,0:0:0:0:
64,192,243689,1,0,0:0:0:0:
320,192,243764,1,0,0:0:0:0:
448,192,243764,1,0,0:0:0:0:
192,192,243764,1,0,0:0:0:0:
192,192,243914,1,0,0:0:0:0:
64,192,243914,1,0,0:0:0:0:
320,192,243914,1,0,0:0:0:0:
448,192,243989,1,0,0:0:0:0:
320,192,244064,1,0,0:0:0:0:
192,192,244064,1,0,0:0:0:0:
64,192,244139,1,0,0:0:0:0:
448,192,244214,1,0,0:0:0:0:
320,192,244214,1,0,0:0:0:0:
192,192,244289,1,0,0:0:0:0:
320,192,244364,1,0,0:0:0:0:
448,192,244364,1,0,0:0:0:0:
192,192,244414,1,0,0:0:0:0:
64,192,244464,1,0,0:0:0:0:
448,192,244514,1,0,0:0:0:0:
320,192,244564,1,0,0:0:0:0:
192,192,244614,1,0,0:0:0:0:
64,192,244664,1,0,0:0:0:0:
448,192,244714,1,0,0:0:0:0:
320,192,244764,1,0,0:0:0:0:
64,192,244814,1,0,0:0:0:0:
192,192,244814,1,0,0:0:0:0:
448,192,244889,1,0,0:0:0:0:
320,192,244964,1,0,0:0:0:0:
192,192,244964,1,0,0:0:0:0:
64,192,245039,1,0,0:0:0:0:
448,192,245114,1,0,0:0:0:0:
192,192,245114,1,0,0:0:0:0:
320,192,245114,1,0,0:0:0:0:
64,192,245189,1,0,0:0:0:0:
320,192,245264,1,0,0:0:0:0:
448,192,245264,1,0,0:0:0:0:
192,192,245339,1,0,0:0:0:0:
64,192,245414,1,0,0:0:0:0:
320,192,245414,1,0,0:0:0:0:
448,192,245489,1,0,0:0:0:0:
64,192,245564,1,0,0:0:0:0:
192,192,245564,1,0,0:0:0:0:
320,192,245639,1,0,0:0:0:0:
448,192,245714,1,0,0:0:0:0:
64,192,245714,1,0,0:0:0:0:
192,192,245714,1,0,0:0:0:0:
320,192,245864,1,0,0:0:0:0:
64,192,246014,1,0,0:0:0:0:
448,192,246014,1,0,0:0:0:0:
192,192,246014,1,0,0:0:0:0:
320,192,246089,1,0,0:0:0:0:
64,192,246164,1,0,0:0:0:0:
320,192,246239,1,0,0:0:0:0:
192,192,246314,1,0,0:0:0:0:
64,192,246314,1,0,0:0:0:0:
448,192,246314,1,0,0:0:0:0:
320,192,246389,1,0,0:0:0:0:
192,192,246464,1,0,0:0:0:0:
64,192,246539,1,0,0:0:0:0:
320,192,246614,1,0,0:0:0:0:
448,192,246614,1,0,0:0:0:0:
64,192,246689,1,0,0:0:0:0:
192,192,246764,1,0,0:0:0:0:
448,192,246764,1,0,0:0:0:0:
320,192,246839,1,0,0:0:0:0:
192,192,246914,1,0,0:0:0:0:
448,192,246914,1,0,0:0:0:0:
64,192,246914,1,0,0:0:0:0:
320,192,247064,1,0,0:0:0:0:
192,192,247214,1,0,0:0:0:0:
320,192,247214,1,0,0:0:0:0:
448,192,247214,1,0,0:0:0:0:
64,192,247289,1,0,0:0:0:0:
192,192,247364,1,0,0:0:0:0:
448,192,247364,1,0,0:0:0:0:
320,192,247439,1,0,0:0:0:0:
192,192,247514,1,0,0:0:0:0:
64,192,247514,1,0,0:0:0:0:
448,192,247514,1,0,0:0:0:0:
192,192,247664,1,0,0:0:0:0:
64,192,247814,1,0,0:0:0:0:
448,192,247814,1,0,0:0:0:0:
192,192,247889,1,0,0:0:0:0:
320,192,247964,1,0,0:0:0:0:
64,192,247964,1,0,0:0:0:0:
448,192,247964,1,0,0:0:0:0:
448,192,248114,1,0,0:0:0:0:
64,192,248114,1,0,0:0:0:0:
192,192,248114,1,0,0:0:0:0:
320,192,248264,1,0,0:0:0:0:
64,192,248414,1,0,0:0:0:0:
448,192,248414,1,0,0:0:0:0:
320,192,248414,1,0,0:0:0:0:
64,192,248564,1,0,0:0:0:0:
192,192,248564,1,0,0:0:0:0:
448,192,248564,1,0,0:0:0:0:
448,192,248714,1,0,0:0:0:0:
320,192,248714,1,0,0:0:0:0:
320,192,248864,1,0,0:0:0:0:
192,192,248864,1,0,0:0:0:0:
64,192,248864,1,0,0:0:0:0:
64,192,249014,1,0,0:0:0:0:
448,192,249014,1,0,0:0:0:0:
192,192,249014,1,0,0:0:0:0:
192,192,249164,1,0,0:0:0:0:
320,192,249164,1,0,0:0:0:0:
448,192,249164,1,0,0:0:0:0:
320,192,249314,1,0,0:0:0:0:
64,192,249314,1,0,0:0:0:0:
320,192,249614,1,0,0:0:0:0:
64,192,249614,1,0,0:0:0:0:
192,192,249614,1,0,0:0:0:0:
320,192,249764,1,0,0:0:0:0:
448,192,249764,1,0,0:0:0:0:
64,192,249839,1,0,0:0:0:0:
192,192,249914,1,0,0:0:0:0:
320,192,249914,1,0,0:0:0:0:
448,192,249914,1,0,0:0:0:0:
64,192,249989,1,0,0:0:0:0:
320,192,250064,1,0,0:0:0:0:
192,192,250064,1,0,0:0:0:0:
448,192,250139,1,0,0:0:0:0:
64,192,250214,1,0,0:0:0:0:
320,192,250214,1,0,0:0:0:0:
192,192,250289,1,0,0:0:0:0:
64,192,250364,1,0,0:0:0:0:
448,192,250364,1,0,0:0:0:0:
320,192,250364,1,0,0:0:0:0:
64,192,250514,1,0,0:0:0:0:
192,192,250514,1,0,0:0:0:0:
320,192,250514,1,0,0:0:0:0:
448,192,250589,1,0,0:0:0:0:
64,192,250664,1,0,0:0:0:0:
320,192,250664,1,0,0:0:0:0:
192,192,250739,1,0,0:0:0:0:
320,192,250814,1,0,0:0:0:0:
448,192,250814,1,0,0:0:0:0:
192,192,250889,1,0,0:0:0:0:
64,192,250964,1,0,0:0:0:0:
448,192,250964,1,0,0:0:0:0:
192,192,251039,1,0,0:0:0:0:
64,192,251114,1,0,0:0:0:0:
320,192,251114,1,0,0:0:0:0:
448,192,251114,1,0,0:0:0:0:
192,192,251189,1,0,0:0:0:0:
320,192,251264,1,0,0:0:0:0:
448,192,251264,1,0,0:0:0:0:
192,192,251339,1,0,0:0:0:0:
64,192,251414,1,0,0:0:0:0:
448,192,251414,1,0,0:0:0:0:
320,192,251489,1,0,0:0:0:0:
192,192,251564,1,0,0:0:0:0:
64,192,251564,1,0,0:0:0:0:
448,192,251564,1,0,0:0:0:0:
320,192,251714,1,0,0:0:0:0:
64,192,251714,1,0,0:0:0:0:
192,192,251714,1,0,0:0:0:0:
448,192,251789,1,0,0:0:0:0:
192,192,251864,1,0,0:0:0:0:
320,192,251864,1,0,0:0:0:0:
64,192,251939,1,0,0:0:0:0:
448,192,252014,1,0,0:0:0:0:
192,192,252014,1,0,0:0:0:0:
320,192,252014,1,0,0:0:0:0:
192,192,252164,1,0,0:0:0:0:
192,192,252314,1,0,0:0:0:0:
64,192,252314,1,0,0:0:0:0:
320,192,252314,1,0,0:0:0:0:
448,192,252389,1,0,0:0:0:0:
192,192,252464,1,0,0:0:0:0:
64,192,252464,1,0,0:0:0:0:
320,192,252539,1,0,0:0:0:0:
192,192,252614,1,0,0:0:0:0:
448,192,252614,1,0,0:0:0:0:
64,192,252689,1,0,0:0:0:0:
448,192,252764,1,0,0:0:0:0:
320,192,252764,1,0,0:0:0:0:
192,192,252764,1,0,0:0:0:0:
448,192,252914,1,0,0:0:0:0:
192,192,252914,1,0,0:0:0:0:
64,192,252914,1,0,0:0:0:0:
320,192,252989,1,0,0:0:0:0:
448,192,253064,1,0,0:0:0:0:
192,192,253064,1,0,0:0:0:0:
320,192,253139,1,0,0:0:0:0:
64,192,253214,1,0,0:0:0:0:
192,192,253214,1,0,0:0:0:0:
448,192,253289,1,0,0:0:0:0:
64,192,253364,1,0,0:0:0:0:
320,192,253364,1,0,0:0:0:0:
192,192,253439,1,0,0:0:0:0:
320,192,253514,1,0,0:0:0:0:
448,192,253514,1,0,0:0:0:0:
64,192,253514,1,0,0:0:0:0:
448,192,253664,1,0,0:0:0:0:
192,192,253664,1,0,0:0:0:0:
320,192,253739,1,0,0:0:0:0:
192,192,253814,1,0,0:0:0:0:
64,192,253814,1,0,0:0:0:0:
448,192,253889,1,0,0:0:0:0:
64,192,253964,1,0,0:0:0:0:
192,192,253964,1,0,0:0:0:0:
448,192,254014,1,0,0:0:0:0:
320,192,254064,1,0,0:0:0:0:
64,192,254114,1,0,0:0:0:0:
192,192,254164,1,0,0:0:0:0:
320,192,254214,1,0,0:0:0:0:
448,192,254264,1,0,0:0:0:0:
64,192,254264,1,0,0:0:0:0:
192,192,254339,1,0,0:0:0:0:
320,192,254414,1,0,0:0:0:0:
448,192,254414,1,0,0:0:0:0:
64,192,254414,1,0,0:0:0:0:
192,192,254489,1,0,0:0:0:0:
64,192,254564,1,0,0:0:0:0:
320,192,254564,1,0,0:0:0:0:
448,192,254639,1,0,0:0:0:0:
192,192,254714,1,0,0:0:0:0:
64,192,254714,1,0,0:0:0:0:
320,192,254714,1,0,0:0:0:0:
448,192,254789,1,0,0:0:0:0:
320,192,254864,1,0,0:0:0:0:
192,192,254864,1,0,0:0:0:0:
64,192,254939,1,0,0:0:0:0:
448,192,255014,1,0,0:0:0:0:
192,192,255014,1,0,0:0:0:0:
320,192,255089,1,0,0:0:0:0:
192,192,255164,1,0,0:0:0:0:
64,192,255164,1,0,0:0:0:0:
448,192,255164,1,0,0:0:0:0:
64,192,255314,1,0,0:0:0:0:
192,192,255314,1,0,0:0:0:0:
320,192,255314,1,0,0:0:0:0:
448,192,255389,1,0,0:0:0:0:
192,192,255464,1,0,0:0:0:0:
320,192,255464,1,0,0:0:0:0:
64,192,255539,1,0,0:0:0:0:
448,192,255614,1,0,0:0:0:0:
320,192,255614,1,0,0:0:0:0:
192,192,255614,1,0,0:0:0:0:
64,192,255689,1,0,0:0:0:0:
320,192,255764,1,0,0:0:0:0:
448,192,255764,1,0,0:0:0:0:
192,192,255839,1,0,0:0:0:0:
64,192,255914,1,0,0:0:0:0:
320,192,255914,1,0,0:0:0:0:
448,192,255914,1,0,0:0:0:0:
192,192,255989,1,0,0:0:0:0:
64,192,256064,1,0,0:0:0:0:
320,192,256064,1,0,0:0:0:0:
448,192,256139,1,0,0:0:0:0:
192,192,256214,1,0,0:0:0:0:
320,192,256214,1,0,0:0:0:0:
64,192,256289,1,0,0:0:0:0:
448,192,256364,1,0,0:0:0:0:
192,192,256364,1,0,0:0:0:0:
320,192,256364,1,0,0:0:0:0:
64,192,256514,1,0,0:0:0:0:
448,192,256514,1,0,0:0:0:0:
320,192,256514,1,0,0:0:0:0:
320,192,256664,1,0,0:0:0:0:
64,192,256814,1,0,0:0:0:0:
192,192,256814,1,0,0:0:0:0:
320,192,256889,1,0,0:0:0:0:
64,192,256964,1,0,0:0:0:0:
192,192,257039,1,0,0:0:0:0:
448,192,257114,1,0,0:0:0:0:
64,192,257114,1,0,0:0:0:0:
320,192,257114,1,0,0:0:0:0:
192,192,257189,1,0,0:0:0:0:
320,192,257264,1,0,0:0:0:0:
192,192,257339,1,0,0:0:0:0:
64,192,257414,1,0,0:0:0:0:
448,192,257414,1,0,0:0:0:0:
320,192,257489,1,0,0:0:0:0:
448,192,257564,1,0,0:0:0:0:
192,192,257564,1,0,0:0:0:0:
64,192,257564,1,0,0:0:0:0:
192,192,257714,1,0,0:0:0:0:
320,192,257714,1,0,0:0:0:0:
448,192,257714,1,0,0:0:0:0:
64,192,257789,1,0,0:0:0:0:
448,192,257864,1,0,0:0:0:0:
192,192,257939,1,0,0:0:0:0:
320,192,258014,1,0,0:0:0:0:
448,192,258014,1,0,0:0:0:0:
64,192,258089,1,0,0:0:0:0:
448,192,258164,1,0,0:0:0:0:
320,192,258164,1,0,0:0:0:0:
192,192,258164,1,0,0:0:0:0:
64,192,258314,1,0,0:0:0:0:
320,192,258314,1,0,0:0:0:0:
448,192,258314,1,0,0:0:0:0:
192,192,258389,1,0,0:0:0:0:
64,192,258464,1,0,0:0:0:0:
448,192,258464,1,0,0:0:0:0:
320,192,258539,1,0,0:0:0:0:
192,192,258614,1,0,0:0:0:0:
64,192,258614,1,0,0:0:0:0:
448,192,258689,1,0,0:0:0:0:
320,192,258714,1,0,0:0:0:0:
192,192,258764,1,0,0:0:0:0:
64,192,258814,1,0,0:0:0:0:
448,192,258864,1,0,0:0:0:0:
320,192,258914,1,0,0:0:0:0:
64,192,258964,1,0,0:0:0:0:
192,192,259014,1,0,0:0:0:0:
448,192,259064,1,0,0:0:0:0:
320,192,259114,1,0,0:0:0:0:
192,192,259164,1,0,0:0:0:0:
64,192,259214,1,0,0:0:0:0:
448,192,259214,1,0,0:0:0:0:
320,192,259364,1,0,0:0:0:0:
448,192,259364,1,0,0:0:0:0:
64,192,259514,1,0,0:0:0:0:
320,192,259514,1,0,0:0:0:0:
448,192,259514,1,0,0:0:0:0:
192,192,259664,1,0,0:0:0:0:
320,192,259739,1,0,0:0:0:0:
64,192,259814,1,0,0:0:0:0:
192,192,259889,1,0,0:0:0:0:
448,192,259964,1,0,0:0:0:0:
320,192,259964,1,0,0:0:0:0:
192,192,260114,1,0,0:0:0:0:
64,192,260114,1,0,0:0:0:0:
448,192,260114,1,0,0:0:0:0:
320,192,260264,1,0,0:0:0:0:
448,192,260264,1,0,0:0:0:0:
64,192,260414,1,0,0:0:0:0:
320,192,260414,1,0,0:0:0:0:
192,192,260489,1,0,0:0:0:0:
448,192,260564,1,0,0:0:0:0:
64,192,260564,1,0,0:0:0:0:
320,192,260639,1,0,0:0:0:0:
192,192,260714,1,0,0:0:0:0:
64,192,260714,1,0,0:0:0:0:
448,192,260714,1,0,0:0:0:0:
192,192,260864,1,0,0:0:0:0:
320,192,260864,1,0,0:0:0:0:
448,192,261014,1,0,0:0:0:0:
320,192,261014,1,0,0:0:0:0:
192,192,261089,1,0,0:0:0:0:
448,192,261164,1,0,0:0:0:0:
192,192,261239,1,0,0:0:0:0:
320,192,261314,1,0,0:0:0:0:
448,192,261314,1,0,0:0:0:0:
64,192,261314,1,0,0:0:0:0:
64,192,261464,1,0,0:0:0:0:
192,192,261464,1,0,0:0:0:0:
320,192,261614,1,0,0:0:0:0:
448,192,261614,1,0,0:0:0:0:
192,192,261764,1,0,0:0:0:0:
448,192,261764,1,0,0:0:0:0:
448,192,261914,1,0,0:0:0:0:
64,192,261914,1,0,0:0:0:0:
320,192,261914,1,0,0:0:0:0:
64,192,262064,1,0,0:0:0:0:
192,192,262064,1,0,0:0:0:0:
320,192,262214,1,0,0:0:0:0:
448,192,262214,1,0,0:0:0:0:
192,192,262289,1,0,0:0:0:0:
64,192,262364,1,0,0:0:0:0:
320,192,262439,1,0,0:0:0:0:
64,192,262514,1,0,0:0:0:0:
192,192,262514,1,0,0:0:0:0:
448,192,262514,1,0,0:0:0:0:
448,192,262664,1,0,0:0:0:0:
320,192,262664,1,0,0:0:0:0:
192,192,262739,1,0,0:0:0:0:
448,192,262814,1,0,0:0:0:0:
320,192,262814,1,0,0:0:0:0:
192,192,262889,1,0,0:0:0:0:
448,192,262964,1,0,0:0:0:0:
320,192,263039,1,0,0:0:0:0:
448,192,263114,1,0,0:0:0:0:
192,192,263114,1,0,0:0:0:0:
64,192,263114,1,0,0:0:0:0:
64,192,263264,1,0,0:0:0:0:
320,192,263339,1,0,0:0:0:0:
192,192,263414,1,0,0:0:0:0:
64,192,263414,1,0,0:0:0:0:
320,192,263489,1,0,0:0:0:0:
192,192,263564,1,0,0:0:0:0:
64,192,263564,1,0,0:0:0:0:
448,192,263614,1,0,0:0:0:0:
320,192,263664,1,0,0:0:0:0:
64,192,263714,1,0,0:0:0:0:
192,192,263764,1,0,0:0:0:0:
320,192,263814,1,0,0:0:0:0:
448,192,263864,1,0,0:0:0:0:
64,192,263914,1,0,0:0:0:0:
192,192,263964,1,0,0:0:0:0:
320,192,264014,1,0,0:0:0:0:
448,192,264014,1,0,0:0:0:0:
64,192,264164,1,0,0:0:0:0:
320,192,264164,1,0,0:0:0:0:
64,192,264314,1,0,0:0:0:0:
192,192,264314,1,0,0:0:0:0:
448,192,264314,1,0,0:0:0:0:
448,192,264464,1,0,0:0:0:0:
192,192,264464,1,0,0:0:0:0:
320,192,264539,1,0,0:0:0:0:
64,192,264614,1,0,0:0:0:0:
320,192,264689,1,0,0:0:0:0:
192,192,264764,1,0,0:0:0:0:
64,192,264764,1,0,0:0:0:0:
192,192,264914,1,0,0:0:0:0:
320,192,264914,1,0,0:0:0:0:
448,192,264914,1,0,0:0:0:0:
192,192,265064,1,0,0:0:0:0:
448,192,265064,1,0,0:0:0:0:
320,192,265214,1,0,0:0:0:0:
192,192,265214,1,0,0:0:0:0:
64,192,265289,1,0,0:0:0:0:
320,192,265364,1,0,0:0:0:0:
64,192,265439,1,0,0:0:0:0:
192,192,265514,1,0,0:0:0:0:
320,192,265514,1,0,0:0:0:0:
448,192,265514,1,0,0:0:0:0:
192,192,265664,1,0,0:0:0:0:
320,192,265664,1,0,0:0:0:0:
64,192,265814,1,0,0:0:0:0:
192,192,265814,1,0,0:0:0:0:
448,192,265889,1,0,0:0:0:0:
64,192,265964,1,0,0:0:0:0:
320,192,266039,1,0,0:0:0:0:
192,192,266114,1,0,0:0:0:0:
64,192,266114,1,0,0:0:0:0:
448,192,266114,1,0,0:0:0:0:
448,192,266264,1,0,0:0:0:0:
320,192,266264,1,0,0:0:0:0:
64,192,266414,1,0,0:0:0:0:
192,192,266414,1,0,0:0:0:0:
320,192,266489,1,0,0:0:0:0:
64,192,266564,1,0,0:0:0:0:
192,192,266639,1,0,0:0:0:0:
448,192,266714,1,0,0:0:0:0:
320,192,266714,1,0,0:0:0:0:
64,192,266714,1,0,0:0:0:0:
192,192,266864,1,0,0:0:0:0:
320,192,266864,1,0,0:0:0:0:
64,192,267014,1,0,0:0:0:0:
448,192,267014,1,0,0:0:0:0:
320,192,267089,1,0,0:0:0:0:
64,192,267164,1,0,0:0:0:0:
192,192,267164,1,0,0:0:0:0:
448,192,267239,1,0,0:0:0:0:
192,192,267314,1,0,0:0:0:0:
64,192,267314,1,0,0:0:0:0:
320,192,267314,1,0,0:0:0:0:
192,192,267464,1,0,0:0:0:0:
448,192,267464,1,0,0:0:0:0:
320,192,267614,1,0,0:0:0:0:
192,192,267614,1,0,0:0:0:0:
448,192,267689,5,0,0:0:0:0:
64,192,267764,1,0,0:0:0:0:
320,192,267839,1,0,0:0:0:0:
192,192,267914,1,0,0:0:0:0:
64,192,267914,1,0,0:0:0:0:
448,192,267914,1,0,0:0:0:0:
64,192,268064,1,0,0:0:0:0:
320,192,268064,1,0,0:0:0:0:
192,192,268214,1,0,0:0:0:0:
448,192,268214,1,0,0:0:0:0:
320,192,268289,1,0,0:0:0:0:
64,192,268364,1,0,0:0:0:0:
192,192,268364,1,0,0:0:0:0:
320,192,268439,1,0,0:0:0:0:
192,192,268514,1,0,0:0:0:0:
320,192,268564,1,0,0:0:0:0:
448,192,268614,1,0,0:0:0:0:
192,192,268664,1,0,0:0:0:0:
64,192,268714,1,0,0:0:0:0:
448,192,268764,1,0,0:0:0:0:
320,192,268814,1,0,0:0:0:0:
192,192,268814,1,0,0:0:0:0:
64,192,268964,1,0,0:0:0:0:
320,192,269114,1,0,0:0:0:0:
448,192,269114,1,0,0:0:0:0:
192,192,269189,1,0,0:0:0:0:
64,192,269264,1,0,0:0:0:0:
448,192,269339,1,0,0:0:0:0:
320,192,269414,1,0,0:0:0:0:
64,192,269414,1,0,0:0:0:0:
192,192,269564,1,0,0:0:0:0:
448,192,269564,1,0,0:0:0:0:
320,192,269714,1,0,0:0:0:0:
192,192,269714,1,0,0:0:0:0:
64,192,269714,1,0,0:0:0:0:
448,192,269864,1,0,0:0:0:0:
192,192,269939,1,0,0:0:0:0:
320,192,270014,1,0,0:0:0:0:
448,192,270164,1,0,0:0:0:0:
64,192,270164,1,0,0:0:0:0:
320,192,270314,1,0,0:0:0:0:
192,192,270389,1,0,0:0:0:0:
320,192,270464,1,0,0:0:0:0:
64,192,270539,1,0,0:0:0:0:
448,192,270614,1,0,0:0:0:0:
320,192,270614,1,0,0:0:0:0:
320,192,270764,1,0,0:0:0:0:
192,192,270764,1,0,0:0:0:0:
64,192,270914,1,0,0:0:0:0:
320,192,270914,1,0,0:0:0:0:
448,192,270914,1,0,0:0:0:0:
192,192,271064,1,0,0:0:0:0:
448,192,271214,128,0,271514:0:0:0:0:
320,192,271214,1,0,0:0:0:0:
64,192,271364,1,0,0:0:0:0:
192,192,271364,1,0,0:0:0:0:
192,192,271514,1,0,0:0:0:0:
320,192,271614,1,0,0:0:0:0:
192,192,271714,1,0,0:0:0:0:
192,192,271814,128,0,272114:0:0:0:0:
448,192,271814,1,0,0:0:0:0:
64,192,271814,1,0,0:0:0:0:
320,192,271964,1,0,0:0:0:0:
64,192,272114,1,0,0:0:0:0:
448,192,272114,1,0,0:0:0:0:
320,192,272114,1,0,0:0:0:0:
320,192,272264,1,0,0:0:0:0:
64,192,272414,128,0,272714:0:0:0:0:
192,192,272414,1,0,0:0:0:0:
448,192,272414,1,0,0:0:0:0:
320,192,272564,1,0,0:0:0:0:
448,192,272714,1,0,0:0:0:0:
320,192,272814,1,0,0:0:0:0:
192,192,272914,1,0,0:0:0:0:
64,192,273014,128,0,273314:0:0:0:0:
320,192,273014,1,0,0:0:0:0:
448,192,273014,1,0,0:0:0:0:
192,192,273164,1,0,0:0:0:0:
448,192,273164,1,0,0:0:0:0:
320,192,273314,1,0,0:0:0:0:
448,192,273364,1,0,0:0:0:0:
192,192,273414,1,0,0:0:0:0:
320,192,273464,1,0,0:0:0:0:
64,192,273514,1,0,0:0:0:0:
192,192,273564,1,0,0:0:0:0:
448,192,273614,128,0,273914:0:0:0:0:
320,192,273614,1,0,0:0:0:0:
192,192,273764,1,0,0:0:0:0:
320,192,273914,1,0,0:0:0:0:
192,192,273914,1,0,0:0:0:0:
64,192,274014,1,0,0:0:0:0:
320,192,274114,1,0,0:0:0:0:
192,192,274214,128,0,274514:0:0:0:0:
64,192,274214,1,0,0:0:0:0:
448,192,274214,1,0,0:0:0:0:
320,192,274364,1,0,0:0:0:0:
448,192,274514,1,0,0:0:0:0:
64,192,274514,1,0,0:0:0:0:
320,192,274514,1,0,0:0:0:0:
192,192,274664,1,0,0:0:0:0:
64,192,274814,128,0,275114:0:0:0:0:
320,192,274814,1,0,0:0:0:0:
448,192,274814,1,0,0:0:0:0:
192,192,274964,1,0,0:0:0:0:
192,192,275114,1,0,0:0:0:0:
320,192,275114,1,0,0:0:0:0:
448,192,275214,1,0,0:0:0:0:
64,192,275314,1,0,0:0:0:0:
320,192,275414,128,0,275714:0:0:0:0:
192,192,275414,1,0,0:0:0:0:
448,192,275414,1,0,0:0:0:0:
64,192,275564,1,0,0:0:0:0:
64,192,275714,1,0,0:0:0:0:
448,192,275714,1,0,0:0:0:0:
192,192,275714,1,0,0:0:0:0:
320,192,275864,1,0,0:0:0:0:
448,192,276014,128,0,276314:0:0:0:0:
64,192,276014,1,0,0:0:0:0:
192,192,276014,1,0,0:0:0:0:
64,192,276164,1,0,0:0:0:0:
192,192,276314,1,0,0:0:0:0:
320,192,276314,1,0,0:0:0:0:
64,192,276414,1,0,0:0:0:0:
320,192,276514,1,0,0:0:0:0:
192,192,276614,128,0,276914:0:0:0:0:
448,192,276614,1,0,0:0:0:0:
320,192,276764,1,0,0:0:0:0:
64,192,276764,1,0,0:0:0:0:
320,192,276914,1,0,0:0:0:0:
448,192,276914,1,0,0:0:0:0:
64,192,276914,1,0,0:0:0:0:
192,192,277064,1,0,0:0:0:0:
320,192,277214,128,0,277514:0:0:0:0:
64,192,277214,1,0,0:0:0:0:
448,192,277214,1,0,0:0:0:0:
192,192,277364,1,0,0:0:0:0:
64,192,277514,1,0,0:0:0:0:
448,192,277514,1,0,0:0:0:0:
192,192,277514,1,0,0:0:0:0:
320,192,277614,1,0,0:0:0:0:
192,192,277714,1,0,0:0:0:0:
448,192,277814,128,0,278114:0:0:0:0:
64,192,277814,1,0,0:0:0:0:
320,192,277889,1,0,0:0:0:0:
192,192,277964,1,0,0:0:0:0:
64,192,277964,1,0,0:0:0:0:
64,192,278114,1,0,0:0:0:0:
192,192,278164,1,0,0:0:0:0:
448,192,278214,1,0,0:0:0:0:
64,192,278264,1,0,0:0:0:0:
192,192,278314,1,0,0:0:0:0:
320,192,278364,1,0,0:0:0:0:
64,192,278414,1,0,0:0:0:0:
448,192,278414,1,0,0:0:0:0:
192,192,278564,1,0,0:0:0:0:
448,192,278564,1,0,0:0:0:0:
64,192,278714,1,0,0:0:0:0:
320,192,278714,1,0,0:0:0:0:
448,192,278714,1,0,0:0:0:0:
192,192,278814,1,0,0:0:0:0:
320,192,278914,1,0,0:0:0:0:
448,192,279014,1,0,0:0:0:0:
64,192,279014,1,0,0:0:0:0:
448,192,279164,1,0,0:0:0:0:
192,192,279164,1,0,0:0:0:0:
192,192,279314,1,0,0:0:0:0:
64,192,279314,1,0,0:0:0:0:
320,192,279314,1,0,0:0:0:0:
448,192,279464,1,0,0:0:0:0:
192,192,279614,1,0,0:0:0:0:
320,192,279614,1,0,0:0:0:0:
64,192,279764,1,0,0:0:0:0:
192,192,279764,1,0,0:0:0:0:
192,192,279914,1,0,0:0:0:0:
64,192,279914,1,0,0:0:0:0:
448,192,279914,1,0,0:0:0:0:
320,192,280014,1,0,0:0:0:0:
448,192,280114,1,0,0:0:0:0:
192,192,280214,1,0,0:0:0:0:
64,192,280214,1,0,0:0:0:0:
320,192,280364,1,0,0:0:0:0:
192,192,280364,1,0,0:0:0:0:
320,192,280514,1,0,0:0:0:0:
448,192,280514,1,0,0:0:0:0:
64,192,280514,1,0,0:0:0:0:
192,192,280664,1,0,0:0:0:0:
448,192,280664,1,0,0:0:0:0:
320,192,280814,1,0,0:0:0:0:
64,192,280814,1,0,0:0:0:0:
448,192,280964,1,0,0:0:0:0:
320,192,280964,1,0,0:0:0:0:
192,192,281114,1,0,0:0:0:0:
64,192,281114,1,0,0:0:0:0:
448,192,281114,1,0,0:0:0:0:
320,192,281214,1,0,0:0:0:0:
64,192,281314,1,0,0:0:0:0:
320,192,281414,1,0,0:0:0:0:
448,192,281414,1,0,0:0:0:0:
192,192,281564,1,0,0:0:0:0:
448,192,281564,1,0,0:0:0:0:
320,192,281714,1,0,0:0:0:0:
192,192,281714,1,0,0:0:0:0:
64,192,281714,1,0,0:0:0:0:
320,192,281864,1,0,0:0:0:0:
448,192,281864,1,0,0:0:0:0:
64,192,282014,1,0,0:0:0:0:
448,192,282014,1,0,0:0:0:0:
320,192,282164,1,0,0:0:0:0:
192,192,282164,1,0,0:0:0:0:
64,192,282314,1,0,0:0:0:0:
192,192,282314,1,0,0:0:0:0:
448,192,282314,1,0,0:0:0:0:
320,192,282414,1,0,0:0:0:0:
192,192,282514,1,0,0:0:0:0:
448,192,282614,1,0,0:0:0:0:
320,192,282614,1,0,0:0:0:0:
64,192,282614,1,0,0:0:0:0:
192,192,282764,1,0,0:0:0:0:
64,192,282764,1,0,0:0:0:0:
448,192,282814,1,0,0:0:0:0:
320,192,282864,1,0,0:0:0:0:
64,192,282914,1,0,0:0:0:0:
192,192,282964,1,0,0:0:0:0:
320,192,283014,1,0,0:0:0:0:
448,192,283064,1,0,0:0:0:0:
192,192,283114,1,0,0:0:0:0:
320,192,283164,1,0,0:0:0:0:
448,192,283214,1,0,0:0:0:0:
64,192,283214,1,0,0:0:0:0:
192,192,283364,1,0,0:0:0:0:
320,192,283364,1,0,0:0:0:0:
64,192,283514,1,0,0:0:0:0:
448,192,283514,1,0,0:0:0:0:
320,192,283514,1,0,0:0:0:0:
192,192,283614,1,0,0:0:0:0:
448,192,283714,1,0,0:0:0:0:
320,192,283814,1,0,0:0:0:0:
64,192,283814,1,0,0:0:0:0:
320,192,283964,1,0,0:0:0:0:
448,192,283964,1,0,0:0:0:0:
192,192,284114,1,0,0:0:0:0:
64,192,284114,1,0,0:0:0:0:
320,192,284114,1,0,0:0:0:0:
448,192,284264,1,0,0:0:0:0:
64,192,284264,1,0,0:0:0:0:
320,192,284414,1,0,0:0:0:0:
192,192,284414,1,0,0:0:0:0:
64,192,284564,1,0,0:0:0:0:
192,192,284564,1,0,0:0:0:0:
64,192,284714,1,0,0:0:0:0:
320,192,284714,1,0,0:0:0:0:
448,192,284714,1,0,0:0:0:0:
192,192,284814,1,0,0:0:0:0:
448,192,284914,1,0,0:0:0:0:
192,192,285014,1,0,0:0:0:0:
64,192,285014,1,0,0:0:0:0:
320,192,285089,1,0,0:0:0:0:
192,192,285164,1,0,0:0:0:0:
64,192,285164,1,0,0:0:0:0:
192,192,285314,1,0,0:0:0:0:
320,192,285314,1,0,0:0:0:0:
448,192,285314,1,0,0:0:0:0:
64,192,285389,1,0,0:0:0:0:
320,192,285464,1,0,0:0:0:0:
192,192,285539,1,0,0:0:0:0:
64,192,285614,1,0,0:0:0:0:
448,192,285614,1,0,0:0:0:0:
320,192,285689,1,0,0:0:0:0:
192,192,285764,1,0,0:0:0:0:
320,192,285839,1,0,0:0:0:0:
448,192,285914,1,0,0:0:0:0:
64,192,285914,1,0,0:0:0:0:
192,192,285989,1,0,0:0:0:0:
448,192,286064,1,0,0:0:0:0:
320,192,286064,1,0,0:0:0:0:
192,192,286139,1,0,0:0:0:0:
64,192,286214,1,0,0:0:0:0:
448,192,286214,1,0,0:0:0:0:
320,192,286289,1,0,0:0:0:0:
192,192,286364,1,0,0:0:0:0:
64,192,286364,1,0,0:0:0:0:
448,192,286439,1,0,0:0:0:0:
64,192,286514,1,0,0:0:0:0:
320,192,286514,1,0,0:0:0:0:
192,192,286589,1,0,0:0:0:0:
320,192,286664,1,0,0:0:0:0:
448,192,286664,1,0,0:0:0:0:
64,192,286739,1,0,0:0:0:0:
192,192,286814,1,0,0:0:0:0:
448,192,286814,1,0,0:0:0:0:
320,192,286889,5,0,0:0:0:0:
192,192,286964,1,0,0:0:0:0:
64,192,286964,128,0,287189:0:0:0:0:
448,192,287114,1,0,0:0:0:0:
320,192,287114,1,0,0:0:0:0:
192,192,287189,128,0,287414:0:0:0:0:
320,192,287339,1,0,0:0:0:0:
448,192,287414,128,0,287639:0:0:0:0:
64,192,287489,1,0,0:0:0:0:
192,192,287564,1,0,0:0:0:0:
320,192,287564,1,0,0:0:0:0:
64,192,287639,128,0,287789:0:0:0:0:
192,192,287714,1,0,0:0:0:0:
320,192,287789,128,0,287939:0:0:0:0:
448,192,287864,1,0,0:0:0:0:
448,192,288014,1,0,0:0:0:0:
320,192,288014,1,0,0:0:0:0:
64,192,288014,1,0,0:0:0:0:
192,192,288014,1,0,0:0:0:0:
64,192,288164,1,0,0:0:0:0:
192,192,288164,1,0,0:0:0:0:
64,192,288314,1,0,0:0:0:0:
320,192,288314,1,0,0:0:0:0:
448,192,288314,1,0,0:0:0:0:
320,192,288464,1,0,0:0:0:0:
448,192,288464,1,0,0:0:0:0:
64,192,288539,1,0,0:0:0:0:
192,192,288614,1,0,0:0:0:0:
448,192,288614,1,0,0:0:0:0:
320,192,288689,1,0,0:0:0:0:
64,192,288764,1,0,0:0:0:0:
448,192,288764,1,0,0:0:0:0:
64,192,288914,1,0,0:0:0:0:
448,192,288914,1,0,0:0:0:0:
320,192,288914,1,0,0:0:0:0:
192,192,289064,1,0,0:0:0:0:
448,192,289064,1,0,0:0:0:0:
192,192,289214,1,0,0:0:0:0:
64,192,289214,1,0,0:0:0:0:
320,192,289364,1,0,0:0:0:0:
448,192,289364,1,0,0:0:0:0:
320,192,289514,1,0,0:0:0:0:
448,192,289514,1,0,0:0:0:0:
64,192,289514,1,0,0:0:0:0:
192,192,289664,1,0,0:0:0:0:
320,192,289664,1,0,0:0:0:0:
64,192,289739,1,0,0:0:0:0:
192,192,289814,1,0,0:0:0:0:
448,192,289814,1,0,0:0:0:0:
320,192,289889,1,0,0:0:0:0:
192,192,289964,1,0,0:0:0:0:
64,192,289964,1,0,0:0:0:0:
448,192,290114,1,0,0:0:0:0:
320,192,290114,1,0,0:0:0:0:
192,192,290114,1,0,0:0:0:0:
64,192,290264,1,0,0:0:0:0:
320,192,290264,1,0,0:0:0:0:
448,192,290414,1,0,0:0:0:0:
192,192,290414,1,0,0:0:0:0:
192,192,290564,1,0,0:0:0:0:
320,192,290564,1,0,0:0:0:0:
448,192,290714,1,0,0:0:0:0:
64,192,290714,1,0,0:0:0:0:
192,192,290714,1,0,0:0:0:0:
448,192,290864,1,0,0:0:0:0:
320,192,290939,1,0,0:0:0:0:
192,192,291014,1,0,0:0:0:0:
64,192,291014,1,0,0:0:0:0:
448,192,291089,1,0,0:0:0:0:
320,192,291164,1,0,0:0:0:0:
192,192,291164,1,0,0:0:0:0:
64,192,291314,1,0,0:0:0:0:
448,192,291314,1,0,0:0:0:0:
320,192,291314,1,0,0:0:0:0:
192,192,291464,1,0,0:0:0:0:
448,192,291464,1,0,0:0:0:0:
320,192,291614,1,0,0:0:0:0:
64,192,291614,1,0,0:0:0:0:
320,192,291764,1,0,0:0:0:0:
192,192,291764,1,0,0:0:0:0:
448,192,291914,1,0,0:0:0:0:
320,192,291914,1,0,0:0:0:0:
64,192,291914,1,0,0:0:0:0:
448,192,292064,1,0,0:0:0:0:
64,192,292064,1,0,0:0:0:0:
192,192,292139,1,0,0:0:0:0:
448,192,292214,1,0,0:0:0:0:
64,192,292214,1,0,0:0:0:0:
320,192,292289,1,0,0:0:0:0:
192,192,292364,1,0,0:0:0:0:
64,192,292364,1,0,0:0:0:0:
320,192,292414,1,0,0:0:0:0:
448,192,292464,1,0,0:0:0:0:
64,192,292514,1,0,0:0:0:0:
320,192,292564,1,0,0:0:0:0:
192,192,292614,1,0,0:0:0:0:
448,192,292664,1,0,0:0:0:0:
320,192,292714,1,0,0:0:0:0:
64,192,292764,1,0,0:0:0:0:
448,192,292814,1,0,0:0:0:0:
192,192,292814,1,0,0:0:0:0:
448,192,292964,1,0,0:0:0:0:
320,192,292964,1,0,0:0:0:0:
448,192,293114,1,0,0:0:0:0:
192,192,293114,1,0,0:0:0:0:
64,192,293114,1,0,0:0:0:0:
192,192,293264,1,0,0:0:0:0:
64,192,293264,1,0,0:0:0:0:
448,192,293339,1,0,0:0:0:0:
320,192,293414,1,0,0:0:0:0:
64,192,293414,1,0,0:0:0:0:
192,192,293489,1,0,0:0:0:0:
448,192,293564,1,0,0:0:0:0:
64,192,293564,1,0,0:0:0:0:
448,192,293714,1,0,0:0:0:0:
64,192,293714,1,0,0:0:0:0:
192,192,293714,1,0,0:0:0:0:
320,192,293864,1,0,0:0:0:0:
64,192,293864,1,0,0:0:0:0:
320,192,294014,1,0,0:0:0:0:
448,192,294014,1,0,0:0:0:0:
192,192,294164,1,0,0:0:0:0:
64,192,294164,1,0,0:0:0:0:
192,192,294314,1,0,0:0:0:0:
64,192,294314,1,0,0:0:0:0:
448,192,294314,1,0,0:0:0:0:
320,192,294464,1,0,0:0:0:0:
192,192,294464,1,0,0:0:0:0:
448,192,294539,1,0,0:0:0:0:
320,192,294614,1,0,0:0:0:0:
64,192,294614,1,0,0:0:0:0:
192,192,294689,1,0,0:0:0:0:
320,192,294764,1,0,0:0:0:0:
448,192,294764,1,0,0:0:0:0:
64,192,294914,1,0,0:0:0:0:
192,192,294914,1,0,0:0:0:0:
320,192,294914,1,0,0:0:0:0:
448,192,295064,1,0,0:0:0:0:
192,192,295064,1,0,0:0:0:0:
64,192,295214,1,0,0:0:0:0:
320,192,295214,1,0,0:0:0:0:
320,192,295364,1,0,0:0:0:0:
192,192,295364,1,0,0:0:0:0:
64,192,295514,1,0,0:0:0:0:
448,192,295514,1,0,0:0:0:0:
320,192,295514,1,0,0:0:0:0:
448,192,295664,1,0,0:0:0:0:
192,192,295739,1,0,0:0:0:0:
320,192,295814,1,0,0:0:0:0:
448,192,295814,1,0,0:0:0:0:
64,192,295889,1,0,0:0:0:0:
192,192,295964,1,0,0:0:0:0:
448,192,295964,1,0,0:0:0:0:
448,192,296114,1,0,0:0:0:0:
64,192,296114,1,0,0:0:0:0:
192,192,296114,1,0,0:0:0:0:
320,192,296264,1,0,0:0:0:0:
64,192,296264,1,0,0:0:0:0:
320,192,296414,1,0,0:0:0:0:
448,192,296414,1,0,0:0:0:0:
192,192,296489,5,0,0:0:0:0:
448,192,296564,1,0,0:0:0:0:
64,192,296564,1,0,0:0:0:0:
320,192,296639,1,0,0:0:0:0:
448,192,296714,1,0,0:0:0:0:
64,192,296714,1,0,0:0:0:0:
192,192,296714,1,0,0:0:0:0:
320,192,296789,1,0,0:0:0:0:
64,192,296864,1,0,0:0:0:0:
192,192,296864,1,0,0:0:0:0:
448,192,296939,1,0,0:0:0:0:
64,192,297014,1,0,0:0:0:0:
192,192,297014,1,0,0:0:0:0:
448,192,297089,1,0,0:0:0:0:
64,192,297164,1,0,0:0:0:0:
192,192,297164,1,0,0:0:0:0:
320,192,297214,1,0,0:0:0:0:
448,192,297264,1,0,0:0:0:0:
64,192,297314,1,0,0:0:0:0:
192,192,297364,1,0,0:0:0:0:
320,192,297414,1,0,0:0:0:0:
64,192,297464,1,0,0:0:0:0:
192,192,297514,1,0,0:0:0:0:
448,192,297564,1,0,0:0:0:0:
320,192,297614,1,0,0:0:0:0:
64,192,297614,1,0,0:0:0:0:
320,192,297764,1,0,0:0:0:0:
192,192,297764,1,0,0:0:0:0:
192,192,297914,1,0,0:0:0:0:
64,192,297914,1,0,0:0:0:0:
448,192,297914,1,0,0:0:0:0:
320,192,298064,1,0,0:0:0:0:
448,192,298064,1,0,0:0:0:0:
192,192,298214,1,0,0:0:0:0:
64,192,298214,1,0,0:0:0:0:
448,192,298214,1,0,0:0:0:0:
192,192,298364,1,0,0:0:0:0:
320,192,298364,1,0,0:0:0:0:
64,192,298514,1,0,0:0:0:0:
192,192,298514,1,0,0:0:0:0:
448,192,298514,1,0,0:0:0:0:
320,192,298664,1,0,0:0:0:0:
448,192,298664,1,0,0:0:0:0:
64,192,298814,1,0,0:0:0:0:
192,192,298814,1,0,0:0:0:0:
320,192,298814,1,0,0:0:0:0:
448,192,298964,1,0,0:0:0:0:
320,192,298964,1,0,0:0:0:0:
64,192,299114,1,0,0:0:0:0:
192,192,299114,1,0,0:0:0:0:
448,192,299114,1,0,0:0:0:0:
64,192,299264,1,0,0:0:0:0:
192,192,299264,1,0,0:0:0:0:
64,192,299414,1,0,0:0:0:0:
192,192,299414,1,0,0:0:0:0:
320,192,299414,1,0,0:0:0:0:
448,192,299564,1,0,0:0:0:0:
320,192,299564,1,0,0:0:0:0:
64,192,299714,1,0,0:0:0:0:
448,192,299714,1,0,0:0:0:0:
320,192,299714,1,0,0:0:0:0:
192,192,299864,1,0,0:0:0:0:
320,192,299864,1,0,0:0:0:0:
448,192,300014,1,0,0:0:0:0:
192,192,300014,1,0,0:0:0:0:
64,192,300014,1,0,0:0:0:0:
320,192,300164,1,0,0:0:0:0:
448,192,300164,1,0,0:0:0:0:
64,192,300314,1,0,0:0:0:0:
192,192,300314,1,0,0:0:0:0:
320,192,300314,1,0,0:0:0:0:
64,192,300464,1,0,0:0:0:0:
192,192,300464,1,0,0:0:0:0:
64,192,300614,1,0,0:0:0:0:
448,192,300614,1,0,0:0:0:0:
320,192,300614,1,0,0:0:0:0:
320,192,300764,1,0,0:0:0:0:
448,192,300764,1,0,0:0:0:0:
192,192,300914,1,0,0:0:0:0:
320,192,300914,1,0,0:0:0:0:
64,192,300914,1,0,0:0:0:0:
64,192,301064,1,0,0:0:0:0:
192,192,301064,1,0,0:0:0:0:
192,192,301214,1,0,0:0:0:0:
320,192,301214,1,0,0:0:0:0:
448,192,301214,1,0,0:0:0:0:
64,192,301364,1,0,0:0:0:0:
320,192,301364,1,0,0:0:0:0:
192,192,301514,1,0,0:0:0:0:
448,192,301514,1,0,0:0:0:0:
64,192,301514,1,0,0:0:0:0:
320,192,301664,1,0,0:0:0:0:
448,192,301664,1,0,0:0:0:0:
320,192,301814,1,0,0:0:0:0:
192,192,301814,1,0,0:0:0:0:
64,192,301814,1,0,0:0:0:0:
448,192,301964,1,0,0:0:0:0:
320,192,301964,1,0,0:0:0:0:
64,192,301964,1,0,0:0:0:0:
192,192,302114,1,0,0:0:0:0:
64,192,302114,1,0,0:0:0:0:
448,192,302114,1,0,0:0:0:0:
320,192,302264,1,0,0:0:0:0:
448,192,302264,1,0,0:0:0:0:
192,192,302264,1,0,0:0:0:0:
64,192,302414,1,0,0:0:0:0:
192,192,302414,1,0,0:0:0:0:
448,192,302464,1,0,0:0:0:0:
320,192,302514,1,0,0:0:0:0:
192,192,302564,1,0,0:0:0:0:
64,192,302614,1,0,0:0:0:0:
448,192,302664,1,0,0:0:0:0:
192,192,302714,1,0,0:0:0:0:
320,192,302764,1,0,0:0:0:0:
448,192,302814,1,0,0:0:0:0:
64,192,302864,1,0,0:0:0:0:
320,192,302914,1,0,0:0:0:0:
192,192,302964,1,0,0:0:0:0:
64,192,303014,1,0,0:0:0:0:
448,192,303051,1,0,0:0:0:0:
320,192,303089,1,0,0:0:0:0:
64,192,303126,1,0,0:0:0:0:
192,192,303164,1,0,0:0:0:0:
448,192,303201,1,0,0:0:0:0:
320,192,303239,1,0,0:0:0:0:
64,192,303276,1,0,0:0:0:0:
192,192,303314,1,0,0:0:0:0:
448,192,303347,1,0,0:0:0:0:
320,192,303380,1,0,0:0:0:0:
64,192,303414,1,0,0:0:0:0:
192,192,303447,1,0,0:0:0:0:
448,192,303480,1,0,0:0:0:0:
320,192,303514,1,0,0:0:0:0:
64,192,303547,1,0,0:0:0:0:
192,192,303580,1,0,0:0:0:0:
448,192,303614,1,0,0:0:0:0:
320,192,303651,1,0,0:0:0:0:
64,192,303689,1,0,0:0:0:0:
192,192,303726,1,0,0:0:0:0:
448,192,303764,1,0,0:0:0:0:
320,192,303801,1,0,0:0:0:0:
64,192,303839,1,0,0:0:0:0:
192,192,303876,1,0,0:0:0:0:
448,192,303914,1,0,0:0:0:0:
320,192,303951,1,0,0:0:0:0:
64,192,303989,1,0,0:0:0:0:
192,192,304026,1,0,0:0:0:0:
448,192,304064,1,0,0:0:0:0:
320,192,304101,1,0,0:0:0:0:
192,192,304139,1,0,0:0:0:0:
64,192,304164,1,0,0:0:0:0:
320,192,304214,1,0,0:0:0:0:
448,192,304214,1,0,0:0:0:0:
64,192,304289,1,0,0:0:0:0:
192,192,304289,1,0,0:0:0:0:
320,192,304364,1,0,0:0:0:0:
448,192,304364,1,0,0:0:0:0:
64,192,304439,1,0,0:0:0:0:
192,192,304439,1,0,0:0:0:0:
320,192,304476,1,0,0:0:0:0:
448,192,304514,1,0,0:0:0:0:
64,192,304551,1,0,0:0:0:0:
192,192,304589,1,0,0:0:0:0:
448,192,304626,1,0,0:0:0:0:
320,192,304664,1,0,0:0:0:0:
64,192,304701,1,0,0:0:0:0:
192,192,304739,1,0,0:0:0:0:
448,192,304776,1,0,0:0:0:0:
320,192,304814,1,0,0:0:0:0:
192,192,304964,1,0,0:0:0:0:
320,192,305114,1,0,0:0:0:0:
448,192,305114,1,0,0:0:0:0:
64,192,305114,1,0,0:0:0:0:
192,192,305264,1,0,0:0:0:0:
320,192,305339,1,0,0:0:0:0:
192,192,305414,1,0,0:0:0:0:
320,192,305489,1,0,0:0:0:0:
192,192,305564,1,0,0:0:0:0:
320,192,305639,1,0,0:0:0:0:
192,192,305714,1,0,0:0:0:0:
64,192,305714,1,0,0:0:0:0:
448,192,305714,1,0,0:0:0:0:
192,192,305864,1,0,0:0:0:0:
320,192,305864,1,0,0:0:0:0:
320,192,306014,1,0,0:0:0:0:
192,192,306164,128,0,306464:0:0:0:0:
320,192,306314,1,0,0:0:0:0:
448,192,306314,1,0,0:0:0:0:
448,192,306464,128,0,306614:0:0:0:0:
64,192,306614,128,0,306689:0:0:0:0:
64,192,306764,128,0,306839:0:0:0:0:
192,192,306764,1,0,0:0:0:0:
64,192,306914,128,0,306989:0:0:0:0:
320,192,306914,1,0,0:0:0:0:
448,192,306914,1,0,0:0:0:0:
64,192,307064,128,0,307139:0:0:0:0:
192,192,307064,1,0,0:0:0:0:
320,192,307139,1,0,0:0:0:0:
448,192,307139,1,0,0:0:0:0:
64,192,307214,1,0,0:0:0:0:
192,192,307214,1,0,0:0:0:0:
320,192,307289,1,0,0:0:0:0:
64,192,307364,1,0,0:0:0:0:
192,192,307364,1,0,0:0:0:0:
448,192,307439,1,0,0:0:0:0:
192,192,307514,1,0,0:0:0:0:
64,192,307514,1,0,0:0:0:0:
320,192,307514,1,0,0:0:0:0:
448,192,307589,1,0,0:0:0:0:
64,192,307664,1,0,0:0:0:0:
320,192,307664,1,0,0:0:0:0:
192,192,307739,1,0,0:0:0:0:
448,192,307814,1,0,0:0:0:0:
320,192,307814,1,0,0:0:0:0:
192,192,307889,1,0,0:0:0:0:
320,192,307964,1,0,0:0:0:0:
448,192,307964,1,0,0:0:0:0:
64,192,308039,1,0,0:0:0:0:
320,192,308114,1,0,0:0:0:0:
448,192,308114,1,0,0:0:0:0:
192,192,308114,1,0,0:0:0:0:
64,192,308189,1,0,0:0:0:0:
448,192,308264,1,0,0:0:0:0:
192,192,308264,1,0,0:0:0:0:
320,192,308339,1,0,0:0:0:0:
64,192,308414,1,0,0:0:0:0:
192,192,308414,1,0,0:0:0:0:
64,192,308564,1,0,0:0:0:0:
192,192,308564,1,0,0:0:0:0:
448,192,308564,1,0,0:0:0:0:
448,192,308714,1,0,0:0:0:0:
320,192,308714,1,0,0:0:0:0:
64,192,308714,1,0,0:0:0:0:
192,192,308864,1,0,0:0:0:0:
320,192,308864,1,0,0:0:0:0:
64,192,309014,1,0,0:0:0:0:
320,192,309014,1,0,0:0:0:0:
192,192,309089,1,0,0:0:0:0:
448,192,309164,1,0,0:0:0:0:
320,192,309164,1,0,0:0:0:0:
192,192,309314,1,0,0:0:0:0:
448,192,309314,1,0,0:0:0:0:
64,192,309314,1,0,0:0:0:0:
192,192,309464,1,0,0:0:0:0:
448,192,309464,1,0,0:0:0:0:
320,192,309539,1,0,0:0:0:0:
64,192,309614,1,0,0:0:0:0:
192,192,309614,1,0,0:0:0:0:
320,192,309689,1,0,0:0:0:0:
192,192,309764,1,0,0:0:0:0:
64,192,309764,1,0,0:0:0:0:
192,192,309914,1,0,0:0:0:0:
64,192,309914,1,0,0:0:0:0:
448,192,309914,1,0,0:0:0:0:
320,192,309989,1,0,0:0:0:0:
192,192,310064,1,0,0:0:0:0:
448,192,310064,1,0,0:0:0:0:
64,192,310139,1,0,0:0:0:0:
448,192,310214,1,0,0:0:0:0:
320,192,310214,1,0,0:0:0:0:
192,192,310289,1,0,0:0:0:0:
448,192,310364,1,0,0:0:0:0:
64,192,310364,1,0,0:0:0:0:
320,192,310364,1,0,0:0:0:0:
320,192,310514,1,0,0:0:0:0:
64,192,310514,1,0,0:0:0:0:
192,192,310514,1,0,0:0:0:0:
320,192,310664,1,0,0:0:0:0:
448,192,310664,1,0,0:0:0:0:
320,192,310814,1,0,0:0:0:0:
64,192,310814,1,0,0:0:0:0:
192,192,310889,1,0,0:0:0:0:
320,192,310964,1,0,0:0:0:0:
448,192,310964,1,0,0:0:0:0:
192,192,311114,1,0,0:0:0:0:
64,192,311114,1,0,0:0:0:0:
448,192,311114,1,0,0:0:0:0:
320,192,311264,1,0,0:0:0:0:
64,192,311264,1,0,0:0:0:0:
192,192,311339,1,0,0:0:0:0:
64,192,311414,1,0,0:0:0:0:
448,192,311414,1,0,0:0:0:0:
320,192,311489,1,0,0:0:0:0:
64,192,311564,1,0,0:0:0:0:
192,192,311564,1,0,0:0:0:0:
448,192,311614,1,0,0:0:0:0:
320,192,311664,1,0,0:0:0:0:
64,192,311714,1,0,0:0:0:0:
192,192,311764,1,0,0:0:0:0:
448,192,311814,1,0,0:0:0:0:
320,192,311864,1,0,0:0:0:0:
64,192,311914,1,0,0:0:0:0:
192,192,311964,1,0,0:0:0:0:
320,192,312014,1,0,0:0:0:0:
448,192,312014,1,0,0:0:0:0:
64,192,312089,1,0,0:0:0:0:
448,192,312164,1,0,0:0:0:0:
320,192,312164,1,0,0:0:0:0:
192,192,312239,1,0,0:0:0:0:
64,192,312314,1,0,0:0:0:0:
448,192,312314,1,0,0:0:0:0:
320,192,312314,1,0,0:0:0:0:
320,192,312464,1,0,0:0:0:0:
448,192,312464,1,0,0:0:0:0:
192,192,312614,1,0,0:0:0:0:
64,192,312614,1,0,0:0:0:0:
320,192,312689,1,0,0:0:0:0:
64,192,312764,1,0,0:0:0:0:
192,192,312764,1,0,0:0:0:0:
448,192,312839,1,0,0:0:0:0:
64,192,312914,1,0,0:0:0:0:
192,192,312914,1,0,0:0:0:0:
320,192,312914,1,0,0:0:0:0:
448,192,312989,1,0,0:0:0:0:
64,192,313064,1,0,0:0:0:0:
320,192,313064,1,0,0:0:0:0:
192,192,313139,1,0,0:0:0:0:
320,192,313214,5,0,0:0:0:0:
448,192,313214,1,0,0:0:0:0:
64,192,313214,1,0,0:0:0:0:
320,192,313364,1,0,0:0:0:0:
448,192,313364,1,0,0:0:0:0:
192,192,313514,1,0,0:0:0:0:
64,192,313514,1,0,0:0:0:0:
320,192,313514,1,0,0:0:0:0:
192,192,313664,1,0,0:0:0:0:
320,192,313664,1,0,0:0:0:0:
448,192,313814,1,0,0:0:0:0:
64,192,313814,1,0,0:0:0:0:
320,192,313814,1,0,0:0:0:0:
192,192,313889,1,0,0:0:0:0:
448,192,313964,1,0,0:0:0:0:
320,192,313964,1,0,0:0:0:0:
64,192,314114,1,0,0:0:0:0:
192,192,314114,1,0,0:0:0:0:
448,192,314114,1,0,0:0:0:0:
320,192,314189,1,0,0:0:0:0:
192,192,314264,1,0,0:0:0:0:
320,192,314339,1,0,0:0:0:0:
448,192,314414,1,0,0:0:0:0:
64,192,314414,1,0,0:0:0:0:
192,192,314414,1,0,0:0:0:0:
64,192,314564,1,0,0:0:0:0:
320,192,314639,1,0,0:0:0:0:
192,192,314714,1,0,0:0:0:0:
448,192,314714,1,0,0:0:0:0:
64,192,314714,1,0,0:0:0:0:
320,192,314789,1,0,0:0:0:0:
64,192,314864,1,0,0:0:0:0:
192,192,314864,1,0,0:0:0:0:
448,192,314939,1,0,0:0:0:0:
64,192,315014,1,0,0:0:0:0:
192,192,315014,1,0,0:0:0:0:
320,192,315089,1,0,0:0:0:0:
448,192,315164,1,0,0:0:0:0:
64,192,315239,1,0,0:0:0:0:
320,192,315314,1,0,0:0:0:0:
192,192,315314,1,0,0:0:0:0:
448,192,315389,1,0,0:0:0:0:
192,192,315464,1,0,0:0:0:0:
320,192,315539,1,0,0:0:0:0:
64,192,315614,1,0,0:0:0:0:
192,192,315614,1,0,0:0:0:0:
448,192,315614,1,0,0:0:0:0:
320,192,315689,1,0,0:0:0:0:
64,192,315764,1,0,0:0:0:0:
192,192,315839,1,0,0:0:0:0:
448,192,315914,1,0,0:0:0:0:
320,192,315914,1,0,0:0:0:0:
192,192,315989,1,0,0:0:0:0:
64,192,316064,1,0,0:0:0:0:
320,192,316064,1,0,0:0:0:0:
448,192,316139,1,0,0:0:0:0:
64,192,316214,1,0,0:0:0:0:
320,192,316214,1,0,0:0:0:0:
192,192,316289,1,0,0:0:0:0:
448,192,316364,1,0,0:0:0:0:
320,192,316414,1,0,0:0:0:0:
64,192,316464,1,0,0:0:0:0:
192,192,316514,1,0,0:0:0:0:
448,192,316564,1,0,0:0:0:0:
320,192,316614,1,0,0:0:0:0:
64,192,316664,1,0,0:0:0:0:
192,192,316714,1,0,0:0:0:0:
320,192,316764,1,0,0:0:0:0:
64,192,316814,1,0,0:0:0:0:
448,192,316814,1,0,0:0:0:0:
192,192,316964,1,0,0:0:0:0:
448,192,316964,1,0,0:0:0:0:
320,192,317114,1,0,0:0:0:0:
192,192,317114,1,0,0:0:0:0:
64,192,317114,1,0,0:0:0:0:
448,192,317264,1,0,0:0:0:0:
320,192,317264,1,0,0:0:0:0:
64,192,317339,1,0,0:0:0:0:
192,192,317414,1,0,0:0:0:0:
448,192,317414,1,0,0:0:0:0:
320,192,317489,1,0,0:0:0:0:
192,192,317564,1,0,0:0:0:0:
64,192,317564,1,0,0:0:0:0:
448,192,317639,1,0,0:0:0:0:
320,192,317714,1,0,0:0:0:0:
64,192,317714,1,0,0:0:0:0:
192,192,317714,1,0,0:0:0:0:
320,192,317864,1,0,0:0:0:0:
448,192,317864,1,0,0:0:0:0:
192,192,318014,1,0,0:0:0:0:
64,192,318014,1,0,0:0:0:0:
448,192,318014,1,0,0:0:0:0:
192,192,318164,1,0,0:0:0:0:
320,192,318164,1,0,0:0:0:0:
320,192,318314,1,0,0:0:0:0:
448,192,318314,1,0,0:0:0:0:
64,192,318314,1,0,0:0:0:0:
64,192,318464,1,0,0:0:0:0:
192,192,318464,1,0,0:0:0:0:
448,192,318539,1,0,0:0:0:0:
64,192,318614,1,0,0:0:0:0:
320,192,318614,1,0,0:0:0:0:
192,192,318689,1,0,0:0:0:0:
320,192,318764,1,0,0:0:0:0:
448,192,318764,1,0,0:0:0:0:
64,192,318839,1,0,0:0:0:0:
192,192,318914,1,0,0:0:0:0:
320,192,318914,1,0,0:0:0:0:
448,192,318914,1,0,0:0:0:0:
192,192,319064,1,0,0:0:0:0:
448,192,319064,1,0,0:0:0:0:
320,192,319214,1,0,0:0:0:0:
64,192,319214,1,0,0:0:0:0:
448,192,319214,1,0,0:0:0:0:
320,192,319364,1,0,0:0:0:0:
192,192,319364,1,0,0:0:0:0:
64,192,319514,1,0,0:0:0:0:
448,192,319514,1,0,0:0:0:0:
192,192,319514,1,0,0:0:0:0:
320,192,319664,1,0,0:0:0:0:
448,192,319664,1,0,0:0:0:0:
64,192,319739,1,0,0:0:0:0:
192,192,319814,1,0,0:0:0:0:
448,192,319814,1,0,0:0:0:0:
320,192,319889,1,0,0:0:0:0:
192,192,319964,1,0,0:0:0:0:
64,192,319964,1,0,0:0:0:0:
448,192,320039,1,0,0:0:0:0:
320,192,320114,1,0,0:0:0:0:
192,192,320114,1,0,0:0:0:0:
64,192,320114,1,0,0:0:0:0:
192,192,320264,1,0,0:0:0:0:
448,192,320264,1,0,0:0:0:0:
320,192,320414,1,0,0:0:0:0:
192,192,320414,1,0,0:0:0:0:
64,192,320564,1,0,0:0:0:0:
192,192,320564,1,0,0:0:0:0:
320,192,320714,1,0,0:0:0:0:
448,192,320714,1,0,0:0:0:0:
64,192,320714,1,0,0:0:0:0:
192,192,320864,1,0,0:0:0:0:
448,192,320864,1,0,0:0:0:0:
320,192,320939,1,0,0:0:0:0:
64,192,321014,1,0,0:0:0:0:
192,192,321014,1,0,0:0:0:0:
320,192,321089,1,0,0:0:0:0:
64,192,321164,1,0,0:0:0:0:
192,192,321164,1,0,0:0:0:0:
448,192,321214,1,0,0:0:0:0:
320,192,321264,1,0,0:0:0:0:
64,192,321314,1,0,0:0:0:0:
192,192,321364,5,0,0:0:0:0:
448,192,321414,1,0,0:0:0:0:
64,192,321464,1,0,0:0:0:0:
320,192,321514,1,0,0:0:0:0:
192,192,321564,1,0,0:0:0:0:
64,192,321614,1,0,0:0:0:0:
448,192,321614,1,0,0:0:0:0:
320,192,321689,1,0,0:0:0:0:
192,192,321764,1,0,0:0:0:0:
64,192,321764,1,0,0:0:0:0:
448,192,321839,1,0,0:0:0:0:
320,192,321914,1,0,0:0:0:0:
64,192,321914,1,0,0:0:0:0:
192,192,321914,1,0,0:0:0:0:
448,192,322064,1,0,0:0:0:0:
320,192,322064,1,0,0:0:0:0:
64,192,322214,1,0,0:0:0:0:
448,192,322214,1,0,0:0:0:0:
192,192,322214,1,0,0:0:0:0:
320,192,322289,1,0,0:0:0:0:
64,192,322364,1,0,0:0:0:0:
192,192,322439,1,0,0:0:0:0:
320,192,322514,5,0,0:0:0:0:
448,192,322514,1,0,0:0:0:0:
64,192,322514,1,0,0:0:0:0:
320,192,322664,1,0,0:0:0:0:
448,192,322664,1,0,0:0:0:0:
192,192,322814,1,0,0:0:0:0:
448,192,322814,1,0,0:0:0:0:
64,192,322814,1,0,0:0:0:0:
192,192,322964,1,0,0:0:0:0:
64,192,322964,1,0,0:0:0:0:
320,192,323114,1,0,0:0:0:0:
192,192,323114,1,0,0:0:0:0:
448,192,323114,1,0,0:0:0:0:
320,192,323264,1,0,0:0:0:0:
448,192,323264,1,0,0:0:0:0:
64,192,323339,1,0,0:0:0:0:
192,192,323414,1,0,0:0:0:0:
320,192,323414,1,0,0:0:0:0:
448,192,323414,1,0,0:0:0:0:
64,192,323489,1,0,0:0:0:0:
320,192,323564,1,0,0:0:0:0:
192,192,323639,1,0,0:0:0:0:
320,192,323714,1,0,0:0:0:0:
64,192,323714,1,0,0:0:0:0:
448,192,323714,1,0,0:0:0:0:
192,192,323864,1,0,0:0:0:0:
320,192,323939,1,0,0:0:0:0:
64,192,324014,1,0,0:0:0:0:
448,192,324014,1,0,0:0:0:0:
192,192,324014,1,0,0:0:0:0:
320,192,324164,1,0,0:0:0:0:
448,192,324164,1,0,0:0:0:0:
64,192,324314,1,0,0:0:0:0:
448,192,324314,1,0,0:0:0:0:
320,192,324314,1,0,0:0:0:0:
192,192,324464,1,0,0:0:0:0:
320,192,324539,1,0,0:0:0:0:
64,192,324614,1,0,0:0:0:0:
192,192,324614,1,0,0:0:0:0:
448,192,324614,1,0,0:0:0:0:
320,192,324764,1,0,0:0:0:0:
64,192,324839,1,0,0:0:0:0:
192,192,324914,1,0,0:0:0:0:
320,192,324914,1,0,0:0:0:0:
448,192,325064,1,0,0:0:0:0:
64,192,325064,1,0,0:0:0:0:
320,192,325139,1,0,0:0:0:0:
192,192,325214,1,0,0:0:0:0:
64,192,325214,1,0,0:0:0:0:
320,192,325289,1,0,0:0:0:0:
192,192,325364,1,0,0:0:0:0:
64,192,325364,1,0,0:0:0:0:
320,192,325439,1,0,0:0:0:0:
192,192,325514,1,0,0:0:0:0:
64,192,325514,1,0,0:0:0:0:
448,192,325589,1,0,0:0:0:0:
64,192,325664,1,0,0:0:0:0:
320,192,325664,1,0,0:0:0:0:
192,192,325739,1,0,0:0:0:0:
320,192,325814,1,0,0:0:0:0:
448,192,325814,1,0,0:0:0:0:
64,192,325889,1,0,0:0:0:0:
192,192,325964,1,0,0:0:0:0:
448,192,325964,1,0,0:0:0:0:
320,192,326039,1,0,0:0:0:0:
192,192,326114,1,0,0:0:0:0:
64,192,326114,1,0,0:0:0:0:
320,192,326164,1,0,0:0:0:0:
448,192,326214,1,0,0:0:0:0:
64,192,326264,1,0,0:0:0:0:
320,192,326314,1,0,0:0:0:0:
192,192,326364,1,0,0:0:0:0:
448,192,326414,1,0,0:0:0:0:
64,192,326414,1,0,0:0:0:0:
320,192,326489,1,0,0:0:0:0:
192,192,326564,1,0,0:0:0:0:
64,192,326564,1,0,0:0:0:0:
448,192,326639,1,0,0:0:0:0:
64,192,326714,1,0,0:0:0:0:
320,192,326714,1,0,0:0:0:0:
192,192,326789,1,0,0:0:0:0:
320,192,326864,1,0,0:0:0:0:
448,192,326864,1,0,0:0:0:0:
64,192,326939,1,0,0:0:0:0:
448,192,327014,1,0,0:0:0:0:
192,192,327014,1,0,0:0:0:0:
320,192,327089,1,0,0:0:0:0:
192,192,327164,1,0,0:0:0:0:
64,192,327164,1,0,0:0:0:0:
448,192,327239,1,0,0:0:0:0:
320,192,327314,1,0,0:0:0:0:
64,192,327314,1,0,0:0:0:0:
192,192,327389,1,0,0:0:0:0:
320,192,327464,1,0,0:0:0:0:
448,192,327464,1,0,0:0:0:0:
64,192,327539,1,0,0:0:0:0:
192,192,327614,1,0,0:0:0:0:
448,192,327614,1,0,0:0:0:0:
320,192,327689,1,0,0:0:0:0:
192,192,327764,1,0,0:0:0:0:
64,192,327764,1,0,0:0:0:0:
320,192,327839,1,0,0:0:0:0:
192,192,327914,1,0,0:0:0:0:
64,192,327914,1,0,0:0:0:0:
448,192,327989,1,0,0:0:0:0:
192,192,328064,1,0,0:0:0:0:
64,192,328064,1,0,0:0:0:0:
320,192,328139,1,0,0:0:0:0:
64,192,328214,1,0,0:0:0:0:
192,192,328214,1,0,0:0:0:0:
320,192,328289,1,0,0:0:0:0:
448,192,328364,1,0,0:0:0:0:
64,192,328364,1,0,0:0:0:0:
192,192,328439,1,0,0:0:0:0:
320,192,328514,1,0,0:0:0:0:
448,192,328514,1,0,0:0:0:0:
64,192,328589,1,0,0:0:0:0:
192,192,328664,1,0,0:0:0:0:
448,192,328664,1,0,0:0:0:0:
320,192,328739,1,0,0:0:0:0:
192,192,328814,1,0,0:0:0:0:
64,192,328814,1,0,0:0:0:0:
448,192,328889,1,0,0:0:0:0:
320,192,328964,1,0,0:0:0:0:
64,192,328964,1,0,0:0:0:0:
192,192,329039,1,0,0:0:0:0:
320,192,329114,1,0,0:0:0:0:
448,192,329114,1,0,0:0:0:0:
64,192,329189,1,0,0:0:0:0:
192,192,329264,1,0,0:0:0:0:
448,192,329264,1,0,0:0:0:0:
320,192,329339,1,0,0:0:0:0:
192,192,329414,1,0,0:0:0:0:
64,192,329414,1,0,0:0:0:0:
448,192,329489,1,0,0:0:0:0:
320,192,329564,1,0,0:0:0:0:
64,192,329564,1,0,0:0:0:0:
192,192,329639,1,0,0:0:0:0:
320,192,329714,1,0,0:0:0:0:
448,192,329714,1,0,0:0:0:0:
192,192,329789,1,0,0:0:0:0:
320,192,329864,1,0,0:0:0:0:
448,192,329864,1,0,0:0:0:0:
192,192,329939,1,0,0:0:0:0:
448,192,330014,1,0,0:0:0:0:
320,192,330014,1,0,0:0:0:0:
64,192,330089,1,0,0:0:0:0:
448,192,330164,1,0,0:0:0:0:
192,192,330164,1,0,0:0:0:0:
320,192,330239,1,0,0:0:0:0:
192,192,330314,1,0,0:0:0:0:
64,192,330314,1,0,0:0:0:0:
320,192,330389,1,0,0:0:0:0:
192,192,330464,1,0,0:0:0:0:
64,192,330464,1,0,0:0:0:0:
448,192,330539,1,0,0:0:0:0:
64,192,330614,1,0,0:0:0:0:
320,192,330614,1,0,0:0:0:0:
192,192,330689,1,0,0:0:0:0:
320,192,330764,1,0,0:0:0:0:
448,192,330764,1,0,0:0:0:0:
64,192,330814,1,0,0:0:0:0:
192,192,330864,1,0,0:0:0:0:
448,192,330914,1,0,0:0:0:0:
320,192,330964,1,0,0:0:0:0:
64,192,331014,1,0,0:0:0:0:
192,192,331064,1,0,0:0:0:0:
320,192,331114,1,0,0:0:0:0:
448,192,331164,1,0,0:0:0:0:
64,192,331214,1,0,0:0:0:0:
192,192,331214,1,0,0:0:0:0:
192,192,331364,1,0,0:0:0:0:
448,192,331364,1,0,0:0:0:0:
320,192,331514,1,0,0:0:0:0:
192,192,331514,1,0,0:0:0:0:
64,192,331514,1,0,0:0:0:0:
448,192,331664,1,0,0:0:0:0:
320,192,331664,1,0,0:0:0:0:
64,192,331814,1,0,0:0:0:0:
192,192,331814,1,0,0:0:0:0:
448,192,331814,1,0,0:0:0:0:
320,192,331964,1,0,0:0:0:0:
192,192,331964,1,0,0:0:0:0:
64,192,332114,1,0,0:0:0:0:
192,192,332114,1,0,0:0:0:0:
448,192,332114,1,0,0:0:0:0:
320,192,332189,1,0,0:0:0:0:
64,192,332264,1,0,0:0:0:0:
192,192,332264,1,0,0:0:0:0:
320,192,332339,1,0,0:0:0:0:
448,192,332414,1,0,0:0:0:0:
64,192,332414,1,0,0:0:0:0:
192,192,332414,1,0,0:0:0:0:
448,192,332564,1,0,0:0:0:0:
192,192,332564,1,0,0:0:0:0:
320,192,332714,1,0,0:0:0:0:
192,192,332714,1,0,0:0:0:0:
64,192,332789,1,0,0:0:0:0:
320,192,332864,1,0,0:0:0:0:
192,192,332939,1,0,0:0:0:0:
64,192,333014,1,0,0:0:0:0:
448,192,333014,1,0,0:0:0:0:
320,192,333089,1,0,0:0:0:0:
192,192,333164,1,0,0:0:0:0:
64,192,333164,1,0,0:0:0:0:
320,192,333239,1,0,0:0:0:0:
448,192,333314,1,0,0:0:0:0:
192,192,333314,1,0,0:0:0:0:
192,192,333464,1,0,0:0:0:0:
448,192,333464,1,0,0:0:0:0:
320,192,333614,1,0,0:0:0:0:
192,192,333614,1,0,0:0:0:0:
64,192,333614,1,0,0:0:0:0:
448,192,333689,1,0,0:0:0:0:
64,192,333764,1,0,0:0:0:0:
320,192,333839,1,0,0:0:0:0:
192,192,333914,1,0,0:0:0:0:
64,192,333914,1,0,0:0:0:0:
448,192,334064,1,0,0:0:0:0:
192,192,334139,1,0,0:0:0:0:
320,192,334214,1,0,0:0:0:0:
448,192,334214,1,0,0:0:0:0:
64,192,334364,1,0,0:0:0:0:
320,192,334364,1,0,0:0:0:0:
192,192,334514,1,0,0:0:0:0:
448,192,334514,1,0,0:0:0:0:
320,192,334664,1,0,0:0:0:0:
192,192,334814,1,0,0:0:0:0:
64,192,334814,1,0,0:0:0:0:
448,192,334889,1,0,0:0:0:0:
320,192,334964,1,0,0:0:0:0:
192,192,335039,1,0,0:0:0:0:
320,192,335114,1,0,0:0:0:0:
448,192,335114,1,0,0:0:0:0:
192,192,335264,1,0,0:0:0:0:
64,192,335264,128,0,335414:0:0:0:0:
192,192,335414,1,0,0:0:0:0:
320,192,335414,1,0,0:0:0:0:
448,192,335414,128,0,335564:0:0:0:0:
64,192,335564,1,0,0:0:0:0:
320,192,335614,1,0,0:0:0:0:
192,192,335664,1,0,0:0:0:0:
448,192,335714,1,0,0:0:0:0:
64,192,335764,1,0,0:0:0:0:
192,192,335814,1,0,0:0:0:0:
448,192,335864,1,0,0:0:0:0:
320,192,335914,1,0,0:0:0:0:
64,192,335964,1,0,0:0:0:0:
192,192,336014,1,0,0:0:0:0:
448,192,336014,1,0,0:0:0:0:
320,192,336164,1,0,0:0:0:0:
64,192,336164,1,0,0:0:0:0:
64,192,336314,1,0,0:0:0:0:
192,192,336314,1,0,0:0:0:0:
320,192,336314,1,0,0:0:0:0:
192,192,336464,1,0,0:0:0:0:
448,192,336464,1,0,0:0:0:0:
64,192,336614,1,0,0:0:0:0:
320,192,336614,1,0,0:0:0:0:
448,192,336614,1,0,0:0:0:0:
192,192,336764,1,0,0:0:0:0:
64,192,336764,1,0,0:0:0:0:
64,192,336914,1,0,0:0:0:0:
192,192,336914,1,0,0:0:0:0:
320,192,336914,1,0,0:0:0:0:
448,192,337064,1,0,0:0:0:0:
320,192,337064,1,0,0:0:0:0:
64,192,337214,1,0,0:0:0:0:
192,192,337214,1,0,0:0:0:0:
448,192,337214,1,0,0:0:0:0:
192,192,337364,1,0,0:0:0:0:
320,192,337364,1,0,0:0:0:0:
64,192,337514,1,0,0:0:0:0:
192,192,337514,1,0,0:0:0:0:
448,192,337514,1,0,0:0:0:0:
320,192,337664,1,0,0:0:0:0:
448,192,337664,1,0,0:0:0:0:
320,192,337814,1,0,0:0:0:0:
192,192,337814,1,0,0:0:0:0:
64,192,337964,1,0,0:0:0:0:
192,192,337964,1,0,0:0:0:0:
192,192,338114,1,0,0:0:0:0:
320,192,338114,1,0,0:0:0:0:
448,192,338114,1,0,0:0:0:0:
320,192,338264,1,0,0:0:0:0:
448,192,338264,1,0,0:0:0:0:
64,192,338264,1,0,0:0:0:0:
192,192,338414,1,0,0:0:0:0:
320,192,338414,1,0,0:0:0:0:
64,192,338414,1,0,0:0:0:0:
192,192,338564,1,0,0:0:0:0:
448,192,338564,1,0,0:0:0:0:
64,192,338714,1,0,0:0:0:0:
192,192,338714,1,0,0:0:0:0:
320,192,338714,1,0,0:0:0:0:
64,192,338864,1,0,0:0:0:0:
320,192,338864,1,0,0:0:0:0:
192,192,339014,1,0,0:0:0:0:
448,192,339014,1,0,0:0:0:0:
320,192,339014,1,0,0:0:0:0:
192,192,339164,1,0,0:0:0:0:
64,192,339164,1,0,0:0:0:0:
64,192,339314,1,0,0:0:0:0:
192,192,339314,1,0,0:0:0:0:
448,192,339314,1,0,0:0:0:0:
320,192,339464,1,0,0:0:0:0:
448,192,339464,1,0,0:0:0:0:
64,192,339614,1,0,0:0:0:0:
192,192,339614,1,0,0:0:0:0:
320,192,339614,1,0,0:0:0:0:
192,192,339764,1,0,0:0:0:0:
448,192,339764,1,0,0:0:0:0:
320,192,339914,1,0,0:0:0:0:
64,192,339914,1,0,0:0:0:0:
448,192,339914,1,0,0:0:0:0:
192,192,340064,1,0,0:0:0:0:
64,192,340064,1,0,0:0:0:0:
192,192,340214,1,0,0:0:0:0:
320,192,340214,1,0,0:0:0:0:
320,192,340364,1,0,0:0:0:0:
448,192,340364,1,0,0:0:0:0:
192,192,340514,1,0,0:0:0:0:
64,192,340514,1,0,0:0:0:0:
448,192,340514,1,0,0:0:0:0:
320,192,340664,1,0,0:0:0:0:
192,192,340664,1,0,0:0:0:0:
64,192,340664,1,0,0:0:0:0:
320,192,340814,1,0,0:0:0:0:
448,192,340814,1,0,0:0:0:0:
64,192,340814,1,0,0:0:0:0:
192,192,340964,1,0,0:0:0:0:
448,192,340964,1,0,0:0:0:0:
320,192,341114,1,0,0:0:0:0:
192,192,341114,1,0,0:0:0:0:
64,192,341114,1,0,0:0:0:0:
192,192,341264,1,0,0:0:0:0:
320,192,341264,1,0,0:0:0:0:
64,192,341414,1,0,0:0:0:0:
320,192,341414,1,0,0:0:0:0:
448,192,341414,1,0,0:0:0:0:
64,192,341564,1,0,0:0:0:0:
320,192,341564,1,0,0:0:0:0:
192,192,341714,1,0,0:0:0:0:
320,192,341714,1,0,0:0:0:0:
448,192,341714,1,0,0:0:0:0:
320,192,341864,1,0,0:0:0:0:
448,192,341864,1,0,0:0:0:0:
192,192,342014,1,0,0:0:0:0:
64,192,342014,1,0,0:0:0:0:
448,192,342014,1,0,0:0:0:0:
320,192,342164,1,0,0:0:0:0:
64,192,342164,1,0,0:0:0:0:
192,192,342314,1,0,0:0:0:0:
320,192,342314,1,0,0:0:0:0:
448,192,342314,1,0,0:0:0:0:
64,192,342464,1,0,0:0:0:0:
320,192,342464,1,0,0:0:0:0:
192,192,342614,1,0,0:0:0:0:
448,192,342614,1,0,0:0:0:0:
320,192,342764,1,0,0:0:0:0:
64,192,342764,1,0,0:0:0:0:
192,192,342914,1,0,0:0:0:0:
448,192,342914,1,0,0:0:0:0:
320,192,342914,1,0,0:0:0:0:
64,192,343064,1,0,0:0:0:0:
320,192,343064,1,0,0:0:0:0:
448,192,343064,1,0,0:0:0:0:
448,192,343214,1,0,0:0:0:0:
192,192,343214,1,0,0:0:0:0:
64,192,343214,1,0,0:0:0:0:
192,192,343364,1,0,0:0:0:0:
320,192,343364,1,0,0:0:0:0:
192,192,343514,1,0,0:0:0:0:
64,192,343514,1,0,0:0:0:0:
448,192,343514,1,0,0:0:0:0:
320,192,343664,1,0,0:0:0:0:
448,192,343664,1,0,0:0:0:0:
64,192,343814,1,0,0:0:0:0:
192,192,343814,1,0,0:0:0:0:
320,192,343814,1,0,0:0:0:0:
448,192,343964,1,0,0:0:0:0:
192,192,343964,1,0,0:0:0:0:
448,192,344114,1,0,0:0:0:0:
64,192,344114,1,0,0:0:0:0:
320,192,344114,1,0,0:0:0:0:
64,192,344264,1,0,0:0:0:0:
192,192,344264,1,0,0:0:0:0:
192,192,344414,1,0,0:0:0:0:
448,192,344414,1,0,0:0:0:0:
320,192,344414,1,0,0:0:0:0:
192,192,344564,1,0,0:0:0:0:
448,192,344564,1,0,0:0:0:0:
320,192,344714,1,0,0:0:0:0:
192,192,344714,1,0,0:0:0:0:
64,192,344714,1,0,0:0:0:0:
448,192,344864,1,0,0:0:0:0:
64,192,344864,1,0,0:0:0:0:
192,192,345014,1,0,0:0:0:0:
320,192,345014,1,0,0:0:0:0:
64,192,345164,1,0,0:0:0:0:
448,192,345164,1,0,0:0:0:0:
320,192,345314,1,0,0:0:0:0:
448,192,345314,1,0,0:0:0:0:
192,192,345314,1,0,0:0:0:0:
64,192,345464,1,0,0:0:0:0:
320,192,345464,1,0,0:0:0:0:
448,192,345464,1,0,0:0:0:0:
320,192,345614,1,0,0:0:0:0:
448,192,345614,1,0,0:0:0:0:
64,192,345689,1,0,0:0:0:0:
448,192,345764,1,0,0:0:0:0:
192,192,345764,1,0,0:0:0:0:
320,192,345839,1,0,0:0:0:0:
192,192,345914,1,0,0:0:0:0:
64,192,345914,1,0,0:0:0:0:
448,192,345914,1,0,0:0:0:0:
320,192,345989,1,0,0:0:0:0:
64,192,346064,1,0,0:0:0:0:
192,192,346064,1,0,0:0:0:0:
448,192,346139,1,0,0:0:0:0:
64,192,346214,1,0,0:0:0:0:
320,192,346214,1,0,0:0:0:0:
192,192,346289,1,0,0:0:0:0:
320,192,346364,1,0,0:0:0:0:
448,192,346364,1,0,0:0:0:0:
64,192,346439,1,0,0:0:0:0:
192,192,346514,1,0,0:0:0:0:
448,192,346514,1,0,0:0:0:0:
320,192,346514,1,0,0:0:0:0:
64,192,346589,1,0,0:0:0:0:
192,192,346664,1,0,0:0:0:0:
448,192,346664,1,0,0:0:0:0:
320,192,346739,1,0,0:0:0:0:
192,192,346814,1,0,0:0:0:0:
64,192,346814,1,0,0:0:0:0:
320,192,346889,1,0,0:0:0:0:
64,192,346964,1,0,0:0:0:0:
448,192,346964,1,0,0:0:0:0:
192,192,347039,1,0,0:0:0:0:
320,192,347114,1,0,0:0:0:0:
448,192,347114,1,0,0:0:0:0:
64,192,347114,1,0,0:0:0:0:
192,192,347189,1,0,0:0:0:0:
448,192,347264,1,0,0:0:0:0:
320,192,347264,1,0,0:0:0:0:
64,192,347339,1,0,0:0:0:0:
192,192,347414,1,0,0:0:0:0:
448,192,347414,1,0,0:0:0:0:
320,192,347489,1,0,0:0:0:0:
64,192,347564,1,0,0:0:0:0:
448,192,347564,1,0,0:0:0:0:
320,192,347639,1,0,0:0:0:0:
448,192,347714,1,0,0:0:0:0:
192,192,347714,1,0,0:0:0:0:
64,192,347714,1,0,0:0:0:0:
320,192,347789,1,0,0:0:0:0:
192,192,347864,1,0,0:0:0:0:
64,192,347864,1,0,0:0:0:0:
448,192,347939,1,0,0:0:0:0:
192,192,348014,1,0,0:0:0:0:
64,192,348014,1,0,0:0:0:0:
320,192,348089,1,0,0:0:0:0:
192,192,348164,1,0,0:0:0:0:
448,192,348164,1,0,0:0:0:0:
64,192,348239,1,0,0:0:0:0:
320,192,348314,1,0,0:0:0:0:
192,192,348314,1,0,0:0:0:0:
448,192,348314,1,0,0:0:0:0:
64,192,348389,1,0,0:0:0:0:
192,192,348464,1,0,0:0:0:0:
320,192,348464,1,0,0:0:0:0:
448,192,348539,1,0,0:0:0:0:
64,192,348614,1,0,0:0:0:0:
320,192,348614,1,0,0:0:0:0:
192,192,348689,1,0,0:0:0:0:
64,192,348764,1,0,0:0:0:0:
448,192,348764,1,0,0:0:0:0:
192,192,348839,1,0,0:0:0:0:
448,192,348914,1,0,0:0:0:0:
64,192,348914,1,0,0:0:0:0:
320,192,348914,1,0,0:0:0:0:
192,192,348989,1,0,0:0:0:0:
64,192,349064,1,0,0:0:0:0:
320,192,349064,1,0,0:0:0:0:
192,192,349139,1,0,0:0:0:0:
448,192,349214,1,0,0:0:0:0:
320,192,349214,1,0,0:0:0:0:
64,192,349289,1,0,0:0:0:0:
192,192,349364,1,0,0:0:0:0:
448,192,349364,1,0,0:0:0:0:
320,192,349439,1,0,0:0:0:0:
192,192,349514,1,0,0:0:0:0:
448,192,349514,1,0,0:0:0:0:
64,192,349589,1,0,0:0:0:0:
320,192,349664,1,0,0:0:0:0:
192,192,349664,1,0,0:0:0:0:
448,192,349739,1,0,0:0:0:0:
64,192,349814,1,0,0:0:0:0:
320,192,349814,1,0,0:0:0:0:
192,192,349889,1,0,0:0:0:0:
320,192,349964,1,0,0:0:0:0:
448,192,349964,1,0,0:0:0:0:
192,192,350014,1,0,0:0:0:0:
64,192,350064,1,0,0:0:0:0:
448,192,350114,1,0,0:0:0:0:
192,192,350164,1,0,0:0:0:0:
320,192,350214,1,0,0:0:0:0:
64,192,350264,1,0,0:0:0:0:
192,192,350314,1,0,0:0:0:0:
320,192,350364,1,0,0:0:0:0:
448,192,350414,1,0,0:0:0:0:
64,192,350414,1,0,0:0:0:0:
192,192,350489,1,0,0:0:0:0:
448,192,350564,1,0,0:0:0:0:
320,192,350564,1,0,0:0:0:0:
64,192,350639,1,0,0:0:0:0:
192,192,350714,1,0,0:0:0:0:
448,192,350714,1,0,0:0:0:0:
320,192,350714,1,0,0:0:0:0:
64,192,350789,1,0,0:0:0:0:
192,192,350864,1,0,0:0:0:0:
448,192,350864,1,0,0:0:0:0:
64,192,350939,1,0,0:0:0:0:
320,192,351014,1,0,0:0:0:0:
448,192,351014,1,0,0:0:0:0:
192,192,351089,1,0,0:0:0:0:
64,192,351164,1,0,0:0:0:0:
448,192,351164,1,0,0:0:0:0:
192,192,351239,1,0,0:0:0:0:
64,192,351314,1,0,0:0:0:0:
320,192,351314,1,0,0:0:0:0:
448,192,351314,1,0,0:0:0:0:
192,192,351389,1,0,0:0:0:0:
320,192,351464,1,0,0:0:0:0:
448,192,351464,1,0,0:0:0:0:
64,192,351539,1,0,0:0:0:0:
192,192,351614,1,0,0:0:0:0:
448,192,351614,1,0,0:0:0:0:
320,192,351689,1,0,0:0:0:0:
64,192,351764,1,0,0:0:0:0:
448,192,351764,1,0,0:0:0:0:
192,192,351839,1,0,0:0:0:0:
320,192,351914,1,0,0:0:0:0:
64,192,351914,1,0,0:0:0:0:
448,192,351914,1,0,0:0:0:0:
192,192,351989,1,0,0:0:0:0:
64,192,352064,1,0,0:0:0:0:
320,192,352064,1,0,0:0:0:0:
448,192,352139,1,0,0:0:0:0:
192,192,352214,1,0,0:0:0:0:
64,192,352214,1,0,0:0:0:0:
320,192,352289,1,0,0:0:0:0:
64,192,352364,1,0,0:0:0:0:
448,192,352364,1,0,0:0:0:0:
192,192,352439,1,0,0:0:0:0:
448,192,352514,1,0,0:0:0:0:
64,192,352514,1,0,0:0:0:0:
320,192,352514,1,0,0:0:0:0:
192,192,352589,1,0,0:0:0:0:
448,192,352664,1,0,0:0:0:0:
64,192,352664,1,0,0:0:0:0:
320,192,352739,1,0,0:0:0:0:
192,192,352814,1,0,0:0:0:0:
64,192,352814,1,0,0:0:0:0:
448,192,352814,1,0,0:0:0:0:
320,192,352889,1,0,0:0:0:0:
64,192,352964,1,0,0:0:0:0:
448,192,352964,1,0,0:0:0:0:
192,192,353039,1,0,0:0:0:0:
320,192,353114,1,0,0:0:0:0:
448,192,353114,1,0,0:0:0:0:
64,192,353114,1,0,0:0:0:0:
192,192,353189,1,0,0:0:0:0:
448,192,353264,1,0,0:0:0:0:
320,192,353264,1,0,0:0:0:0:
192,192,353339,1,0,0:0:0:0:
448,192,353414,1,0,0:0:0:0:
64,192,353414,1,0,0:0:0:0:
320,192,353489,1,0,0:0:0:0:
64,192,353564,1,0,0:0:0:0:
192,192,353564,1,0,0:0:0:0:
448,192,353639,1,0,0:0:0:0:
192,192,353714,1,0,0:0:0:0:
320,192,353714,1,0,0:0:0:0:
64,192,353714,1,0,0:0:0:0:
448,192,353789,1,0,0:0:0:0:
320,192,353864,1,0,0:0:0:0:
64,192,353864,1,0,0:0:0:0:
192,192,353939,1,0,0:0:0:0:
320,192,354014,1,0,0:0:0:0:
64,192,354014,1,0,0:0:0:0:
448,192,354089,1,0,0:0:0:0:
64,192,354164,1,0,0:0:0:0:
320,192,354164,1,0,0:0:0:0:
192,192,354239,1,0,0:0:0:0:
64,192,354314,1,0,0:0:0:0:
448,192,354314,1,0,0:0:0:0:
320,192,354314,1,0,0:0:0:0:
192,192,354389,1,0,0:0:0:0:
320,192,354464,1,0,0:0:0:0:
448,192,354464,1,0,0:0:0:0:
192,192,354539,1,0,0:0:0:0:
64,192,354614,1,0,0:0:0:0:
320,192,354614,1,0,0:0:0:0:
192,192,354689,1,0,0:0:0:0:
320,192,354764,1,0,0:0:0:0:
448,192,354764,1,0,0:0:0:0:
64,192,354814,1,0,0:0:0:0:
192,192,354864,1,0,0:0:0:0:
448,192,354914,1,0,0:0:0:0:
320,192,354964,1,0,0:0:0:0:
64,192,355014,1,0,0:0:0:0:
192,192,355064,1,0,0:0:0:0:
448,192,355064,1,0,0:0:0:0:
64,192,355214,1,0,0:0:0:0:
448,192,355214,1,0,0:0:0:0:
320,192,355289,1,0,0:0:0:0:
192,192,355364,1,0,0:0:0:0:
64,192,355364,1,0,0:0:0:0:
320,192,355439,1,0,0:0:0:0:
192,192,355514,1,0,0:0:0:0:
448,192,355514,1,0,0:0:0:0:
64,192,355514,1,0,0:0:0:0:
320,192,355589,1,0,0:0:0:0:
192,192,355664,1,0,0:0:0:0:
448,192,355664,1,0,0:0:0:0:
64,192,355739,1,0,0:0:0:0:
320,192,355814,1,0,0:0:0:0:
448,192,355814,1,0,0:0:0:0:
192,192,355889,1,0,0:0:0:0:
320,192,355964,1,0,0:0:0:0:
448,192,355964,1,0,0:0:0:0:
64,192,356039,1,0,0:0:0:0:
192,192,356114,1,0,0:0:0:0:
448,192,356114,1,0,0:0:0:0:
320,192,356114,1,0,0:0:0:0:
64,192,356189,1,0,0:0:0:0:
192,192,356264,1,0,0:0:0:0:
320,192,356264,1,0,0:0:0:0:
448,192,356339,1,0,0:0:0:0:
320,192,356414,1,0,0:0:0:0:
192,192,356414,1,0,0:0:0:0:
64,192,356414,1,0,0:0:0:0:
192,192,356714,1,0,0:0:0:0:
320,192,356714,1,0,0:0:0:0:
448,192,356714,1,0,0:0:0:0:
64,192,357014,1,0,0:0:0:0:
320,192,357014,1,0,0:0:0:0:
192,192,357014,1,0,0:0:0:0:
448,192,357164,1,0,0:0:0:0:
192,192,357164,1,0,0:0:0:0:
64,192,357164,1,0,0:0:0:0:
64,192,357314,1,0,0:0:0:0:
448,192,357314,1,0,0:0:0:0:
320,192,357314,1,0,0:0:0:0:
448,192,357464,1,0,0:0:0:0:
320,192,357464,1,0,0:0:0:0:
192,192,357464,1,0,0:0:0:0:
64,192,357614,1,0,0:0:0:0:
448,192,357614,1,0,0:0:0:0:
192,192,357614,1,0,0:0:0:0:
320,192,357764,1,0,0:0:0:0:
448,192,357764,1,0,0:0:0:0:
320,192,357914,1,0,0:0:0:0:
192,192,357914,1,0,0:0:0:0:
64,192,357914,1,0,0:0:0:0:
448,192,357989,1,0,0:0:0:0:
64,192,358064,1,0,0:0:0:0:
320,192,358064,1,0,0:0:0:0:
192,192,358139,1,0,0:0:0:0:
64,192,358214,1,0,0:0:0:0:
448,192,358214,1,0,0:0:0:0:
192,192,358289,1,0,0:0:0:0:
320,192,358364,1,0,0:0:0:0:
448,192,358364,1,0,0:0:0:0:
64,192,358439,1,0,0:0:0:0:
192,192,358514,1,0,0:0:0:0:
448,192,358514,1,0,0:0:0:0:
320,192,358514,1,0,0:0:0:0:
64,192,358589,1,0,0:0:0:0:
448,192,358664,1,0,0:0:0:0:
320,192,358664,1,0,0:0:0:0:
192,192,358739,1,0,0:0:0:0:
64,192,358814,1,0,0:0:0:0:
448,192,358814,1,0,0:0:0:0:
320,192,358889,1,0,0:0:0:0:
192,192,358964,1,0,0:0:0:0:
64,192,358964,1,0,0:0:0:0:
448,192,359039,1,0,0:0:0:0:
320,192,359114,1,0,0:0:0:0:
64,192,359114,1,0,0:0:0:0:
192,192,359114,1,0,0:0:0:0:
448,192,359189,1,0,0:0:0:0:
64,192,359264,1,0,0:0:0:0:
320,192,359264,1,0,0:0:0:0:
192,192,359339,1,0,0:0:0:0:
320,192,359414,1,0,0:0:0:0:
448,192,359414,1,0,0:0:0:0:
64,192,359489,1,0,0:0:0:0:
192,192,359564,1,0,0:0:0:0:
448,192,359564,1,0,0:0:0:0:
320,192,359639,1,0,0:0:0:0:
192,192,359714,1,0,0:0:0:0:
64,192,359714,1,0,0:0:0:0:
448,192,359714,1,0,0:0:0:0:
320,192,359789,1,0,0:0:0:0:
192,192,359864,1,0,0:0:0:0:
64,192,359864,1,0,0:0:0:0:
320,192,359939,1,0,0:0:0:0:
64,192,360014,1,0,0:0:0:0:
448,192,360014,1,0,0:0:0:0:
192,192,360014,1,0,0:0:0:0:
320,192,360089,1,0,0:0:0:0:
192,192,360164,1,0,0:0:0:0:
448,192,360164,1,0,0:0:0:0:
64,192,360239,1,0,0:0:0:0:
320,192,360314,1,0,0:0:0:0:
448,192,360314,1,0,0:0:0:0:
192,192,360314,1,0,0:0:0:0:
64,192,360389,1,0,0:0:0:0:
448,192,360464,1,0,0:0:0:0:
192,192,360464,1,0,0:0:0:0:
320,192,360539,1,0,0:0:0:0:
64,192,360614,1,0,0:0:0:0:
448,192,360614,1,0,0:0:0:0:
192,192,360689,1,0,0:0:0:0:
448,192,360764,1,0,0:0:0:0:
64,192,360764,1,0,0:0:0:0:
320,192,360839,1,0,0:0:0:0:
192,192,360914,1,0,0:0:0:0:
448,192,360914,1,0,0:0:0:0:
64,192,360914,1,0,0:0:0:0:
320,192,360989,1,0,0:0:0:0:
448,192,361064,1,0,0:0:0:0:
64,192,361064,1,0,0:0:0:0:
192,192,361139,1,0,0:0:0:0:
320,192,361214,1,0,0:0:0:0:
448,192,361214,1,0,0:0:0:0:
192,192,361289,1,0,0:0:0:0:
64,192,361364,1,0,0:0:0:0:
448,192,361364,1,0,0:0:0:0:
192,192,361439,1,0,0:0:0:0:
64,192,361514,1,0,0:0:0:0:
320,192,361514,1,0,0:0:0:0:
448,192,361514,1,0,0:0:0:0:
192,192,361589,1,0,0:0:0:0:
448,192,361664,1,0,0:0:0:0:
320,192,361664,1,0,0:0:0:0:
64,192,361739,1,0,0:0:0:0:
192,192,361814,1,0,0:0:0:0:
448,192,361814,1,0,0:0:0:0:
320,192,361889,1,0,0:0:0:0:
448,192,361964,1,0,0:0:0:0:
64,192,361964,1,0,0:0:0:0:
192,192,362039,1,0,0:0:0:0:
64,192,362114,1,0,0:0:0:0:
448,192,362114,1,0,0:0:0:0:
320,192,362114,1,0,0:0:0:0:
192,192,362189,1,0,0:0:0:0:
448,192,362264,1,0,0:0:0:0:
320,192,362339,1,0,0:0:0:0:
192,192,362414,1,0,0:0:0:0:
64,192,362414,1,0,0:0:0:0:
448,192,362489,1,0,0:0:0:0:
64,192,362564,1,0,0:0:0:0:
320,192,362564,1,0,0:0:0:0:
192,192,362639,1,0,0:0:0:0:
320,192,362714,1,0,0:0:0:0:
448,192,362714,1,0,0:0:0:0:
64,192,362714,1,0,0:0:0:0:
192,192,362789,1,0,0:0:0:0:
448,192,362864,1,0,0:0:0:0:
320,192,362864,1,0,0:0:0:0:
192,192,362939,1,0,0:0:0:0:
448,192,363014,1,0,0:0:0:0:
64,192,363014,1,0,0:0:0:0:
320,192,363089,1,0,0:0:0:0:
192,192,363164,1,0,0:0:0:0:
64,192,363164,1,0,0:0:0:0:
448,192,363239,1,0,0:0:0:0:
64,192,363314,1,0,0:0:0:0:
192,192,363314,1,0,0:0:0:0:
320,192,363314,1,0,0:0:0:0:
448,192,363389,1,0,0:0:0:0:
64,192,363464,1,0,0:0:0:0:
320,192,363464,1,0,0:0:0:0:
192,192,363539,1,0,0:0:0:0:
64,192,363614,1,0,0:0:0:0:
448,192,363614,1,0,0:0:0:0:
320,192,363689,1,0,0:0:0:0:
192,192,363764,1,0,0:0:0:0:
64,192,363764,1,0,0:0:0:0:
448,192,363839,1,0,0:0:0:0:
320,192,363914,1,0,0:0:0:0:
64,192,363914,1,0,0:0:0:0:
192,192,363914,1,0,0:0:0:0:
448,192,363989,1,0,0:0:0:0:
192,192,364064,1,0,0:0:0:0:
64,192,364064,1,0,0:0:0:0:
320,192,364139,1,0,0:0:0:0:
192,192,364214,1,0,0:0:0:0:
448,192,364214,1,0,0:0:0:0:
320,192,364289,1,0,0:0:0:0:
64,192,364364,1,0,0:0:0:0:
448,192,364364,1,0,0:0:0:0:
192,192,364414,1,0,0:0:0:0:
320,192,364464,1,0,0:0:0:0:
64,192,364514,1,0,0:0:0:0:
448,192,364564,1,0,0:0:0:0:
320,192,364614,1,0,0:0:0:0:
192,192,364664,1,0,0:0:0:0:
448,192,364714,1,0,0:0:0:0:
320,192,364764,1,0,0:0:0:0:
192,192,364814,1,0,0:0:0:0:
64,192,364814,1,0,0:0:0:0:
448,192,364889,1,0,0:0:0:0:
320,192,364964,1,0,0:0:0:0:
64,192,364964,1,0,0:0:0:0:
192,192,365039,1,0,0:0:0:0:
320,192,365114,1,0,0:0:0:0:
448,192,365114,1,0,0:0:0:0:
64,192,365114,1,0,0:0:0:0:
192,192,365189,1,0,0:0:0:0:
448,192,365264,1,0,0:0:0:0:
64,192,365264,1,0,0:0:0:0:
320,192,365339,1,0,0:0:0:0:
192,192,365414,1,0,0:0:0:0:
64,192,365414,1,0,0:0:0:0:
448,192,365489,1,0,0:0:0:0:
320,192,365564,1,0,0:0:0:0:
64,192,365564,1,0,0:0:0:0:
192,192,365639,1,0,0:0:0:0:
320,192,365714,1,0,0:0:0:0:
448,192,365714,1,0,0:0:0:0:
64,192,365714,1,0,0:0:0:0:
192,192,365789,1,0,0:0:0:0:
448,192,365864,1,0,0:0:0:0:
64,192,365864,1,0,0:0:0:0:
320,192,365939,1,0,0:0:0:0:
192,192,366014,1,0,0:0:0:0:
64,192,366014,1,0,0:0:0:0:
448,192,366089,1,0,0:0:0:0:
320,192,366164,1,0,0:0:0:0:
64,192,366164,1,0,0:0:0:0:
192,192,366239,1,0,0:0:0:0:
320,192,366314,1,0,0:0:0:0:
448,192,366314,1,0,0:0:0:0:
64,192,366314,1,0,0:0:0:0:
192,192,366389,1,0,0:0:0:0:
320,192,366464,1,0,0:0:0:0:
448,192,366464,1,0,0:0:0:0:
64,192,366539,1,0,0:0:0:0:
192,192,366614,1,0,0:0:0:0:
448,192,366614,1,0,0:0:0:0:
320,192,366689,1,0,0:0:0:0:
64,192,366764,1,0,0:0:0:0:
448,192,366764,1,0,0:0:0:0:
320,192,366839,1,0,0:0:0:0:
192,192,366914,1,0,0:0:0:0:
64,192,366914,1,0,0:0:0:0:
448,192,366914,1,0,0:0:0:0:
320,192,366989,1,0,0:0:0:0:
192,192,367064,1,0,0:0:0:0:
448,192,367064,1,0,0:0:0:0:
64,192,367139,1,0,0:0:0:0:
192,192,367214,1,0,0:0:0:0:
448,192,367214,1,0,0:0:0:0:
320,192,367289,1,0,0:0:0:0:
64,192,367364,1,0,0:0:0:0:
192,192,367364,1,0,0:0:0:0:
448,192,367439,1,0,0:0:0:0:
320,192,367514,1,0,0:0:0:0:
64,192,367514,1,0,0:0:0:0:
192,192,367514,1,0,0:0:0:0:
448,192,367589,1,0,0:0:0:0:
64,192,367664,1,0,0:0:0:0:
320,192,367664,1,0,0:0:0:0:
192,192,367739,1,0,0:0:0:0:
320,192,367814,1,0,0:0:0:0:
448,192,367814,1,0,0:0:0:0:
64,192,367889,1,0,0:0:0:0:
192,192,367964,1,0,0:0:0:0:
448,192,367964,1,0,0:0:0:0:
320,192,368039,1,0,0:0:0:0:
64,192,368114,1,0,0:0:0:0:
448,192,368114,1,0,0:0:0:0:
192,192,368114,1,0,0:0:0:0:
320,192,368189,1,0,0:0:0:0:
192,192,368264,1,0,0:0:0:0:
64,192,368264,1,0,0:0:0:0:
448,192,368339,1,0,0:0:0:0:
320,192,368414,1,0,0:0:0:0:
64,192,368414,1,0,0:0:0:0:
192,192,368489,5,0,0:0:0:0:
320,192,368564,1,0,0:0:0:0:
64,192,368564,1,0,0:0:0:0:
448,192,368639,1,0,0:0:0:0:
192,192,368714,1,0,0:0:0:0:
320,192,368714,1,0,0:0:0:0:
64,192,368789,1,0,0:0:0:0:
448,192,368864,1,0,0:0:0:0:
192,192,368864,1,0,0:0:0:0:
320,192,368939,1,0,0:0:0:0:
192,192,369014,1,0,0:0:0:0:
64,192,369014,1,0,0:0:0:0:
448,192,369089,1,0,0:0:0:0:
64,192,369164,1,0,0:0:0:0:
192,192,369164,1,0,0:0:0:0:
320,192,369214,1,0,0:0:0:0:
448,192,369264,1,0,0:0:0:0:
64,192,369314,1,0,0:0:0:0:
320,192,369364,1,0,0:0:0:0:
192,192,369414,1,0,0:0:0:0:
448,192,369464,1,0,0:0:0:0:
320,192,369514,1,0,0:0:0:0:
192,192,369564,1,0,0:0:0:0:
448,192,369614,1,0,0:0:0:0:
64,192,369614,1,0,0:0:0:0:
320,192,369764,1,0,0:0:0:0:
448,192,369764,1,0,0:0:0:0:
192,192,369914,1,0,0:0:0:0:
320,192,369914,1,0,0:0:0:0:
448,192,369914,1,0,0:0:0:0:
320,192,370064,1,0,0:0:0:0:
64,192,370064,1,0,0:0:0:0:
448,192,370139,1,0,0:0:0:0:
192,192,370214,1,0,0:0:0:0:
64,192,370214,1,0,0:0:0:0:
320,192,370289,1,0,0:0:0:0:
448,192,370289,1,0,0:0:0:0:
192,192,370364,1,0,0:0:0:0:
64,192,370364,1,0,0:0:0:0:
64,192,370514,1,0,0:0:0:0:
192,192,370514,1,0,0:0:0:0:
448,192,370514,1,0,0:0:0:0:
320,192,370664,1,0,0:0:0:0:
192,192,370664,1,0,0:0:0:0:
64,192,370814,1,0,0:0:0:0:
192,192,370814,1,0,0:0:0:0:
192,192,370964,1,0,0:0:0:0:
320,192,370964,1,0,0:0:0:0:
320,192,371114,1,0,0:0:0:0:
448,192,371114,1,0,0:0:0:0:
64,192,371114,1,0,0:0:0:0:
320,192,371264,1,0,0:0:0:0:
64,192,371264,1,0,0:0:0:0:
192,192,371339,1,0,0:0:0:0:
448,192,371414,1,0,0:0:0:0:
320,192,371414,1,0,0:0:0:0:
192,192,371489,1,0,0:0:0:0:
64,192,371489,1,0,0:0:0:0:
320,192,371564,1,0,0:0:0:0:
448,192,371564,1,0,0:0:0:0:
320,192,371714,1,0,0:0:0:0:
64,192,371714,1,0,0:0:0:0:
192,192,371714,1,0,0:0:0:0:
64,192,371864,1,0,0:0:0:0:
448,192,371864,1,0,0:0:0:0:
192,192,372014,1,0,0:0:0:0:
320,192,372014,1,0,0:0:0:0:
64,192,372014,1,0,0:0:0:0:
192,192,372164,1,0,0:0:0:0:
448,192,372164,1,0,0:0:0:0:
448,192,372314,1,0,0:0:0:0:
64,192,372314,1,0,0:0:0:0:
320,192,372314,1,0,0:0:0:0:
320,192,372464,1,0,0:0:0:0:
448,192,372464,1,0,0:0:0:0:
192,192,372539,1,0,0:0:0:0:
448,192,372614,1,0,0:0:0:0:
64,192,372614,1,0,0:0:0:0:
320,192,372689,1,0,0:0:0:0:
192,192,372689,1,0,0:0:0:0:
64,192,372764,1,0,0:0:0:0:
448,192,372764,1,0,0:0:0:0:
192,192,372914,1,0,0:0:0:0:
320,192,372914,1,0,0:0:0:0:
64,192,372914,1,0,0:0:0:0:
192,192,373064,1,0,0:0:0:0:
448,192,373064,1,0,0:0:0:0:
320,192,373214,1,0,0:0:0:0:
448,192,373214,1,0,0:0:0:0:
64,192,373289,1,0,0:0:0:0:
320,192,373364,1,0,0:0:0:0:
448,192,373364,1,0,0:0:0:0:
192,192,373439,1,0,0:0:0:0:
320,192,373514,1,0,0:0:0:0:
448,192,373514,1,0,0:0:0:0:
64,192,373514,1,0,0:0:0:0:
64,192,373664,1,0,0:0:0:0:
192,192,373664,1,0,0:0:0:0:
320,192,373814,1,0,0:0:0:0:
448,192,373814,1,0,0:0:0:0:
64,192,373814,1,0,0:0:0:0:
448,192,373964,1,0,0:0:0:0:
320,192,373964,1,0,0:0:0:0:
192,192,374014,1,0,0:0:0:0:
64,192,374064,1,0,0:0:0:0:
448,192,374114,1,0,0:0:0:0:
320,192,374164,1,0,0:0:0:0:
192,192,374214,1,0,0:0:0:0:
64,192,374264,1,0,0:0:0:0:
448,192,374314,1,0,0:0:0:0:
320,192,374364,1,0,0:0:0:0:
192,192,374414,1,0,0:0:0:0:
64,192,374414,1,0,0:0:0:0:
64,192,374564,1,0,0:0:0:0:
192,192,374564,1,0,0:0:0:0:
64,192,374714,1,0,0:0:0:0:
192,192,374714,1,0,0:0:0:0:
448,192,374714,1,0,0:0:0:0:
320,192,374864,1,0,0:0:0:0:
448,192,374864,1,0,0:0:0:0:
192,192,375014,1,0,0:0:0:0:
320,192,375014,1,0,0:0:0:0:
448,192,375014,1,0,0:0:0:0:
64,192,375014,1,0,0:0:0:0:
192,192,375164,1,0,0:0:0:0:
320,192,375164,1,0,0:0:0:0:
192,192,375314,1,0,0:0:0:0:
64,192,375314,1,0,0:0:0:0:
448,192,375314,1,0,0:0:0:0:
320,192,375314,1,0,0:0:0:0:
64,192,375464,1,0,0:0:0:0:
192,192,375464,1,0,0:0:0:0:
64,192,375614,1,0,0:0:0:0:
320,192,375614,1,0,0:0:0:0:
448,192,375614,1,0,0:0:0:0:
192,192,375764,1,0,0:0:0:0:
320,192,375764,1,0,0:0:0:0:
448,192,375914,1,0,0:0:0:0:
64,192,375914,1,0,0:0:0:0:
192,192,375914,1,0,0:0:0:0:
320,192,376064,1,0,0:0:0:0:
448,192,376064,1,0,0:0:0:0:
448,192,376214,1,0,0:0:0:0:
320,192,376214,1,0,0:0:0:0:
192,192,376214,1,0,0:0:0:0:
64,192,376214,1,0,0:0:0:0:
192,192,376364,1,0,0:0:0:0:
320,192,376364,1,0,0:0:0:0:
64,192,376514,1,0,0:0:0:0:
192,192,376514,1,0,0:0:0:0:
320,192,376514,1,0,0:0:0:0:
448,192,376514,1,0,0:0:0:0:
64,192,376664,1,0,0:0:0:0:
192,192,376664,1,0,0:0:0:0:
192,192,376814,1,0,0:0:0:0:
64,192,376814,1,0,0:0:0:0:
448,192,376814,1,0,0:0:0:0:
192,192,376964,1,0,0:0:0:0:
320,192,376964,1,0,0:0:0:0:
448,192,377114,1,0,0:0:0:0:
64,192,377114,1,0,0:0:0:0:
320,192,377114,1,0,0:0:0:0:
320,192,377264,1,0,0:0:0:0:
448,192,377264,1,0,0:0:0:0:
448,192,377414,1,0,0:0:0:0:
320,192,377414,1,0,0:0:0:0:
192,192,377414,1,0,0:0:0:0:
64,192,377414,1,0,0:0:0:0:
192,192,377564,1,0,0:0:0:0:
320,192,377564,1,0,0:0:0:0:
64,192,377714,1,0,0:0:0:0:
192,192,377714,1,0,0:0:0:0:
320,192,377714,1,0,0:0:0:0:
448,192,377714,1,0,0:0:0:0:
64,192,377864,1,0,0:0:0:0:
192,192,377864,1,0,0:0:0:0:
448,192,378014,1,0,0:0:0:0:
320,192,378014,1,0,0:0:0:0:
192,192,378014,1,0,0:0:0:0:
320,192,378164,1,0,0:0:0:0:
448,192,378164,1,0,0:0:0:0:
64,192,378314,1,0,0:0:0:0:
320,192,378314,1,0,0:0:0:0:
192,192,378314,1,0,0:0:0:0:
64,192,378464,1,0,0:0:0:0:
192,192,378464,1,0,0:0:0:0:
64,192,378614,1,0,0:0:0:0:
192,192,378614,1,0,0:0:0:0:
320,192,378614,1,0,0:0:0:0:
448,192,378614,1,0,0:0:0:0:
64,192,378764,1,0,0:0:0:0:
448,192,378764,1,0,0:0:0:0:
448,192,378914,1,0,0:0:0:0:
320,192,378914,1,0,0:0:0:0:
192,192,378914,1,0,0:0:0:0:
64,192,378914,1,0,0:0:0:0:
192,192,379064,1,0,0:0:0:0:
320,192,379064,1,0,0:0:0:0:
64,192,379214,1,0,0:0:0:0:
448,192,379214,1,0,0:0:0:0:
320,192,379214,1,0,0:0:0:0:
192,192,379364,1,0,0:0:0:0:
448,192,379364,1,0,0:0:0:0:
64,192,379514,1,0,0:0:0:0:
320,192,379514,1,0,0:0:0:0:
448,192,379514,1,0,0:0:0:0:
320,192,379664,1,0,0:0:0:0:
192,192,379664,1,0,0:0:0:0:
64,192,379814,1,0,0:0:0:0:
192,192,379814,1,0,0:0:0:0:
320,192,379814,1,0,0:0:0:0:
448,192,379814,1,0,0:0:0:0:
64,192,379964,1,0,0:0:0:0:
192,192,379964,1,0,0:0:0:0:
64,192,380114,1,0,0:0:0:0:
192,192,380114,1,0,0:0:0:0:
320,192,380114,1,0,0:0:0:0:
448,192,380114,1,0,0:0:0:0:
448,192,380264,1,0,0:0:0:0:
320,192,380264,1,0,0:0:0:0:
64,192,380414,1,0,0:0:0:0:
192,192,380414,1,0,0:0:0:0:
448,192,380414,1,0,0:0:0:0:
64,192,380564,1,0,0:0:0:0:
320,192,380564,1,0,0:0:0:0:
64,192,380714,1,0,0:0:0:0:
320,192,380714,1,0,0:0:0:0:
448,192,380714,1,0,0:0:0:0:
192,192,380864,1,0,0:0:0:0:
448,192,380864,1,0,0:0:0:0:
448,192,381014,1,0,0:0:0:0:
320,192,381014,1,0,0:0:0:0:
192,192,381014,1,0,0:0:0:0:
64,192,381014,1,0,0:0:0:0:
192,192,381164,1,0,0:0:0:0:
320,192,381164,1,0,0:0:0:0:
448,192,381164,1,0,0:0:0:0:
320,192,381314,1,0,0:0:0:0:
448,192,381314,1,0,0:0:0:0:
64,192,381314,1,0,0:0:0:0:
448,192,381464,1,0,0:0:0:0:
192,192,381464,1,0,0:0:0:0:
192,192,381614,1,0,0:0:0:0:
320,192,381614,1,0,0:0:0:0:
64,192,381614,128,0,383714:0:0:0:0:
448,192,382326,128,0,382401:0:0:0:0:
320,192,382739,128,0,382926:0:0:0:0:
448,192,383114,128,0,383189:0:0:0:0:
192,192,383976,1,0,0:0:0:0:
448,192,384014,128,0,385214:0:0:0:0:
