osu file format v14

[General]
AudioFilename: audio.mp3
AudioLeadIn: 0
PreviewTime: 239712
Countdown: 0
SampleSet: Normal
StackLeniency: 0.7
Mode: 1
LetterboxInBreaks: 0
WidescreenStoryboard: 0

[Editor]
Bookmarks: 220587
DistanceSpacing: 4.4
BeatDivisor: 6
GridSize: 32
TimelineZoom: 2.6

[Metadata]
Title:REGGAETON BUT IT HAS AMEN BREAKS
TitleUnicode:REGGAETON BUT IT HAS AMEN BREAKS
Artist:ulko
ArtistUnicode:ulko
Creator:D3kuu
Version:TATSUJIN
Source:
Tags:spanish english electronic ulqui breakcore latin Tito El Bambino El Patron Siente El Boom Kanye West Lil Pump Adele Givens I Love It Aventura Solo por un beso Ricky Martin Tu Recuerdo La Factoria Perdoname Eddy Lover Plan B Candy Calle 13 Atrevete Don Omar El seƱor de la noche Daddy Yankee El Ritmo No Perdona axer
BeatmapID:2120869
BeatmapSetID:1013247

[Difficulty]
HPDrainRate:4
CircleSize:5
OverallDifficulty:7
ApproachRate:5
SliderMultiplier:1.4
SliderTickRate:1

[Events]
//Background and Video events
0,0,"61879076_p0.jpg",0,90
//Break Periods
//Storyboard Layer 0 (Background)
//Storyboard Layer 1 (Fail)
//Storyboard Layer 2 (Pass)
//Storyboard Layer 3 (Foreground)
//Storyboard Layer 4 (Overlay)
//Storyboard Sound Samples

[TimingPoints]
12,300,4,1,0,20,1,0
12,-200,4,1,0,20,0,0
312,-195.807372539191,4,1,0,21,0,0
762,-189.83761290592,4,1,0,22,0,0
912,-187.927888310697,4,1,0,23,0,0
1212,-184.221434163865,4,1,0,24,0,0
1512,-180.658028804116,4,1,0,25,0,0
1962,-175.564571771675,4,1,0,26,0,0
2112,-173.929982746146,4,1,0,27,0,0
2412,-170.750156663269,4,1,0,28,0,0
2712,-167.684792833823,4,1,0,29,0,0
3162,-163.287699864145,4,1,0,30,0,0
3312,-161.872541560775,4,1,0,31,0,0
3612,-159.115065650876,4,1,0,32,0,0
3762,-157.771260071723,4,1,0,33,0,0
3912,-156.449962608459,4,1,0,34,0,0
4062,-155.150612457043,4,1,0,35,0,0
4362,-152.615369588641,4,1,0,36,0,0
4512,-151.378681340307,4,1,0,37,0,0
4812,-148.964473462724,4,1,0,38,0,0
5112,-146.626061022834,4,1,0,39,0,0
5412,-144.359721327994,4,1,0,40,0,0
5562,-143.252725024962,4,1,0,40,0,0
5712,-142.162577123198,4,1,0,41,0,0
5862,-141.088895880628,4,1,0,42,0,0
6012,-140.03131100114,4,1,0,43,0,0
6162,-138.989270028354,4,1,0,44,0,0
6312,-137.962813503248,4,1,0,45,0,0
6462,-136.951406901803,4,1,0,46,0,0
6537,-136.451337359557,4,1,0,47,0,0
6762,-134.972438628032,4,1,0,48,0,0
6912,-134.00424793466,4,1,0,49,0,0
7062,-133.049671433836,4,1,0,50,0,0
7212,-132.108773079403,4,1,0,51,0,0
7362,-131.181088934219,4,1,0,52,0,0
7512,-130.266342564006,4,1,0,53,0,0
7662,-129.364265191569,4,1,0,54,0,0
7737,-128.917812316292,4,1,0,55,0,0
7812,-128.474595433499,4,1,0,56,0,0
7962,-127.597079047666,4,1,0,57,0,0
8112,-126.731308082543,4,1,0,58,0,0
8262,-125.877365235693,4,1,0,59,0,0
8412,-125,4,1,0,50,0,0
8712,-117.682917500744,4,1,0,50,0,0
8862,-114.336545046884,4,1,0,64,0,0
9012,-111.175098556725,4,1,0,65,0,0
9049,-110.411958056705,4,1,0,65,0,0
9162,-108.183895312608,4,1,0,65,0,0
9199,-107.461018515533,4,1,0,65,0,0
9312,-105.349322551181,4,1,0,65,0,0
9349,-104.663819810768,4,1,0,65,0,0
9462,-102.659602317233,4,1,0,65,0,0
9499,-102.008444259016,4,1,0,65,0,0
9612,-100.103707440909,4,1,0,70,0,0
27387,-102.564102564103,4,1,0,70,0,0
27612,-105.263157894737,4,1,0,70,0,0
27687,-106.055897821506,4,1,0,70,0,0
27762,-106.860554456673,4,1,0,70,0,0
27837,-107.677630402994,4,1,0,70,0,0
27912,-108.507179920095,4,1,0,70,0,0
28062,-110.205467072811,4,1,0,70,0,0
28137,-111.074579915939,4,1,0,70,0,0
28212,-111.957635230829,4,1,0,70,0,0
28287,-112.854716480739,4,1,0,70,0,0
28362,-113.766419338471,4,1,0,70,0,0
28512,-115.634608513251,4,1,0,70,0,0
28562,-117.647058823529,4,1,0,70,0,0
28612,-119.047619047619,4,1,0,70,0,0
28662,-120.481927710843,4,1,0,70,0,0
28812,-125,4,1,0,60,0,0
31212,-125,4,1,0,60,0,0
31362,-124.033469191327,4,1,0,60,0,0
31512,-123.081770605119,4,1,0,60,0,0
31662,-122.144714614982,4,1,0,60,0,0
31737,-121.681442849877,4,1,0,60,0,0
31812,-121.221672010522,4,1,0,60,0,0
31887,-120.765362561771,4,1,0,60,0,0
31962,-120.312475561528,4,1,0,60,0,0
32037,-119.862972649667,4,1,0,60,0,0
32112,-119.416816037201,4,1,0,60,0,0
32262,-118.534533851092,4,1,0,60,0,0
32337,-118.09819392432,4,1,0,60,0,0
32412,-117.665054655418,4,1,0,60,0,0
32562,-116.808238251427,4,1,0,60,0,0
32712,-115.963810014171,4,1,0,60,0,0
32862,-115.131635755741,4,1,0,60,0,0
32937,-114.719945668634,4,1,0,60,0,0
33012,-114.31118935077,4,1,0,60,0,0
33087,-113.905335553728,4,1,0,60,0,0
33162,-113.502353471299,4,1,0,60,0,0
33312,-112.704883389892,4,1,0,60,0,0
33462,-111.918666466705,4,1,0,60,0,0
33537,-111.529594935664,4,1,0,60,0,0
33612,-111.111111111111,4,1,0,60,0,0
33912,-110.321332946473,4,1,0,60,0,0
33949,-110.223444967638,4,1,0,60,0,0
34062,-109.930699686917,4,1,0,60,0,0
34099,-109.833382758356,4,1,0,60,0,0
34212,-109.542703031923,4,1,0,60,0,0
34362,-109.157554739785,4,1,0,60,0,0
34512,-108.774986974195,4,1,0,60,0,0
34662,-108.395208931765,4,1,0,60,0,0
34812,-108.017956905156,4,1,0,60,0,0
34999,-107.519135718179,4,1,0,60,0,0
35112,-107.271391256309,4,1,0,60,0,0
35299,-106.779425740248,4,1,0,60,0,0
35412,-106.535074542592,4,1,0,60,0,0
35712,-105.808797155013,4,1,0,60,0,0
35899,-105.330125679906,4,1,0,60,0,0
36012,-105.092355161716,4,1,0,60,0,0
36162,-104.73781506444,4,1,0,60,0,0
36237,-104.561385898433,4,1,0,60,0,0
36312,-104.385550117068,4,1,0,60,0,0
36462,-104.035755008281,4,1,0,60,0,0
36612,-103.688188878405,4,1,0,60,0,0
36762,-103.343044134714,4,1,0,60,0,0
36837,-103.171278766732,4,1,0,60,0,0
36912,-103.000189520349,4,1,0,60,0,0
37062,-102.659496927401,4,1,0,60,0,0
37212,-102.321155410487,4,1,0,60,0,0
37362,-101.984932746036,4,1,0,60,0,0
37512,-101.651015798601,4,1,0,60,0,0
37662,-101.319175667187,4,1,0,60,0,0
37812,-100.989597061607,4,1,0,60,0,0
37962,-100.662054331337,4,1,0,60,0,0
38037,-100.499078423451,4,1,0,60,0,0
38112,-100.336730066102,4,1,0,60,0,0
38262,-100.013401795841,4,1,0,60,0,0
38862,-111.111111111111,4,1,0,60,0,0
39012,-108.715149999728,4,1,0,60,0,0
39162,-106.420452308206,4,1,0,60,0,0
39312,-104.220513932198,4,1,0,60,0,0
39462,-102.109688269333,4,1,0,60,0,0
39537,-101.086068722353,4,1,0,60,0,0
39612,300,4,1,0,70,1,0
39612,-100.082668284003,4,1,0,70,0,0
61212,-86.9565217391304,4,1,0,80,0,1
61249,-87.3105470267703,4,1,0,80,0,1
61362,-88.3902109609165,4,1,0,80,0,1
61399,-88.7560309723046,4,1,0,80,0,1
61512,-89.8719683938262,4,1,0,80,0,1
61549,-90.2501825309942,4,1,0,80,0,1
61662,-91.4042526742599,4,1,0,80,0,1
61699,-91.795501653237,4,1,0,80,0,1
61812,-92.9896065516757,4,1,0,80,0,1
61849,-93.3946624950384,4,1,0,80,0,1
61962,-94.6310147472973,4,1,0,80,0,1
61999,-95.0504385151981,4,1,0,80,0,1
62112,-96.3314108794769,4,1,0,80,0,1
62149,-96.7660776838072,4,1,0,80,0,1
62262,-98.0940329399763,4,1,0,80,0,0
62299,-98.5447890993696,4,1,0,80,0,0
62862,-111.111111111111,4,1,0,70,0,0
63012,-108.715149999728,4,1,0,70,0,0
63162,-106.420452308206,4,1,0,70,0,0
63312,-104.220513932198,4,1,0,70,0,0
63462,-102.109688269333,4,1,0,70,0,0
63537,-101.086068722353,4,1,0,70,0,0
63612,-100.082668284003,4,1,0,70,0,0
68412,-100,4,1,0,70,0,0
68712,-97.5733507664387,4,1,0,70,0,0
69012,-95.261593097726,4,1,0,70,0,0
69162,-94.1463561594312,4,1,0,70,0,0
69312,-93.0569294377221,4,1,0,70,0,0
69387,-92.5215737179517,4,1,0,70,0,0
69462,-91.9923425574055,4,1,0,70,0,0
69537,-91.4692151209589,4,1,0,70,0,0
69612,300,4,1,0,70,1,0
69612,-90.9519209955233,4,1,0,70,0,0
78462,-111.111111111111,4,1,0,60,0,0
79212,-90.9519209955233,4,1,0,70,0,0
98412,-83.3333333333333,4,1,0,70,0,0
98712,-85.6973666056216,4,1,0,70,0,0
98862,-86.9304426063485,4,1,0,70,0,0
99162,-89.5062032274147,4,1,0,70,0,0
99312,-90.8521018633766,4,1,0,70,0,0
99612,-83.3333333333333,4,1,0,70,0,0
99762,-85.0969679950303,4,1,0,70,0,0
99912,-86.936942027839,4,1,0,70,0,0
100062,-88.8581637105037,4,1,0,70,0,0
100212,-90.8663011418259,4,1,0,70,0,0
100287,-91.9047535895699,4,1,0,70,0,0
100362,-92.9672160409353,4,1,0,70,0,0
100437,-94.0546193985771,4,1,0,70,0,0
100512,-95.1676711614358,4,1,0,70,0,0
100562,-95.9244575711735,4,1,0,70,0,0
100612,-96.6933766003962,4,1,0,70,0,0
100662,-97.474722367622,4,1,0,70,0,0
100712,-98.2687985754955,4,1,0,70,0,0
100762,-99.0760170648532,4,1,0,70,0,0
100812,300,4,1,0,70,1,0
100812,-99.8965072185216,4,1,0,70,0,0
110412,-83.2614509473488,4,1,0,70,0,0
111612,300,4,1,0,40,1,0
111612,-133.333333333333,4,1,0,40,0,0
111762,-132.530727249113,4,1,0,40,0,0
111837,-132.133036826799,4,1,0,41,0,0
111912,-131.737725996069,4,1,0,41,0,0
112062,-130.954158187385,4,1,0,41,0,0
112137,-130.565859377958,4,1,0,42,0,0
112287,-129.796129219834,4,1,0,42,0,0
112362,-129.414657504109,4,1,0,42,0,0
112437,-129.03542151356,4,1,0,43,0,0
112512,-128.658401650945,4,1,0,43,0,0
112662,-127.910933059092,4,1,0,44,0,0
112812,-127.172099458756,4,1,0,44,0,0
112887,-126.805874155314,4,1,0,44,0,0
112962,-126.44175207807,4,1,0,45,0,0
113037,-126.079715160708,4,1,0,45,0,0
113112,-125.719745543235,4,1,0,45,0,0
113187,-125.361825569049,4,1,0,46,0,0
113262,-125.005937782045,4,1,0,46,0,0
113337,-124.652064923781,4,1,0,46,0,0
113412,-124.30018993069,4,1,0,47,0,0
113487,-123.950295931332,4,1,0,47,0,0
113562,-123.602366243699,4,1,0,48,0,0
113712,-122.912334006893,4,1,0,48,0,0
114012,-121.555127681506,4,1,0,48,0,0
114087,-121.220496446421,4,1,0,49,0,0
114162,-120.887702577568,4,1,0,49,0,0
114237,-120.556730983683,4,1,0,49,0,0
114312,-120.227566738322,4,1,0,50,0,0
114462,-119.574601398066,4,1,0,50,0,0
114612,-118.928690357262,4,1,0,50,0,0
114687,-118.608344571474,4,1,0,51,0,0
114762,-118.289719913601,4,1,0,51,0,0
114837,-117.9728025501,4,1,0,51,0,0
114912,-117.657578795281,4,1,0,52,0,0
115062,-117.032158096402,4,1,0,52,0,0
115137,-116.721934502654,4,1,0,52,0,0
115212,-116.413351214424,4,1,0,53,0,0
115287,-116.106395256357,4,1,0,53,0,0
115362,-115.801053789589,4,1,0,54,0,0
115437,-115.49731410996,4,1,0,54,0,0
115512,-115.195163646249,4,1,0,54,0,0
115662,-114.595580736024,4,1,0,55,0,0
115737,-114.298123796298,4,1,0,55,0,0
115812,-114.002207082729,4,1,0,55,0,0
115962,-113.414946729,4,1,0,56,0,0
116037,-113.123579592054,4,1,0,56,0,0
116112,-112.833705684562,4,1,0,56,0,0
116187,-112.545313556871,4,1,0,57,0,0
116262,-112.258391876085,4,1,0,57,0,0
116412,-111.688915098554,4,1,0,58,0,0
116487,-111.406337906563,4,1,0,58,0,0
116562,-111.125186968127,4,1,0,58,0,0
116637,-110.84545151232,4,1,0,59,0,0
116712,-110.567120876399,4,1,0,59,0,0
116787,-110.29018450445,4,1,0,59,0,0
116862,-110.014631946049,4,1,0,60,0,0
116937,-109.740452854953,4,1,0,60,0,0
117012,-109.467636987801,4,1,0,60,0,0
117087,-109.196174202841,4,1,0,61,0,0
117162,-108.925935809946,4,1,0,61,0,0
117237,-108.657149749111,4,1,0,61,0,0
117312,-108.389686938067,4,1,0,62,0,0
117462,-107.858692170214,4,1,0,62,0,0
117537,-107.595141003432,4,1,0,62,0,0
117612,-107.332874664182,4,1,0,63,0,0
117762,-106.81215906894,4,1,0,63,0,0
117912,-106.296471488629,4,1,0,64,0,0
118212,-105.279891856495,4,1,0,64,0,0
118287,-105.028777885141,4,1,0,64,0,0
118362,-104.778858979181,4,1,0,65,0,0
118512,-104.282572400783,4,1,0,65,0,0
118612,-103.95431831436,4,1,0,65,0,0
118712,-103.628124258411,4,1,0,66,0,0
118812,-103.303970901337,4,1,0,66,0,0
118962,-102.821525480716,4,1,0,66,0,0
119037,-102.581988654432,4,1,0,67,0,0
119112,-102.343565301847,4,1,0,67,0,0
119262,-101.870028105941,4,1,0,68,0,0
119412,-101.400852781172,4,1,0,68,0,0
119487,-101.167882030156,4,1,0,68,0,0
119562,-100.935979336386,4,1,0,69,0,0
119637,-100.705137371878,4,1,0,69,0,0
119712,-100.47534887553,4,1,0,69,0,0
119862,-100,4,1,0,70,0,0
119937,-100.941379303383,4,1,0,70,0,0
120012,-101.900754778891,4,1,0,30,0,0
120087,-102.87843575396,4,1,0,32,0,0
120162,-103.875166979331,4,1,0,35,0,0
120312,-105.927602720645,4,1,0,40,0,0
120387,-106.9844819009,4,1,0,42,0,0
120537,-109.16291692047,4,1,0,48,0,0
120612,-110.285684035927,4,1,0,50,0,0
120687,-111.431911202139,4,1,0,52,0,0
120762,-112.602087867913,4,1,0,55,0,0
120837,-113.797231540951,4,1,0,58,0,0
120912,-115.017885281161,4,1,0,60,0,0
120987,-116.265009812767,4,1,0,62,0,0
121062,-117.539613788337,4,1,0,65,0,0
121212,-91.3017715282729,4,1,0,70,0,0
127212,-90.9090909090909,4,1,0,70,0,0
127362,-94.100465420902,4,1,0,69,0,0
127437,-95.7816790719905,4,1,0,67,0,0
127512,-97.5239640760726,4,1,0,66,0,0
127587,-99.3309070103781,4,1,0,64,0,0
127662,-101.20607276919,4,1,0,63,0,0
127737,-103.153399420278,4,1,0,61,0,0
127812,-105.177134070345,4,1,0,60,0,0
127887,-107.281863786363,4,1,0,59,0,0
127962,-109.472430463112,4,1,0,57,0,0
128037,-111.75444419486,4,1,0,56,0,0
128112,-114.133623080558,4,1,0,54,0,0
128262,-119.209403237727,4,1,0,53,0,0
128337,-121.920442034755,4,1,0,51,0,0
128412,-124.757658248852,4,1,0,50,0,0
130887,-119.742983659872,4,1,0,70,0,0
130962,-117.276877808048,4,1,0,70,0,0
131037,-114.910301019025,4,1,0,70,0,0
131112,-112.6373471652,4,1,0,70,0,0
131187,-110.452568353572,4,1,0,70,0,0
131262,-108.35093133043,4,1,0,70,0,0
131337,-106.32777877017,4,1,0,70,0,0
131412,-104.378794821559,4,1,0,70,0,0
131562,-100.687595590286,4,1,0,70,0,0
131637,-98.9381952881674,4,1,0,70,0,0
131787,-95.615640423998,4,1,0,70,0,0
131937,-92.5089918740102,4,1,0,70,0,0
132012,300,4,1,0,70,1,0
132012,-91.0301610232518,4,1,0,70,0,0
140112,-90.9090909090909,4,1,0,70,0,0
140262,-93.0142572253475,4,1,0,70,0,0
140337,-94.1038304023127,4,1,0,70,0,0
140412,-95.2193234286193,4,1,0,70,0,0
140487,-96.3614866264711,4,1,0,69,0,0
140562,-97.5313831608166,4,1,0,67,0,0
140712,-99.9585172153556,4,1,0,64,0,0
140862,-102.509535949582,4,1,0,62,0,0
140937,-103.834504413486,4,1,0,59,0,0
141012,-105.194283321867,4,1,0,56,0,0
141087,-106.590035537118,4,1,0,54,0,0
141162,-108.023324396204,4,1,0,51,0,0
141212,-109.000498132276,4,1,0,48,0,0
141262,-109.995391193109,4,1,0,46,0,0
141312,-111.008736387554,4,1,0,43,0,0
141362,-112.040926309562,4,1,0,41,0,0
141412,-113.0924915633,4,1,0,38,0,0
141462,-114.163852527702,4,1,0,35,0,0
141537,-115.809770870368,4,1,0,33,0,0
141612,-117.647058823529,4,1,0,30,0,0
141687,-117.483963438991,4,1,0,30,0,0
141762,-117.321181987444,4,1,0,30,0,0
141837,-117.158988261841,4,1,0,31,0,0
141912,-116.997242374997,4,1,0,31,0,0
141987,-116.83580596844,4,1,0,31,0,0
142062,-116.674950588158,4,1,0,31,0,0
142137,-116.514537518846,4,1,0,32,0,0
142212,-116.354429554956,4,1,0,32,0,0
142287,-116.194896022997,4,1,0,32,0,0
142362,-116.03579936482,4,1,0,32,0,0
142437,-115.877003513391,4,1,0,33,0,0
142512,-115.718775602779,4,1,0,33,0,0
142587,-115.560979217513,4,1,0,33,0,0
142662,-115.403479414904,4,1,0,33,0,0
142737,-115.246541163183,4,1,0,34,0,0
142812,-115.090029175322,4,1,0,34,0,0
142887,-114.93380961904,4,1,0,34,0,0
142962,-114.778145322905,4,1,0,34,0,0
143037,-114.622902114334,4,1,0,35,0,0
143112,-114.467947257749,4,1,0,35,0,0
143187,-114.313541467809,4,1,0,35,0,0
143262,-114.159551672609,4,1,0,35,0,0
143337,-114.005846219794,4,1,0,36,0,0
143412,-113.852683735461,4,1,0,36,0,0
143487,-113.69993223484,4,1,0,36,0,0
143562,-113.547461135543,4,1,0,36,0,0
143637,-113.395527000042,4,1,0,36,0,0
143712,-113.243998917387,4,1,0,37,0,0
143787,-113.092747362112,4,1,0,37,0,0
143862,-112.942026857614,4,1,0,37,0,0
143937,-112.791707553661,4,1,0,37,0,0
144087,-112.492139611745,4,1,0,38,0,0
144162,-112.343014679862,4,1,0,38,0,0
144237,-112.194284598754,4,1,0,38,0,0
144312,-112.045822259471,4,1,0,39,0,0
144387,-111.897877521059,4,1,0,39,0,0
144462,-111.750322958433,4,1,0,39,0,0
144537,-111.603032477598,4,1,0,39,0,0
144612,-111.456253977595,4,1,0,40,0,0
144762,-111.16372860932,4,1,0,40,0,0
144837,-111.018102611812,4,1,0,40,0,0
144912,-110.872857659208,4,1,0,41,0,0
144987,-110.727869651152,4,1,0,41,0,0
145062,-110.583382635091,4,1,0,41,0,0
145212,-110.295415240179,4,1,0,42,0,0
145287,-110.152053895197,4,1,0,42,0,0
145362,-110.009064746935,4,1,0,42,0,0
145437,-109.866325641592,4,1,0,42,0,0
145512,-109.72407686391,4,1,0,42,0,0
145662,-109.440561736515,4,1,0,43,0,0
145737,-109.299412624957,4,1,0,43,0,0
145812,-109.158627133778,4,1,0,43,0,0
145887,-109.018085010122,4,1,0,43,0,0
145962,-108.878022862207,4,1,0,44,0,0
146037,-108.738320145187,4,1,0,44,0,0
146187,-108.459869848156,4,1,0,44,0,0
146262,-108.321237461817,4,1,0,44,0,0
146337,-108.182841984896,4,1,0,45,0,0
146412,-108.044916432659,4,1,0,45,0,0
146487,-107.907342123465,4,1,0,45,0,0
146562,-107.770001573442,4,1,0,45,0,0
146637,-107.633126031933,4,1,0,46,0,0
146712,-107.496597732682,4,1,0,46,0,0
146787,-107.360300093511,4,1,0,46,0,0
146862,-107.224462617799,4,1,0,46,0,0
146937,-107.088968444094,4,1,0,47,0,0
147012,-106.95370188153,4,1,0,47,0,0
147087,-106.818890707184,4,1,0,47,0,0
147162,-106.684418953981,4,1,0,47,0,0
147237,-106.550171812152,4,1,0,48,0,0
147312,-106.416375351839,4,1,0,48,0,0
147387,-106.282914490081,4,1,0,48,0,0
147462,-106.149675288143,4,1,0,48,0,0
147537,-106.01688212831,4,1,0,48,0,0
147687,-105.752178230491,4,1,0,49,0,0
147762,-105.620377128119,4,1,0,49,0,0
147837,-105.488904149617,4,1,0,49,0,0
147912,-105.35764706874,4,1,0,50,0,0
147987,-105.226826948169,4,1,0,50,0,0
148062,-105.096331297267,4,1,0,50,0,0
148137,-104.966048731538,4,1,0,50,0,0
148212,-104.83619868137,4,1,0,51,0,0
148287,-104.706669500727,4,1,0,51,0,0
148362,-104.577350637399,4,1,0,51,0,0
148437,-104.448459907459,4,1,0,51,0,0
148512,-104.319886499963,4,1,0,52,0,0
148587,-104.191629244507,4,1,0,52,0,0
148662,-104.063578684033,4,1,0,52,0,0
148737,-103.935950509858,4,1,0,52,0,0
148887,-103.681523537779,4,1,0,53,0,0
148962,-103.5548302115,4,1,0,53,0,0
149037,-103.428446132397,4,1,0,53,0,0
149112,-103.302263455895,4,1,0,54,0,0
149187,-103.176494743673,4,1,0,54,0,0
149262,-103.051031901508,4,1,0,54,0,0
149337,-102.925767877691,4,1,0,54,0,0
149412,-102.800913694521,4,1,0,54,0,0
149487,-102.676362053281,4,1,0,55,0,0
149562,-102.552006686391,4,1,0,55,0,0
149637,-102.428057093399,4,1,0,55,0,0
149712,-102.304406762321,4,1,0,55,0,0
149787,-102.180950201092,4,1,0,56,0,0
149862,-102.057895402904,4,1,0,56,0,0
149937,-101.935136633857,4,1,0,56,0,0
150087,-101.690399511073,4,1,0,57,0,0
150162,-101.568522695994,4,1,0,57,0,0
150237,-101.446834757309,4,1,0,57,0,0
150312,-101.325540723748,4,1,0,57,0,0
150387,-101.204536392139,4,1,0,58,0,0
150462,-101.083718546537,4,1,0,58,0,0
150537,-100.963290757114,4,1,0,58,0,0
150612,-100.843149573585,4,1,0,58,0,0
150687,-100.72319252231,4,1,0,59,0,0
150762,-100.603621730382,4,1,0,59,0,0
150837,-100.484334492253,4,1,0,59,0,0
150912,-100.365229068581,4,1,0,59,0,0
150987,-100.246506158644,4,1,0,60,0,0
151062,-100.128063793592,4,1,0,60,0,0
151137,-100.009800960494,4,1,0,60,0,0
151212,-90.9171908042716,4,1,0,70,0,0
161112,-87.9270838279232,4,1,0,70,0,0
161412,-86.0454870862933,4,1,0,70,0,0
161562,-85.1345679548378,4,1,0,70,0,0
161712,-84.2426626746877,4,1,0,70,0,0
161862,-83.3693210902706,4,1,0,70,0,0
162612,-100,4,1,0,50,0,0
162762,-106.593444076816,4,1,0,50,0,0
162912,-114.117602754342,4,1,0,50,0,0
163062,-122.784808572344,4,1,0,50,0,0
163212,300,4,1,0,50,1,0
163212,-133.333333333333,4,1,0,50,0,0
163512,-131.881059110409,4,1,0,50,0,0
163812,-130.460080519962,4,1,0,50,0,0
164112,-129.069563331853,4,1,0,51,0,0
164412,-127.70821227659,4,1,0,51,0,0
164562,-127.038330004929,4,1,0,51,0,0
164712,-126.375278973428,4,1,0,51,0,0
165012,-125.069882797013,4,1,0,51,0,0
165312,-123.79133237849,4,1,0,52,0,0
165612,-122.538507726053,4,1,0,52,0,0
165762,-121.921482565228,4,1,0,52,0,0
165912,-121.310787319141,4,1,0,52,0,0
166212,-120.107424080097,4,1,0,52,0,0
166512,-118.927700283167,4,1,0,53,0,0
166662,-118.34655658859,4,1,0,53,0,0
166737,-118.058039693474,4,1,0,53,0,0
166812,-117.771064827083,4,1,0,53,0,0
166962,-117.201005584628,4,1,0,54,0,0
167112,-116.636574430464,4,1,0,54,0,0
167412,-115.52373261801,4,1,0,54,0,0
167712,-114.431925591785,4,1,0,54,0,0
168012,-113.360691046773,4,1,0,54,0,0
168162,-112.832432554413,4,1,0,55,0,0
168312,-112.309200706649,4,1,0,55,0,0
168612,-111.277037538196,4,1,0,55,0,0
168912,-110.263673522494,4,1,0,55,0,0
169212,-109.26871909744,4,1,0,55,0,0
169512,-108.291442593623,4,1,0,56,0,0
169812,-107.33149224047,4,1,0,56,0,0
170112,-106.388411323131,4,1,0,56,0,0
170412,-105.461759038864,4,1,0,56,0,0
170562,-105.004515194153,4,1,0,56,0,0
170712,-104.551219119491,4,1,0,57,0,0
170937,-103.878512002643,4,1,0,57,0,0
171087,-103.434758009212,4,1,0,57,0,0
171162,-103.214299721941,4,1,0,57,0,0
171312,-102.776296086176,4,1,0,58,0,0
171462,-102.341994195162,4,1,0,58,0,0
171537,-102.12616462125,4,1,0,58,0,0
171612,-101.911243459846,4,1,0,58,0,0
171687,-101.697328411183,4,1,0,58,0,0
171762,-101.48420652036,4,1,0,59,0,0
171837,-101.271976018796,4,1,0,59,0,0
171912,-101.060733458379,4,1,0,59,0,0
172062,-100.640678559711,4,1,0,59,0,0
172137,-100.431957850716,4,1,0,59,0,0
172212,-100.224201538842,4,1,0,60,0,0
172287,-100,4,1,0,60,0,0
172362,-98.6078543128117,4,1,0,60,0,0
172512,-95.9367891683527,4,1,0,64,0,0
172662,-93.4066139355195,4,1,0,68,0,0
172812,-91.0063850079722,4,1,0,70,0,0
180012,-83.3333333333333,4,1,0,70,0,0
180162,-82.0941899478948,4,1,0,70,0,0
180312,-80.8913580526538,4,1,0,70,0,0
180462,-79.7232010459684,4,1,0,70,0,0
180612,-78.588364363949,4,1,0,70,0,0
180762,-77.4853823826135,4,1,0,70,0,0
180912,-76.4129324303362,4,1,0,70,0,0
181062,-75.3697640624906,4,1,0,70,0,0
181212,-74.3546389115671,4,1,0,70,0,0
181287,-73.8573165273471,4,1,0,70,0,0
181362,-73.3665488155337,4,1,0,70,0,0
181437,-72.8823132846237,4,1,0,70,0,0
181512,-72.4043755412227,4,1,0,70,0,0
181587,-71.9326652706934,4,1,0,70,0,0
181662,-71.4671126214494,4,1,0,70,0,0
182412,-90.9090909090909,4,1,0,70,0,0
210462,-92.5925925925926,4,1,0,70,0,0
210537,-93.4579439252336,4,1,0,70,0,0
210612,-94.3396226415094,4,1,0,70,0,0
210762,-96.1538461538461,4,1,0,70,0,0
210837,-97.0873786407767,4,1,0,70,0,0
210912,-98.0392156862745,4,1,0,70,0,0
210962,-99.009900990099,4,1,0,70,0,0
211012,-100,4,1,0,70,0,0
211062,-101.010101010101,4,1,0,70,0,0
211137,-101.010101010101,4,1,0,70,0,0
211212,-103.092783505155,4,1,0,60,0,0
211512,-111.111111111111,4,1,0,60,0,0
211812,-117.647058823529,4,1,0,60,0,0
212112,-125,4,1,0,60,0,0
216162,-124.033469191327,4,1,0,61,0,0
216312,-123.081770605119,4,1,0,62,0,0
216612,-121.221672010522,4,1,0,64,0,0
216912,-119.416816037201,4,1,0,65,0,0
217212,-117.665054655418,4,1,0,66,0,0
217512,-115.963810014171,4,1,0,68,0,0
217812,-114.31118935077,4,1,0,69,0,0
218112,-112.704883389892,4,1,0,70,0,0
218412,-111.111111111111,4,1,0,71,0,0
218562,-109.596847994652,4,1,0,72,0,0
218712,-108.123303815671,4,1,0,74,0,0
218862,-106.688744124117,4,1,0,75,0,0
219012,-105.29186378181,4,1,0,76,0,0
219162,-103.931089530398,4,1,0,78,0,0
219312,-102.605039343902,4,1,0,79,0,0
219462,-101.312298198566,4,1,0,80,0,0
219912,-103.423632506875,4,1,0,40,0,0
220212,-107.090115261091,4,1,0,40,0,0
220512,-111.025991184536,4,1,0,40,0,0
220812,-90.9090909090909,4,1,0,70,0,0
228912,-90.9090909090909,4,1,0,70,0,0
229062,-93.4471145399972,4,1,0,70,0,0
229137,-94.7699317751261,4,1,0,70,0,0
229212,-96.130830214689,4,1,0,70,0,0
229287,-97.5313831608166,4,1,0,70,0,0
229362,-98.9733494461946,4,1,0,70,0,0
229437,-100.458492560044,4,1,0,70,0,0
229512,-101.988989268719,4,1,0,70,0,0
229662,-105.194283321867,4,1,0,70,0,0
229737,-106.873573905748,4,1,0,70,0,0
229812,-108.607467632259,4,1,0,70,0,0
229887,-110.39854980465,4,1,0,70,0,0
229962,-112.249697206442,4,1,0,70,0,0
230037,-114.163852527702,4,1,0,70,0,0
230112,-116.144558162872,4,1,0,70,0,0
230162,-117.647058823529,4,1,0,70,0,0
230212,-119.047619047619,4,1,0,70,0,0
230262,-120.319568774666,4,1,0,70,0,0
230412,-125,4,1,0,60,0,0
230562,-124.498271963985,4,1,0,60,0,0
230712,-124.000709284057,4,1,0,60,0,0
230937,-123.261549915381,4,1,0,60,0,0
231012,-123.017117831946,4,1,0,60,0,0
231087,-122.773803998988,4,1,0,61,0,0
231162,-122.531300620744,4,1,0,61,0,0
231237,-122.289753341568,4,1,0,61,0,0
231312,-122.049156518279,4,1,0,61,0,0
231612,-121.096309105595,4,1,0,61,0,0
231762,-120.625370169105,4,1,0,61,0,0
231912,-120.158224349824,4,1,0,61,0,0
232137,-119.464036546438,4,1,0,61,0,0
232212,-119.234419638386,4,1,0,61,0,0
232287,-119.005683711454,4,1,0,62,0,0
232362,-118.777964787085,4,1,0,62,0,0
232437,-118.550975141046,4,1,0,62,0,0
232512,-118.324851413568,4,1,0,62,0,0
232812,-117.429055236279,4,1,0,62,0,0
232962,-116.986155858316,4,1,0,62,0,0
233112,-116.546584835425,4,1,0,62,0,0
233262,-116.110439605735,4,1,0,62,0,0
233337,-115.893521668032,4,1,0,62,0,0
233412,-115.677412712716,4,1,0,62,0,0
233487,-115.462108222634,4,1,0,63,0,0
233562,-115.247736534454,4,1,0,63,0,0
233637,-115.034027065206,4,1,0,63,0,0
233712,-114.821108712626,4,1,0,63,0,0
233862,-114.397627850789,4,1,0,63,0,0
233937,-114.187056668752,4,1,0,63,0,0
234012,-113.977389165537,4,1,0,63,0,0
234087,-113.768360791327,4,1,0,63,0,0
234162,-113.560097707108,4,1,0,63,0,0
234237,-113.352595717766,4,1,0,64,0,0
234312,-113.145850658792,4,1,0,64,0,0
234462,-112.734741916355,4,1,0,64,0,0
234537,-112.530242502673,4,1,0,64,0,0
234612,-112.326483664359,4,1,0,64,0,0
234687,-112.123461385801,4,1,0,64,0,0
234762,-111.921171680362,4,1,0,64,0,0
234837,-111.719735402979,4,1,0,64,0,0
234912,-111.518898550143,4,1,0,64,0,0
234962,-111.385366636073,4,1,0,65,0,0
235012,-111.25227789039,4,1,0,65,0,0
235062,-111.11938333187,4,1,0,65,0,0
235212,-110.722843008295,4,1,0,65,0,0
235362,-110.329001081224,4,1,0,65,0,0
235437,-110.133128926246,4,1,0,65,0,0
235512,-109.937951020444,4,1,0,65,0,0
235662,-109.549783255754,4,1,0,65,0,0
235737,-109.356665671521,4,1,0,65,0,0
235812,-109.164227755878,4,1,0,65,0,0
235887,-108.972465927034,4,1,0,66,0,0
235962,-108.781376628321,4,1,0,66,0,0
236037,-108.590956327975,4,1,0,66,0,0
236112,-108.40131902725,4,1,0,66,0,0
236262,-108.023791159765,4,1,0,66,0,0
236337,-107.836011620409,4,1,0,66,0,0
236412,-107.648883788724,4,1,0,66,0,0
236562,-107.276684807154,4,1,0,66,0,0
236637,-107.091491473911,4,1,0,66,0,0
236712,-106.906936442757,4,1,0,67,0,0
236862,-106.539728131922,4,1,0,67,0,0
236937,-106.539728131922,4,1,0,67,0,0
237012,-106.175146521702,4,1,0,67,0,0
237087,-105.993733650467,4,1,0,67,0,0
237162,-105.812939652764,4,1,0,67,0,0
237237,-105.632761367141,4,1,0,67,0,0
237312,-105.453306857523,4,1,0,67,0,0
237462,-105.095999941146,4,1,0,67,0,0
237612,-104.741106170822,4,1,0,68,0,0
237762,-104.38871015222,4,1,0,68,0,0
237837,-104.213345561033,4,1,0,68,0,0
237912,-104.213345561033,4,1,0,68,0,0
238062,-103.690769240341,4,1,0,68,0,0
238137,-103.690769240341,4,1,0,68,0,0
238212,-103.345393740783,4,1,0,68,0,0
238287,-103.173514120843,4,1,0,68,0,0
238362,-103.002205277215,4,1,0,68,0,0
238437,-102.831464371468,4,1,0,68,0,0
238512,-102.661288583962,4,1,0,69,0,0
238662,-102.322725877417,4,1,0,69,0,0
238812,-101.986284884409,4,1,0,69,0,0
238887,-101.818892699178,4,1,0,69,0,0
238962,-101.652152433502,4,1,0,69,0,0
239037,-101.485854394185,4,1,0,69,0,0
239112,-101.320099577394,4,1,0,69,0,0
239262,-100.990208999238,4,1,0,69,0,0
239337,-100.826067974919,4,1,0,69,0,0
239412,-100.662560976346,4,1,0,70,0,0
239487,-100.499482427665,4,1,0,70,0,0
239562,-100.336931415694,4,1,0,70,0,0
239637,-100.174905384802,4,1,0,70,0,0
239712,-100.013401795841,4,1,0,70,0,0
240012,-90.9090909090909,4,1,0,80,0,0
248412,-90.9090909090909,4,1,0,70,0,0
248562,-89.5614355623383,4,1,0,70,0,0
248712,-88.2532302888616,4,1,0,70,0,0
248862,-86.9826165240877,4,1,0,70,0,0
249012,-85.7480704540446,4,1,0,70,0,0
249162,-84.5480778417243,4,1,0,70,0,0
249312,-83.3812775679349,4,1,0,70,0,0
249612,-90.9090909090909,4,1,0,70,0,0
257712,-90.9090909090909,4,1,0,70,0,0
257862,-93.4471145399972,4,1,0,70,0,0
257937,-94.7699317751261,4,1,0,70,0,0
258012,-96.130830214689,4,1,0,70,0,0
258087,-97.5313831608166,4,1,0,70,0,0
258162,-98.9733494461946,4,1,0,70,0,0
258237,-100.458492560044,4,1,0,70,0,0
258312,-101.988989268719,4,1,0,70,0,0
258462,-105.194283321867,4,1,0,70,0,0
258537,-106.873573905748,4,1,0,70,0,0
258612,-108.607467632259,4,1,0,70,0,0
258687,-110.39854980465,4,1,0,70,0,0
258762,-112.249697206442,4,1,0,70,0,0
258912,-116.144558162872,4,1,0,70,0,0
258962,-117.647058823529,4,1,0,70,0,0
259012,-119.047619047619,4,1,0,70,0,0
259062,-120.319568774666,4,1,0,70,0,0
259137,-122.521542350184,4,1,0,70,0,0
259212,-125,4,1,0,50,0,0
259362,-124.51392875064,4,1,0,50,0,0
259512,-124.031623102626,4,1,0,51,0,0
259662,-123.553039466547,4,1,0,51,0,0
259812,-123.078134923175,4,1,0,51,0,0
259887,-122.842124529975,4,1,0,52,0,0
259962,-122.606867210632,4,1,0,52,0,0
260112,-122.139194711861,4,1,0,52,0,0
260262,-121.675076442367,4,1,0,53,0,0
260337,-121.444411249639,4,1,0,53,0,0
260412,-121.214472038246,4,1,0,53,0,0
260562,-120.757341744485,4,1,0,54,0,0
260712,-120.303646403522,4,1,0,54,0,0
260862,-119.853347444067,4,1,0,54,0,0
260937,-119.629531267571,4,1,0,55,0,0
261012,-119.406406870167,4,1,0,55,0,0
261162,-118.96278725052,4,1,0,55,0,0
261312,-118.522451708027,4,1,0,56,0,0
261462,-118.08536390957,4,1,0,56,0,0
261537,-117.868096170937,4,1,0,56,0,0
261612,-117.65162647491,4,1,0,57,0,0
261762,-117.220926279759,4,1,0,57,0,0
261837,-117.006688102292,4,1,0,57,0,0
261912,-116.793368005391,4,1,0,58,0,0
262062,-116.368917396688,4,1,0,58,0,0
262212,-115.947540694688,4,1,0,58,0,0
262287,-115.73792766611,4,1,0,59,0,0
262362,-115.529204627638,4,1,0,59,0,0
262512,-115.113876402231,4,1,0,59,0,0
262662,-114.701523695041,4,1,0,60,0,0
262737,-114.49638763897,4,1,0,60,0,0
262812,-114.292114644134,4,1,0,60,0,0
262887,-114.292114644134,4,1,0,60,0,0
262962,-113.885617840865,4,1,0,61,0,0
263037,-113.683387219259,4,1,0,61,0,0
263112,-113.482002321842,4,1,0,61,0,0
263262,-113.081237561064,4,1,0,62,0,0
263412,-112.683293462228,4,1,0,62,0,0
263487,-112.683293462228,4,1,0,62,0,0
263562,-112.288140351192,4,1,0,62,0,0
263637,-112.091538433947,4,1,0,63,0,0
263712,-111.895748968601,4,1,0,63,0,0
263862,-111.506090462661,4,1,0,63,0,0
263937,-111.506090462661,4,1,0,63,0,0
264012,-111.119136382072,4,1,0,64,0,0
264162,-110.7348586691,4,1,0,64,0,0
264312,-110.353229652796,4,1,0,64,0,0
264462,-109.974222042353,4,1,0,65,0,0
264537,-109.78575310282,4,1,0,65,0,0
264612,-109.597808920604,4,1,0,66,0,0
264687,-109.410626835363,4,1,0,66,0,0
264762,-109.223963737644,4,1,0,66,0,0
264837,-109.223963737644,4,1,0,66,0,0
264912,-108.852660304592,4,1,0,67,0,0
265062,-108.483872787471,4,1,0,67,0,0
265137,-108.300473164767,4,1,0,67,0,0
265212,-108.117575701224,4,1,0,68,0,0
265362,-107.753743903832,4,1,0,68,0,0
265512,-107.392352590572,4,1,0,68,0,0
265587,-107.392352590572,4,1,0,68,0,0
265662,-107.033377288374,4,1,0,69,0,0
265737,-106.854845172672,4,1,0,69,0,0
265812,-106.676793850296,4,1,0,69,0,0
265887,-106.676793850296,4,1,0,69,0,0
265962,-106.322578450115,4,1,0,70,0,0
266112,-105.970819875039,4,1,0,70,0,0
266262,-105.621269588785,4,1,0,70,0,0
266337,-105.447302183497,4,1,0,71,0,0
266412,-105.274017740777,4,1,0,71,0,0
266562,-104.929041735526,4,1,0,71,0,0
266712,-104.586319272749,4,1,0,72,0,0
266862,-104.245828342564,4,1,0,72,0,0
266937,-104.076358742882,4,1,0,72,0,0
267012,-103.907547220785,4,1,0,73,0,0
267087,-103.739174817108,4,1,0,73,0,0
267162,-103.571454464292,4,1,0,73,0,0
267237,-103.404168635654,4,1,0,74,0,0
267312,-103.237528906508,4,1,0,74,0,0
267462,-100,4,1,0,74,0,0
267537,-101.118369162942,4,1,0,75,0,0
267612,-102.262036241666,4,1,0,75,0,0
267687,-103.431869427608,4,1,0,75,0,0
267762,-104.628777098853,4,1,0,75,0,0
267837,-105.853710172542,4,1,0,75,0,0
267912,-107.107549904085,4,1,0,75,0,0
267987,-108.391566702544,4,1,0,75,0,0
268062,-109.706742905539,4,1,0,75,0,0
268137,-111.05422666834,4,1,0,75,0,0
268212,-112.435223257001,4,1,0,75,0,0
268287,-113.850998644035,4,1,0,75,0,0
268362,-115.302883379205,4,1,0,75,0,0
268437,-116.792276760322,4,1,0,75,0,0
268512,-118.320651331521,4,1,0,75,0,0
268562,-119.047619047619,4,1,0,75,0,0
268612,-120.481927710843,4,1,0,75,0,0
268662,-121.500629980766,4,1,0,75,0,0
268737,-123.155439406292,4,1,0,75,0,0
268812,-124.8561033409,4,1,0,50,0,0
268962,-124.74240692969,4,1,0,50,0,0
269112,-124.485718375959,4,1,0,50,0,0
269212,-124.31533330184,4,1,0,50,0,0
269312,-124.145259885687,4,1,0,50,0,0
269412,-123.975804881919,4,1,0,51,0,0
269487,-123.848978555549,4,1,0,51,0,0
269562,-123.722258376616,4,1,0,51,0,0
269637,-123.59595000791,4,1,0,51,0,0
269712,-123.469899273256,4,1,0,51,0,0
270012,-122.968105762408,4,1,0,51,0,0
270162,-122.718810707462,4,1,0,51,0,0
270312,-122.470524406538,4,1,0,51,0,0
270412,-122.305457881058,4,1,0,51,0,0
270512,-122.140984896046,4,1,0,51,0,0
270612,-121.976804890782,4,1,0,52,0,0
270687,-121.854033490363,4,1,0,52,0,0
270762,-121.731508983785,4,1,0,52,0,0
270837,-121.609230627042,4,1,0,52,0,0
270912,-121.487050087896,4,1,0,52,0,0
271212,-121.00135884526,4,1,0,52,0,0
271362,-120.759820792426,4,1,0,52,0,0
271512,-120.519390364716,4,1,0,52,0,0
271612,-120.359682876308,4,1,0,52,0,0
271712,-120.200253622535,4,1,0,53,0,0
271812,-120.041390271366,4,1,0,53,0,0
271887,-119.922338293721,4,1,0,53,0,0
271962,-119.803665752565,4,1,0,53,0,0
272037,-119.685227850753,4,1,0,53,0,0
272112,-119.567023893078,4,1,0,53,0,0
272412,-119.096391855712,4,1,0,53,0,0
272487,-119.096391855712,4,1,0,53,0,0
272562,-119.018289540554,4,1,0,53,0,0
272712,-118.62959096517,4,1,0,54,0,0
272812,-118.474709203826,4,1,0,54,0,0
272912,-118.320231339716,4,1,0,54,0,0
273012,-118.166295427555,4,1,0,54,0,0
273087,-118.051071254446,4,1,0,54,0,0
273162,-117.936071573043,4,1,0,54,0,0
273237,-117.821156909504,4,1,0,54,0,0
273312,-117.706604517579,4,1,0,55,0,0
273462,-117.478166682722,4,1,0,55,0,0
273612,-117.250613806963,4,1,0,55,0,0
273762,-117.023803811933,4,1,0,55,0,0
273837,-116.910795893625,4,1,0,55,0,0
273912,-116.798006024441,4,1,0,55,0,0
274012,-116.647866918782,4,1,0,55,0,0
274112,-116.498249031317,4,1,0,55,0,0
274212,-116.348879094899,4,1,0,55,0,0
274287,-116.237170322326,4,1,0,56,0,0
274362,-116.125675851433,4,1,0,56,0,0
274437,-116.01439506614,4,1,0,56,0,0
274512,-115.903327352722,4,1,0,56,0,0
274662,-115.681694875648,4,1,0,56,0,0
274737,-115.571262974319,4,1,0,56,0,0
274812,-115.461041712611,4,1,0,56,0,0
274962,-115.24122870198,4,1,0,56,0,0
275112,-115.022118753436,4,1,0,56,0,0
275212,-114.876639720436,4,1,0,56,0,0
275312,-114.731396590871,4,1,0,57,0,0
275412,-114.586651571785,4,1,0,57,0,0
275487,-114.514350365816,4,1,0,57,0,0
275562,-114.370021330009,4,1,0,57,0,0
275637,-114.262078358648,4,1,0,57,0,0
275712,-114.154338949346,4,1,0,57,0,0
275862,-113.939468517955,4,1,0,57,0,0
276012,-113.72527612497,4,1,0,57,0,0
276087,-113.61854618253,4,1,0,58,0,0
276162,-113.512016382054,4,1,0,58,0,0
276312,-113.299554959348,4,1,0,58,0,0
276412,-113.158269945842,4,1,0,58,0,0
276512,-113.017464588803,4,1,0,58,0,0
276612,-112.876881798716,4,1,0,58,0,0
276687,-112.77173759821,4,1,0,58,0,0
276762,-112.666789097911,4,1,0,58,0,0
276837,-112.562035751954,4,1,0,58,0,0
276912,-112.457477016503,4,1,0,58,0,0
277062,-112.248815213755,4,1,0,59,0,0
277137,-112.14483730027,4,1,0,59,0,0
277212,-112.041051841395,4,1,0,59,0,0
277287,-111.937458303297,4,1,0,59,0,0
277362,-111.834056154116,4,1,0,59,0,0
277437,-111.730720026279,4,1,0,59,0,0
277512,-111.627699297304,4,1,0,59,0,0
277612,-111.49067491995,4,1,0,59,0,0
277712,-111.35386253143,4,1,0,59,0,0
277812,-111.217509194908,4,1,0,60,0,0
277887,-111.149395903033,4,1,0,60,0,0
277962,-111.013419302125,4,1,0,60,0,0
278037,-110.911716491907,4,1,0,60,0,0
278112,-110.810199857276,4,1,0,60,0,0
278187,-110.708868887487,4,1,0,60,0,0
278262,-110.607723073656,4,1,0,60,0,0
278337,-110.506639791452,4,1,0,60,0,0
278412,-110.405862992948,4,1,0,60,0,0
278562,-110.204859813908,4,1,0,61,0,0
278712,-110.004587191286,4,1,0,61,0,0
278812,-109.87139553153,4,1,0,61,0,0
278912,-109.738646439639,4,1,0,61,0,0
279012,-109.606097606422,4,1,0,61,0,0
279087,-109.506955881838,4,1,0,61,0,0
279162,-109.407993347994,4,1,0,61,0,0
279237,-109.30920951952,4,1,0,61,0,0
279312,-109.210484643368,4,1,0,61,0,0
279387,-109.11205699141,4,1,0,62,0,0
279462,-109.013806598606,4,1,0,62,0,0
279537,-108.915732986546,4,1,0,62,0,0
279612,-108.817835678539,4,1,0,62,0,0
279762,-108.622450087984,4,1,0,62,0,0
279912,-108.427882446827,4,1,0,62,0,0
280012,-108.298596558487,4,1,0,62,0,0
280112,-108.169501609021,4,1,0,62,0,0
280212,-108.040714062687,4,1,0,62,0,0
280287,-107.944382736239,4,1,0,62,0,0
280362,-107.848223038753,4,1,0,63,0,0
280437,-107.752234511963,4,1,0,63,0,0
280512,-107.656416699233,4,1,0,63,0,0
280562,-107.592594186557,4,1,0,63,0,0
280612,-107.52884730151,4,1,0,63,0,0
280662,-107.465175909746,4,1,0,63,0,0
280737,-107.369867720323,4,1,0,63,0,0
280812,-107.274728434025,4,1,0,63,0,0
280962,-107.084954778024,4,1,0,63,0,0
281112,-106.8957371049,4,1,0,64,0,0
281212,-106.770077045288,4,1,0,64,0,0
281312,-106.644598344449,4,1,0,64,0,0
281412,-106.519527692414,4,1,0,64,0,0
281487,-106.42588873599,4,1,0,64,0,0
281562,-106.33230120113,4,1,0,64,0,0
281712,-106.145844390192,4,1,0,64,0,0
281787,-106.052860988031,4,1,0,64,0,0
281862,-105.960040349583,4,1,0,64,0,0
281937,-105.867382047856,4,1,0,64,0,0
282012,-105.774885657349,4,1,0,65,0,0
282162,-105.59026542225,4,1,0,65,0,0
282237,-105.498252421449,4,1,0,65,0,0
282312,-105.406399644148,4,1,0,65,0,0
282462,-105.223173088963,4,1,0,65,0,0
282537,-105.131687952329,4,1,0,65,0,0
282612,-105.040472093898,4,1,0,65,0,0
282687,-104.949414382268,4,1,0,65,0,0
282762,-104.858514406511,4,1,0,65,0,0
282912,-104.677186026014,4,1,0,66,0,0
283062,-104.496374498287,4,1,0,66,0,0
283137,-104.406257275811,4,1,0,66,0,0
283212,-104.316295352813,4,1,0,66,0,0
283362,-104.136835802244,4,1,0,66,0,0
283512,-103.957884581798,4,1,0,66,0,0
283662,-103.779655036427,4,1,0,66,0,0
283737,-103.690769240341,4,1,0,66,0,0
283812,-103.602035572795,4,1,0,66,0,0
283887,-103.51334649333,4,1,0,67,0,0
283962,-103.424916096537,4,1,0,67,0,0
284037,-103.336636661152,4,1,0,67,0,0
284112,-103.248507800941,4,1,0,67,0,0
284262,-103.07270026768,4,1,0,67,0,0
284337,-102.98502082872,4,1,0,67,0,0
284412,-102.897384554279,4,1,0,67,0,0
284562,-102.722769734585,4,1,0,67,0,0
284712,-102.548746546671,4,1,0,67,0,0
284862,-102.375207181826,4,1,0,67,0,0
284937,-102.288709883647,4,1,0,68,0,0
285012,-102.202358626032,4,1,0,68,0,0
285087,-102.116153039436,4,1,0,68,0,0
285162,-102.030092755557,4,1,0,68,0,0
285237,-101.944177407335,4,1,0,68,0,0
285312,-101.858302877701,4,1,0,68,0,0
285387,-101.77267647891,4,1,0,68,0,0
285462,-101.687193921546,4,1,0,68,0,0
285537,-101.601854843462,4,1,0,68,0,0
285612,-101.516658883723,4,1,0,69,0,0
285762,-101.346592170165,4,1,0,69,0,0
285912,-101.177196683411,4,1,0,69,0,0
286062,-101.008366522999,4,1,0,69,0,0
286137,-100.92416255653,4,1,0,69,0,0
286212,-100.83999717648,4,1,0,69,0,0
286362,-100.672289549612,4,1,0,69,0,0
286437,-100.588644749072,4,1,0,69,0,0
286512,-100.505138827748,4,1,0,69,0,0
286587,-100.421771440048,4,1,0,69,0,0
286662,-100.338441563393,4,1,0,70,0,0
286737,-100.255350377411,4,1,0,70,0,0
286812,-100.172396694712,4,1,0,70,0,0
286887,-100.089580174256,4,1,0,70,0,0
286962,-100,4,1,0,70,0,0
287112,-102.409595369448,4,1,0,68,0,0
287337,-106.250053125027,4,1,0,62,0,0
287487,-108.974365959895,4,1,0,60,0,0
287562,-110.389653398566,4,1,0,58,0,0
288012,-90.9090909090909,4,1,0,70,0,0
297612,-83.3333333333333,4,1,0,80,0,1
302412,-83.3333333333333,4,1,0,80,0,1
302487,-83.1174357938588,4,1,0,80,0,1
302562,-82.9026540455666,4,1,0,80,0,1
302637,-82.6889794608844,4,1,0,80,0,1
302712,-82.4764035009584,4,1,0,80,0,1
302762,-82.3353601554492,4,1,0,80,0,1
302812,-82.1947308245858,4,1,0,80,0,1
302862,-82.0545810662336,4,1,0,80,0,1
302937,-81.8452502745908,4,1,0,80,0,1
303012,-81.6369848196027,4,1,0,80,0,1
303062,-81.4987290273208,4,1,0,80,0,1
303112,-81.3609407277411,4,1,0,80,0,1
303162,-81.2236175537233,4,1,0,80,0,1
303237,-81.0184997642362,4,1,0,80,0,1
303312,-80.8144153521528,4,1,0,80,0,1
303362,-80.6789293260647,4,1,0,80,0,1
303412,-80.5439616997353,4,1,0,80,0,1
303462,-80.4093802366609,4,1,0,80,0,1
303537,-80.1415620552143,4,1,0,80,0,1
303612,-80.1415620552143,4,1,0,80,0,1
303662,-79.6112423812041,4,1,0,80,0,1
303712,-79.8092877260498,4,1,0,80,0,1
303762,-79.8092877260498,4,1,0,80,0,1
303837,-79.4141774954516,4,1,0,80,0,1
303912,-79.2180858058618,4,1,0,80,0,1
303962,-79.087895123124,4,1,0,80,0,1
304012,-78.9581316611054,4,1,0,80,0,1
304062,-78.8288554601989,4,1,0,80,0,1
304112,-78.6999399519458,4,1,0,80,0,1
304162,-78.5714454081669,4,1,0,80,0,1
304212,-78.4433697702786,4,1,0,80,0,1
304287,-78.2520372917909,4,1,0,80,0,1
304362,-78.061635906479,4,1,0,80,0,1
304437,-77.8721588342849,4,1,0,80,0,1
304512,-77.6835993608194,4,1,0,80,0,1
304562,-77.5583995358905,4,1,0,80,0,1
304612,-77.4336026215921,4,1,0,80,0,1
304662,-77.3092664432944,4,1,0,80,0,1
304712,-77.1852693457159,4,1,0,80,0,1
304762,-77.0616693715313,4,1,0,80,0,1
304812,-76.9230769230769,4,1,0,80,0,1
304962,-86.936942027839,4,1,0,80,0,1
305112,-90.8663011418259,4,1,0,80,0,1
305262,-95.1676711614358,4,1,0,80,0,1
305337,-97.474722367622,4,1,0,80,0,1
305412,-99.8965072185216,4,1,0,80,0,1
305487,-102.441592925793,4,1,0,80,0,1
305562,-105.119862923699,4,1,0,80,0,1
305637,-107.941819359365,4,1,0,80,0,1
305712,-110.91958995246,4,1,0,80,0,1
305862,-117.396658656301,4,1,0,80,0,1
305937,-120.927319053429,4,1,0,80,0,1
306012,-125,4,1,0,50,0,0
306162,-118.550412970364,4,1,0,52,0,0
306312,-112.733598106977,4,1,0,54,0,0
306387,-109.16291692047,4,1,0,57,0,0
306537,-105.811372183037,4,1,0,59,0,0
306612,-102.659602317233,4,1,0,61,0,0
306762,-98.2687985754955,4,1,0,63,0,0
306912,-94.2382720470438,4,1,0,66,0,0
307062,-90.5253457389267,4,1,0,68,0,0
307137,-88.7764387331602,4,1,0,70,0,0
307212,-87.0938270508201,4,1,0,80,0,0
314412,-86.9565217391304,4,1,0,80,0,0
314562,-88.2316610492509,4,1,0,78,0,0
314637,-88.8834373713968,4,1,0,77,0,0
314712,-89.5448346509856,4,1,0,75,0,0
314862,-90.897604757217,4,1,0,74,0,0
315012,-92.2919600781897,4,1,0,72,0,0
315087,-93.005260377527,4,1,0,70,0,0
315162,-93.7296723773032,4,1,0,69,0,0
315237,-94.4655469980266,4,1,0,67,0,0
315312,-95.2129771479334,4,1,0,66,0,0
315462,-96.7438908651516,4,1,0,64,0,0
315537,-97.5280539447172,4,1,0,62,0,0
315612,-98.3249363837662,4,1,0,61,0,0
315762,-99.9584172984039,4,1,0,59,0,0
315837,-100.795782704452,4,1,0,58,0,0
315912,-101.647192758654,4,1,0,56,0,0
315987,-102.513108863796,4,1,0,54,0,0
316062,-103.393904929304,4,1,0,53,0,0
316137,-104.290076590632,4,1,0,51,0,0
316212,-105.201808629494,4,1,0,50,0,0
316287,-106.129622475707,4,1,0,48,0,0
316362,-107.07394740956,4,1,0,46,0,0
316437,-107.71300516053,4,1,0,45,0,0
316512,-109.014044279324,4,1,0,42,0,0
316662,-111.025621382646,4,1,0,40,0,0
316812,-87.0938270508201,4,1,0,80,0,0
333612,-86.9565217391304,4,1,0,80,0,0
333762,-89.674436956629,4,1,0,78,0,0
333912,-92.5677364411408,4,1,0,76,0,0
334062,-95.6538707295329,4,1,0,74,0,0
334137,-97.2755075835986,4,1,0,72,0,0
334212,-98.9529785341304,4,1,0,70,0,0
334287,-100.689319078411,4,1,0,68,0,0
334362,-102.487788579991,4,1,0,66,0,0
334512,-106.284495961721,4,1,0,64,0,0
334662,-110.373204917789,4,1,0,62,0,0
334737,-112.537967496784,4,1,0,60,0,0
334812,-114.78921256896,4,1,0,58,0,0
334887,-117.132502629625,4,1,0,56,0,0
334962,-119.573314584238,4,1,0,54,0,0
335037,-122.118014849551,4,1,0,52,0,0
335112,-125,4,1,0,50,0,0
335262,-121.975763415809,4,1,0,52,0,0
335412,-119.094547970688,4,1,0,54,0,0
335562,-116.346171745565,4,1,0,56,0,0
335612,-115.457975606039,4,1,0,59,0,0
335662,-114.583369140636,4,1,0,61,0,0
335712,-113.721784203817,4,1,0,63,0,0
335862,-111.2131800964,4,1,0,65,0,0
336012,-66.6666666666667,4,1,0,80,0,1
345012,-66.6666666666667,4,1,0,80,0,1
345162,-70.7512795368904,4,1,0,80,0,1
345312,-75.3690823964956,4,1,0,80,0,1
345462,-80.6317660130656,4,1,0,80,0,1
345612,-86.9565217391304,4,1,0,70,0,0
356412,-71.4285714285714,4,1,0,70,0,0
356562,-73.0507147281929,4,1,0,70,0,0
356712,-74.7482479010692,4,1,0,70,0,0
356862,-76.5265516523613,4,1,0,70,0,0
357012,-78.3915312061008,4,1,0,70,0,0
357162,-80.34968181526,4,1,0,70,0,0
357312,-82.4081643416577,4,1,0,70,0,0
357462,-84.5749642882213,4,1,0,70,0,0
357612,-86.8587112773008,4,1,0,70,0,0
374412,-80,4,1,0,80,0,1
379212,-80,4,1,0,80,0,1
379287,-79.7946405131753,4,1,0,80,0,1
379362,-79.5903326398362,4,1,0,80,0,1
379437,-79.3870683228926,4,1,0,80,0,1
379512,-79.1847768850134,4,1,0,80,0,1
379587,-78.9835761551743,4,1,0,80,0,1
379662,-78.7833952964737,4,1,0,80,0,1
379812,-78.3860623310291,4,1,0,80,0,1
379887,-78.1888949876227,4,1,0,80,0,1
379962,-77.9926562114911,4,1,0,80,0,1
380037,-77.7974605352932,4,1,0,80,0,1
380112,-77.6032394696284,4,1,0,80,0,1
380262,-77.217692117618,4,1,0,80,0,1
380412,-76.8358977314201,4,1,0,80,0,1
380487,-76.6464422254448,4,1,0,80,0,1
380562,-76.4579187084117,4,1,0,80,0,1
380637,-76.2703203200913,4,1,0,80,0,1
380712,-76.0836402674188,4,1,0,80,0,1
380787,-75.8978718236741,4,1,0,80,0,1
380862,-75.7130083276738,4,1,0,80,0,1
381012,-75.3459130869823,4,1,0,80,0,1
381087,-75.1637253848195,4,1,0,80,0,1
381162,-74.9824166233018,4,1,0,80,0,1
381237,-74.8019804572346,4,1,0,80,0,1
381312,-74.6224106023521,4,1,0,80,0,1
381462,-74.2657898352414,4,1,0,80,0,1
381537,-74.0887820693293,4,1,0,80,0,1
381612,-66.6666666666667,4,1,0,80,0,0
381912,-100,4,1,0,70,0,0

[HitObjects]
160,96,12,5,0,0:0:0:0:
352,96,312,1,8,0:0:0:0:
160,96,762,1,0,0:0:0:0:
352,96,912,1,8,0:0:0:0:
160,96,1212,1,0,0:0:0:0:
352,96,1512,1,8,0:0:0:0:
160,96,1962,1,0,0:0:0:0:
352,96,2112,1,8,0:0:0:0:
160,96,2412,1,0,0:0:0:0:
352,96,2712,1,8,0:0:0:0:
160,96,3162,1,0,0:0:0:0:
352,96,3312,1,8,0:0:0:0:
160,96,3612,1,0,0:0:0:0:
160,96,3762,1,0,0:0:0:0:
352,96,3912,1,8,0:0:0:0:
160,96,4062,1,0,0:0:0:0:
160,96,4362,1,0,0:0:0:0:
352,96,4512,1,8,0:0:0:0:
160,96,4812,1,0,0:0:0:0:
352,96,5112,1,8,0:0:0:0:
352,96,5412,1,8,0:0:0:0:
160,96,5562,1,0,0:0:0:0:
352,96,5712,1,8,0:0:0:0:
352,96,5862,1,8,0:0:0:0:
160,96,6012,1,0,0:0:0:0:
160,96,6162,1,0,0:0:0:0:
352,96,6312,1,8,0:0:0:0:
352,96,6462,1,8,0:0:0:0:
160,96,6537,1,0,0:0:0:0:
160,96,6762,1,0,0:0:0:0:
352,96,6912,1,8,0:0:0:0:
352,96,7062,1,8,0:0:0:0:
160,96,7212,1,0,0:0:0:0:
160,96,7362,1,0,0:0:0:0:
352,96,7512,1,8,0:0:0:0:
352,96,7662,1,8,0:0:0:0:
160,96,7737,1,0,0:0:0:0:
352,96,7812,1,8,0:0:0:0:
160,96,7962,1,0,0:0:0:0:
352,96,8112,1,8,0:0:0:0:
352,96,8262,1,8,0:0:0:0:
160,96,8412,1,0,0:0:0:0:
352,96,8712,1,8,0:0:0:0:
160,96,8862,1,0,0:0:0:0:
352,96,9012,1,8,0:0:0:0:
352,96,9049,1,8,0:0:0:0:
352,96,9162,1,8,0:0:0:0:
352,96,9199,1,8,0:0:0:0:
352,96,9312,1,8,0:0:0:0:
352,96,9349,1,8,0:0:0:0:
352,96,9462,1,8,0:0:0:0:
352,96,9499,1,8,0:0:0:0:
160,288,9612,1,4,0:0:0:0:
160,96,9762,1,0,0:0:0:0:
160,96,9837,1,0,0:0:0:0:
352,96,9912,1,8,0:0:0:0:
160,96,10062,1,0,0:0:0:0:
352,96,10212,1,8,0:0:0:0:
352,96,10287,1,8,0:0:0:0:
160,96,10362,1,0,0:0:0:0:
160,96,10437,1,0,0:0:0:0:
352,96,10512,1,8,0:0:0:0:
160,96,10662,1,0,0:0:0:0:
352,96,10737,1,8,0:0:0:0:
160,96,10812,1,0,0:0:0:0:
160,96,10962,1,0,0:0:0:0:
352,96,11112,1,8,0:0:0:0:
160,96,11262,1,0,0:0:0:0:
160,96,11337,1,0,0:0:0:0:
352,96,11412,1,8,0:0:0:0:
352,96,11487,1,8,0:0:0:0:
160,96,11562,1,0,0:0:0:0:
352,96,11712,1,8,0:0:0:0:
160,96,11862,1,0,0:0:0:0:
352,96,11937,1,8,0:0:0:0:
160,96,12012,1,0,0:0:0:0:
160,96,12162,1,0,0:0:0:0:
160,96,12237,1,0,0:0:0:0:
352,96,12312,1,8,0:0:0:0:
160,96,12462,1,0,0:0:0:0:
352,96,12612,1,8,0:0:0:0:
352,96,12687,1,8,0:0:0:0:
160,96,12762,1,0,0:0:0:0:
160,96,12837,1,0,0:0:0:0:
352,96,12912,1,8,0:0:0:0:
352,96,13062,1,8,0:0:0:0:
317,145,13137,1,0,0:0:0:0:
352,96,13212,1,8,0:0:0:0:
160,96,13362,1,0,0:0:0:0:
127,188,13437,1,0,0:0:0:0:
352,96,13512,1,8,0:0:0:0:
352,96,13662,1,8,0:0:0:0:
160,96,13812,1,0,0:0:0:0:
352,96,13887,1,8,0:0:0:0:
160,96,13962,1,0,0:0:0:0:
160,96,14037,1,0,0:0:0:0:
352,96,14112,1,8,0:0:0:0:
214,184,14162,1,0,0:0:0:0:
214,184,14212,1,0,0:0:0:0:
352,96,14262,1,8,0:0:0:0:
160,96,14412,1,8,0:0:0:0:
160,96,14562,1,0,0:0:0:0:
160,96,14637,1,0,0:0:0:0:
352,96,14712,1,8,0:0:0:0:
352,96,14862,1,8,0:0:0:0:
352,96,15012,1,8,0:0:0:0:
352,96,15087,1,8,0:0:0:0:
160,96,15162,1,0,0:0:0:0:
160,96,15237,1,0,0:0:0:0:
352,96,15312,1,8,0:0:0:0:
352,96,15462,1,8,0:0:0:0:
352,96,15537,1,8,0:0:0:0:
160,96,15612,1,0,0:0:0:0:
160,96,15762,1,0,0:0:0:0:
352,96,15912,1,8,0:0:0:0:
160,96,15987,1,0,0:0:0:0:
352,96,16062,1,8,0:0:0:0:
160,96,16212,1,0,0:0:0:0:
352,96,16287,1,8,0:0:0:0:
160,96,16362,1,0,0:0:0:0:
160,96,16437,1,0,0:0:0:0:
352,96,16512,1,8,0:0:0:0:
160,96,16662,1,0,0:0:0:0:
160,96,16812,1,0,0:0:0:0:
160,96,16962,1,0,0:0:0:0:
160,96,17037,1,0,0:0:0:0:
352,96,17112,1,8,0:0:0:0:
352,96,17262,1,8,0:0:0:0:
160,96,17412,1,0,0:0:0:0:
352,96,17487,1,8,0:0:0:0:
160,96,17562,1,0,0:0:0:0:
160,96,17637,1,0,0:0:0:0:
352,96,17712,1,8,0:0:0:0:
352,96,17862,1,8,0:0:0:0:
160,96,17937,1,0,0:0:0:0:
352,96,18012,1,8,0:0:0:0:
160,96,18162,1,0,0:0:0:0:
352,96,18312,1,8,0:0:0:0:
160,96,18462,1,0,0:0:0:0:
160,96,18537,1,0,0:0:0:0:
352,96,18612,1,8,0:0:0:0:
352,96,18687,1,0,0:0:0:0:
160,96,18762,1,8,0:0:0:0:
243,112,18837,1,0,0:0:0:0:
352,96,18912,1,8,0:0:0:0:
421,136,18962,1,8,0:0:0:0:
421,136,19012,1,8,0:0:0:0:
426,151,19062,1,0,0:0:0:0:
369,99,19137,1,8,0:0:0:0:
160,96,19212,1,0,0:0:0:0:
160,96,19362,1,0,0:0:0:0:
352,96,19512,1,8,0:0:0:0:
352,96,19662,1,8,0:0:0:0:
160,96,19737,1,0,0:0:0:0:
352,96,19812,1,8,0:0:0:0:
352,96,19887,1,8,0:0:0:0:
160,96,19962,1,0,0:0:0:0:
352,96,20112,1,8,0:0:0:0:
352,96,20262,1,8,0:0:0:0:
352,96,20337,1,8,0:0:0:0:
160,96,20412,1,0,0:0:0:0:
160,96,20562,1,0,0:0:0:0:
160,96,20637,1,0,0:0:0:0:
352,96,20712,1,8,0:0:0:0:
352,96,20862,1,8,0:0:0:0:
160,96,21012,1,0,0:0:0:0:
352,96,21087,1,8,0:0:0:0:
160,96,21162,1,0,0:0:0:0:
160,96,21237,1,0,0:0:0:0:
352,96,21312,1,8,0:0:0:0:
160,96,21462,1,0,0:0:0:0:
352,96,21537,1,8,0:0:0:0:
160,96,21612,1,0,0:0:0:0:
160,96,21762,1,0,0:0:0:0:
160,96,21837,1,0,0:0:0:0:
352,96,21912,1,8,0:0:0:0:
160,96,22062,1,0,0:0:0:0:
352,96,22212,1,8,0:0:0:0:
352,96,22287,1,8,0:0:0:0:
160,96,22362,1,0,0:0:0:0:
160,96,22437,1,0,0:0:0:0:
352,96,22512,1,8,0:0:0:0:
160,96,22662,1,0,0:0:0:0:
160,96,22812,1,0,0:0:0:0:
352,96,22887,1,8,0:0:0:0:
160,96,22962,1,0,0:0:0:0:
160,96,23037,1,0,0:0:0:0:
352,96,23112,1,8,0:0:0:0:
352,96,23262,1,8,0:0:0:0:
352,96,23337,1,8,0:0:0:0:
188,124,23412,1,0,0:0:0:0:
160,96,23562,1,0,0:0:0:0:
352,96,23712,1,8,0:0:0:0:
410,146,23762,1,8,0:0:0:0:
410,146,23812,1,8,0:0:0:0:
352,96,23862,1,0,0:0:0:0:
352,96,23937,1,8,0:0:0:0:
160,96,24012,1,0,0:0:0:0:
160,96,24162,1,0,0:0:0:0:
160,96,24237,1,0,0:0:0:0:
352,96,24312,1,8,0:0:0:0:
160,96,24462,1,0,0:0:0:0:
352,96,24612,1,8,0:0:0:0:
352,96,24687,1,8,0:0:0:0:
160,96,24762,1,0,0:0:0:0:
160,96,24837,1,0,0:0:0:0:
352,96,24912,1,8,0:0:0:0:
352,96,25062,1,8,0:0:0:0:
352,96,25137,1,8,0:0:0:0:
160,96,25212,1,0,0:0:0:0:
352,96,25362,1,8,0:0:0:0:
160,96,25437,1,0,0:0:0:0:
352,96,25512,1,8,0:0:0:0:
352,96,25587,1,8,0:0:0:0:
160,96,25662,1,0,0:0:0:0:
160,96,25737,1,0,0:0:0:0:
352,96,25812,1,8,0:0:0:0:
352,96,25887,1,8,0:0:0:0:
160,96,25962,1,0,0:0:0:0:
160,96,26037,1,0,0:0:0:0:
352,96,26112,1,8,0:0:0:0:
352,96,26262,1,8,0:0:0:0:
352,96,26337,1,8,0:0:0:0:
160,96,26412,1,0,0:0:0:0:
160,96,26562,1,0,0:0:0:0:
160,96,26637,1,0,0:0:0:0:
352,96,26712,1,8,0:0:0:0:
352,96,26862,1,8,0:0:0:0:
160,96,26937,1,0,0:0:0:0:
352,96,27012,1,8,0:0:0:0:
352,96,27087,1,8,0:0:0:0:
160,96,27162,1,0,0:0:0:0:
160,96,27237,1,0,0:0:0:0:
352,96,27312,1,8,0:0:0:0:
160,96,27462,1,0,0:0:0:0:
352,96,27612,1,8,0:0:0:0:
352,96,27687,1,8,0:0:0:0:
160,96,27762,1,0,0:0:0:0:
160,96,27837,1,0,0:0:0:0:
352,96,27912,1,8,0:0:0:0:
160,96,28062,1,0,0:0:0:0:
352,96,28137,1,8,0:0:0:0:
160,96,28212,1,0,0:0:0:0:
352,96,28287,1,8,0:0:0:0:
160,96,28362,1,0,0:0:0:0:
310,178,28512,1,0,0:0:0:0:
310,178,28562,1,0,0:0:0:0:
310,178,28612,1,0,0:0:0:0:
160,96,28662,1,8,0:0:0:0:
352,96,28812,1,0,0:0:0:0:
160,96,28962,1,0,0:0:0:0:
160,96,29037,1,0,0:0:0:0:
352,96,29112,1,8,0:0:0:0:
352,96,29262,1,8,0:0:0:0:
160,96,29412,1,0,0:0:0:0:
352,96,29487,1,8,0:0:0:0:
160,96,29562,1,0,0:0:0:0:
352,96,29712,1,8,0:0:0:0:
352,96,29862,1,8,0:0:0:0:
180,88,29937,1,8,0:0:0:0:
160,96,30012,1,0,0:0:0:0:
352,96,30162,1,8,0:0:0:0:
352,96,30312,1,8,0:0:0:0:
160,96,30387,1,0,0:0:0:0:
352,96,30462,1,8,0:0:0:0:
160,96,30612,1,0,0:0:0:0:
160,96,30762,1,0,0:0:0:0:
160,96,30837,1,0,0:0:0:0:
352,96,30912,1,8,0:0:0:0:
352,96,31062,1,8,0:0:0:0:
352,96,31137,1,8,0:0:0:0:
160,96,31212,1,0,0:0:0:0:
160,96,31362,1,0,0:0:0:0:
352,96,31512,1,8,0:0:0:0:
352,96,31662,1,8,0:0:0:0:
160,96,31737,1,0,0:0:0:0:
352,96,31812,1,8,0:0:0:0:
352,96,31887,1,8,0:0:0:0:
160,96,31962,1,0,0:0:0:0:
352,96,32112,1,8,0:0:0:0:
352,96,32262,1,8,0:0:0:0:
352,96,32337,1,8,0:0:0:0:
160,96,32412,1,0,0:0:0:0:
352,96,32562,1,8,0:0:0:0:
352,96,32712,1,8,0:0:0:0:
352,96,32862,1,8,0:0:0:0:
160,96,32937,1,0,0:0:0:0:
352,96,33012,1,8,0:0:0:0:
352,96,33087,1,0,0:0:0:0:
160,96,33162,1,0,0:0:0:0:
352,96,33312,1,8,0:0:0:0:
160,96,33462,1,0,0:0:0:0:
352,96,33537,1,8,0:0:0:0:
160,96,33612,1,0,0:0:0:0:
352,96,33912,1,8,0:0:0:0:
352,96,33949,1,8,0:0:0:0:
352,96,34062,1,8,0:0:0:0:
352,96,34099,1,8,0:0:0:0:
160,288,34212,1,4,0:0:0:0:
352,96,34362,1,8,0:0:0:0:
160,288,34512,1,0,0:0:0:0:
352,96,34662,1,8,0:0:0:0:
160,288,34812,1,4,0:0:0:0:
160,96,34999,1,0,0:0:0:0:
352,96,35112,1,8,0:0:0:0:
352,96,35299,1,8,0:0:0:0:
160,96,35412,1,0,0:0:0:0:
160,96,35712,1,8,0:0:0:0:
352,96,35899,1,8,0:0:0:0:
160,96,36012,1,0,0:0:0:0:
352,96,36162,1,8,0:0:0:0:
160,96,36237,1,0,0:0:0:0:
352,96,36312,1,8,0:0:0:0:
352,96,36462,1,8,0:0:0:0:
160,96,36612,1,0,0:0:0:0:
352,96,36762,1,8,0:0:0:0:
352,96,36837,1,8,0:0:0:0:
160,96,36912,1,0,0:0:0:0:
352,96,37062,1,8,0:0:0:0:
160,288,37212,1,4,0:0:0:0:
352,96,37362,1,8,0:0:0:0:
160,288,37512,1,4,0:0:0:0:
352,96,37662,1,8,0:0:0:0:
160,288,37812,1,4,0:0:0:0:
352,96,37962,1,8,0:0:0:0:
352,96,38037,1,8,0:0:0:0:
352,96,38112,1,8,0:0:0:0:
352,96,38262,1,8,0:0:0:0:
352,96,38862,1,8,0:0:0:0:
160,96,39012,1,0,0:0:0:0:
160,96,39162,1,0,0:0:0:0:
352,96,39312,1,8,0:0:0:0:
160,96,39462,1,0,0:0:0:0:
352,96,39537,1,8,0:0:0:0:
160,96,39612,1,0,0:0:0:0:
160,96,39762,1,0,0:0:0:0:
160,96,39837,1,0,0:0:0:0:
352,96,39912,1,8,0:0:0:0:
352,96,40062,1,8,0:0:0:0:
160,96,40212,1,0,0:0:0:0:
352,96,40362,1,8,0:0:0:0:
160,96,40437,1,0,0:0:0:0:
352,96,40512,1,8,0:0:0:0:
352,96,40662,1,8,0:0:0:0:
160,96,40812,1,0,0:0:0:0:
160,96,40962,1,0,0:0:0:0:
160,96,41037,1,0,0:0:0:0:
352,96,41112,1,8,0:0:0:0:
352,96,41262,1,8,0:0:0:0:
160,96,41412,1,0,0:0:0:0:
352,96,41487,1,8,0:0:0:0:
160,96,41562,1,0,0:0:0:0:
160,96,41637,1,0,0:0:0:0:
352,96,41712,1,8,0:0:0:0:
160,96,41862,1,0,0:0:0:0:
352,96,41937,1,8,0:0:0:0:
160,96,42012,1,0,0:0:0:0:
160,96,42162,1,0,0:0:0:0:
352,96,42312,1,8,0:0:0:0:
160,96,42462,1,0,0:0:0:0:
352,96,42537,1,8,0:0:0:0:
160,96,42612,1,0,0:0:0:0:
352,96,42762,1,8,0:0:0:0:
160,96,42837,1,0,0:0:0:0:
352,96,42912,1,8,0:0:0:0:
352,96,43062,1,8,0:0:0:0:
160,96,43212,1,0,0:0:0:0:
352,96,43287,1,8,0:0:0:0:
160,96,43362,1,0,0:0:0:0:
160,96,43437,1,0,0:0:0:0:
352,96,43512,1,8,0:0:0:0:
352,96,43662,1,8,0:0:0:0:
160,96,43812,1,0,0:0:0:0:
160,96,43962,1,0,0:0:0:0:
160,96,44037,1,0,0:0:0:0:
352,96,44112,1,8,0:0:0:0:
429,164,44162,1,8,0:0:0:0:
429,164,44212,1,8,0:0:0:0:
160,96,44262,1,0,0:0:0:0:
160,96,44412,1,0,0:0:0:0:
352,96,44562,1,8,0:0:0:0:
352,96,44712,1,8,0:0:0:0:
352,96,44862,1,8,0:0:0:0:
352,96,44937,1,8,0:0:0:0:
160,96,45012,1,0,0:0:0:0:
160,96,45162,1,0,0:0:0:0:
160,96,45237,1,0,0:0:0:0:
352,96,45312,1,8,0:0:0:0:
160,96,45462,1,0,0:0:0:0:
352,96,45612,1,8,0:0:0:0:
160,96,45687,1,0,0:0:0:0:
352,96,45762,1,8,0:0:0:0:
352,96,45837,1,8,0:0:0:0:
160,96,45912,1,0,0:0:0:0:
352,96,46062,1,8,0:0:0:0:
160,96,46212,1,0,0:0:0:0:
160,96,46362,1,0,0:0:0:0:
160,96,46437,1,0,0:0:0:0:
352,96,46512,1,8,0:0:0:0:
277,122,46587,1,0,0:0:0:0:
352,96,46662,1,8,0:0:0:0:
160,96,46812,1,0,0:0:0:0:
160,96,46962,1,0,0:0:0:0:
160,96,47037,1,0,0:0:0:0:
352,96,47112,1,8,0:0:0:0:
352,96,47262,1,8,0:0:0:0:
160,96,47412,1,0,0:0:0:0:
160,96,47487,1,0,0:0:0:0:
352,96,47562,1,8,0:0:0:0:
160,288,47712,1,4,0:0:0:0:
352,96,47862,1,8,0:0:0:0:
352,96,47937,1,8,0:0:0:0:
160,96,48012,1,0,0:0:0:0:
160,96,48162,1,0,0:0:0:0:
160,96,48237,1,0,0:0:0:0:
352,96,48312,1,8,0:0:0:0:
352,96,48462,1,8,0:0:0:0:
160,96,48612,1,0,0:0:0:0:
160,96,48762,1,0,0:0:0:0:
160,96,48837,1,0,0:0:0:0:
352,96,48912,1,8,0:0:0:0:
326,178,48962,1,8,0:0:0:0:
326,178,49012,1,8,0:0:0:0:
352,96,49062,1,0,0:0:0:0:
160,96,49212,1,0,0:0:0:0:
352,96,49362,1,8,0:0:0:0:
352,96,49437,1,8,0:0:0:0:
160,96,49512,1,0,0:0:0:0:
352,96,49662,1,8,0:0:0:0:
352,96,49812,1,8,0:0:0:0:
160,96,49962,1,0,0:0:0:0:
352,96,50037,1,8,0:0:0:0:
160,96,50112,1,0,0:0:0:0:
160,96,50187,1,0,0:0:0:0:
352,96,50262,1,8,0:0:0:0:
160,96,50412,1,0,0:0:0:0:
352,96,50562,1,8,0:0:0:0:
160,96,50637,1,0,0:0:0:0:
352,96,50712,1,8,0:0:0:0:
352,96,50787,1,8,0:0:0:0:
160,96,50862,1,0,0:0:0:0:
160,96,51012,1,0,0:0:0:0:
352,96,51162,1,8,0:0:0:0:
352,96,51237,1,8,0:0:0:0:
160,96,51312,1,0,0:0:0:0:
160,96,51462,1,0,0:0:0:0:
352,96,51612,1,8,0:0:0:0:
160,96,51687,1,0,0:0:0:0:
352,96,51762,1,8,0:0:0:0:
160,96,51912,1,0,0:0:0:0:
352,96,52062,1,8,0:0:0:0:
352,96,52212,1,8,0:0:0:0:
160,96,52287,1,0,0:0:0:0:
352,96,52362,1,8,0:0:0:0:
352,96,52437,1,8,0:0:0:0:
160,96,52512,1,0,0:0:0:0:
160,96,52662,1,0,0:0:0:0:
160,96,52812,1,0,0:0:0:0:
160,96,52887,1,0,0:0:0:0:
352,96,52962,1,8,0:0:0:0:
352,96,53112,1,8,0:0:0:0:
160,96,53262,1,0,0:0:0:0:
160,96,53337,1,0,0:0:0:0:
352,96,53412,1,8,0:0:0:0:
160,96,53562,1,0,0:0:0:0:
352,96,53712,1,8,0:0:0:0:
352,96,53787,1,8,0:0:0:0:
160,96,53862,1,0,0:0:0:0:
160,96,53937,1,0,0:0:0:0:
352,96,54012,1,8,0:0:0:0:
352,96,54162,1,8,0:0:0:0:
160,96,54312,1,0,0:0:0:0:
352,96,54462,1,8,0:0:0:0:
160,96,54537,1,0,0:0:0:0:
160,96,54612,1,0,0:0:0:0:
160,96,54687,1,0,0:0:0:0:
352,96,54762,1,8,0:0:0:0:
352,96,54912,1,8,0:0:0:0:
160,96,55062,1,0,0:0:0:0:
352,96,55137,1,8,0:0:0:0:
352,96,55212,1,0,0:0:0:0:
352,96,55362,1,8,0:0:0:0:
160,96,55512,1,0,0:0:0:0:
352,96,55662,1,8,0:0:0:0:
352,96,55737,1,8,0:0:0:0:
160,96,55812,1,0,0:0:0:0:
160,96,55887,1,0,0:0:0:0:
352,96,55962,1,8,0:0:0:0:
160,96,56112,1,0,0:0:0:0:
160,96,56262,1,0,0:0:0:0:
160,96,56337,1,0,0:0:0:0:
352,96,56412,1,8,0:0:0:0:
160,96,56562,1,0,0:0:0:0:
160,96,56712,1,0,0:0:0:0:
352,96,56862,1,8,0:0:0:0:
160,96,57012,1,0,0:0:0:0:
352,96,57087,1,8,0:0:0:0:
160,96,57162,1,0,0:0:0:0:
352,96,57237,1,0,0:0:0:0:
352,96,57312,1,8,0:0:0:0:
247,158,57362,1,8,0:0:0:0:
247,158,57412,1,8,0:0:0:0:
160,96,57462,1,0,0:0:0:0:
160,96,57537,1,0,0:0:0:0:
352,96,57612,1,8,0:0:0:0:
352,96,57762,1,8,0:0:0:0:
160,96,57837,1,0,0:0:0:0:
352,96,57912,1,8,0:0:0:0:
160,96,58062,1,0,0:0:0:0:
160,96,58212,1,0,0:0:0:0:
160,96,58287,1,0,0:0:0:0:
352,96,58362,1,8,0:0:0:0:
160,96,58437,1,8,0:0:0:0:
160,96,58512,1,0,0:0:0:0:
160,96,58662,1,0,0:0:0:0:
352,96,58737,1,8,0:0:0:0:
160,96,58812,1,0,0:0:0:0:
352,96,58962,1,8,0:0:0:0:
160,96,59112,1,0,0:0:0:0:
160,96,59262,1,0,0:0:0:0:
160,96,59412,1,0,0:0:0:0:
352,96,59487,1,8,0:0:0:0:
160,96,59562,1,0,0:0:0:0:
216,196,59637,1,0,0:0:0:0:
352,96,59712,1,8,0:0:0:0:
352,96,59862,1,8,0:0:0:0:
160,96,60012,1,0,0:0:0:0:
160,96,60087,1,0,0:0:0:0:
352,96,60162,1,8,0:0:0:0:
352,96,60312,1,8,0:0:0:0:
160,96,60387,1,0,0:0:0:0:
352,96,60462,1,8,0:0:0:0:
160,96,60612,1,0,0:0:0:0:
160,96,60762,1,0,0:0:0:0:
352,96,60837,1,8,0:0:0:0:
352,96,60912,1,8,0:0:0:0:
352,96,61062,1,8,0:0:0:0:
352,96,61212,1,0,0:0:0:0:
352,96,61249,1,0,0:0:0:0:
352,96,61362,1,8,0:0:0:0:
352,96,61399,1,8,0:0:0:0:
160,96,61512,1,8,0:0:0:0:
160,96,61549,1,8,0:0:0:0:
352,96,61662,1,8,0:0:0:0:
352,96,61699,1,8,0:0:0:0:
160,96,61812,1,0,0:0:0:0:
160,96,61849,1,0,0:0:0:0:
160,96,61962,1,8,0:0:0:0:
160,96,61999,1,8,0:0:0:0:
352,96,62112,1,8,0:0:0:0:
352,96,62149,1,8,0:0:0:0:
160,96,62262,1,8,0:0:0:0:
160,96,62299,1,8,0:0:0:0:
352,96,62862,1,8,0:0:0:0:
160,96,63012,1,0,0:0:0:0:
160,96,63162,1,0,0:0:0:0:
352,96,63312,1,8,0:0:0:0:
160,96,63462,1,0,0:0:0:0:
352,96,63537,1,8,0:0:0:0:
160,96,63612,1,0,0:0:0:0:
160,96,63762,1,0,0:0:0:0:
160,96,63837,1,0,0:0:0:0:
352,96,63912,1,8,0:0:0:0:
352,96,64062,1,8,0:0:0:0:
160,96,64212,1,0,0:0:0:0:
352,96,64362,1,8,0:0:0:0:
160,96,64437,1,0,0:0:0:0:
352,96,64512,1,8,0:0:0:0:
352,96,64662,1,8,0:0:0:0:
160,96,64812,1,0,0:0:0:0:
160,96,64962,1,0,0:0:0:0:
160,96,65037,1,0,0:0:0:0:
352,96,65112,1,8,0:0:0:0:
352,96,65262,1,8,0:0:0:0:
160,96,65412,1,0,0:0:0:0:
352,96,65487,1,8,0:0:0:0:
160,96,65562,1,0,0:0:0:0:
160,96,65637,1,0,0:0:0:0:
352,96,65712,1,8,0:0:0:0:
160,96,65862,1,0,0:0:0:0:
352,96,65937,1,8,0:0:0:0:
160,96,66012,1,0,0:0:0:0:
160,96,66162,1,0,0:0:0:0:
352,96,66312,1,8,0:0:0:0:
160,96,66462,1,0,0:0:0:0:
352,96,66537,1,8,0:0:0:0:
160,96,66612,1,0,0:0:0:0:
352,96,66762,1,8,0:0:0:0:
160,96,66837,1,0,0:0:0:0:
352,96,66912,1,8,0:0:0:0:
352,96,67062,1,8,0:0:0:0:
160,96,67212,1,0,0:0:0:0:
352,96,67287,1,8,0:0:0:0:
160,96,67362,1,0,0:0:0:0:
160,96,67437,1,0,0:0:0:0:
352,96,67512,1,8,0:0:0:0:
352,96,67662,1,8,0:0:0:0:
160,96,67812,1,0,0:0:0:0:
160,96,67962,1,0,0:0:0:0:
160,96,68037,1,0,0:0:0:0:
352,96,68112,1,8,0:0:0:0:
425,155,68162,1,8,0:0:0:0:
425,155,68212,1,8,0:0:0:0:
374,162,68262,1,0,0:0:0:0:
160,96,68412,1,8,0:0:0:0:
160,96,68712,1,8,0:0:0:0:
160,96,69012,1,8,0:0:0:0:
160,96,69162,1,8,0:0:0:0:
160,96,69312,1,0,0:0:0:0:
160,96,69387,1,0,0:0:0:0:
160,96,69462,1,0,0:0:0:0:
160,96,69537,1,0,0:0:0:0:
352,96,69612,1,8,0:0:0:0:
160,96,69762,1,0,0:0:0:0:
160,96,69837,1,0,0:0:0:0:
352,96,69912,1,8,0:0:0:0:
352,96,70062,1,8,0:0:0:0:
352,96,70137,1,8,0:0:0:0:
160,96,70212,1,0,0:0:0:0:
160,96,70287,1,0,0:0:0:0:
352,96,70362,1,8,0:0:0:0:
352,96,70512,1,8,0:0:0:0:
352,96,70662,1,8,0:0:0:0:
352,96,70737,1,8,0:0:0:0:
160,96,70812,1,0,0:0:0:0:
352,96,70887,1,8,0:0:0:0:
160,96,70962,1,0,0:0:0:0:
160,96,71037,1,0,0:0:0:0:
352,96,71112,1,8,0:0:0:0:
352,96,71262,1,8,0:0:0:0:
160,96,71412,1,0,0:0:0:0:
352,96,71487,1,8,0:0:0:0:
160,96,71562,1,0,0:0:0:0:
160,96,71637,1,0,0:0:0:0:
352,96,71712,1,8,0:0:0:0:
352,96,71787,1,8,0:0:0:0:
160,96,71862,1,0,0:0:0:0:
352,96,72012,1,8,0:0:0:0:
160,96,72162,1,0,0:0:0:0:
160,96,72237,1,0,0:0:0:0:
352,96,72312,1,8,0:0:0:0:
160,96,72387,1,0,0:0:0:0:
352,96,72462,1,8,0:0:0:0:
352,96,72537,1,8,0:0:0:0:
160,96,72612,1,0,0:0:0:0:
352,96,72687,1,8,0:0:0:0:
352,96,72762,1,8,0:0:0:0:
160,96,72837,1,0,0:0:0:0:
352,96,72912,1,8,0:0:0:0:
160,96,73062,1,0,0:0:0:0:
352,96,73137,1,8,0:0:0:0:
160,96,73212,1,0,0:0:0:0:
160,96,73362,1,0,0:0:0:0:
160,96,73437,1,0,0:0:0:0:
352,96,73512,1,8,0:0:0:0:
160,96,73662,1,0,0:0:0:0:
352,96,73737,1,8,0:0:0:0:
352,96,73887,1,8,0:0:0:0:
190,164,73962,1,0,0:0:0:0:
352,96,74037,1,8,0:0:0:0:
160,96,74112,1,0,0:0:0:0:
241,108,74162,1,0,0:0:0:0:
241,108,74212,1,0,0:0:0:0:
352,96,74262,1,8,0:0:0:0:
352,96,74337,1,8,0:0:0:0:
160,96,74412,1,0,0:0:0:0:
352,96,74562,1,8,0:0:0:0:
160,96,74637,1,0,0:0:0:0:
352,96,74712,1,8,0:0:0:0:
160,96,74862,1,0,0:0:0:0:
160,96,74937,1,0,0:0:0:0:
160,96,75087,1,0,0:0:0:0:
160,96,75162,1,0,0:0:0:0:
352,96,75237,1,8,0:0:0:0:
352,96,75312,1,8,0:0:0:0:
160,96,75387,1,0,0:0:0:0:
352,96,75537,1,8,0:0:0:0:
160,96,75612,1,0,0:0:0:0:
160,96,75762,1,0,0:0:0:0:
352,96,75912,1,8,0:0:0:0:
352,96,76062,1,8,0:0:0:0:
352,96,76137,1,8,0:0:0:0:
160,96,76212,1,0,0:0:0:0:
352,96,76287,1,8,0:0:0:0:
160,96,76362,1,0,0:0:0:0:
352,96,76512,1,8,0:0:0:0:
352,96,76662,1,8,0:0:0:0:
352,96,76737,1,8,0:0:0:0:
160,96,76812,1,0,0:0:0:0:
160,96,76962,1,0,0:0:0:0:
352,96,77037,1,8,0:0:0:0:
160,96,77112,1,0,0:0:0:0:
352,96,77262,1,8,0:0:0:0:
352,96,77337,1,8,0:0:0:0:
160,96,77412,1,0,0:0:0:0:
352,96,77487,1,8,0:0:0:0:
352,96,77562,1,8,0:0:0:0:
352,96,77637,1,8,0:0:0:0:
160,96,77712,1,0,0:0:0:0:
160,96,77787,1,0,0:0:0:0:
352,96,77862,1,8,0:0:0:0:
352,96,77937,1,8,0:0:0:0:
160,96,78012,1,0,0:0:0:0:
352,96,78462,1,8,0:0:0:0:
160,96,78612,1,0,0:0:0:0:
160,96,78662,1,0,0:0:0:0:
160,96,78712,1,0,0:0:0:0:
160,96,78762,1,0,0:0:0:0:
160,96,78837,1,0,0:0:0:0:
352,96,78912,1,8,0:0:0:0:
160,96,79062,1,0,0:0:0:0:
352,288,79212,1,12,0:0:0:0:
352,96,79362,1,8,0:0:0:0:
160,96,79437,1,0,0:0:0:0:
352,96,79512,1,8,0:0:0:0:
160,96,79587,1,0,0:0:0:0:
352,96,79662,1,8,0:0:0:0:
352,96,79737,1,8,0:0:0:0:
160,96,79812,1,0,0:0:0:0:
352,96,79887,1,8,0:0:0:0:
160,96,79962,1,0,0:0:0:0:
160,96,80037,1,0,0:0:0:0:
352,96,80112,1,8,0:0:0:0:
352,96,80262,1,8,0:0:0:0:
160,96,80412,1,0,0:0:0:0:
160,96,80562,1,0,0:0:0:0:
160,96,80637,1,0,0:0:0:0:
352,96,80712,1,8,0:0:0:0:
160,96,80862,1,0,0:0:0:0:
160,96,80937,1,0,0:0:0:0:
352,96,81012,1,8,0:0:0:0:
352,96,81087,1,8,0:0:0:0:
160,96,81162,1,0,0:0:0:0:
352,96,81237,1,8,0:0:0:0:
352,96,81312,1,8,0:0:0:0:
352,96,81387,1,8,0:0:0:0:
160,96,81462,1,0,0:0:0:0:
160,96,81612,1,8,0:0:0:0:
160,96,81762,1,0,0:0:0:0:
160,96,81837,1,0,0:0:0:0:
352,96,81912,1,8,0:0:0:0:
160,96,81987,1,0,0:0:0:0:
352,96,82062,1,8,0:0:0:0:
160,96,82137,1,0,0:0:0:0:
352,96,82212,1,8,0:0:0:0:
160,96,82287,1,0,0:0:0:0:
160,96,82362,1,0,0:0:0:0:
160,96,82437,1,0,0:0:0:0:
352,96,82512,1,8,0:0:0:0:
160,96,82662,1,0,0:0:0:0:
160,96,82812,1,8,0:0:0:0:
160,96,82962,1,0,0:0:0:0:
160,96,83037,1,0,0:0:0:0:
352,96,83112,1,8,0:0:0:0:
352,96,83187,1,8,0:0:0:0:
160,96,83262,1,0,0:0:0:0:
352,96,83412,1,8,0:0:0:0:
352,96,83487,1,8,0:0:0:0:
160,96,83562,1,0,0:0:0:0:
160,96,83637,1,0,0:0:0:0:
40,276,83712,1,8,0:0:0:0:
251,207,83762,1,8,0:0:0:0:
251,207,83812,1,8,0:0:0:0:
160,96,83862,1,0,0:0:0:0:
160,96,83937,1,0,0:0:0:0:
352,96,84012,1,8,0:0:0:0:
352,96,84087,1,8,0:0:0:0:
160,96,84162,1,0,0:0:0:0:
352,96,84312,1,8,0:0:0:0:
352,96,84462,1,8,0:0:0:0:
352,96,84537,1,8,0:0:0:0:
160,96,84612,1,0,0:0:0:0:
352,96,84687,1,8,0:0:0:0:
160,96,84762,1,0,0:0:0:0:
160,96,84837,1,0,0:0:0:0:
352,96,84912,1,8,0:0:0:0:
160,96,85062,1,0,0:0:0:0:
160,96,85137,1,0,0:0:0:0:
352,96,85212,1,8,0:0:0:0:
352,96,85287,1,8,0:0:0:0:
160,96,85362,1,0,0:0:0:0:
352,96,85512,1,8,0:0:0:0:
160,96,85662,1,8,0:0:0:0:
160,96,85737,1,0,0:0:0:0:
352,96,85812,1,8,0:0:0:0:
352,96,85887,1,0,0:0:0:0:
160,96,85962,1,0,0:0:0:0:
160,96,86037,1,8,0:0:0:0:
352,96,86112,1,0,0:0:0:0:
352,96,86262,1,8,0:0:0:0:
352,96,86337,1,8,0:0:0:0:
160,96,86412,1,0,0:0:0:0:
352,96,86487,1,8,0:0:0:0:
160,96,86562,1,0,0:0:0:0:
352,96,86712,1,8,0:0:0:0:
352,96,86862,1,8,0:0:0:0:
352,96,86937,1,8,0:0:0:0:
160,96,87012,1,0,0:0:0:0:
352,96,87087,1,8,0:0:0:0:
160,96,87162,1,0,0:0:0:0:
352,96,87312,1,8,0:0:0:0:
160,96,87462,1,0,0:0:0:0:
352,96,87537,1,0,0:0:0:0:
352,96,87612,1,8,0:0:0:0:
425,156,87687,1,8,0:0:0:0:
160,96,87762,1,0,0:0:0:0:
160,96,87837,1,0,0:0:0:0:
352,96,87912,1,8,0:0:0:0:
361,168,87987,1,0,0:0:0:0:
352,96,88062,1,8,0:0:0:0:
160,96,88137,1,0,0:0:0:0:
352,96,88212,1,8,0:0:0:0:
352,96,88287,1,8,0:0:0:0:
160,96,88362,1,0,0:0:0:0:
160,96,88437,1,0,0:0:0:0:
352,96,88512,1,8,0:0:0:0:
246,158,88562,1,0,0:0:0:0:
246,158,88612,1,0,0:0:0:0:
160,96,88662,1,8,0:0:0:0:
160,96,88737,1,0,0:0:0:0:
352,96,88812,1,8,0:0:0:0:
160,96,88962,1,0,0:0:0:0:
352,96,89112,1,8,0:0:0:0:
160,96,89262,1,0,0:0:0:0:
160,96,89337,1,0,0:0:0:0:
352,96,89412,1,8,0:0:0:0:
352,96,89487,1,8,0:0:0:0:
160,96,89562,1,0,0:0:0:0:
352,96,89712,1,8,0:0:0:0:
352,96,89862,1,8,0:0:0:0:
352,96,89937,1,8,0:0:0:0:
160,96,90012,1,0,0:0:0:0:
160,96,90162,1,0,0:0:0:0:
352,96,90312,1,8,0:0:0:0:
160,96,90462,1,0,0:0:0:0:
352,96,90537,1,8,0:0:0:0:
160,96,90612,1,0,0:0:0:0:
160,96,90687,1,0,0:0:0:0:
352,96,90762,1,8,0:0:0:0:
352,96,90912,1,8,0:0:0:0:
352,96,91062,1,8,0:0:0:0:
352,96,91137,1,8,0:0:0:0:
160,96,91212,1,0,0:0:0:0:
160,96,91362,1,0,0:0:0:0:
352,96,91512,1,8,0:0:0:0:
160,96,91662,1,0,0:0:0:0:
160,96,91737,1,0,0:0:0:0:
352,96,91812,1,8,0:0:0:0:
352,96,91887,1,8,0:0:0:0:
160,96,91962,1,0,0:0:0:0:
160,96,92037,1,0,0:0:0:0:
352,96,92112,1,8,0:0:0:0:
352,96,92262,1,8,0:0:0:0:
352,96,92337,1,8,0:0:0:0:
160,96,92412,1,0,0:0:0:0:
352,96,92487,1,8,0:0:0:0:
160,96,92562,1,0,0:0:0:0:
160,96,92637,1,0,0:0:0:0:
352,96,92712,1,8,0:0:0:0:
251,191,92787,1,8,0:0:0:0:
160,96,92862,1,0,0:0:0:0:
160,96,92937,1,0,0:0:0:0:
352,96,93012,1,8,0:0:0:0:
352,96,93087,1,0,0:0:0:0:
160,96,93162,1,8,0:0:0:0:
160,96,93237,1,0,0:0:0:0:
352,96,93312,1,8,0:0:0:0:
341,201,93362,1,8,0:0:0:0:
341,201,93412,1,8,0:0:0:0:
160,96,93462,1,0,0:0:0:0:
404,166,93537,1,8,0:0:0:0:
160,96,93612,1,0,0:0:0:0:
160,96,93762,1,0,0:0:0:0:
352,96,93912,1,8,0:0:0:0:
160,96,94062,1,0,0:0:0:0:
160,96,94137,1,0,0:0:0:0:
352,96,94212,1,8,0:0:0:0:
352,96,94287,1,8,0:0:0:0:
160,96,94362,1,0,0:0:0:0:
160,96,94437,1,0,0:0:0:0:
352,96,94512,1,8,0:0:0:0:
352,96,94662,1,8,0:0:0:0:
352,96,94737,1,8,0:0:0:0:
160,96,94812,1,0,0:0:0:0:
160,96,94962,1,0,0:0:0:0:
352,96,95112,1,8,0:0:0:0:
160,96,95262,1,0,0:0:0:0:
160,96,95337,1,0,0:0:0:0:
352,96,95412,1,8,0:0:0:0:
352,96,95487,1,8,0:0:0:0:
160,96,95562,1,0,0:0:0:0:
352,96,95712,1,8,0:0:0:0:
160,96,95862,1,0,0:0:0:0:
352,96,95937,1,8,0:0:0:0:
160,96,96012,1,0,0:0:0:0:
160,96,96162,1,0,0:0:0:0:
160,96,96237,1,0,0:0:0:0:
352,96,96312,1,8,0:0:0:0:
160,96,96462,1,0,0:0:0:0:
352,96,96612,1,8,0:0:0:0:
352,96,96687,1,8,0:0:0:0:
160,96,96762,1,0,0:0:0:0:
160,96,96837,1,0,0:0:0:0:
352,96,96912,1,8,0:0:0:0:
352,96,97062,1,8,0:0:0:0:
352,96,97137,1,8,0:0:0:0:
160,96,97212,1,0,0:0:0:0:
352,96,97287,1,8,0:0:0:0:
160,96,97362,1,0,0:0:0:0:
352,96,97512,1,8,0:0:0:0:
160,96,97662,1,0,0:0:0:0:
160,96,97737,1,0,0:0:0:0:
352,96,97812,1,8,0:0:0:0:
160,96,97962,1,0,0:0:0:0:
160,96,98037,1,0,0:0:0:0:
352,96,98112,1,8,0:0:0:0:
234,138,98162,1,0,0:0:0:0:
234,138,98212,1,0,0:0:0:0:
352,96,98262,1,8,0:0:0:0:
160,288,98412,1,4,0:0:0:0:
352,96,98712,1,12,0:0:0:0:
160,288,98862,1,4,0:0:0:0:
160,288,99162,1,4,0:0:0:0:
352,288,99312,1,12,0:0:0:0:
352,288,99612,1,12,0:0:0:0:
352,288,99762,1,12,0:0:0:0:
352,288,99912,1,12,0:0:0:0:
352,288,100062,1,12,0:0:0:0:
352,96,100212,1,8,0:0:0:0:
352,96,100287,1,8,0:0:0:0:
352,96,100362,1,8,0:0:0:0:
352,96,100437,1,8,0:0:0:0:
352,96,100512,1,8,0:0:0:0:
352,96,100562,1,8,0:0:0:0:
352,96,100612,1,8,0:0:0:0:
352,96,100662,1,8,0:0:0:0:
352,96,100712,1,8,0:0:0:0:
465,357,100762,1,8,0:0:0:0:
160,96,100812,1,0,0:0:0:0:
255,185,100962,1,0,0:0:0:0:
230,208,101037,1,0,0:0:0:0:
352,96,101112,1,8,0:0:0:0:
160,96,101262,1,0,0:0:0:0:
352,96,101412,1,8,0:0:0:0:
352,96,101487,1,8,0:0:0:0:
160,96,101562,1,0,0:0:0:0:
160,96,101637,1,0,0:0:0:0:
352,96,101712,1,8,0:0:0:0:
168,146,101787,1,0,0:0:0:0:
160,96,101862,1,8,0:0:0:0:
160,96,102012,1,0,0:0:0:0:
352,96,102087,1,8,0:0:0:0:
352,96,102162,1,8,0:0:0:0:
160,96,102237,1,0,0:0:0:0:
352,96,102312,1,8,0:0:0:0:
160,96,102462,1,0,0:0:0:0:
160,96,102537,1,0,0:0:0:0:
352,96,102612,1,8,0:0:0:0:
352,96,102687,1,8,0:0:0:0:
160,96,102762,1,0,0:0:0:0:
352,96,102837,1,8,0:0:0:0:
352,96,102912,1,8,0:0:0:0:
160,96,102987,1,0,0:0:0:0:
160,96,103062,1,0,0:0:0:0:
352,96,103137,1,8,0:0:0:0:
160,96,103212,1,0,0:0:0:0:
160,96,103362,1,0,0:0:0:0:
160,96,103437,1,0,0:0:0:0:
352,96,103512,1,8,0:0:0:0:
160,96,103662,1,0,0:0:0:0:
352,96,103812,1,8,0:0:0:0:
352,96,103887,1,8,0:0:0:0:
160,96,103962,1,0,0:0:0:0:
160,96,104037,1,0,0:0:0:0:
352,96,104112,1,8,0:0:0:0:
160,96,104187,1,0,0:0:0:0:
352,96,104262,1,8,0:0:0:0:
160,96,104337,1,0,0:0:0:0:
352,96,104412,1,8,0:0:0:0:
352,96,104487,1,8,0:0:0:0:
160,96,104562,1,0,0:0:0:0:
160,96,104637,1,0,0:0:0:0:
352,96,104712,1,8,0:0:0:0:
160,96,104862,1,0,0:0:0:0:
352,96,104937,1,8,0:0:0:0:
160,96,105012,1,0,0:0:0:0:
160,96,105162,1,0,0:0:0:0:
352,96,105237,1,8,0:0:0:0:
352,96,105387,1,8,0:0:0:0:
352,96,105462,1,8,0:0:0:0:
352,96,105612,1,8,0:0:0:0:
160,96,105762,1,0,0:0:0:0:
352,96,105837,1,8,0:0:0:0:
160,96,105912,1,0,0:0:0:0:
352,96,106062,1,8,0:0:0:0:
352,96,106137,1,8,0:0:0:0:
160,96,106212,1,0,0:0:0:0:
352,96,106287,1,8,0:0:0:0:
160,96,106362,1,0,0:0:0:0:
160,96,106437,1,0,0:0:0:0:
352,96,106512,1,8,0:0:0:0:
160,96,106662,1,0,0:0:0:0:
352,96,106737,1,8,0:0:0:0:
160,96,106812,1,0,0:0:0:0:
160,96,106962,1,0,0:0:0:0:
160,96,107037,1,0,0:0:0:0:
352,96,107112,1,8,0:0:0:0:
352,96,107262,1,8,0:0:0:0:
160,96,107337,1,0,0:0:0:0:
352,96,107412,1,8,0:0:0:0:
160,96,107487,1,0,0:0:0:0:
160,96,107562,1,0,0:0:0:0:
160,96,107637,1,0,0:0:0:0:
352,96,107712,1,8,0:0:0:0:
352,96,107862,1,8,0:0:0:0:
352,96,107937,1,8,0:0:0:0:
160,96,108012,1,0,0:0:0:0:
352,96,108087,1,8,0:0:0:0:
160,96,108162,1,0,0:0:0:0:
160,96,108237,1,0,0:0:0:0:
352,96,108312,1,8,0:0:0:0:
160,96,108462,1,0,0:0:0:0:
352,96,108537,1,8,0:0:0:0:
160,96,108612,1,0,0:0:0:0:
352,96,108687,1,8,0:0:0:0:
160,96,108762,1,0,0:0:0:0:
160,96,108837,1,0,0:0:0:0:
352,96,108912,1,8,0:0:0:0:
352,96,109062,1,8,0:0:0:0:
160,96,109137,1,0,0:0:0:0:
352,96,109212,1,8,0:0:0:0:
160,96,109287,1,0,0:0:0:0:
160,96,109362,1,0,0:0:0:0:
352,96,109512,1,8,0:0:0:0:
160,96,109662,1,0,0:0:0:0:
352,96,109737,1,8,0:0:0:0:
160,96,109812,1,0,0:0:0:0:
352,96,109887,1,8,0:0:0:0:
160,96,109962,1,0,0:0:0:0:
160,96,110037,1,0,0:0:0:0:
352,96,110112,1,8,0:0:0:0:
160,96,110262,1,8,0:0:0:0:
160,288,110412,1,4,0:0:0:0:
160,288,110562,1,4,0:0:0:0:
160,288,110712,1,4,0:0:0:0:
160,288,110862,1,4,0:0:0:0:
160,96,111612,1,0,0:0:0:0:
352,96,111762,1,8,0:0:0:0:
160,96,111837,1,0,0:0:0:0:
352,96,111912,1,8,0:0:0:0:
160,96,112062,1,0,0:0:0:0:
160,96,112137,1,0,0:0:0:0:
352,96,112287,1,8,0:0:0:0:
160,96,112362,1,0,0:0:0:0:
160,96,112437,1,0,0:0:0:0:
352,96,112512,1,8,0:0:0:0:
160,96,112662,1,0,0:0:0:0:
160,96,112812,1,0,0:0:0:0:
160,96,112887,1,0,0:0:0:0:
160,96,112962,1,0,0:0:0:0:
352,96,113037,1,8,0:0:0:0:
352,96,113112,1,8,0:0:0:0:
160,96,113187,1,0,0:0:0:0:
352,96,113262,1,8,0:0:0:0:
352,96,113337,1,8,0:0:0:0:
160,96,113412,1,0,0:0:0:0:
352,96,113487,1,8,0:0:0:0:
160,96,113562,1,0,0:0:0:0:
352,96,113712,1,8,0:0:0:0:
160,96,114012,1,0,0:0:0:0:
352,96,114087,1,8,0:0:0:0:
160,96,114162,1,0,0:0:0:0:
352,96,114237,1,8,0:0:0:0:
352,96,114312,1,8,0:0:0:0:
352,96,114462,1,8,0:0:0:0:
352,96,114612,1,8,0:0:0:0:
160,96,114687,1,0,0:0:0:0:
352,96,114762,1,8,0:0:0:0:
352,96,114837,1,8,0:0:0:0:
160,96,114912,1,0,0:0:0:0:
160,96,115062,1,0,0:0:0:0:
352,96,115137,1,8,0:0:0:0:
160,96,115212,1,0,0:0:0:0:
160,96,115287,1,0,0:0:0:0:
352,96,115362,1,8,0:0:0:0:
160,96,115437,1,0,0:0:0:0:
352,96,115512,1,8,0:0:0:0:
160,96,115662,1,0,0:0:0:0:
160,96,115737,1,0,0:0:0:0:
352,96,115812,1,8,0:0:0:0:
160,96,115962,1,0,0:0:0:0:
160,96,116037,1,0,0:0:0:0:
352,96,116112,1,8,0:0:0:0:
160,96,116187,1,0,0:0:0:0:
352,96,116262,1,8,0:0:0:0:
160,96,116412,1,0,0:0:0:0:
352,96,116487,1,8,0:0:0:0:
160,96,116562,1,0,0:0:0:0:
160,96,116637,1,0,0:0:0:0:
352,96,116712,1,8,0:0:0:0:
352,96,116787,1,8,0:0:0:0:
160,96,116862,1,0,0:0:0:0:
352,96,116937,1,8,0:0:0:0:
352,96,117012,1,8,0:0:0:0:
352,96,117087,1,8,0:0:0:0:
160,96,117162,1,0,0:0:0:0:
160,96,117237,1,0,0:0:0:0:
352,96,117312,1,8,0:0:0:0:
160,96,117462,1,0,0:0:0:0:
352,96,117537,1,8,0:0:0:0:
160,96,117612,1,0,0:0:0:0:
352,96,117762,1,8,0:0:0:0:
160,96,117912,1,0,0:0:0:0:
352,96,118212,1,8,0:0:0:0:
160,96,118287,1,0,0:0:0:0:
160,96,118362,1,0,0:0:0:0:
352,96,118512,1,8,0:0:0:0:
160,96,118612,1,0,0:0:0:0:
160,96,118712,1,0,0:0:0:0:
352,96,118812,1,8,0:0:0:0:
160,96,118962,1,0,0:0:0:0:
160,96,119037,1,0,0:0:0:0:
352,96,119112,1,8,0:0:0:0:
352,96,119262,1,8,0:0:0:0:
160,96,119412,1,0,0:0:0:0:
352,96,119487,1,8,0:0:0:0:
160,96,119562,1,0,0:0:0:0:
160,96,119637,1,0,0:0:0:0:
352,96,119712,1,8,0:0:0:0:
352,96,119862,1,8,0:0:0:0:
352,96,119937,1,8,0:0:0:0:
160,96,120012,1,0,0:0:0:0:
352,96,120087,1,8,0:0:0:0:
160,96,120162,1,0,0:0:0:0:
352,96,120312,1,8,0:0:0:0:
160,96,120387,1,0,0:0:0:0:
352,96,120537,1,8,0:0:0:0:
352,96,120612,1,0,0:0:0:0:
352,96,120687,1,8,0:0:0:0:
160,96,120762,1,0,0:0:0:0:
160,96,120837,1,0,0:0:0:0:
352,96,120912,1,8,0:0:0:0:
352,96,120987,1,8,0:0:0:0:
160,96,121062,1,0,0:0:0:0:
160,288,121212,1,4,0:0:0:0:
160,96,121362,1,0,0:0:0:0:
160,96,121437,1,0,0:0:0:0:
352,96,121512,1,8,0:0:0:0:
160,96,121662,1,0,0:0:0:0:
352,96,121812,1,8,0:0:0:0:
352,96,121887,1,8,0:0:0:0:
160,96,121962,1,0,0:0:0:0:
352,96,122112,1,8,0:0:0:0:
160,96,122262,1,0,0:0:0:0:
352,96,122337,1,8,0:0:0:0:
160,96,122412,1,0,0:0:0:0:
160,96,122562,1,0,0:0:0:0:
262,118,122637,1,0,0:0:0:0:
352,96,122712,1,8,0:0:0:0:
160,96,122862,1,0,0:0:0:0:
160,96,122937,1,0,0:0:0:0:
352,96,123012,1,8,0:0:0:0:
352,96,123087,1,8,0:0:0:0:
160,96,123162,1,0,0:0:0:0:
160,96,123237,1,0,0:0:0:0:
352,96,123312,1,8,0:0:0:0:
160,96,123462,1,0,0:0:0:0:
352,96,123537,1,8,0:0:0:0:
160,96,123612,1,0,0:0:0:0:
160,96,123762,1,0,0:0:0:0:
352,96,123912,1,8,0:0:0:0:
160,96,124062,1,0,0:0:0:0:
352,96,124137,1,8,0:0:0:0:
160,96,124212,1,0,0:0:0:0:
352,96,124287,1,8,0:0:0:0:
160,96,124362,1,0,0:0:0:0:
160,96,124437,1,0,0:0:0:0:
352,96,124512,1,8,0:0:0:0:
160,96,124587,1,0,0:0:0:0:
352,96,124662,1,8,0:0:0:0:
160,96,124737,1,0,0:0:0:0:
352,96,124812,1,8,0:0:0:0:
352,96,124887,1,8,0:0:0:0:
160,96,124962,1,0,0:0:0:0:
160,96,125037,1,0,0:0:0:0:
352,96,125112,1,8,0:0:0:0:
160,96,125262,1,0,0:0:0:0:
160,96,125337,1,0,0:0:0:0:
352,96,125412,1,8,0:0:0:0:
160,96,125562,1,0,0:0:0:0:
352,96,125637,1,8,0:0:0:0:
352,96,125787,1,8,0:0:0:0:
352,96,125862,1,8,0:0:0:0:
352,96,126012,1,8,0:0:0:0:
352,96,126162,1,8,0:0:0:0:
352,96,126237,1,0,0:0:0:0:
160,96,126312,1,8,0:0:0:0:
352,96,126462,1,0,0:0:0:0:
164,194,126537,1,0,0:0:0:0:
160,96,126612,1,8,0:0:0:0:
352,96,126687,1,8,0:0:0:0:
160,96,126762,1,0,0:0:0:0:
160,96,126837,1,0,0:0:0:0:
352,96,126912,1,8,0:0:0:0:
160,96,127062,1,0,0:0:0:0:
352,96,127137,1,8,0:0:0:0:
160,96,127212,1,0,0:0:0:0:
160,96,127362,1,0,0:0:0:0:
160,96,127437,1,0,0:0:0:0:
352,96,127512,1,8,0:0:0:0:
352,96,127587,1,8,0:0:0:0:
160,96,127662,1,0,0:0:0:0:
160,96,127737,1,0,0:0:0:0:
352,96,127812,1,8,0:0:0:0:
160,96,127887,1,0,0:0:0:0:
160,96,127962,1,0,0:0:0:0:
160,96,128037,1,0,0:0:0:0:
352,96,128112,1,8,0:0:0:0:
352,96,128262,1,8,0:0:0:0:
352,96,128337,1,8,0:0:0:0:
160,96,128412,1,0,0:0:0:0:
160,96,128562,1,0,0:0:0:0:
160,96,128637,1,0,0:0:0:0:
352,96,128712,1,8,0:0:0:0:
160,96,128862,1,0,0:0:0:0:
352,96,128937,1,8,0:0:0:0:
352,96,129012,1,8,0:0:0:0:
352,96,129087,1,0,0:0:0:0:
160,96,129162,1,0,0:0:0:0:
160,96,129237,1,0,0:0:0:0:
352,96,129312,1,8,0:0:0:0:
352,96,129462,1,8,0:0:0:0:
160,96,129537,1,0,0:0:0:0:
352,96,129612,1,8,0:0:0:0:
160,96,129687,1,0,0:0:0:0:
160,96,129762,1,0,0:0:0:0:
352,96,129912,1,8,0:0:0:0:
160,96,130062,1,0,0:0:0:0:
352,96,130212,1,8,0:0:0:0:
160,96,130362,1,0,0:0:0:0:
160,96,130437,1,0,0:0:0:0:
352,96,130512,1,8,0:0:0:0:
352,96,130587,1,8,0:0:0:0:
160,96,130662,1,0,0:0:0:0:
352,96,130737,1,8,0:0:0:0:
160,96,130887,1,0,0:0:0:0:
352,96,130962,1,8,0:0:0:0:
160,96,131037,1,0,0:0:0:0:
352,96,131112,1,8,0:0:0:0:
352,96,131187,1,8,0:0:0:0:
160,96,131262,1,0,0:0:0:0:
160,96,131337,1,0,0:0:0:0:
352,96,131412,1,8,0:0:0:0:
160,96,131562,1,0,0:0:0:0:
352,96,131637,1,8,0:0:0:0:
160,96,131787,1,0,0:0:0:0:
352,96,131937,1,8,0:0:0:0:
160,96,132012,1,0,0:0:0:0:
160,96,132162,1,0,0:0:0:0:
160,96,132237,1,0,0:0:0:0:
352,96,132312,1,8,0:0:0:0:
160,96,132462,1,0,0:0:0:0:
160,96,132537,1,0,0:0:0:0:
352,96,132612,1,8,0:0:0:0:
352,96,132687,1,8,0:0:0:0:
160,96,132762,1,0,0:0:0:0:
160,96,132837,1,0,0:0:0:0:
352,96,132912,1,8,0:0:0:0:
160,96,133062,1,0,0:0:0:0:
352,96,133137,1,8,0:0:0:0:
160,96,133212,1,0,0:0:0:0:
160,96,133287,1,0,0:0:0:0:
352,96,133362,1,8,0:0:0:0:
160,96,133437,1,0,0:0:0:0:
352,96,133512,1,8,0:0:0:0:
160,96,133662,1,0,0:0:0:0:
352,96,133737,1,8,0:0:0:0:
352,96,133887,1,8,0:0:0:0:
160,96,133962,1,0,0:0:0:0:
160,96,134037,1,0,0:0:0:0:
352,96,134112,1,8,0:0:0:0:
352,96,134262,1,8,0:0:0:0:
160,96,134412,1,0,0:0:0:0:
160,96,134562,1,0,0:0:0:0:
160,96,134637,1,0,0:0:0:0:
352,96,134712,1,8,0:0:0:0:
160,96,134862,1,0,0:0:0:0:
352,96,134937,1,8,0:0:0:0:
352,96,135012,1,8,0:0:0:0:
352,96,135087,1,8,0:0:0:0:
160,96,135162,1,0,0:0:0:0:
160,96,135237,1,0,0:0:0:0:
352,96,135312,1,8,0:0:0:0:
352,96,135462,1,8,0:0:0:0:
352,96,135537,1,8,0:0:0:0:
160,96,135612,1,0,0:0:0:0:
160,96,135762,1,0,0:0:0:0:
160,96,135837,1,0,0:0:0:0:
352,96,135912,1,8,0:0:0:0:
160,96,136062,1,0,0:0:0:0:
253,192,136137,1,0,0:0:0:0:
352,96,136212,1,8,0:0:0:0:
253,192,136287,1,0,0:0:0:0:
352,96,136362,1,8,0:0:0:0:
253,192,136437,1,0,0:0:0:0:
352,96,136512,1,8,0:0:0:0:
253,192,136562,1,0,0:0:0:0:
253,192,136612,1,0,0:0:0:0:
352,96,136662,1,8,0:0:0:0:
326,161,136737,1,8,0:0:0:0:
160,96,136812,1,0,0:0:0:0:
160,96,136962,1,0,0:0:0:0:
160,96,137037,1,0,0:0:0:0:
352,96,137112,1,8,0:0:0:0:
160,96,137262,1,0,0:0:0:0:
160,96,137337,1,0,0:0:0:0:
352,96,137412,1,8,0:0:0:0:
352,96,137487,1,8,0:0:0:0:
160,96,137562,1,0,0:0:0:0:
160,96,137637,1,0,0:0:0:0:
352,96,137712,1,8,0:0:0:0:
352,96,137862,1,8,0:0:0:0:
352,96,137937,1,8,0:0:0:0:
160,96,138012,1,0,0:0:0:0:
352,96,138087,1,8,0:0:0:0:
160,96,138162,1,0,0:0:0:0:
160,96,138237,1,0,0:0:0:0:
352,96,138312,1,8,0:0:0:0:
160,96,138462,1,0,0:0:0:0:
352,96,138537,1,8,0:0:0:0:
352,96,138687,1,8,0:0:0:0:
160,96,138762,1,0,0:0:0:0:
160,96,138837,1,0,0:0:0:0:
352,96,138912,1,8,0:0:0:0:
160,96,139062,1,0,0:0:0:0:
352,96,139137,1,8,0:0:0:0:
160,96,139212,1,0,0:0:0:0:
160,96,139362,1,0,0:0:0:0:
160,96,139437,1,0,0:0:0:0:
352,96,139512,1,8,0:0:0:0:
352,96,139662,1,8,0:0:0:0:
352,96,139737,1,8,0:0:0:0:
160,96,139812,1,0,0:0:0:0:
352,96,139887,1,8,0:0:0:0:
160,96,139962,1,0,0:0:0:0:
160,96,140037,1,0,0:0:0:0:
352,96,140112,1,8,0:0:0:0:
352,96,140262,1,8,0:0:0:0:
352,96,140337,1,8,0:0:0:0:
160,96,140412,1,0,0:0:0:0:
160,96,140487,1,0,0:0:0:0:
160,96,140562,1,0,0:0:0:0:
352,96,140712,1,8,0:0:0:0:
160,96,140862,1,0,0:0:0:0:
160,96,140937,1,0,0:0:0:0:
352,96,141012,1,8,0:0:0:0:
352,96,141087,1,8,0:0:0:0:
160,96,141162,1,0,0:0:0:0:
160,96,141212,1,0,0:0:0:0:
160,96,141262,1,0,0:0:0:0:
352,96,141312,1,8,0:0:0:0:
352,96,141362,1,8,0:0:0:0:
352,96,141412,1,8,0:0:0:0:
160,96,141462,1,0,0:0:0:0:
160,96,141537,1,0,0:0:0:0:
352,96,141612,1,8,0:0:0:0:
352,96,141687,1,8,0:0:0:0:
160,96,141762,1,0,0:0:0:0:
352,96,141837,1,8,0:0:0:0:
352,96,141912,1,8,0:0:0:0:
160,96,141987,1,0,0:0:0:0:
352,96,142062,1,8,0:0:0:0:
160,96,142137,1,0,0:0:0:0:
352,96,142212,1,8,0:0:0:0:
160,96,142287,1,0,0:0:0:0:
160,96,142362,1,0,0:0:0:0:
160,96,142437,1,0,0:0:0:0:
352,96,142512,1,8,0:0:0:0:
160,96,142587,1,0,0:0:0:0:
352,96,142662,1,8,0:0:0:0:
160,96,142737,1,0,0:0:0:0:
160,96,142812,1,0,0:0:0:0:
160,96,142887,1,0,0:0:0:0:
352,96,142962,1,8,0:0:0:0:
352,96,143037,1,8,0:0:0:0:
160,96,143112,1,0,0:0:0:0:
160,96,143187,1,0,0:0:0:0:
352,96,143262,1,8,0:0:0:0:
352,96,143337,1,8,0:0:0:0:
160,96,143412,1,0,0:0:0:0:
352,96,143487,1,8,0:0:0:0:
160,96,143562,1,0,0:0:0:0:
160,96,143637,1,0,0:0:0:0:
352,96,143712,1,8,0:0:0:0:
160,96,143787,1,0,0:0:0:0:
352,96,143862,1,8,0:0:0:0:
160,96,143937,1,0,0:0:0:0:
160,96,144087,1,0,0:0:0:0:
352,96,144162,1,8,0:0:0:0:
160,96,144237,1,0,0:0:0:0:
352,96,144312,1,8,0:0:0:0:
352,96,144387,1,8,0:0:0:0:
160,96,144462,1,0,0:0:0:0:
160,96,144537,1,0,0:0:0:0:
352,96,144612,1,8,0:0:0:0:
160,96,144762,1,0,0:0:0:0:
160,96,144837,1,0,0:0:0:0:
352,96,144912,1,8,0:0:0:0:
352,96,144987,1,8,0:0:0:0:
160,96,145062,1,0,0:0:0:0:
352,96,145212,1,8,0:0:0:0:
160,96,145287,1,0,0:0:0:0:
352,96,145362,1,8,0:0:0:0:
160,96,145437,1,0,0:0:0:0:
352,96,145512,1,8,0:0:0:0:
352,96,145662,1,8,0:0:0:0:
352,96,145737,1,8,0:0:0:0:
160,96,145812,1,0,0:0:0:0:
160,96,145887,1,0,0:0:0:0:
352,96,145962,1,8,0:0:0:0:
160,96,146037,1,0,0:0:0:0:
352,96,146187,1,8,0:0:0:0:
160,96,146262,1,0,0:0:0:0:
352,96,146337,1,8,0:0:0:0:
160,96,146412,1,0,0:0:0:0:
352,96,146487,1,8,0:0:0:0:
160,96,146562,1,0,0:0:0:0:
352,96,146637,1,8,0:0:0:0:
352,96,146712,1,8,0:0:0:0:
160,96,146787,1,0,0:0:0:0:
160,96,146862,1,0,0:0:0:0:
160,96,146937,1,0,0:0:0:0:
352,96,147012,1,8,0:0:0:0:
352,96,147087,1,8,0:0:0:0:
160,96,147162,1,0,0:0:0:0:
352,96,147237,1,8,0:0:0:0:
352,96,147312,1,8,0:0:0:0:
160,96,147387,1,0,0:0:0:0:
352,96,147462,1,8,0:0:0:0:
160,96,147537,1,0,0:0:0:0:
352,96,147687,1,8,0:0:0:0:
160,96,147762,1,0,0:0:0:0:
352,96,147837,1,8,0:0:0:0:
352,96,147912,1,8,0:0:0:0:
160,96,147987,1,0,0:0:0:0:
352,96,148062,1,8,0:0:0:0:
160,96,148137,1,0,0:0:0:0:
352,96,148212,1,8,0:0:0:0:
352,96,148287,1,8,0:0:0:0:
160,96,148362,1,0,0:0:0:0:
160,96,148437,1,0,0:0:0:0:
352,96,148512,1,8,0:0:0:0:
160,96,148587,1,0,0:0:0:0:
352,96,148662,1,8,0:0:0:0:
352,96,148737,1,0,0:0:0:0:
160,96,148887,1,0,0:0:0:0:
160,96,148962,1,0,0:0:0:0:
160,96,149037,1,0,0:0:0:0:
352,96,149112,1,8,0:0:0:0:
352,96,149187,1,8,0:0:0:0:
160,96,149262,1,0,0:0:0:0:
160,96,149337,1,0,0:0:0:0:
352,96,149412,1,8,0:0:0:0:
160,96,149487,1,0,0:0:0:0:
352,96,149562,1,8,0:0:0:0:
160,96,149637,1,0,0:0:0:0:
352,96,149712,1,8,0:0:0:0:
352,96,149787,1,8,0:0:0:0:
352,96,149862,1,8,0:0:0:0:
160,96,149937,1,0,0:0:0:0:
352,96,150087,1,8,0:0:0:0:
160,96,150162,1,0,0:0:0:0:
160,96,150237,1,0,0:0:0:0:
352,96,150312,1,8,0:0:0:0:
352,96,150387,1,0,0:0:0:0:
160,96,150462,1,8,0:0:0:0:
160,96,150537,1,0,0:0:0:0:
352,96,150612,1,8,0:0:0:0:
352,96,150687,1,8,0:0:0:0:
160,96,150762,1,0,0:0:0:0:
160,96,150837,1,0,0:0:0:0:
160,96,150912,1,0,0:0:0:0:
352,96,150987,1,8,0:0:0:0:
160,96,151062,1,0,0:0:0:0:
160,96,151137,1,0,0:0:0:0:
352,96,151212,1,8,0:0:0:0:
160,96,151362,1,0,0:0:0:0:
352,96,151512,1,8,0:0:0:0:
160,96,151662,1,0,0:0:0:0:
181,135,151737,1,0,0:0:0:0:
352,96,151812,1,8,0:0:0:0:
352,96,151887,1,8,0:0:0:0:
160,96,151962,1,0,0:0:0:0:
188,113,152037,1,0,0:0:0:0:
352,96,152112,1,8,0:0:0:0:
352,96,152262,1,8,0:0:0:0:
312,162,152337,1,8,0:0:0:0:
160,96,152412,1,0,0:0:0:0:
352,96,152487,1,8,0:0:0:0:
160,96,152562,1,0,0:0:0:0:
358,189,152637,1,0,0:0:0:0:
352,96,152712,1,8,0:0:0:0:
160,96,152862,1,0,0:0:0:0:
160,96,152937,1,0,0:0:0:0:
160,96,153012,1,8,0:0:0:0:
352,96,153087,1,8,0:0:0:0:
160,96,153162,1,0,0:0:0:0:
160,96,153237,1,0,0:0:0:0:
352,96,153312,1,8,0:0:0:0:
160,96,153462,1,0,0:0:0:0:
352,96,153537,1,8,0:0:0:0:
160,96,153612,1,0,0:0:0:0:
352,96,153687,1,8,0:0:0:0:
160,96,153762,1,0,0:0:0:0:
160,96,153837,1,0,0:0:0:0:
352,96,153912,1,8,0:0:0:0:
352,96,153987,1,8,0:0:0:0:
160,96,154062,1,0,0:0:0:0:
160,96,154137,1,0,0:0:0:0:
352,96,154212,1,8,0:0:0:0:
352,96,154287,1,8,0:0:0:0:
160,96,154362,1,0,0:0:0:0:
160,96,154437,1,0,0:0:0:0:
352,96,154512,1,8,0:0:0:0:
352,96,154662,1,8,0:0:0:0:
352,96,154737,1,8,0:0:0:0:
160,96,154812,1,0,0:0:0:0:
352,96,154887,1,8,0:0:0:0:
160,96,154962,1,0,0:0:0:0:
160,96,155037,1,0,0:0:0:0:
352,96,155112,1,8,0:0:0:0:
352,96,155187,1,8,0:0:0:0:
160,96,155262,1,0,0:0:0:0:
160,96,155337,1,0,0:0:0:0:
352,96,155412,1,8,0:0:0:0:
352,96,155487,1,0,0:0:0:0:
160,96,155562,1,8,0:0:0:0:
305,142,155637,1,0,0:0:0:0:
352,96,155712,1,8,0:0:0:0:
261,188,155762,1,0,0:0:0:0:
261,188,155812,1,0,0:0:0:0:
257,181,155862,1,8,0:0:0:0:
352,96,156012,1,8,0:0:0:0:
160,96,156162,1,0,0:0:0:0:
352,96,156237,1,8,0:0:0:0:
352,96,156312,1,8,0:0:0:0:
352,96,156462,1,8,0:0:0:0:
160,96,156537,1,0,0:0:0:0:
352,96,156612,1,8,0:0:0:0:
160,96,156687,1,0,0:0:0:0:
160,96,156762,1,0,0:0:0:0:
160,96,156837,1,0,0:0:0:0:
352,96,156912,1,8,0:0:0:0:
352,96,156987,1,8,0:0:0:0:
160,96,157062,1,0,0:0:0:0:
160,96,157137,1,0,0:0:0:0:
352,96,157212,1,8,0:0:0:0:
160,96,157362,1,8,0:0:0:0:
160,96,157437,1,0,0:0:0:0:
352,96,157512,1,8,0:0:0:0:
160,96,157587,1,0,0:0:0:0:
160,96,157662,1,8,0:0:0:0:
352,96,157737,1,0,0:0:0:0:
160,96,157812,1,8,0:0:0:0:
160,96,157887,1,0,0:0:0:0:
352,96,157962,1,8,0:0:0:0:
352,96,158037,1,8,0:0:0:0:
160,96,158112,1,0,0:0:0:0:
352,96,158262,1,8,0:0:0:0:
160,96,158337,1,0,0:0:0:0:
352,96,158412,1,8,0:0:0:0:
352,96,158487,1,8,0:0:0:0:
160,96,158562,1,0,0:0:0:0:
160,96,158637,1,0,0:0:0:0:
352,96,158712,1,8,0:0:0:0:
160,96,158862,1,0,0:0:0:0:
160,96,158937,1,0,0:0:0:0:
352,96,159087,1,8,0:0:0:0:
160,96,159162,1,0,0:0:0:0:
309,217,159237,5,8,0:0:0:0:
160,96,159312,1,0,0:0:0:0:
160,96,159462,1,0,0:0:0:0:
352,96,159612,1,0,0:0:0:0:
352,96,159687,1,8,0:0:0:0:
160,96,159762,1,0,0:0:0:0:
352,96,159837,1,0,0:0:0:0:
352,96,159912,1,8,0:0:0:0:
160,96,159987,1,8,0:0:0:0:
220,174,160062,1,0,0:0:0:0:
160,96,160137,1,8,0:0:0:0:
160,96,160212,1,0,0:0:0:0:
352,96,160287,1,8,0:0:0:0:
306,0,160362,1,0,0:0:0:0:
249,189,160437,1,0,0:0:0:0:
352,96,160512,1,8,0:0:0:0:
256,171,160562,1,0,0:0:0:0:
256,171,160612,1,0,0:0:0:0:
352,96,160662,1,8,0:0:0:0:
256,171,160712,1,0,0:0:0:0:
256,171,160762,1,0,0:0:0:0:
256,171,160812,1,8,0:0:0:0:
160,288,161112,1,4,0:0:0:0:
160,288,161412,1,4,0:0:0:0:
160,288,161562,1,4,0:0:0:0:
160,288,161712,1,4,0:0:0:0:
160,288,161862,1,4,0:0:0:0:
256,192,162012,8,0,162462,0:0:0:0:
352,96,162612,5,8,0:0:0:0:
352,96,162762,1,8,0:0:0:0:
160,96,162912,1,0,0:0:0:0:
160,96,163062,1,0,0:0:0:0:
352,96,163212,1,8,0:0:0:0:
352,96,163512,1,8,0:0:0:0:
160,96,163812,1,0,0:0:0:0:
352,96,164112,1,8,0:0:0:0:
160,96,164412,1,0,0:0:0:0:
352,96,164562,1,8,0:0:0:0:
160,96,164712,1,0,0:0:0:0:
160,96,165012,1,0,0:0:0:0:
352,96,165312,1,8,0:0:0:0:
352,96,165612,1,8,0:0:0:0:
160,96,165762,1,0,0:0:0:0:
352,96,165912,1,8,0:0:0:0:
160,96,166212,1,0,0:0:0:0:
352,96,166512,1,8,0:0:0:0:
352,96,166662,1,8,0:0:0:0:
352,96,166737,1,8,0:0:0:0:
160,96,166812,1,0,0:0:0:0:
160,96,166962,1,0,0:0:0:0:
160,96,167112,1,8,0:0:0:0:
160,96,167412,1,0,0:0:0:0:
352,96,167712,1,8,0:0:0:0:
352,96,168012,1,8,0:0:0:0:
160,96,168162,1,0,0:0:0:0:
352,96,168312,1,8,0:0:0:0:
352,96,168612,1,8,0:0:0:0:
160,96,168912,1,0,0:0:0:0:
352,96,169212,1,8,0:0:0:0:
352,96,169512,1,8,0:0:0:0:
352,96,169812,1,8,0:0:0:0:
160,96,170112,1,0,0:0:0:0:
352,96,170412,1,8,0:0:0:0:
352,96,170562,1,8,0:0:0:0:
160,96,170712,1,0,0:0:0:0:
352,96,170937,1,8,0:0:0:0:
352,96,171087,1,8,0:0:0:0:
160,96,171162,1,0,0:0:0:0:
352,96,171312,1,8,0:0:0:0:
352,96,171462,1,8,0:0:0:0:
352,96,171537,1,8,0:0:0:0:
160,96,171612,1,0,0:0:0:0:
352,96,171687,1,8,0:0:0:0:
160,96,171762,1,0,0:0:0:0:
160,96,171837,1,0,0:0:0:0:
352,96,171912,1,8,0:0:0:0:
160,96,172062,1,0,0:0:0:0:
160,96,172137,1,0,0:0:0:0:
352,96,172212,1,8,0:0:0:0:
352,96,172287,1,8,0:0:0:0:
160,96,172362,1,0,0:0:0:0:
160,96,172512,1,0,0:0:0:0:
160,96,172662,1,0,0:0:0:0:
352,96,172812,1,8,0:0:0:0:
160,96,172962,1,0,0:0:0:0:
352,96,173112,1,8,0:0:0:0:
352,96,173262,1,8,0:0:0:0:
352,96,173337,1,8,0:0:0:0:
160,96,173412,1,0,0:0:0:0:
352,96,173487,1,8,0:0:0:0:
160,96,173562,1,0,0:0:0:0:
160,96,173637,1,0,0:0:0:0:
352,96,173712,1,8,0:0:0:0:
352,96,173862,1,8,0:0:0:0:
160,96,174012,1,0,0:0:0:0:
352,96,174162,1,8,0:0:0:0:
352,96,174237,1,8,0:0:0:0:
160,96,174312,1,0,0:0:0:0:
352,96,174462,1,8,0:0:0:0:
160,96,174612,1,0,0:0:0:0:
352,96,174687,1,8,0:0:0:0:
160,96,174762,1,0,0:0:0:0:
160,96,174837,1,0,0:0:0:0:
352,96,174912,1,8,0:0:0:0:
352,96,175062,1,8,0:0:0:0:
352,96,175212,1,8,0:0:0:0:
160,96,175362,1,0,0:0:0:0:
160,96,175437,1,0,0:0:0:0:
352,96,175512,1,8,0:0:0:0:
352,96,175662,1,8,0:0:0:0:
160,96,175812,1,0,0:0:0:0:
352,96,175887,1,8,0:0:0:0:
352,96,175962,1,8,0:0:0:0:
160,96,176037,1,0,0:0:0:0:
352,96,176112,1,8,0:0:0:0:
352,96,176262,1,8,0:0:0:0:
160,96,176412,1,0,0:0:0:0:
352,96,176487,1,8,0:0:0:0:
160,96,176562,1,0,0:0:0:0:
160,96,176637,1,0,0:0:0:0:
352,96,176712,1,8,0:0:0:0:
352,96,176862,1,8,0:0:0:0:
160,96,176937,1,0,0:0:0:0:
160,96,177012,1,0,0:0:0:0:
352,96,177087,1,8,0:0:0:0:
160,96,177162,1,0,0:0:0:0:
160,96,177237,1,0,0:0:0:0:
351,166,177312,1,8,0:0:0:0:
351,166,177362,1,8,0:0:0:0:
351,166,177412,1,8,0:0:0:0:
352,96,177462,1,0,0:0:0:0:
160,96,177612,1,0,0:0:0:0:
160,96,177762,1,0,0:0:0:0:
160,96,177837,1,0,0:0:0:0:
352,96,177912,1,8,0:0:0:0:
160,96,178062,1,0,0:0:0:0:
352,96,178212,1,8,0:0:0:0:
352,96,178362,1,8,0:0:0:0:
352,96,178437,1,8,0:0:0:0:
160,96,178512,1,0,0:0:0:0:
352,96,178587,1,8,0:0:0:0:
160,96,178662,1,0,0:0:0:0:
160,96,178737,1,0,0:0:0:0:
352,96,178812,1,8,0:0:0:0:
160,96,178962,1,0,0:0:0:0:
160,96,179037,1,0,0:0:0:0:
352,96,179112,1,8,0:0:0:0:
160,96,179187,1,0,0:0:0:0:
352,96,179262,1,8,0:0:0:0:
352,96,179337,1,8,0:0:0:0:
160,96,179412,1,0,0:0:0:0:
160,96,179562,1,0,0:0:0:0:
160,96,179637,1,0,0:0:0:0:
352,96,179712,1,8,0:0:0:0:
144,198,179862,1,0,0:0:0:0:
352,288,180012,1,12,0:0:0:0:
352,288,180162,1,12,0:0:0:0:
352,288,180312,1,12,0:0:0:0:
352,288,180462,1,12,0:0:0:0:
352,288,180612,1,12,0:0:0:0:
352,288,180762,1,12,0:0:0:0:
352,288,180912,1,12,0:0:0:0:
352,288,181062,1,12,0:0:0:0:
352,96,181212,1,8,0:0:0:0:
352,96,181287,1,8,0:0:0:0:
352,96,181362,1,8,0:0:0:0:
352,96,181437,1,8,0:0:0:0:
352,96,181512,1,8,0:0:0:0:
352,96,181587,1,8,0:0:0:0:
160,96,181662,1,8,0:0:0:0:
352,96,182412,1,8,0:0:0:0:
160,96,182562,1,0,0:0:0:0:
160,96,182637,1,0,0:0:0:0:
352,96,182712,1,8,0:0:0:0:
160,96,182862,1,0,0:0:0:0:
352,96,182937,1,8,0:0:0:0:
160,96,183012,1,0,0:0:0:0:
352,96,183087,1,8,0:0:0:0:
160,96,183162,1,0,0:0:0:0:
160,96,183237,1,0,0:0:0:0:
352,96,183312,1,8,0:0:0:0:
160,96,183462,1,0,0:0:0:0:
160,96,183612,1,0,0:0:0:0:
352,96,183687,1,8,0:0:0:0:
160,96,183762,1,0,0:0:0:0:
160,96,183837,1,0,0:0:0:0:
352,96,183912,1,8,0:0:0:0:
160,96,184062,1,0,0:0:0:0:
160,96,184137,1,0,0:0:0:0:
352,96,184212,1,8,0:0:0:0:
352,96,184287,1,8,0:0:0:0:
160,96,184362,1,0,0:0:0:0:
160,96,184437,1,0,0:0:0:0:
352,96,184512,1,8,0:0:0:0:
160,96,184662,1,0,0:0:0:0:
352,96,184737,1,8,0:0:0:0:
160,96,184812,1,0,0:0:0:0:
160,96,184962,1,0,0:0:0:0:
160,96,185037,1,0,0:0:0:0:
352,96,185112,1,8,0:0:0:0:
352,96,185262,1,8,0:0:0:0:
160,96,185337,1,0,0:0:0:0:
352,96,185412,1,8,0:0:0:0:
160,96,185487,1,8,0:0:0:0:
352,96,185562,1,0,0:0:0:0:
160,96,185637,1,0,0:0:0:0:
352,96,185712,1,8,0:0:0:0:
160,96,185862,1,0,0:0:0:0:
160,96,185937,1,0,0:0:0:0:
352,96,186012,1,8,0:0:0:0:
352,96,186087,1,8,0:0:0:0:
160,96,186162,1,0,0:0:0:0:
352,96,186312,1,8,0:0:0:0:
160,96,186462,1,0,0:0:0:0:
160,96,186537,1,0,0:0:0:0:
352,96,186612,1,8,0:0:0:0:
352,96,186687,1,8,0:0:0:0:
160,96,186762,1,0,0:0:0:0:
160,96,186837,1,0,0:0:0:0:
352,96,186912,1,8,0:0:0:0:
249,179,186962,1,0,0:0:0:0:
249,179,187012,1,0,0:0:0:0:
352,96,187062,1,8,0:0:0:0:
352,96,187137,1,8,0:0:0:0:
160,96,187212,1,0,0:0:0:0:
160,96,187362,1,0,0:0:0:0:
160,96,187437,1,0,0:0:0:0:
352,96,187512,1,8,0:0:0:0:
160,96,187662,1,0,0:0:0:0:
160,96,187737,1,0,0:0:0:0:
352,96,187812,1,8,0:0:0:0:
352,96,187887,1,8,0:0:0:0:
160,96,187962,1,0,0:0:0:0:
160,96,188037,1,0,0:0:0:0:
352,96,188112,1,8,0:0:0:0:
160,96,188187,1,0,0:0:0:0:
160,96,188262,1,0,0:0:0:0:
160,96,188337,1,0,0:0:0:0:
352,96,188412,1,8,0:0:0:0:
352,96,188562,1,8,0:0:0:0:
352,96,188637,1,0,0:0:0:0:
160,96,188712,1,8,0:0:0:0:
352,96,188862,1,8,0:0:0:0:
160,96,188937,1,0,0:0:0:0:
352,96,189012,1,8,0:0:0:0:
352,96,189087,1,8,0:0:0:0:
160,96,189162,1,0,0:0:0:0:
160,96,189237,1,0,0:0:0:0:
352,96,189312,1,8,0:0:0:0:
160,96,189462,1,0,0:0:0:0:
352,96,189537,1,8,0:0:0:0:
160,96,189612,1,0,0:0:0:0:
352,96,189762,1,8,0:0:0:0:
160,96,189837,1,0,0:0:0:0:
352,96,189912,1,8,0:0:0:0:
352,96,190062,1,8,0:0:0:0:
352,96,190212,1,8,0:0:0:0:
352,96,190287,1,8,0:0:0:0:
160,96,190362,1,0,0:0:0:0:
160,96,190437,1,0,0:0:0:0:
352,96,190512,1,8,0:0:0:0:
160,96,190662,1,0,0:0:0:0:
352,96,190737,1,8,0:0:0:0:
352,96,190812,1,8,0:0:0:0:
352,96,190887,1,8,0:0:0:0:
160,96,190962,1,0,0:0:0:0:
160,96,191037,1,0,0:0:0:0:
352,96,191112,1,8,0:0:0:0:
160,96,191262,1,0,0:0:0:0:
352,96,191337,1,8,0:0:0:0:
160,96,191412,1,0,0:0:0:0:
352,96,191487,1,8,0:0:0:0:
160,96,191562,1,0,0:0:0:0:
160,96,191637,1,0,0:0:0:0:
352,96,191712,1,8,0:0:0:0:
262,186,191762,1,8,0:0:0:0:
262,186,191812,1,8,0:0:0:0:
160,96,191862,1,0,0:0:0:0:
160,96,191937,1,8,0:0:0:0:
160,96,192012,1,0,0:0:0:0:
160,96,192162,1,0,0:0:0:0:
160,96,192237,1,0,0:0:0:0:
352,96,192312,1,8,0:0:0:0:
352,96,192462,1,8,0:0:0:0:
352,96,192537,1,8,0:0:0:0:
160,96,192612,1,0,0:0:0:0:
352,96,192687,1,8,0:0:0:0:
160,96,192762,1,0,0:0:0:0:
352,96,192912,1,8,0:0:0:0:
160,96,193062,1,0,0:0:0:0:
160,96,193137,1,0,0:0:0:0:
352,96,193212,1,8,0:0:0:0:
352,96,193287,1,8,0:0:0:0:
160,96,193362,1,0,0:0:0:0:
352,96,193512,1,8,0:0:0:0:
352,96,193662,1,8,0:0:0:0:
352,96,193737,1,8,0:0:0:0:
160,96,193812,1,0,0:0:0:0:
352,96,193887,1,8,0:0:0:0:
160,96,193962,1,0,0:0:0:0:
160,96,194037,1,0,0:0:0:0:
352,96,194112,1,8,0:0:0:0:
352,96,194262,1,8,0:0:0:0:
352,96,194337,1,8,0:0:0:0:
160,96,194412,1,0,0:0:0:0:
160,96,194562,1,0,0:0:0:0:
160,96,194637,1,0,0:0:0:0:
352,96,194712,1,8,0:0:0:0:
160,96,194862,1,0,0:0:0:0:
352,96,194937,1,8,0:0:0:0:
160,96,195012,1,0,0:0:0:0:
352,96,195087,1,8,0:0:0:0:
160,96,195162,1,0,0:0:0:0:
160,96,195237,1,0,0:0:0:0:
352,96,195312,1,8,0:0:0:0:
352,96,195462,1,8,0:0:0:0:
160,96,195537,1,0,0:0:0:0:
352,96,195612,1,8,0:0:0:0:
352,96,195687,1,8,0:0:0:0:
160,96,195762,1,0,0:0:0:0:
160,96,195837,1,0,0:0:0:0:
352,96,195912,1,8,0:0:0:0:
352,96,195987,1,8,0:0:0:0:
160,96,196062,1,0,0:0:0:0:
160,96,196137,1,8,0:0:0:0:
160,96,196212,1,0,0:0:0:0:
160,96,196287,1,0,0:0:0:0:
352,96,196362,1,8,0:0:0:0:
241,218,196437,1,0,0:0:0:0:
352,96,196512,1,8,0:0:0:0:
241,218,196562,1,8,0:0:0:0:
241,218,196612,1,8,0:0:0:0:
160,96,196662,1,0,0:0:0:0:
160,96,196737,1,8,0:0:0:0:
352,96,196812,1,0,0:0:0:0:
160,96,196962,1,8,0:0:0:0:
352,96,197112,1,8,0:0:0:0:
160,96,197262,1,0,0:0:0:0:
352,96,197337,1,8,0:0:0:0:
352,96,197412,1,8,0:0:0:0:
352,96,197487,1,8,0:0:0:0:
160,96,197562,1,0,0:0:0:0:
160,96,197637,1,0,0:0:0:0:
352,96,197712,1,8,0:0:0:0:
352,96,197862,1,8,0:0:0:0:
160,96,197937,1,0,0:0:0:0:
352,96,198012,1,8,0:0:0:0:
160,96,198162,1,0,0:0:0:0:
160,96,198237,1,0,0:0:0:0:
352,96,198312,1,8,0:0:0:0:
160,96,198462,1,0,0:0:0:0:
352,96,198537,1,8,0:0:0:0:
160,96,198612,1,0,0:0:0:0:
352,96,198687,1,8,0:0:0:0:
160,96,198762,1,0,0:0:0:0:
160,96,198837,1,0,0:0:0:0:
352,96,198912,1,8,0:0:0:0:
160,96,199062,1,0,0:0:0:0:
160,96,199137,1,0,0:0:0:0:
352,96,199212,1,8,0:0:0:0:
352,96,199287,1,8,0:0:0:0:
160,96,199362,1,0,0:0:0:0:
352,96,199512,1,8,0:0:0:0:
352,96,199662,1,8,0:0:0:0:
352,96,199737,1,8,0:0:0:0:
160,96,199812,1,0,0:0:0:0:
352,96,199887,1,8,0:0:0:0:
160,96,199962,1,0,0:0:0:0:
352,96,200112,1,8,0:0:0:0:
352,96,200262,1,8,0:0:0:0:
160,96,200337,1,0,0:0:0:0:
352,96,200412,1,8,0:0:0:0:
352,96,200487,1,8,0:0:0:0:
160,96,200562,1,0,0:0:0:0:
352,96,200712,1,8,0:0:0:0:
160,96,200862,1,0,0:0:0:0:
160,96,200937,1,0,0:0:0:0:
352,96,201012,1,8,0:0:0:0:
352,96,201087,1,8,0:0:0:0:
359,171,201162,1,0,0:0:0:0:
359,171,201237,1,0,0:0:0:0:
429,163,201312,1,8,0:0:0:0:
394,149,201362,1,8,0:0:0:0:
394,149,201412,1,8,0:0:0:0:
416,160,201462,1,0,0:0:0:0:
352,96,201537,1,8,0:0:0:0:
160,96,201612,1,0,0:0:0:0:
160,96,201762,1,0,0:0:0:0:
352,96,201912,1,8,0:0:0:0:
160,96,202062,1,0,0:0:0:0:
387,122,202137,1,8,0:0:0:0:
160,96,202212,1,0,0:0:0:0:
352,96,202287,1,8,0:0:0:0:
160,96,202362,1,0,0:0:0:0:
316,168,202437,1,0,0:0:0:0:
352,96,202512,1,8,0:0:0:0:
352,96,202662,1,8,0:0:0:0:
352,96,202737,1,8,0:0:0:0:
160,96,202812,1,0,0:0:0:0:
160,96,202962,1,0,0:0:0:0:
160,96,203037,1,0,0:0:0:0:
352,96,203112,1,8,0:0:0:0:
160,96,203262,1,0,0:0:0:0:
160,96,203337,1,0,0:0:0:0:
352,96,203412,1,8,0:0:0:0:
352,96,203487,1,8,0:0:0:0:
160,96,203562,1,0,0:0:0:0:
160,96,203637,1,0,0:0:0:0:
352,96,203712,1,8,0:0:0:0:
160,96,203862,1,0,0:0:0:0:
352,96,203937,1,8,0:0:0:0:
160,96,204012,1,0,0:0:0:0:
160,96,204162,1,0,0:0:0:0:
160,96,204237,1,0,0:0:0:0:
352,96,204312,1,8,0:0:0:0:
352,96,204387,1,8,0:0:0:0:
160,96,204462,1,0,0:0:0:0:
352,96,204612,1,8,0:0:0:0:
160,96,204687,1,0,0:0:0:0:
160,96,204762,1,0,0:0:0:0:
160,96,204837,1,0,0:0:0:0:
352,96,204912,1,8,0:0:0:0:
352,96,204987,1,8,0:0:0:0:
160,96,205062,1,0,0:0:0:0:
352,96,205137,1,8,0:0:0:0:
160,96,205212,1,0,0:0:0:0:
160,96,205362,1,0,0:0:0:0:
160,96,205437,1,0,0:0:0:0:
352,96,205512,1,8,0:0:0:0:
160,96,205662,1,0,0:0:0:0:
160,96,205737,1,0,0:0:0:0:
352,96,205812,1,8,0:0:0:0:
352,96,205887,1,8,0:0:0:0:
160,96,205962,1,0,0:0:0:0:
455,126,206037,1,0,0:0:0:0:
277,86,206112,1,8,0:0:0:0:
277,86,206162,1,8,0:0:0:0:
277,86,206212,1,8,0:0:0:0:
417,152,206262,1,0,0:0:0:0:
393,148,206337,1,8,0:0:0:0:
406,151,206412,1,0,0:0:0:0:
225,174,206562,1,0,0:0:0:0:
352,96,206712,1,8,0:0:0:0:
352,96,206862,1,8,0:0:0:0:
160,96,206937,1,0,0:0:0:0:
352,96,207012,1,8,0:0:0:0:
352,96,207087,1,8,0:0:0:0:
160,96,207162,1,0,0:0:0:0:
160,96,207237,1,0,0:0:0:0:
352,96,207312,1,8,0:0:0:0:
160,96,207462,1,0,0:0:0:0:
352,96,207537,1,8,0:0:0:0:
160,96,207612,1,0,0:0:0:0:
160,96,207762,1,0,0:0:0:0:
352,96,207912,1,8,0:0:0:0:
160,96,208062,1,0,0:0:0:0:
160,96,208137,1,0,0:0:0:0:
352,96,208212,1,8,0:0:0:0:
352,96,208287,1,8,0:0:0:0:
160,96,208362,1,0,0:0:0:0:
160,96,208437,1,0,0:0:0:0:
352,96,208512,1,8,0:0:0:0:
352,96,208662,1,8,0:0:0:0:
160,96,208737,1,0,0:0:0:0:
352,96,208812,1,8,0:0:0:0:
160,96,208962,1,0,0:0:0:0:
352,96,209112,1,8,0:0:0:0:
352,96,209262,1,8,0:0:0:0:
352,96,209337,1,8,0:0:0:0:
160,96,209412,1,0,0:0:0:0:
352,96,209487,1,8,0:0:0:0:
352,96,209562,1,0,0:0:0:0:
160,96,209637,1,0,0:0:0:0:
352,96,209712,1,8,0:0:0:0:
160,96,209862,1,0,0:0:0:0:
160,96,209937,1,0,0:0:0:0:
352,96,210012,1,8,0:0:0:0:
352,96,210087,1,8,0:0:0:0:
160,96,210162,1,0,0:0:0:0:
160,96,210237,1,0,0:0:0:0:
352,96,210312,1,8,0:0:0:0:
160,96,210462,1,0,0:0:0:0:
160,96,210537,1,0,0:0:0:0:
352,96,210612,1,8,0:0:0:0:
160,96,210762,1,0,0:0:0:0:
352,96,210837,1,8,0:0:0:0:
160,96,210912,1,0,0:0:0:0:
205,173,210962,1,0,0:0:0:0:
205,173,211012,1,0,0:0:0:0:
321,162,211062,1,8,0:0:0:0:
352,96,211137,1,8,0:0:0:0:
352,96,211212,1,0,0:0:0:0:
352,96,211512,1,8,0:0:0:0:
160,96,211812,1,0,0:0:0:0:
352,96,212112,1,8,0:0:0:0:
160,96,212412,1,0,0:0:0:0:
352,96,212562,1,8,0:0:0:0:
160,96,212712,1,0,0:0:0:0:
160,96,213012,1,0,0:0:0:0:
352,96,213312,1,8,0:0:0:0:
352,96,213612,1,8,0:0:0:0:
160,96,213762,1,0,0:0:0:0:
352,96,213912,1,8,0:0:0:0:
160,96,214212,1,0,0:0:0:0:
352,96,214512,1,8,0:0:0:0:
352,96,214662,1,8,0:0:0:0:
352,96,214737,1,8,0:0:0:0:
160,96,214812,1,0,0:0:0:0:
160,96,214962,1,0,0:0:0:0:
160,96,215112,1,8,0:0:0:0:
160,96,215412,1,0,0:0:0:0:
352,96,215712,1,8,0:0:0:0:
352,96,216012,1,8,0:0:0:0:
160,96,216162,1,0,0:0:0:0:
352,96,216312,1,8,0:0:0:0:
352,96,216612,1,8,0:0:0:0:
160,96,216912,1,0,0:0:0:0:
352,96,217212,1,8,0:0:0:0:
352,96,217512,1,8,0:0:0:0:
352,96,217812,1,8,0:0:0:0:
160,96,218112,1,0,0:0:0:0:
352,96,218412,1,0,0:0:0:0:
352,96,218562,1,8,0:0:0:0:
160,96,218712,1,0,0:0:0:0:
160,96,218862,1,0,0:0:0:0:
352,96,219012,1,8,0:0:0:0:
352,96,219162,1,0,0:0:0:0:
160,96,219312,1,8,0:0:0:0:
160,96,219462,1,8,0:0:0:0:
170,124,219912,1,0,0:0:0:0:
352,96,220212,1,8,0:0:0:0:
160,96,220512,1,0,0:0:0:0:
352,96,220812,1,8,0:0:0:0:
160,96,220962,1,0,0:0:0:0:
352,96,221112,1,8,0:0:0:0:
352,96,221262,1,8,0:0:0:0:
352,96,221337,1,8,0:0:0:0:
160,96,221412,1,0,0:0:0:0:
352,96,221487,1,8,0:0:0:0:
160,96,221562,1,0,0:0:0:0:
160,96,221637,1,0,0:0:0:0:
352,96,221712,1,8,0:0:0:0:
352,96,221862,1,8,0:0:0:0:
160,96,222012,1,0,0:0:0:0:
352,96,222162,1,8,0:0:0:0:
352,96,222237,1,8,0:0:0:0:
160,96,222312,1,0,0:0:0:0:
160,96,222387,1,0,0:0:0:0:
352,96,222462,1,8,0:0:0:0:
160,96,222612,1,0,0:0:0:0:
352,96,222687,1,8,0:0:0:0:
160,96,222762,1,0,0:0:0:0:
160,96,222837,1,0,0:0:0:0:
352,96,222912,1,8,0:0:0:0:
352,96,223062,1,8,0:0:0:0:
160,96,223137,1,0,0:0:0:0:
352,96,223212,1,8,0:0:0:0:
160,96,223362,1,0,0:0:0:0:
160,96,223437,1,0,0:0:0:0:
352,96,223512,1,8,0:0:0:0:
352,96,223662,1,8,0:0:0:0:
160,96,223812,1,0,0:0:0:0:
352,96,223887,1,8,0:0:0:0:
160,96,223962,1,0,0:0:0:0:
160,96,224037,1,0,0:0:0:0:
352,96,224112,1,8,0:0:0:0:
160,96,224187,1,0,0:0:0:0:
352,96,224262,1,8,0:0:0:0:
352,96,224337,1,8,0:0:0:0:
160,96,224412,1,0,0:0:0:0:
352,96,224562,1,0,0:0:0:0:
160,96,224637,1,0,0:0:0:0:
352,96,224712,1,8,0:0:0:0:
352,96,224862,1,8,0:0:0:0:
160,96,224937,1,0,0:0:0:0:
160,96,225012,1,0,0:0:0:0:
352,96,225087,1,8,0:0:0:0:
375,145,225162,1,0,0:0:0:0:
375,145,225237,1,0,0:0:0:0:
341,102,225312,1,8,0:0:0:0:
341,103,225362,1,8,0:0:0:0:
340,102,225412,1,8,0:0:0:0:
352,96,225462,1,0,0:0:0:0:
352,96,225537,1,8,0:0:0:0:
160,96,225612,1,0,0:0:0:0:
160,96,225762,1,0,0:0:0:0:
352,96,225912,1,8,0:0:0:0:
352,96,225987,1,8,0:0:0:0:
352,96,226062,1,8,0:0:0:0:
352,96,226212,1,8,0:0:0:0:
352,96,226287,1,8,0:0:0:0:
160,96,226362,1,0,0:0:0:0:
160,96,226437,1,0,0:0:0:0:
352,96,226512,1,8,0:0:0:0:
352,96,226587,1,8,0:0:0:0:
160,96,226662,1,0,0:0:0:0:
352,96,226812,1,8,0:0:0:0:
160,96,226962,1,0,0:0:0:0:
160,96,227037,1,0,0:0:0:0:
352,96,227112,1,8,0:0:0:0:
352,96,227262,1,8,0:0:0:0:
352,96,227337,1,8,0:0:0:0:
160,96,227412,1,0,0:0:0:0:
352,96,227487,1,8,0:0:0:0:
160,96,227562,1,0,0:0:0:0:
160,96,227637,1,0,0:0:0:0:
352,96,227712,1,8,0:0:0:0:
160,96,227862,1,0,0:0:0:0:
352,96,228012,1,8,0:0:0:0:
160,96,228087,1,0,0:0:0:0:
352,96,228162,1,8,0:0:0:0:
160,96,228312,1,0,0:0:0:0:
160,96,228462,1,0,0:0:0:0:
160,96,228537,1,0,0:0:0:0:
352,96,228612,1,8,0:0:0:0:
352,96,228687,1,8,0:0:0:0:
160,96,228762,1,0,0:0:0:0:
160,96,228837,1,0,0:0:0:0:
352,96,228912,1,8,0:0:0:0:
160,96,229062,1,0,0:0:0:0:
352,96,229137,1,8,0:0:0:0:
160,96,229212,1,0,0:0:0:0:
352,96,229287,1,8,0:0:0:0:
160,96,229362,1,0,0:0:0:0:
160,96,229437,1,0,0:0:0:0:
352,96,229512,1,8,0:0:0:0:
160,96,229662,1,0,0:0:0:0:
160,96,229737,1,0,0:0:0:0:
352,96,229812,1,8,0:0:0:0:
160,96,229887,1,0,0:0:0:0:
352,96,229962,1,8,0:0:0:0:
352,96,230037,1,8,0:0:0:0:
160,96,230112,1,0,0:0:0:0:
262,157,230162,1,0,0:0:0:0:
262,157,230212,1,0,0:0:0:0:
352,96,230262,1,8,0:0:0:0:
160,96,230412,1,0,0:0:0:0:
160,96,230562,1,0,0:0:0:0:
352,96,230712,1,8,0:0:0:0:
352,96,230937,1,8,0:0:0:0:
160,96,231012,1,0,0:0:0:0:
352,96,231087,1,8,0:0:0:0:
160,96,231162,1,0,0:0:0:0:
160,96,231237,1,0,0:0:0:0:
352,96,231312,1,8,0:0:0:0:
160,96,231612,1,0,0:0:0:0:
160,96,231762,1,0,0:0:0:0:
352,96,231912,1,8,0:0:0:0:
352,96,232137,1,8,0:0:0:0:
160,96,232212,1,0,0:0:0:0:
352,96,232287,1,8,0:0:0:0:
160,96,232362,1,0,0:0:0:0:
160,96,232437,1,0,0:0:0:0:
352,96,232512,1,8,0:0:0:0:
160,96,232812,1,0,0:0:0:0:
160,96,232962,1,0,0:0:0:0:
352,96,233112,1,8,0:0:0:0:
352,96,233262,1,8,0:0:0:0:
160,96,233337,1,0,0:0:0:0:
352,96,233412,1,8,0:0:0:0:
352,96,233487,1,8,0:0:0:0:
160,96,233562,1,0,0:0:0:0:
160,96,233637,1,0,0:0:0:0:
352,96,233712,1,8,0:0:0:0:
160,96,233862,1,0,0:0:0:0:
352,96,233937,1,8,0:0:0:0:
160,96,234012,1,0,0:0:0:0:
352,96,234087,1,8,0:0:0:0:
160,96,234162,1,0,0:0:0:0:
160,96,234237,1,0,0:0:0:0:
352,96,234312,1,8,0:0:0:0:
352,96,234462,1,8,0:0:0:0:
352,96,234537,1,8,0:0:0:0:
160,96,234612,1,0,0:0:0:0:
352,96,234687,1,8,0:0:0:0:
160,96,234762,1,0,0:0:0:0:
160,96,234837,1,0,0:0:0:0:
352,96,234912,1,8,0:0:0:0:
352,96,234962,1,8,0:0:0:0:
352,96,235012,1,8,0:0:0:0:
160,96,235062,1,0,0:0:0:0:
160,96,235212,1,0,0:0:0:0:
160,96,235362,1,0,0:0:0:0:
160,96,235437,1,0,0:0:0:0:
352,96,235512,1,8,0:0:0:0:
352,96,235662,1,8,0:0:0:0:
160,96,235737,1,0,0:0:0:0:
160,96,235812,1,0,0:0:0:0:
352,96,235887,1,8,0:0:0:0:
160,96,235962,1,0,0:0:0:0:
160,96,236037,1,0,0:0:0:0:
352,96,236112,1,8,0:0:0:0:
352,96,236262,1,8,0:0:0:0:
160,96,236337,1,0,0:0:0:0:
160,96,236412,1,0,0:0:0:0:
160,96,236562,1,0,0:0:0:0:
160,96,236637,1,0,0:0:0:0:
352,96,236712,1,8,0:0:0:0:
352,96,236862,1,8,0:0:0:0:
160,96,236937,1,0,0:0:0:0:
352,96,237012,1,8,0:0:0:0:
352,96,237087,1,8,0:0:0:0:
160,96,237162,1,0,0:0:0:0:
160,96,237237,1,0,0:0:0:0:
352,96,237312,1,8,0:0:0:0:
352,96,237462,1,8,0:0:0:0:
160,96,237612,1,0,0:0:0:0:
160,96,237762,1,0,0:0:0:0:
160,96,237837,1,0,0:0:0:0:
352,96,237912,1,8,0:0:0:0:
352,96,238062,1,8,0:0:0:0:
160,96,238137,1,0,0:0:0:0:
352,96,238212,1,0,0:0:0:0:
352,96,238287,1,8,0:0:0:0:
160,96,238362,1,0,0:0:0:0:
160,96,238437,1,0,0:0:0:0:
352,96,238512,1,8,0:0:0:0:
352,96,238662,1,8,0:0:0:0:
160,96,238812,1,0,0:0:0:0:
352,96,238887,1,8,0:0:0:0:
160,96,238962,1,0,0:0:0:0:
160,96,239037,1,0,0:0:0:0:
352,96,239112,1,8,0:0:0:0:
352,96,239262,1,8,0:0:0:0:
352,96,239337,1,8,0:0:0:0:
160,96,239412,1,0,0:0:0:0:
352,96,239487,1,8,0:0:0:0:
160,96,239562,1,0,0:0:0:0:
160,96,239637,1,0,0:0:0:0:
352,96,239712,1,8,0:0:0:0:
352,96,240012,1,12,0:0:0:0:
160,96,240162,1,0,0:0:0:0:
160,96,240237,1,0,0:0:0:0:
352,96,240312,1,8,0:0:0:0:
352,96,240462,1,8,0:0:0:0:
160,96,240537,1,0,0:0:0:0:
352,96,240612,1,8,0:0:0:0:
352,96,240687,1,8,0:0:0:0:
160,96,240762,1,0,0:0:0:0:
160,96,240837,1,0,0:0:0:0:
352,96,240912,1,8,0:0:0:0:
160,96,241062,1,0,0:0:0:0:
352,96,241137,1,8,0:0:0:0:
160,96,241212,1,0,0:0:0:0:
160,96,241362,1,0,0:0:0:0:
160,96,241437,1,0,0:0:0:0:
352,96,241512,1,8,0:0:0:0:
160,96,241587,1,0,0:0:0:0:
352,96,241662,1,8,0:0:0:0:
352,96,241737,1,8,0:0:0:0:
160,96,241812,1,0,0:0:0:0:
352,96,241887,1,8,0:0:0:0:
352,96,241962,1,0,0:0:0:0:
160,96,242037,1,0,0:0:0:0:
352,96,242112,1,8,0:0:0:0:
160,96,242262,1,0,0:0:0:0:
160,96,242337,1,0,0:0:0:0:
352,96,242412,1,8,0:0:0:0:
352,96,242562,1,8,0:0:0:0:
352,96,242637,1,8,0:0:0:0:
160,96,242712,1,0,0:0:0:0:
352,96,242862,1,8,0:0:0:0:
160,96,243012,1,0,0:0:0:0:
352,96,243087,1,8,0:0:0:0:
160,96,243162,1,0,0:0:0:0:
160,96,243237,1,0,0:0:0:0:
352,96,243312,1,8,0:0:0:0:
352,96,243462,1,8,0:0:0:0:
352,96,243537,1,8,0:0:0:0:
160,96,243612,1,0,0:0:0:0:
352,96,243687,1,8,0:0:0:0:
160,96,243762,1,0,0:0:0:0:
160,96,243837,1,0,0:0:0:0:
352,96,243912,1,8,0:0:0:0:
352,96,244062,1,8,0:0:0:0:
352,96,244137,1,8,0:0:0:0:
160,96,244212,1,0,0:0:0:0:
160,96,244362,1,0,0:0:0:0:
160,96,244437,1,0,0:0:0:0:
352,96,244512,1,8,0:0:0:0:
288,88,244562,1,0,0:0:0:0:
288,88,244612,1,0,0:0:0:0:
352,96,244662,1,8,0:0:0:0:
352,96,244737,1,8,0:0:0:0:
160,96,244812,1,0,0:0:0:0:
352,96,244962,1,8,0:0:0:0:
160,96,245037,1,0,0:0:0:0:
352,96,245112,1,8,0:0:0:0:
352,96,245262,1,8,0:0:0:0:
352,96,245337,1,8,0:0:0:0:
160,96,245412,1,0,0:0:0:0:
160,96,245487,1,0,0:0:0:0:
352,96,245562,1,8,0:0:0:0:
160,96,245712,1,0,0:0:0:0:
352,96,245862,1,8,0:0:0:0:
352,96,245937,1,8,0:0:0:0:
160,96,246012,1,0,0:0:0:0:
160,96,246162,1,0,0:0:0:0:
160,96,246237,1,0,0:0:0:0:
352,96,246312,1,8,0:0:0:0:
160,96,246462,1,0,0:0:0:0:
160,96,246537,1,0,0:0:0:0:
352,96,246612,1,8,0:0:0:0:
352,96,246687,1,8,0:0:0:0:
160,96,246762,1,0,0:0:0:0:
160,96,246837,1,0,0:0:0:0:
352,96,246912,1,8,0:0:0:0:
160,96,247062,1,0,0:0:0:0:
352,96,247137,1,8,0:0:0:0:
160,96,247212,1,0,0:0:0:0:
160,96,247362,1,0,0:0:0:0:
160,96,247437,1,0,0:0:0:0:
352,96,247512,1,8,0:0:0:0:
160,96,247587,1,0,0:0:0:0:
352,96,247662,1,8,0:0:0:0:
352,96,247737,1,8,0:0:0:0:
160,96,247812,1,0,0:0:0:0:
352,96,247887,1,8,0:0:0:0:
160,96,247962,1,0,0:0:0:0:
160,96,248037,1,0,0:0:0:0:
352,96,248112,1,8,0:0:0:0:
160,96,248262,1,8,0:0:0:0:
352,96,248337,1,8,0:0:0:0:
160,288,248412,1,4,0:0:0:0:
160,288,248562,1,4,0:0:0:0:
352,288,248712,1,8,0:0:0:0:
352,288,248862,1,4,0:0:0:0:
160,288,249012,1,4,0:0:0:0:
160,288,249162,1,4,0:0:0:0:
352,288,249312,1,8,0:0:0:0:
352,96,249612,1,8,0:0:0:0:
352,96,249687,1,8,0:0:0:0:
160,96,249762,1,0,0:0:0:0:
352,96,249837,1,8,0:0:0:0:
160,96,249912,1,0,0:0:0:0:
160,96,250062,1,0,0:0:0:0:
160,96,250137,1,0,0:0:0:0:
352,96,250212,1,8,0:0:0:0:
352,96,250287,1,8,0:0:0:0:
160,96,250362,1,0,0:0:0:0:
160,96,250437,1,0,0:0:0:0:
352,96,250512,1,8,0:0:0:0:
160,96,250662,1,0,0:0:0:0:
352,96,250737,1,8,0:0:0:0:
160,96,250812,1,0,0:0:0:0:
352,96,250962,1,8,0:0:0:0:
352,96,251037,1,8,0:0:0:0:
160,96,251112,1,0,0:0:0:0:
160,96,251262,1,0,0:0:0:0:
352,96,251412,1,8,0:0:0:0:
352,96,251487,1,8,0:0:0:0:
160,96,251562,1,0,0:0:0:0:
160,96,251637,1,0,0:0:0:0:
352,96,251712,1,8,0:0:0:0:
160,96,251862,1,0,0:0:0:0:
352,96,251937,1,8,0:0:0:0:
160,96,252012,1,0,0:0:0:0:
160,96,252162,1,0,0:0:0:0:
352,96,252312,1,8,0:0:0:0:
160,96,252462,1,0,0:0:0:0:
160,96,252537,1,0,0:0:0:0:
352,96,252612,1,8,0:0:0:0:
352,96,252687,1,8,0:0:0:0:
160,96,252762,1,0,0:0:0:0:
352,96,252837,1,8,0:0:0:0:
352,96,252912,1,8,0:0:0:0:
352,96,253062,1,8,0:0:0:0:
352,96,253137,1,8,0:0:0:0:
160,96,253212,1,0,0:0:0:0:
352,96,253287,1,8,0:0:0:0:
160,96,253362,1,0,0:0:0:0:
160,96,253437,1,0,0:0:0:0:
352,96,253512,1,8,0:0:0:0:
160,96,253662,1,0,0:0:0:0:
160,96,253737,1,0,0:0:0:0:
352,96,253812,1,8,0:0:0:0:
160,96,253887,1,0,0:0:0:0:
160,96,253962,1,0,0:0:0:0:
160,96,254037,1,0,0:0:0:0:
352,96,254112,1,8,0:0:0:0:
160,96,254162,1,0,0:0:0:0:
250,99,254212,1,0,0:0:0:0:
221,118,254262,1,8,0:0:0:0:
352,96,254337,1,8,0:0:0:0:
160,96,254412,1,0,0:0:0:0:
160,96,254562,1,0,0:0:0:0:
160,96,254637,1,0,0:0:0:0:
352,96,254712,1,8,0:0:0:0:
160,96,254862,1,0,0:0:0:0:
160,96,254937,1,0,0:0:0:0:
352,96,255012,1,8,0:0:0:0:
352,96,255087,1,8,0:0:0:0:
160,96,255162,1,0,0:0:0:0:
352,96,255312,1,8,0:0:0:0:
160,96,255462,1,0,0:0:0:0:
352,96,255537,1,8,0:0:0:0:
160,96,255612,1,0,0:0:0:0:
160,96,255762,1,0,0:0:0:0:
160,96,255837,1,0,0:0:0:0:
352,96,255912,1,8,0:0:0:0:
160,96,255987,1,0,0:0:0:0:
352,96,256062,1,8,0:0:0:0:
352,96,256137,1,8,0:0:0:0:
160,96,256212,1,0,0:0:0:0:
352,96,256287,1,8,0:0:0:0:
160,96,256362,1,0,0:0:0:0:
352,96,256512,1,8,0:0:0:0:
160,96,256662,1,0,0:0:0:0:
160,96,256737,1,0,0:0:0:0:
352,96,256812,1,8,0:0:0:0:
352,96,256887,1,8,0:0:0:0:
160,96,256962,1,0,0:0:0:0:
160,96,257037,1,0,0:0:0:0:
352,96,257112,1,8,0:0:0:0:
160,96,257262,1,0,0:0:0:0:
352,96,257337,1,8,0:0:0:0:
160,96,257412,1,0,0:0:0:0:
352,96,257487,1,8,0:0:0:0:
160,96,257562,1,0,0:0:0:0:
352,96,257712,1,8,0:0:0:0:
352,96,257862,1,8,0:0:0:0:
352,96,257937,1,8,0:0:0:0:
160,96,258012,1,0,0:0:0:0:
352,96,258087,1,8,0:0:0:0:
160,96,258162,1,0,0:0:0:0:
160,96,258237,1,0,0:0:0:0:
352,96,258312,1,8,0:0:0:0:
160,96,258462,1,0,0:0:0:0:
160,96,258537,1,0,0:0:0:0:
352,96,258612,1,8,0:0:0:0:
352,96,258687,1,8,0:0:0:0:
160,96,258762,1,0,0:0:0:0:
352,96,258912,1,8,0:0:0:0:
419,162,258962,1,8,0:0:0:0:
419,162,259012,1,8,0:0:0:0:
352,96,259062,1,0,0:0:0:0:
352,96,259137,1,8,0:0:0:0:
160,96,259212,1,0,0:0:0:0:
160,96,259362,1,0,0:0:0:0:
352,96,259512,1,8,0:0:0:0:
160,96,259662,1,0,0:0:0:0:
352,96,259812,1,8,0:0:0:0:
352,96,259887,1,8,0:0:0:0:
160,96,259962,1,0,0:0:0:0:
352,96,260112,1,8,0:0:0:0:
352,96,260262,1,8,0:0:0:0:
352,96,260337,1,8,0:0:0:0:
160,96,260412,1,0,0:0:0:0:
160,96,260562,1,0,0:0:0:0:
352,96,260712,1,8,0:0:0:0:
160,96,260862,1,0,0:0:0:0:
352,96,260937,1,8,0:0:0:0:
160,96,261012,1,0,0:0:0:0:
160,96,261162,1,0,0:0:0:0:
352,96,261312,1,8,0:0:0:0:
160,96,261462,1,0,0:0:0:0:
160,96,261537,1,0,0:0:0:0:
352,96,261612,1,8,0:0:0:0:
352,96,261762,1,8,0:0:0:0:
160,96,261837,1,0,0:0:0:0:
352,96,261912,1,8,0:0:0:0:
352,96,262062,1,8,0:0:0:0:
352,96,262212,1,8,0:0:0:0:
160,96,262287,1,0,0:0:0:0:
160,96,262362,1,0,0:0:0:0:
352,96,262512,1,8,0:0:0:0:
352,96,262662,1,8,0:0:0:0:
160,96,262737,1,8,0:0:0:0:
352,96,262812,1,0,0:0:0:0:
199,141,262887,1,8,0:0:0:0:
352,96,262962,1,0,0:0:0:0:
352,96,263037,1,8,0:0:0:0:
160,96,263112,1,0,0:0:0:0:
160,96,263262,1,0,0:0:0:0:
352,96,263412,1,8,0:0:0:0:
274,139,263487,1,8,0:0:0:0:
160,96,263562,1,0,0:0:0:0:
160,96,263637,1,0,0:0:0:0:
352,96,263712,1,8,0:0:0:0:
352,96,263862,1,8,0:0:0:0:
199,157,263937,1,8,0:0:0:0:
160,96,264012,1,0,0:0:0:0:
160,96,264162,1,0,0:0:0:0:
352,96,264312,1,8,0:0:0:0:
352,96,264462,1,8,0:0:0:0:
160,96,264537,1,0,0:0:0:0:
352,96,264612,1,8,0:0:0:0:
352,96,264687,1,8,0:0:0:0:
160,96,264762,1,0,0:0:0:0:
276,205,264837,1,0,0:0:0:0:
352,96,264912,1,8,0:0:0:0:
160,96,265062,1,0,0:0:0:0:
352,96,265137,1,8,0:0:0:0:
160,96,265212,1,0,0:0:0:0:
160,96,265362,1,0,0:0:0:0:
352,96,265512,1,8,0:0:0:0:
297,142,265587,1,8,0:0:0:0:
352,96,265662,1,0,0:0:0:0:
352,96,265737,1,8,0:0:0:0:
160,96,265812,1,0,0:0:0:0:
255,155,265887,1,0,0:0:0:0:
160,96,265962,1,8,0:0:0:0:
352,96,266112,1,8,0:0:0:0:
352,96,266262,1,8,0:0:0:0:
352,96,266337,1,8,0:0:0:0:
160,96,266412,1,0,0:0:0:0:
160,96,266562,1,0,0:0:0:0:
352,96,266712,1,8,0:0:0:0:
352,96,266862,1,8,0:0:0:0:
160,96,266937,1,0,0:0:0:0:
352,96,267012,1,8,0:0:0:0:
352,96,267087,1,8,0:0:0:0:
160,96,267162,1,0,0:0:0:0:
160,96,267237,1,0,0:0:0:0:
352,96,267312,1,8,0:0:0:0:
352,96,267462,1,8,0:0:0:0:
352,96,267537,1,8,0:0:0:0:
160,96,267612,1,0,0:0:0:0:
352,96,267687,1,8,0:0:0:0:
160,96,267762,1,0,0:0:0:0:
160,96,267837,1,0,0:0:0:0:
352,96,267912,1,8,0:0:0:0:
160,96,267987,1,0,0:0:0:0:
352,96,268062,1,8,0:0:0:0:
352,96,268137,1,8,0:0:0:0:
160,96,268212,1,0,0:0:0:0:
352,96,268287,1,8,0:0:0:0:
352,96,268362,1,8,0:0:0:0:
352,96,268437,1,8,0:0:0:0:
160,96,268512,1,0,0:0:0:0:
308,95,268562,5,0,0:0:0:0:
308,95,268612,1,0,0:0:0:0:
356,144,268662,1,8,0:0:0:0:
352,96,268737,1,8,0:0:0:0:
160,96,268812,1,0,0:0:0:0:
160,96,268962,1,0,0:0:0:0:
352,96,269112,1,8,0:0:0:0:
160,96,269212,1,0,0:0:0:0:
160,96,269312,1,0,0:0:0:0:
352,96,269412,1,8,0:0:0:0:
352,96,269487,1,8,0:0:0:0:
160,96,269562,1,0,0:0:0:0:
160,96,269637,1,0,0:0:0:0:
352,96,269712,1,8,0:0:0:0:
160,96,270012,1,0,0:0:0:0:
160,96,270162,1,0,0:0:0:0:
352,96,270312,1,8,0:0:0:0:
160,96,270412,1,0,0:0:0:0:
160,96,270512,1,0,0:0:0:0:
352,96,270612,1,8,0:0:0:0:
352,96,270687,1,8,0:0:0:0:
160,96,270762,1,0,0:0:0:0:
160,96,270837,1,8,0:0:0:0:
352,96,270912,1,0,0:0:0:0:
160,96,271212,1,0,0:0:0:0:
160,96,271362,1,0,0:0:0:0:
352,96,271512,1,8,0:0:0:0:
160,96,271612,1,0,0:0:0:0:
160,96,271712,1,0,0:0:0:0:
352,96,271812,1,8,0:0:0:0:
352,96,271887,1,8,0:0:0:0:
160,96,271962,1,0,0:0:0:0:
160,96,272037,1,0,0:0:0:0:
160,96,272112,1,0,0:0:0:0:
352,96,272412,1,8,0:0:0:0:
393,158,272487,1,8,0:0:0:0:
206,237,272562,1,0,0:0:0:0:
352,96,272712,1,8,0:0:0:0:
352,96,272812,1,8,0:0:0:0:
160,96,272912,1,0,0:0:0:0:
352,96,273012,1,8,0:0:0:0:
352,96,273087,1,0,0:0:0:0:
160,96,273162,1,0,0:0:0:0:
160,96,273237,1,0,0:0:0:0:
352,96,273312,1,8,0:0:0:0:
352,96,273462,1,8,0:0:0:0:
160,96,273612,1,0,0:0:0:0:
160,96,273762,1,0,0:0:0:0:
160,96,273837,1,0,0:0:0:0:
352,96,273912,1,8,0:0:0:0:
160,96,274012,1,0,0:0:0:0:
160,96,274112,1,0,0:0:0:0:
352,96,274212,1,8,0:0:0:0:
352,96,274287,1,0,0:0:0:0:
160,96,274362,1,8,0:0:0:0:
160,96,274437,1,8,0:0:0:0:
352,96,274512,1,0,0:0:0:0:
160,96,274662,1,0,0:0:0:0:
352,96,274737,1,8,0:0:0:0:
160,96,274812,1,0,0:0:0:0:
160,96,274962,1,0,0:0:0:0:
352,96,275112,1,8,0:0:0:0:
160,96,275212,1,0,0:0:0:0:
160,96,275312,1,0,0:0:0:0:
352,96,275412,1,8,0:0:0:0:
160,96,275487,1,0,0:0:0:0:
160,96,275562,1,0,0:0:0:0:
160,96,275637,1,0,0:0:0:0:
352,96,275712,1,8,0:0:0:0:
160,96,275862,1,0,0:0:0:0:
160,96,276012,1,0,0:0:0:0:
160,96,276087,1,0,0:0:0:0:
352,96,276162,1,8,0:0:0:0:
352,96,276312,1,8,0:0:0:0:
160,96,276412,1,0,0:0:0:0:
160,96,276512,1,0,0:0:0:0:
352,96,276612,1,8,0:0:0:0:
352,96,276687,1,8,0:0:0:0:
160,96,276762,1,0,0:0:0:0:
160,96,276837,1,0,0:0:0:0:
352,96,276912,1,8,0:0:0:0:
352,96,277062,1,8,0:0:0:0:
352,96,277137,1,8,0:0:0:0:
160,96,277212,1,0,0:0:0:0:
352,96,277287,1,8,0:0:0:0:
160,96,277362,1,0,0:0:0:0:
160,96,277437,1,0,0:0:0:0:
352,96,277512,1,8,0:0:0:0:
160,96,277612,1,0,0:0:0:0:
160,96,277712,1,0,0:0:0:0:
352,96,277812,1,8,0:0:0:0:
160,96,277887,1,8,0:0:0:0:
160,96,277962,1,0,0:0:0:0:
160,96,278037,1,0,0:0:0:0:
352,96,278112,1,8,0:0:0:0:
160,96,278187,1,0,0:0:0:0:
352,96,278262,1,8,0:0:0:0:
352,96,278337,1,8,0:0:0:0:
160,96,278412,1,0,0:0:0:0:
160,96,278562,1,0,0:0:0:0:
352,96,278712,1,8,0:0:0:0:
160,96,278812,1,0,0:0:0:0:
160,96,278912,1,0,0:0:0:0:
352,96,279012,1,8,0:0:0:0:
352,96,279087,1,8,0:0:0:0:
160,96,279162,1,0,0:0:0:0:
160,96,279237,1,0,0:0:0:0:
352,96,279312,1,8,0:0:0:0:
352,96,279387,1,8,0:0:0:0:
160,96,279462,1,0,0:0:0:0:
352,96,279537,1,8,0:0:0:0:
160,96,279612,1,0,0:0:0:0:
160,96,279762,1,0,0:0:0:0:
352,96,279912,1,8,0:0:0:0:
160,96,280012,1,0,0:0:0:0:
160,96,280112,1,0,0:0:0:0:
352,96,280212,1,8,0:0:0:0:
352,96,280287,1,8,0:0:0:0:
160,96,280362,1,0,0:0:0:0:
160,96,280437,1,0,0:0:0:0:
160,96,280512,1,8,0:0:0:0:
160,96,280562,1,0,0:0:0:0:
160,96,280612,1,0,0:0:0:0:
352,96,280662,1,8,0:0:0:0:
352,96,280737,1,8,0:0:0:0:
160,96,280812,1,0,0:0:0:0:
160,96,280962,1,0,0:0:0:0:
352,96,281112,1,8,0:0:0:0:
160,96,281212,1,0,0:0:0:0:
160,96,281312,1,0,0:0:0:0:
352,96,281412,1,8,0:0:0:0:
352,96,281487,1,8,0:0:0:0:
160,96,281562,1,0,0:0:0:0:
352,96,281712,1,8,0:0:0:0:
160,96,281787,1,0,0:0:0:0:
160,96,281862,1,0,0:0:0:0:
160,96,281937,1,0,0:0:0:0:
352,96,282012,1,8,0:0:0:0:
160,96,282162,1,0,0:0:0:0:
160,96,282237,1,0,0:0:0:0:
352,96,282312,1,8,0:0:0:0:
352,96,282462,1,8,0:0:0:0:
160,96,282537,1,0,0:0:0:0:
352,96,282612,1,8,0:0:0:0:
352,96,282687,1,8,0:0:0:0:
160,96,282762,1,0,0:0:0:0:
352,96,282912,1,8,0:0:0:0:
352,96,283062,1,8,0:0:0:0:
352,96,283137,1,8,0:0:0:0:
160,96,283212,1,0,0:0:0:0:
160,96,283362,1,0,0:0:0:0:
352,96,283512,1,8,0:0:0:0:
352,96,283662,1,8,0:0:0:0:
160,96,283737,1,0,0:0:0:0:
352,96,283812,1,8,0:0:0:0:
352,96,283887,1,8,0:0:0:0:
160,96,283962,1,0,0:0:0:0:
160,96,284037,1,0,0:0:0:0:
352,96,284112,1,8,0:0:0:0:
160,96,284262,1,0,0:0:0:0:
352,96,284337,1,8,0:0:0:0:
160,96,284412,1,0,0:0:0:0:
160,96,284562,1,0,0:0:0:0:
352,96,284712,1,8,0:0:0:0:
352,96,284862,1,8,0:0:0:0:
160,96,284937,1,0,0:0:0:0:
352,96,285012,1,8,0:0:0:0:
352,96,285087,1,8,0:0:0:0:
160,96,285162,1,0,0:0:0:0:
160,96,285237,1,0,0:0:0:0:
352,96,285312,1,8,0:0:0:0:
160,96,285387,1,0,0:0:0:0:
352,96,285462,1,8,0:0:0:0:
352,96,285537,1,8,0:0:0:0:
160,96,285612,1,0,0:0:0:0:
160,96,285762,1,0,0:0:0:0:
352,96,285912,1,8,0:0:0:0:
160,96,286062,1,0,0:0:0:0:
352,96,286137,1,8,0:0:0:0:
160,96,286212,1,0,0:0:0:0:
160,96,286362,1,0,0:0:0:0:
160,96,286437,1,0,0:0:0:0:
352,96,286512,1,8,0:0:0:0:
160,96,286587,1,0,0:0:0:0:
352,96,286662,1,8,0:0:0:0:
352,96,286737,1,8,0:0:0:0:
160,96,286812,1,0,0:0:0:0:
352,96,286887,1,8,0:0:0:0:
160,96,286962,1,0,0:0:0:0:
352,96,287112,1,8,0:0:0:0:
352,96,287337,1,8,0:0:0:0:
352,96,287487,1,8,0:0:0:0:
160,96,287562,1,0,0:0:0:0:
160,96,288012,1,4,0:0:0:0:
160,96,288162,1,0,0:0:0:0:
352,96,288312,1,8,0:0:0:0:
352,96,288462,1,8,0:0:0:0:
160,96,288537,1,0,0:0:0:0:
352,96,288612,1,8,0:0:0:0:
352,96,288687,1,8,0:0:0:0:
160,96,288762,1,0,0:0:0:0:
160,96,288837,1,0,0:0:0:0:
352,96,288912,1,8,0:0:0:0:
352,96,289062,1,8,0:0:0:0:
352,96,289137,1,8,0:0:0:0:
160,96,289212,1,0,0:0:0:0:
160,96,289362,1,0,0:0:0:0:
352,96,289512,1,8,0:0:0:0:
160,96,289662,1,0,0:0:0:0:
160,96,289737,1,0,0:0:0:0:
352,96,289812,1,8,0:0:0:0:
352,96,289887,1,8,0:0:0:0:
160,96,289962,1,0,0:0:0:0:
352,96,290112,1,8,0:0:0:0:
160,96,290262,1,0,0:0:0:0:
352,96,290337,1,8,0:0:0:0:
160,96,290412,1,0,0:0:0:0:
160,96,290562,1,0,0:0:0:0:
160,96,290637,1,0,0:0:0:0:
352,96,290712,1,8,0:0:0:0:
352,96,290862,1,8,0:0:0:0:
160,96,290937,1,0,0:0:0:0:
352,96,291012,1,8,0:0:0:0:
352,96,291087,1,8,0:0:0:0:
160,96,291162,1,0,0:0:0:0:
160,96,291237,1,0,0:0:0:0:
352,96,291312,1,8,0:0:0:0:
160,96,291462,1,0,0:0:0:0:
352,96,291537,1,8,0:0:0:0:
160,96,291612,1,0,0:0:0:0:
352,96,291687,1,8,0:0:0:0:
160,96,291762,1,0,0:0:0:0:
160,96,291837,1,0,0:0:0:0:
352,96,291912,1,8,0:0:0:0:
352,96,292062,1,8,0:0:0:0:
352,96,292137,1,8,0:0:0:0:
160,96,292212,1,0,0:0:0:0:
160,96,292362,1,0,0:0:0:0:
160,96,292437,1,0,0:0:0:0:
352,96,292512,1,8,0:0:0:0:
352,96,292562,1,8,0:0:0:0:
352,96,292612,1,8,0:0:0:0:
160,96,292662,1,0,0:0:0:0:
352,96,292737,1,8,0:0:0:0:
160,96,292812,1,0,0:0:0:0:
160,96,292962,1,0,0:0:0:0:
352,96,293112,1,8,0:0:0:0:
160,96,293262,1,0,0:0:0:0:
160,96,293337,1,0,0:0:0:0:
352,96,293412,1,8,0:0:0:0:
352,96,293487,1,8,0:0:0:0:
160,96,293562,1,0,0:0:0:0:
160,96,293637,1,0,0:0:0:0:
352,96,293712,1,8,0:0:0:0:
160,96,293862,1,0,0:0:0:0:
352,96,293937,1,8,0:0:0:0:
160,96,294012,1,0,0:0:0:0:
160,96,294162,1,0,0:0:0:0:
352,96,294312,1,8,0:0:0:0:
352,96,294462,1,8,0:0:0:0:
160,96,294537,1,0,0:0:0:0:
352,96,294612,1,8,0:0:0:0:
352,96,294687,1,8,0:0:0:0:
160,96,294762,1,0,0:0:0:0:
160,96,294837,1,0,0:0:0:0:
352,96,294912,1,8,0:0:0:0:
160,96,294987,1,0,0:0:0:0:
352,96,295062,1,8,0:0:0:0:
352,96,295137,1,8,0:0:0:0:
160,96,295212,1,0,0:0:0:0:
160,96,295362,1,0,0:0:0:0:
160,96,295437,1,0,0:0:0:0:
352,96,295512,1,8,0:0:0:0:
352,96,295662,1,8,0:0:0:0:
160,96,295737,1,0,0:0:0:0:
352,96,295812,1,8,0:0:0:0:
352,96,295887,1,8,0:0:0:0:
160,96,295962,1,0,0:0:0:0:
160,96,296037,1,0,0:0:0:0:
352,96,296112,1,8,0:0:0:0:
160,96,296262,1,0,0:0:0:0:
160,96,296337,1,0,0:0:0:0:
352,96,296412,1,8,0:0:0:0:
352,96,296487,1,8,0:0:0:0:
160,96,296562,1,0,0:0:0:0:
160,96,296637,1,0,0:0:0:0:
352,96,296712,1,8,0:0:0:0:
352,96,296862,1,8,0:0:0:0:
160,96,296937,1,0,0:0:0:0:
352,96,297012,1,8,0:0:0:0:
352,96,297087,1,8,0:0:0:0:
160,96,297162,1,0,0:0:0:0:
160,96,297237,1,0,0:0:0:0:
352,96,297312,1,8,0:0:0:0:
352,96,297362,1,8,0:0:0:0:
352,96,297412,1,8,0:0:0:0:
160,96,297462,1,0,0:0:0:0:
160,288,297612,1,4,0:0:0:0:
160,96,297762,1,0,0:0:0:0:
160,288,297912,1,4,0:0:0:0:
352,96,298062,1,8,0:0:0:0:
160,288,298212,1,4,0:0:0:0:
160,96,298362,1,0,0:0:0:0:
352,96,298512,1,12,0:0:0:0:
160,96,298662,1,8,0:0:0:0:
160,288,298812,1,4,0:0:0:0:
393,146,298962,1,0,0:0:0:0:
376,124,299112,1,4,0:0:0:0:
459,153,299262,1,8,0:0:0:0:
395,135,299412,1,4,0:0:0:0:
358,158,299562,1,0,0:0:0:0:
465,130,299712,1,12,0:0:0:0:
336,162,299862,1,0,0:0:0:0:
160,288,300012,1,4,0:0:0:0:
160,96,300162,1,0,0:0:0:0:
160,288,300312,1,4,0:0:0:0:
352,96,300462,1,8,0:0:0:0:
160,288,300612,1,4,0:0:0:0:
160,96,300762,1,0,0:0:0:0:
352,96,300912,1,12,0:0:0:0:
160,96,301062,1,8,0:0:0:0:
160,288,301212,1,4,0:0:0:0:
393,146,301362,1,0,0:0:0:0:
376,124,301512,1,4,0:0:0:0:
459,153,301662,1,8,0:0:0:0:
395,135,301812,1,4,0:0:0:0:
358,158,301962,1,0,0:0:0:0:
465,130,302112,1,12,0:0:0:0:
336,162,302262,1,0,0:0:0:0:
160,96,302412,1,8,0:0:0:0:
160,96,302487,1,8,0:0:0:0:
160,96,302562,1,0,0:0:0:0:
160,96,302637,1,0,0:0:0:0:
352,96,302712,1,8,0:0:0:0:
352,96,302762,1,0,0:0:0:0:
352,96,302812,1,0,0:0:0:0:
160,96,302862,1,8,0:0:0:0:
160,96,302937,1,0,0:0:0:0:
352,96,303012,1,8,0:0:0:0:
352,96,303062,1,8,0:0:0:0:
352,96,303112,1,8,0:0:0:0:
160,96,303162,1,0,0:0:0:0:
160,96,303237,1,0,0:0:0:0:
352,96,303312,1,8,0:0:0:0:
352,96,303362,1,8,0:0:0:0:
352,96,303412,1,8,0:0:0:0:
352,96,303462,1,0,0:0:0:0:
160,96,303537,1,0,0:0:0:0:
477,159,303612,1,8,0:0:0:0:
375,72,303662,1,8,0:0:0:0:
375,72,303712,1,8,0:0:0:0:
447,152,303762,1,0,0:0:0:0:
258,95,303837,1,0,0:0:0:0:
352,96,303912,1,8,0:0:0:0:
352,96,303962,1,0,0:0:0:0:
352,96,304012,1,0,0:0:0:0:
160,96,304062,1,8,0:0:0:0:
160,96,304112,1,0,0:0:0:0:
160,96,304162,1,0,0:0:0:0:
352,96,304212,1,8,0:0:0:0:
352,96,304287,1,0,0:0:0:0:
160,96,304362,1,0,0:0:0:0:
160,96,304437,1,0,0:0:0:0:
352,96,304512,1,8,0:0:0:0:
352,96,304562,1,8,0:0:0:0:
352,96,304612,1,8,0:0:0:0:
352,96,304662,1,0,0:0:0:0:
352,96,304712,1,8,0:0:0:0:
352,96,304762,1,8,0:0:0:0:
160,96,304812,1,0,0:0:0:0:
160,96,304962,1,0,0:0:0:0:
352,96,305112,1,8,0:0:0:0:
352,96,305262,1,8,0:0:0:0:
160,96,305337,1,0,0:0:0:0:
352,96,305412,1,8,0:0:0:0:
352,96,305487,1,8,0:0:0:0:
160,96,305562,1,0,0:0:0:0:
160,96,305637,1,0,0:0:0:0:
352,96,305712,1,8,0:0:0:0:
352,96,305862,1,8,0:0:0:0:
352,96,305937,1,8,0:0:0:0:
160,96,306012,1,0,0:0:0:0:
160,96,306162,1,0,0:0:0:0:
352,96,306312,1,8,0:0:0:0:
160,96,306387,1,0,0:0:0:0:
160,96,306537,1,0,0:0:0:0:
352,96,306612,1,8,0:0:0:0:
160,96,306762,1,0,0:0:0:0:
352,96,306912,1,8,0:0:0:0:
352,96,307062,1,8,0:0:0:0:
352,96,307137,1,8,0:0:0:0:
160,96,307212,1,0,0:0:0:0:
160,96,307362,1,0,0:0:0:0:
352,96,307512,1,8,0:0:0:0:
160,96,307662,1,0,0:0:0:0:
160,96,307737,1,0,0:0:0:0:
352,96,307812,1,8,0:0:0:0:
352,96,307887,1,8,0:0:0:0:
160,96,307962,1,0,0:0:0:0:
352,96,308112,1,8,0:0:0:0:
160,96,308262,1,0,0:0:0:0:
352,96,308337,1,8,0:0:0:0:
352,96,308412,1,8,0:0:0:0:
160,96,308487,1,0,0:0:0:0:
160,96,308562,1,0,0:0:0:0:
160,96,308637,1,0,0:0:0:0:
352,96,308712,1,8,0:0:0:0:
160,96,308862,1,0,0:0:0:0:
352,96,308937,1,8,0:0:0:0:
160,96,309012,1,0,0:0:0:0:
352,96,309087,1,8,0:0:0:0:
160,96,309162,1,0,0:0:0:0:
160,96,309237,1,0,0:0:0:0:
352,96,309312,1,8,0:0:0:0:
160,96,309462,1,0,0:0:0:0:
352,96,309612,1,8,0:0:0:0:
352,96,309687,1,8,0:0:0:0:
160,96,309762,1,0,0:0:0:0:
160,96,309837,1,0,0:0:0:0:
352,96,309912,1,8,0:0:0:0:
160,96,310062,1,0,0:0:0:0:
160,96,310137,1,0,0:0:0:0:
352,96,310212,1,8,0:0:0:0:
160,96,310287,1,0,0:0:0:0:
160,96,310362,1,0,0:0:0:0:
160,96,310437,1,0,0:0:0:0:
352,96,310512,1,8,0:0:0:0:
160,96,310662,1,0,0:0:0:0:
352,96,310737,1,8,0:0:0:0:
352,96,310812,1,8,0:0:0:0:
352,96,310887,1,8,0:0:0:0:
160,96,310962,1,0,0:0:0:0:
160,96,311037,1,0,0:0:0:0:
352,96,311112,1,8,0:0:0:0:
160,96,311187,1,0,0:0:0:0:
352,96,311262,1,8,0:0:0:0:
352,96,311337,1,8,0:0:0:0:
160,96,311412,1,0,0:0:0:0:
352,96,311487,1,8,0:0:0:0:
160,96,311562,1,0,0:0:0:0:
367,198,311637,1,0,0:0:0:0:
352,96,311712,1,8,0:0:0:0:
352,96,311762,1,8,0:0:0:0:
352,96,311812,1,8,0:0:0:0:
160,96,311862,1,0,0:0:0:0:
352,96,312012,1,8,0:0:0:0:
352,96,312087,1,8,0:0:0:0:
160,96,312162,1,0,0:0:0:0:
160,96,312237,1,0,0:0:0:0:
352,96,312312,1,8,0:0:0:0:
160,96,312462,1,0,0:0:0:0:
160,96,312537,1,0,0:0:0:0:
352,96,312612,1,8,0:0:0:0:
352,96,312687,1,8,0:0:0:0:
160,96,312762,1,0,0:0:0:0:
160,96,312837,1,0,0:0:0:0:
352,96,312912,1,8,0:0:0:0:
160,96,313062,1,0,0:0:0:0:
160,96,313137,1,0,0:0:0:0:
352,96,313212,1,8,0:0:0:0:
160,96,313287,1,0,0:0:0:0:
352,96,313362,1,8,0:0:0:0:
352,96,313437,1,8,0:0:0:0:
160,96,313512,1,0,0:0:0:0:
160,96,313587,1,0,0:0:0:0:
352,96,313662,1,8,0:0:0:0:
352,96,313737,1,8,0:0:0:0:
160,96,313812,1,0,0:0:0:0:
352,96,313887,1,8,0:0:0:0:
160,96,313962,1,0,0:0:0:0:
160,96,314037,1,0,0:0:0:0:
352,96,314112,1,8,0:0:0:0:
160,96,314187,1,0,0:0:0:0:
352,96,314262,1,8,0:0:0:0:
352,96,314337,1,8,0:0:0:0:
160,96,314412,1,0,0:0:0:0:
160,96,314562,1,0,0:0:0:0:
160,96,314637,1,0,0:0:0:0:
352,96,314712,1,8,0:0:0:0:
352,96,314862,1,8,0:0:0:0:
160,96,315012,1,0,0:0:0:0:
352,96,315087,1,8,0:0:0:0:
160,96,315162,1,0,0:0:0:0:
160,96,315237,1,0,0:0:0:0:
352,96,315312,1,8,0:0:0:0:
352,96,315462,1,8,0:0:0:0:
160,96,315537,1,0,0:0:0:0:
352,96,315612,1,8,0:0:0:0:
160,96,315762,1,0,0:0:0:0:
160,96,315837,1,0,0:0:0:0:
352,96,315912,1,8,0:0:0:0:
160,96,315987,1,0,0:0:0:0:
352,96,316062,1,8,0:0:0:0:
352,96,316137,1,8,0:0:0:0:
160,96,316212,1,0,0:0:0:0:
352,96,316287,1,8,0:0:0:0:
160,96,316362,1,0,0:0:0:0:
160,96,316437,1,0,0:0:0:0:
352,96,316512,1,8,0:0:0:0:
160,96,316662,1,0,0:0:0:0:
160,96,316812,1,4,0:0:0:0:
160,96,316962,1,0,0:0:0:0:
160,96,317037,1,0,0:0:0:0:
352,96,317112,1,8,0:0:0:0:
160,96,317262,1,0,0:0:0:0:
160,96,317337,1,0,0:0:0:0:
352,96,317412,1,8,0:0:0:0:
352,96,317487,1,8,0:0:0:0:
160,96,317562,1,0,0:0:0:0:
160,96,317637,1,0,0:0:0:0:
352,96,317712,1,8,0:0:0:0:
160,96,317862,1,0,0:0:0:0:
352,96,317937,1,8,0:0:0:0:
160,96,318012,1,0,0:0:0:0:
352,96,318087,1,8,0:0:0:0:
160,96,318162,1,0,0:0:0:0:
160,96,318237,1,0,0:0:0:0:
352,96,318312,1,8,0:0:0:0:
352,96,318462,1,8,0:0:0:0:
160,96,318537,1,0,0:0:0:0:
352,96,318612,1,8,0:0:0:0:
352,96,318687,1,8,0:0:0:0:
160,96,318762,1,0,0:0:0:0:
160,96,318837,1,0,0:0:0:0:
352,96,318912,1,8,0:0:0:0:
160,96,319062,1,0,0:0:0:0:
160,96,319137,1,0,0:0:0:0:
352,96,319212,1,8,0:0:0:0:
160,96,319362,1,0,0:0:0:0:
352,96,319512,1,8,0:0:0:0:
160,96,319662,1,0,0:0:0:0:
160,96,319737,1,0,0:0:0:0:
352,96,319812,1,8,0:0:0:0:
160,96,319962,1,0,0:0:0:0:
160,96,320037,1,0,0:0:0:0:
352,96,320112,1,8,0:0:0:0:
352,96,320187,1,8,0:0:0:0:
160,96,320262,1,0,0:0:0:0:
160,96,320412,1,0,0:0:0:0:
160,96,320487,1,0,0:0:0:0:
352,96,320562,1,8,0:0:0:0:
160,96,320637,1,0,0:0:0:0:
352,96,320712,1,8,0:0:0:0:
160,96,320862,1,0,0:0:0:0:
352,96,321012,1,8,0:0:0:0:
160,96,321162,1,0,0:0:0:0:
160,96,321237,1,8,0:0:0:0:
303,210,321312,1,0,0:0:0:0:
303,210,321362,1,0,0:0:0:0:
303,210,321412,1,0,0:0:0:0:
352,96,321462,1,8,0:0:0:0:
352,96,321537,1,8,0:0:0:0:
160,96,321612,1,0,0:0:0:0:
160,96,321762,1,0,0:0:0:0:
352,96,321912,1,8,0:0:0:0:
160,96,322062,1,0,0:0:0:0:
160,96,322137,1,0,0:0:0:0:
352,96,322212,1,8,0:0:0:0:
160,96,322362,1,0,0:0:0:0:
160,96,322437,1,0,0:0:0:0:
352,96,322512,1,8,0:0:0:0:
352,96,322587,1,8,0:0:0:0:
160,96,322662,1,0,0:0:0:0:
160,96,322737,1,0,0:0:0:0:
352,96,322812,1,8,0:0:0:0:
298,177,322887,1,0,0:0:0:0:
352,96,322962,1,8,0:0:0:0:
160,96,323037,1,0,0:0:0:0:
352,96,323112,1,8,0:0:0:0:
160,96,323262,1,0,0:0:0:0:
160,96,323412,1,0,0:0:0:0:
352,96,323487,1,8,0:0:0:0:
160,96,323562,1,0,0:0:0:0:
160,96,323637,1,0,0:0:0:0:
352,96,323712,1,8,0:0:0:0:
160,96,323787,1,0,0:0:0:0:
352,96,323862,1,8,0:0:0:0:
352,96,323937,1,8,0:0:0:0:
160,96,324012,1,0,0:0:0:0:
160,96,324162,1,0,0:0:0:0:
352,96,324312,1,8,0:0:0:0:
160,96,324462,1,0,0:0:0:0:
160,96,324537,1,0,0:0:0:0:
352,96,324612,1,8,0:0:0:0:
352,96,324687,1,8,0:0:0:0:
160,96,324762,1,0,0:0:0:0:
160,96,324837,1,0,0:0:0:0:
352,96,324912,1,8,0:0:0:0:
391,110,324987,1,0,0:0:0:0:
352,96,325062,1,8,0:0:0:0:
228,227,325137,1,0,0:0:0:0:
352,96,325212,1,8,0:0:0:0:
352,96,325287,1,8,0:0:0:0:
160,96,325362,1,0,0:0:0:0:
160,96,325437,1,0,0:0:0:0:
352,96,325512,1,8,0:0:0:0:
160,96,325662,1,0,0:0:0:0:
160,96,325737,1,0,0:0:0:0:
352,96,325812,1,8,0:0:0:0:
160,96,325887,1,0,0:0:0:0:
160,96,325962,1,0,0:0:0:0:
160,96,326037,1,0,0:0:0:0:
352,96,326112,1,8,0:0:0:0:
365,164,326162,1,8,0:0:0:0:
365,164,326212,1,8,0:0:0:0:
352,96,326262,1,0,0:0:0:0:
352,96,326337,1,8,0:0:0:0:
160,96,326412,1,0,0:0:0:0:
352,96,326487,1,8,0:0:0:0:
160,96,326562,1,0,0:0:0:0:
160,96,326637,1,0,0:0:0:0:
352,96,326712,1,8,0:0:0:0:
160,96,326862,1,0,0:0:0:0:
352,96,326937,1,8,0:0:0:0:
160,96,327012,1,0,0:0:0:0:
352,96,327162,1,8,0:0:0:0:
352,96,327237,1,8,0:0:0:0:
160,96,327312,1,0,0:0:0:0:
352,96,327387,1,8,0:0:0:0:
160,96,327462,1,0,0:0:0:0:
160,96,327537,1,0,0:0:0:0:
352,96,327612,1,8,0:0:0:0:
352,96,327762,1,8,0:0:0:0:
352,96,327837,1,8,0:0:0:0:
160,96,327912,1,0,0:0:0:0:
352,96,328062,1,8,0:0:0:0:
160,96,328137,1,0,0:0:0:0:
352,96,328212,1,8,0:0:0:0:
160,96,328287,1,0,0:0:0:0:
160,96,328362,1,0,0:0:0:0:
160,96,328437,1,0,0:0:0:0:
352,96,328512,1,8,0:0:0:0:
352,96,328662,1,8,0:0:0:0:
352,96,328737,1,8,0:0:0:0:
160,96,328812,1,0,0:0:0:0:
160,96,328962,1,0,0:0:0:0:
160,96,329037,1,0,0:0:0:0:
352,96,329112,1,8,0:0:0:0:
160,96,329187,1,0,0:0:0:0:
160,96,329262,1,0,0:0:0:0:
160,96,329337,1,0,0:0:0:0:
352,96,329412,1,8,0:0:0:0:
352,96,329562,1,8,0:0:0:0:
160,96,329637,1,0,0:0:0:0:
352,96,329712,1,8,0:0:0:0:
352,96,329862,1,8,0:0:0:0:
352,96,329937,1,8,0:0:0:0:
160,96,330012,1,0,0:0:0:0:
160,96,330087,1,0,0:0:0:0:
352,96,330162,1,8,0:0:0:0:
352,96,330237,1,8,0:0:0:0:
160,96,330312,1,0,0:0:0:0:
352,96,330387,1,8,0:0:0:0:
160,96,330462,1,0,0:0:0:0:
160,96,330537,1,0,0:0:0:0:
352,96,330612,1,8,0:0:0:0:
352,96,330687,1,8,0:0:0:0:
160,96,330762,1,0,0:0:0:0:
160,96,330837,1,0,0:0:0:0:
352,96,330912,1,8,0:0:0:0:
454,159,330962,1,8,0:0:0:0:
454,159,331012,1,8,0:0:0:0:
454,159,331062,1,0,0:0:0:0:
407,167,331137,1,8,0:0:0:0:
160,96,331212,1,0,0:0:0:0:
160,96,331362,1,0,0:0:0:0:
160,96,331437,1,0,0:0:0:0:
352,96,331512,1,8,0:0:0:0:
160,96,331662,1,0,0:0:0:0:
160,96,331737,1,0,0:0:0:0:
352,96,331812,1,8,0:0:0:0:
352,96,331887,1,8,0:0:0:0:
160,96,331962,1,0,0:0:0:0:
160,96,332037,1,0,0:0:0:0:
352,96,332112,1,8,0:0:0:0:
352,96,332262,1,8,0:0:0:0:
352,96,332337,1,8,0:0:0:0:
160,96,332412,1,0,0:0:0:0:
160,96,332487,1,0,0:0:0:0:
352,96,332562,1,8,0:0:0:0:
160,96,332637,1,0,0:0:0:0:
352,96,332712,1,8,0:0:0:0:
160,96,332862,1,0,0:0:0:0:
160,96,332937,1,0,0:0:0:0:
352,96,333012,1,8,0:0:0:0:
352,96,333087,1,8,0:0:0:0:
160,96,333162,1,0,0:0:0:0:
160,96,333237,1,0,0:0:0:0:
352,96,333312,1,8,0:0:0:0:
160,96,333387,1,0,0:0:0:0:
352,96,333462,1,8,0:0:0:0:
352,96,333537,1,8,0:0:0:0:
160,96,333612,1,0,0:0:0:0:
160,96,333762,1,0,0:0:0:0:
352,96,333912,1,8,0:0:0:0:
160,96,334062,1,0,0:0:0:0:
160,96,334137,1,0,0:0:0:0:
352,96,334212,1,8,0:0:0:0:
160,96,334287,1,0,0:0:0:0:
352,96,334362,1,8,0:0:0:0:
160,96,334512,1,0,0:0:0:0:
352,96,334662,1,8,0:0:0:0:
160,96,334737,1,0,0:0:0:0:
352,96,334812,1,8,0:0:0:0:
352,96,334887,1,8,0:0:0:0:
160,96,334962,1,0,0:0:0:0:
160,96,335037,1,0,0:0:0:0:
352,96,335112,1,8,0:0:0:0:
160,96,335262,1,0,0:0:0:0:
160,96,335412,1,0,0:0:0:0:
160,96,335562,1,0,0:0:0:0:
160,96,335612,1,0,0:0:0:0:
160,96,335662,1,0,0:0:0:0:
352,96,335712,1,8,0:0:0:0:
160,96,335862,1,0,0:0:0:0:
352,288,336012,1,12,0:0:0:0:
160,96,336162,1,0,0:0:0:0:
352,288,336312,1,12,0:0:0:0:
160,96,336462,1,0,0:0:0:0:
352,288,336612,1,12,0:0:0:0:
160,96,336762,1,0,0:0:0:0:
352,288,336912,1,12,0:0:0:0:
160,96,337062,1,0,0:0:0:0:
352,288,337212,1,12,0:0:0:0:
160,96,337362,1,0,0:0:0:0:
352,288,337512,1,12,0:0:0:0:
160,96,337662,1,0,0:0:0:0:
160,96,337737,1,0,0:0:0:0:
352,288,337812,1,12,0:0:0:0:
160,96,337962,1,0,0:0:0:0:
352,288,338112,1,12,0:0:0:0:
352,288,338262,1,12,0:0:0:0:
352,288,338412,1,12,0:0:0:0:
160,96,338562,1,0,0:0:0:0:
352,288,338712,1,12,0:0:0:0:
160,96,338862,1,0,0:0:0:0:
352,288,339012,1,12,0:0:0:0:
160,96,339162,1,0,0:0:0:0:
352,288,339312,1,12,0:0:0:0:
160,96,339462,1,0,0:0:0:0:
352,288,339612,1,12,0:0:0:0:
160,96,339762,1,0,0:0:0:0:
352,288,339912,1,12,0:0:0:0:
160,96,340062,1,0,0:0:0:0:
352,288,340212,1,12,0:0:0:0:
352,288,340362,1,12,0:0:0:0:
352,288,340512,1,12,0:0:0:0:
352,288,340662,1,12,0:0:0:0:
352,288,340812,1,12,0:0:0:0:
160,96,340962,1,0,0:0:0:0:
352,288,341112,1,12,0:0:0:0:
160,96,341262,1,0,0:0:0:0:
352,288,341412,1,12,0:0:0:0:
160,96,341562,1,0,0:0:0:0:
352,288,341712,1,12,0:0:0:0:
160,96,341862,1,0,0:0:0:0:
352,288,342012,1,12,0:0:0:0:
160,96,342162,1,0,0:0:0:0:
352,288,342312,1,12,0:0:0:0:
160,96,342462,1,0,0:0:0:0:
160,96,342537,1,0,0:0:0:0:
352,288,342612,1,12,0:0:0:0:
160,96,342762,1,0,0:0:0:0:
352,288,342912,1,12,0:0:0:0:
352,288,343062,1,12,0:0:0:0:
352,288,343212,1,12,0:0:0:0:
160,96,343362,1,0,0:0:0:0:
352,288,343512,1,12,0:0:0:0:
160,96,343662,1,0,0:0:0:0:
352,288,343812,1,12,0:0:0:0:
160,96,343962,1,0,0:0:0:0:
352,288,344112,1,12,0:0:0:0:
160,96,344262,1,0,0:0:0:0:
352,288,344412,1,12,0:0:0:0:
160,96,344562,1,0,0:0:0:0:
352,288,344712,1,12,0:0:0:0:
160,96,344862,1,0,0:0:0:0:
352,288,345012,1,12,0:0:0:0:
352,288,345162,1,12,0:0:0:0:
352,288,345312,1,12,0:0:0:0:
352,288,345462,1,12,0:0:0:0:
160,288,345612,1,4,0:0:0:0:
160,96,345762,1,0,0:0:0:0:
160,96,345837,1,0,0:0:0:0:
352,96,345912,1,8,0:0:0:0:
352,96,346062,1,8,0:0:0:0:
352,96,346137,1,8,0:0:0:0:
160,96,346212,1,0,0:0:0:0:
352,96,346287,1,8,0:0:0:0:
160,96,346362,1,0,0:0:0:0:
160,96,346437,1,0,0:0:0:0:
352,96,346512,1,8,0:0:0:0:
352,96,346662,1,8,0:0:0:0:
352,96,346737,1,8,0:0:0:0:
160,96,346812,1,0,0:0:0:0:
160,96,346962,1,0,0:0:0:0:
160,96,347037,1,0,0:0:0:0:
352,96,347112,1,8,0:0:0:0:
160,96,347262,1,0,0:0:0:0:
352,96,347337,1,8,0:0:0:0:
160,96,347412,1,0,0:0:0:0:
352,96,347487,1,8,0:0:0:0:
160,96,347562,1,0,0:0:0:0:
160,96,347637,1,0,0:0:0:0:
352,96,347712,1,8,0:0:0:0:
160,96,347862,1,0,0:0:0:0:
352,96,347937,1,8,0:0:0:0:
160,96,348012,1,0,0:0:0:0:
160,96,348162,1,0,0:0:0:0:
160,96,348237,1,0,0:0:0:0:
352,96,348312,1,8,0:0:0:0:
160,96,348462,1,0,0:0:0:0:
352,96,348537,1,8,0:0:0:0:
352,96,348612,1,8,0:0:0:0:
352,96,348687,1,8,0:0:0:0:
160,96,348762,1,0,0:0:0:0:
160,96,348837,1,0,0:0:0:0:
352,96,348912,1,8,0:0:0:0:
160,96,348987,1,0,0:0:0:0:
352,96,349062,1,8,0:0:0:0:
352,96,349137,1,8,0:0:0:0:
160,96,349212,1,0,0:0:0:0:
352,96,349287,1,8,0:0:0:0:
160,96,349362,1,0,0:0:0:0:
160,96,349437,1,0,0:0:0:0:
352,96,349512,1,8,0:0:0:0:
160,96,349662,1,0,0:0:0:0:
160,96,349737,1,0,0:0:0:0:
352,96,349812,1,8,0:0:0:0:
352,96,349887,1,8,0:0:0:0:
160,96,349962,1,0,0:0:0:0:
160,96,350037,1,0,0:0:0:0:
352,96,350112,1,8,0:0:0:0:
376,146,350162,1,8,0:0:0:0:
376,146,350212,1,8,0:0:0:0:
352,96,350262,1,0,0:0:0:0:
352,96,350337,1,8,0:0:0:0:
160,96,350412,1,0,0:0:0:0:
160,96,350562,1,0,0:0:0:0:
160,96,350637,1,0,0:0:0:0:
352,96,350712,1,8,0:0:0:0:
160,96,350862,1,0,0:0:0:0:
160,96,350937,1,0,0:0:0:0:
352,96,351012,1,8,0:0:0:0:
160,96,351087,1,0,0:0:0:0:
160,96,351162,1,0,0:0:0:0:
160,96,351237,1,0,0:0:0:0:
352,96,351312,1,8,0:0:0:0:
160,96,351387,1,0,0:0:0:0:
352,96,351462,1,8,0:0:0:0:
352,96,351537,1,8,0:0:0:0:
160,96,351612,1,0,0:0:0:0:
160,96,351762,1,0,0:0:0:0:
160,96,351837,1,0,0:0:0:0:
352,96,351912,1,8,0:0:0:0:
352,96,352062,1,8,0:0:0:0:
160,96,352137,1,0,0:0:0:0:
160,96,352212,1,0,0:0:0:0:
352,96,352287,1,8,0:0:0:0:
160,96,352362,1,0,0:0:0:0:
160,96,352437,1,0,0:0:0:0:
352,96,352512,1,8,0:0:0:0:
160,96,352587,1,0,0:0:0:0:
352,96,352662,1,8,0:0:0:0:
352,96,352737,1,8,0:0:0:0:
160,96,352812,1,0,0:0:0:0:
160,96,352962,1,0,0:0:0:0:
160,96,353037,1,0,0:0:0:0:
352,96,353112,1,8,0:0:0:0:
160,96,353262,1,0,0:0:0:0:
352,96,353337,1,8,0:0:0:0:
352,96,353412,1,8,0:0:0:0:
352,96,353487,1,8,0:0:0:0:
160,96,353562,1,0,0:0:0:0:
160,96,353637,1,0,0:0:0:0:
352,96,353712,1,8,0:0:0:0:
352,96,353862,1,8,0:0:0:0:
160,96,353937,1,0,0:0:0:0:
352,96,354012,1,8,0:0:0:0:
352,96,354087,1,8,0:0:0:0:
160,96,354162,1,0,0:0:0:0:
160,96,354237,1,0,0:0:0:0:
352,96,354312,1,8,0:0:0:0:
352,96,354462,1,8,0:0:0:0:
160,96,354537,1,0,0:0:0:0:
352,96,354612,1,8,0:0:0:0:
160,96,354687,1,0,0:0:0:0:
160,96,354762,1,0,0:0:0:0:
160,96,354837,1,0,0:0:0:0:
352,96,354912,1,8,0:0:0:0:
352,96,354962,1,8,0:0:0:0:
352,96,355012,1,8,0:0:0:0:
160,96,355062,1,0,0:0:0:0:
160,96,355212,1,0,0:0:0:0:
160,96,355362,1,0,0:0:0:0:
352,96,355512,1,8,0:0:0:0:
160,96,355662,1,0,0:0:0:0:
352,96,355812,1,8,0:0:0:0:
352,96,355887,1,8,0:0:0:0:
160,96,355962,1,0,0:0:0:0:
352,96,356112,1,8,0:0:0:0:
352,96,356262,1,8,0:0:0:0:
352,96,356337,1,8,0:0:0:0:
160,288,356412,1,4,0:0:0:0:
352,96,356562,1,8,0:0:0:0:
160,288,356712,1,4,0:0:0:0:
352,96,356862,1,8,0:0:0:0:
160,288,357012,1,4,0:0:0:0:
160,288,357162,1,4,0:0:0:0:
160,288,357312,1,4,0:0:0:0:
160,288,357462,1,4,0:0:0:0:
352,288,357612,1,12,0:0:0:0:
160,96,357762,1,8,0:0:0:0:
477,153,357837,1,8,0:0:0:0:
352,96,357912,1,0,0:0:0:0:
160,96,358062,1,0,0:0:0:0:
352,96,358212,1,8,0:0:0:0:
352,96,358287,1,8,0:0:0:0:
160,96,358362,1,0,0:0:0:0:
160,96,358437,1,0,0:0:0:0:
352,96,358512,1,8,0:0:0:0:
352,96,358662,1,8,0:0:0:0:
352,96,358737,1,8,0:0:0:0:
160,96,358812,1,0,0:0:0:0:
160,96,358962,1,0,0:0:0:0:
352,96,359112,1,8,0:0:0:0:
352,96,359262,1,8,0:0:0:0:
160,96,359337,1,0,0:0:0:0:
352,96,359412,1,8,0:0:0:0:
352,96,359487,1,8,0:0:0:0:
160,96,359562,1,0,0:0:0:0:
160,96,359637,1,0,0:0:0:0:
352,96,359712,1,8,0:0:0:0:
352,96,359862,1,8,0:0:0:0:
352,96,359937,1,8,0:0:0:0:
160,96,360012,1,0,0:0:0:0:
160,96,360162,1,0,0:0:0:0:
352,96,360312,1,8,0:0:0:0:
160,96,360462,1,0,0:0:0:0:
160,96,360537,1,0,0:0:0:0:
352,96,360612,1,8,0:0:0:0:
352,96,360687,1,8,0:0:0:0:
160,96,360762,1,0,0:0:0:0:
160,96,360837,1,0,0:0:0:0:
352,96,360912,1,8,0:0:0:0:
352,96,361062,1,8,0:0:0:0:
352,96,361137,1,8,0:0:0:0:
160,96,361212,1,0,0:0:0:0:
160,96,361362,1,0,0:0:0:0:
352,96,361512,1,8,0:0:0:0:
160,96,361662,1,0,0:0:0:0:
160,96,361737,1,0,0:0:0:0:
352,96,361812,1,8,0:0:0:0:
352,96,361887,1,8,0:0:0:0:
160,96,361962,1,0,0:0:0:0:
352,96,362112,1,8,0:0:0:0:
352,96,362262,1,8,0:0:0:0:
352,96,362337,1,8,0:0:0:0:
160,96,362412,1,0,0:0:0:0:
352,96,362487,1,8,0:0:0:0:
160,96,362562,1,0,0:0:0:0:
352,96,362712,1,8,0:0:0:0:
352,96,362862,1,8,0:0:0:0:
352,96,362937,1,8,0:0:0:0:
160,96,363012,1,0,0:0:0:0:
352,96,363087,1,8,0:0:0:0:
160,96,363162,1,0,0:0:0:0:
160,96,363237,1,0,0:0:0:0:
352,96,363312,1,8,0:0:0:0:
352,96,363462,1,8,0:0:0:0:
160,96,363537,1,0,0:0:0:0:
352,96,363612,1,8,0:0:0:0:
352,96,363687,1,8,0:0:0:0:
160,96,363762,1,0,0:0:0:0:
352,96,363837,1,8,0:0:0:0:
160,96,363912,1,0,0:0:0:0:
352,96,364062,1,8,0:0:0:0:
352,96,364137,1,8,0:0:0:0:
160,96,364212,1,0,0:0:0:0:
352,96,364287,1,8,0:0:0:0:
160,96,364362,1,0,0:0:0:0:
160,96,364437,1,0,0:0:0:0:
352,96,364512,1,8,0:0:0:0:
381,82,364562,1,8,0:0:0:0:
381,82,364612,1,8,0:0:0:0:
470,151,364662,1,0,0:0:0:0:
160,96,364812,1,0,0:0:0:0:
352,96,364962,1,8,0:0:0:0:
352,96,365037,1,8,0:0:0:0:
160,96,365112,1,0,0:0:0:0:
352,96,365262,1,8,0:0:0:0:
352,96,365337,1,8,0:0:0:0:
160,96,365412,1,0,0:0:0:0:
352,96,365487,1,8,0:0:0:0:
160,96,365562,1,0,0:0:0:0:
160,96,365637,1,0,0:0:0:0:
352,96,365712,1,8,0:0:0:0:
352,96,365862,1,8,0:0:0:0:
352,96,365937,1,8,0:0:0:0:
160,96,366012,1,0,0:0:0:0:
160,96,366162,1,0,0:0:0:0:
160,96,366237,1,0,0:0:0:0:
352,96,366312,1,8,0:0:0:0:
352,96,366462,1,8,0:0:0:0:
160,96,366537,1,0,0:0:0:0:
352,96,366612,1,8,0:0:0:0:
352,96,366687,1,8,0:0:0:0:
160,96,366762,1,0,0:0:0:0:
160,96,366837,1,0,0:0:0:0:
352,96,366912,1,8,0:0:0:0:
352,96,367062,1,8,0:0:0:0:
352,96,367137,1,8,0:0:0:0:
160,96,367212,1,0,0:0:0:0:
160,96,367362,1,0,0:0:0:0:
160,96,367437,1,0,0:0:0:0:
352,96,367512,1,8,0:0:0:0:
160,96,367587,1,0,0:0:0:0:
352,96,367662,1,8,0:0:0:0:
352,96,367737,1,8,0:0:0:0:
160,96,367812,1,0,0:0:0:0:
352,96,367887,1,8,0:0:0:0:
160,96,367962,1,0,0:0:0:0:
352,96,368112,1,8,0:0:0:0:
352,96,368262,1,8,0:0:0:0:
352,96,368337,1,8,0:0:0:0:
160,96,368412,1,0,0:0:0:0:
352,96,368487,1,8,0:0:0:0:
160,96,368562,1,0,0:0:0:0:
352,96,368712,1,8,0:0:0:0:
160,96,368862,1,0,0:0:0:0:
352,96,368937,1,8,0:0:0:0:
160,96,369012,1,0,0:0:0:0:
352,96,369087,1,0,0:0:0:0:
257,56,369162,1,8,0:0:0:0:
442,136,369237,1,8,0:0:0:0:
390,149,369312,1,0,0:0:0:0:
390,149,369362,1,0,0:0:0:0:
390,149,369412,1,0,0:0:0:0:
381,152,369462,1,8,0:0:0:0:
352,96,369537,1,8,0:0:0:0:
160,96,369612,1,0,0:0:0:0:
160,96,369762,1,0,0:0:0:0:
160,96,369837,1,0,0:0:0:0:
352,96,369912,1,8,0:0:0:0:
352,96,370062,1,8,0:0:0:0:
160,96,370137,1,0,0:0:0:0:
352,96,370212,1,8,0:0:0:0:
352,96,370287,1,8,0:0:0:0:
160,96,370362,1,0,0:0:0:0:
160,96,370437,1,0,0:0:0:0:
352,96,370512,1,8,0:0:0:0:
352,96,370662,1,8,0:0:0:0:
352,96,370737,1,8,0:0:0:0:
160,96,370812,1,0,0:0:0:0:
160,96,370962,1,0,0:0:0:0:
160,96,371037,1,0,0:0:0:0:
352,96,371112,1,8,0:0:0:0:
160,96,371187,1,0,0:0:0:0:
352,96,371262,1,8,0:0:0:0:
160,96,371337,1,0,0:0:0:0:
352,96,371412,1,8,0:0:0:0:
352,96,371487,1,8,0:0:0:0:
160,96,371562,1,0,0:0:0:0:
160,96,371637,1,0,0:0:0:0:
352,96,371712,1,8,0:0:0:0:
160,96,371787,1,0,0:0:0:0:
352,96,371862,1,8,0:0:0:0:
352,96,371937,1,8,0:0:0:0:
160,96,372012,1,0,0:0:0:0:
160,96,372162,1,0,0:0:0:0:
160,96,372237,1,0,0:0:0:0:
352,96,372312,1,8,0:0:0:0:
352,96,372462,1,8,0:0:0:0:
160,96,372537,1,0,0:0:0:0:
352,96,372612,1,8,0:0:0:0:
352,96,372687,1,8,0:0:0:0:
160,96,372762,1,0,0:0:0:0:
160,96,372837,1,0,0:0:0:0:
352,96,372912,1,8,0:0:0:0:
352,96,373062,1,8,0:0:0:0:
352,96,373137,1,8,0:0:0:0:
160,96,373212,1,0,0:0:0:0:
352,96,373287,1,8,0:0:0:0:
160,96,373362,1,0,0:0:0:0:
160,96,373437,1,0,0:0:0:0:
352,96,373512,1,8,0:0:0:0:
160,96,373662,1,0,0:0:0:0:
160,96,373737,1,0,0:0:0:0:
352,96,373812,1,8,0:0:0:0:
160,96,373962,1,0,0:0:0:0:
220,161,374037,1,0,0:0:0:0:
352,96,374112,1,8,0:0:0:0:
445,161,374162,1,8,0:0:0:0:
445,161,374212,1,8,0:0:0:0:
352,96,374262,1,0,0:0:0:0:
160,96,374412,1,0,0:0:0:0:
352,96,374487,1,8,0:0:0:0:
352,96,374637,1,8,0:0:0:0:
160,96,374712,1,0,0:0:0:0:
160,96,374862,1,0,0:0:0:0:
352,96,375012,1,8,0:0:0:0:
160,96,375162,1,0,0:0:0:0:
160,96,375237,1,0,0:0:0:0:
352,96,375312,1,8,0:0:0:0:
352,96,375462,1,8,0:0:0:0:
160,96,375612,1,0,0:0:0:0:
352,96,375762,1,8,0:0:0:0:
352,96,375837,1,8,0:0:0:0:
160,96,375912,1,0,0:0:0:0:
160,96,376062,1,0,0:0:0:0:
352,96,376212,1,8,0:0:0:0:
160,96,376362,1,0,0:0:0:0:
160,96,376437,1,0,0:0:0:0:
352,96,376512,1,8,0:0:0:0:
352,96,376662,1,8,0:0:0:0:
160,96,376812,1,0,0:0:0:0:
160,96,376887,1,0,0:0:0:0:
352,96,376962,1,8,0:0:0:0:
352,96,377037,1,8,0:0:0:0:
160,96,377112,1,0,0:0:0:0:
160,96,377262,1,0,0:0:0:0:
352,96,377412,1,8,0:0:0:0:
352,96,377487,1,8,0:0:0:0:
160,96,377562,1,0,0:0:0:0:
160,96,377637,1,0,0:0:0:0:
352,96,377712,1,8,0:0:0:0:
352,96,377862,1,8,0:0:0:0:
160,96,378012,1,0,0:0:0:0:
160,96,378087,1,0,0:0:0:0:
352,96,378162,1,8,0:0:0:0:
352,96,378237,1,8,0:0:0:0:
160,96,378312,1,0,0:0:0:0:
160,96,378462,1,0,0:0:0:0:
352,96,378612,1,8,0:0:0:0:
352,96,378687,1,8,0:0:0:0:
160,96,378762,1,0,0:0:0:0:
160,96,378837,1,0,0:0:0:0:
352,96,378912,1,8,0:0:0:0:
352,96,379062,1,8,0:0:0:0:
160,96,379212,1,0,0:0:0:0:
160,96,379287,1,0,0:0:0:0:
352,96,379362,1,8,0:0:0:0:
352,96,379437,1,8,0:0:0:0:
160,96,379512,1,0,0:0:0:0:
352,96,379587,1,8,0:0:0:0:
160,96,379662,1,0,0:0:0:0:
283,110,379812,1,8,0:0:0:0:
434,180,379887,1,8,0:0:0:0:
160,96,379962,1,0,0:0:0:0:
160,96,380037,1,0,0:0:0:0:
352,96,380112,1,8,0:0:0:0:
352,96,380262,1,8,0:0:0:0:
160,96,380412,1,0,0:0:0:0:
160,96,380487,1,0,0:0:0:0:
352,96,380562,1,8,0:0:0:0:
352,96,380637,1,8,0:0:0:0:
160,96,380712,1,0,0:0:0:0:
352,96,380787,1,8,0:0:0:0:
160,96,380862,1,0,0:0:0:0:
352,96,381012,1,8,0:0:0:0:
254,127,381087,1,0,0:0:0:0:
234,146,381162,1,8,0:0:0:0:
501,153,381237,5,0,0:0:0:0:
479,147,381312,1,8,0:0:0:0:
221,82,381462,1,0,0:0:0:0:
221,82,381537,1,0,0:0:0:0:
426,134,381612,1,8,0:0:0:0:
256,192,381762,8,0,383562,0:0:0:0:
352,96,383974,5,8,0:0:0:0:
160,96,384012,1,0,0:0:0:0:
245,210,384049,1,0,0:0:0:0:
