osu file format v14

[General]
AudioFilename: audio.mp3
AudioLeadIn: 0
PreviewTime: 265196
Countdown: 0
SampleSet: Soft
StackLeniency: 0.5
Mode: 0
LetterboxInBreaks: 0
WidescreenStoryboard: 0

[Editor]
Bookmarks: 32074,55461,191751,323445,354009
DistanceSpacing: 1.8
BeatDivisor: 4
GridSize: 8
TimelineZoom: 0.8

[Metadata]
Title:Tsukiyo ni Mau Koi no Hana
TitleUnicode:月夜に舞う恋の花
Artist:Uinyasu
ArtistUnicode:ういにゃす
Creator:Yumerios
Version:Petals
Source:千の刃濤、桃花染の皇姫
Tags:sen no hatou tsukisome tsuki some no kouki august ceui akari kotone elsa kanami hotori galgame ending video game pop jpop j-pop japanese female vocalist
BeatmapID:2957882
BeatmapSetID:1437650

[Difficulty]
HPDrainRate:5.5
CircleSize:4
OverallDifficulty:9
ApproachRate:9.4
SliderMultiplier:1.8
SliderTickRate:1

[Events]
//Background and Video events
0,0,"anime-sen-no-hatou-tsukisome-no-kouki-5980 (1).jpg",0,0
//Break Periods
2,212573,215855
//Storyboard Layer 0 (Background)
//Storyboard Layer 1 (Fail)
//Storyboard Layer 2 (Pass)
//Storyboard Layer 3 (Foreground)
//Storyboard Layer 4 (Overlay)
//Storyboard Sound Samples

[TimingPoints]
-529,322.58064516129,4,2,1,40,1,0
438,-142.857142857143,4,2,1,40,0,0
7454,-142.857142857143,4,2,1,5,0,0
7535,-142.857142857143,4,2,1,40,0,0
8180,-142.857142857143,4,2,1,60,0,0
8987,-142.857142857143,4,2,1,40,0,0
10438,-142.857142857143,4,2,1,60,0,0
11083,-100,4,2,1,70,0,0
11970,-100,4,2,1,5,0,0
12051,-100,4,2,1,70,0,0
12293,-100,4,2,1,5,0,0
12374,-100,4,2,1,70,0,0
14390,-100,4,2,1,5,0,0
14470,-100,4,2,1,70,0,0
17132,-100,4,2,1,5,0,0
17212,-100,4,2,1,70,0,0
18422,-100,4,2,1,5,0,0
18503,-100,4,2,1,70,0,0
20358,-100,4,2,1,5,0,0
20438,-100,4,2,1,70,0,0
20680,-100,4,2,1,5,0,0
20761,-100,4,2,1,70,0,0
21003,-100,4,2,1,5,0,0
21083,-100,4,2,1,70,0,0
22051,-111.111111111111,4,2,1,70,0,0
22293,-111.111111111111,4,2,1,5,0,0
22374,-111.111111111111,4,2,1,70,0,0
23019,-125,4,2,1,60,0,0
23261,-125,4,2,1,5,0,0
23341,-125,4,2,1,50,0,0
25600,-166.666666666667,4,2,1,40,0,0
26567,-166.666666666667,4,2,1,50,0,0
46567,-333.333333333334,4,2,1,50,0,0
46890,-666.666666666667,4,2,1,50,0,0
47212,-142.857142857143,4,2,2,50,0,0
67858,-125,4,2,1,60,0,0
89793,-166.666666666667,4,2,1,50,0,0
92374,-166.666666666667,4,2,1,60,0,0
92616,-166.666666666667,4,2,1,5,0,0
92696,-125,4,2,1,65,0,0
92938,-125,4,2,1,5,0,0
93019,-100,4,2,1,70,0,0
93261,-100,4,2,1,5,0,0
93341,-83.3333333333334,4,2,1,75,0,0
93583,-83.3333333333334,4,2,1,5,0,0
93664,-90.9090909090909,4,2,1,80,0,1
95196,-90.9090909090909,4,2,1,5,0,1
95277,-90.9090909090909,4,2,1,80,0,1
95600,-90.9090909090909,4,2,2,80,0,1
95841,-90.9090909090909,4,2,1,5,0,1
95922,-90.9090909090909,4,2,1,80,0,1
96164,-90.9090909090909,4,2,1,5,0,1
96245,-90.9090909090909,4,2,1,80,0,1
97777,-90.9090909090909,4,2,1,5,0,1
97858,-90.9090909090909,4,2,1,80,0,1
98100,-90.9090909090909,4,2,1,5,0,1
98180,-90.9090909090909,4,2,2,80,0,1
98422,-90.9090909090909,4,2,1,5,0,1
98503,-90.9090909090909,4,2,1,80,0,1
98745,-90.9090909090909,4,2,1,5,0,1
98825,-90.9090909090909,4,2,1,80,0,1
100358,-90.9090909090909,4,2,1,5,0,1
100438,-90.9090909090909,4,2,1,80,0,1
101003,-90.9090909090909,4,2,1,5,0,1
101083,-90.9090909090909,4,2,1,80,0,1
102938,-90.9090909090909,4,2,1,5,0,1
103019,-90.9090909090909,4,2,1,80,0,1
105519,-90.9090909090909,4,2,1,5,0,1
105600,-90.9090909090909,4,2,1,80,0,1
106809,-90.9090909090909,4,2,1,5,0,1
106890,-90.9090909090909,4,2,1,80,0,1
108100,-90.9090909090909,4,2,1,5,0,1
108180,-90.9090909090909,4,2,1,80,0,1
108422,-90.9090909090909,4,2,1,5,0,1
108503,-90.9090909090909,4,2,1,80,0,1
108745,-90.9090909090909,4,2,1,5,0,1
108825,-90.9090909090909,4,2,1,80,0,1
109390,-90.9090909090909,4,2,1,5,0,1
109470,-90.9090909090909,4,2,1,80,0,1
111325,-90.9090909090909,4,2,1,5,0,1
111406,-90.9090909090909,4,2,1,80,0,1
111970,-90.9090909090909,4,2,1,5,0,1
112051,-90.9090909090909,4,2,1,80,0,1
113019,-90.9090909090909,4,2,1,80,0,0
114309,-83.3333333333333,4,2,1,80,0,1
114551,-83.3333333333333,4,2,1,5,0,1
114632,-83.3333333333333,4,2,1,80,0,1
115196,-83.3333333333333,4,2,1,5,0,1
115277,-83.3333333333333,4,2,1,80,0,1
116487,-83.3333333333333,4,2,1,5,0,1
116567,-83.3333333333333,4,2,1,80,0,1
116809,-83.3333333333333,4,2,1,5,0,1
116890,-83.3333333333333,4,2,1,80,0,1
119712,-83.3333333333333,4,2,1,5,0,1
119793,-83.3333333333333,4,2,1,80,0,1
120358,-83.3333333333333,4,2,1,5,0,1
120438,-83.3333333333333,4,2,1,80,0,1
121003,-83.3333333333333,4,2,1,5,0,1
121083,-83.3333333333333,4,2,1,80,0,1
122293,-83.3333333333333,4,2,1,5,0,1
122374,-83.3333333333333,4,2,1,80,0,1
123583,-83.3333333333333,4,2,1,5,0,1
123664,-83.3333333333333,4,2,1,80,0,1
126648,-83.3333333333333,4,2,1,5,0,1
126729,-83.3333333333333,4,2,1,80,0,1
127454,-83.3333333333333,4,2,1,5,0,1
127535,-83.3333333333333,4,2,1,80,0,1
128745,-83.3333333333333,4,2,1,5,0,1
128825,-83.3333333333333,4,2,1,80,0,1
130035,-83.3333333333333,4,2,1,5,0,1
130116,-83.3333333333333,4,2,1,80,0,1
131325,-83.3333333333333,4,2,1,5,0,1
131406,-83.3333333333333,4,2,1,80,0,1
131648,-83.3333333333333,4,2,1,5,0,1
131729,-83.3333333333333,4,2,1,80,0,1
131970,-83.3333333333333,4,2,1,5,0,1
132051,-83.3333333333333,4,2,1,80,0,1
132374,-125,4,2,1,70,0,0
133664,-166.666666666667,4,2,1,60,0,0
134954,-142.857142857143,4,2,1,50,0,0
142293,-142.857142857143,4,2,1,5,0,0
142374,-142.857142857143,4,2,1,50,0,0
144309,-142.857142857143,4,2,1,40,0,0
145277,-125,4,2,1,60,0,0
165922,-166.666666666667,4,2,1,50,0,0
176245,-125,4,2,1,50,0,0
186164,-125,4,2,1,5,0,0
186245,-125,4,2,1,50,0,0
187858,-142.857142857143,4,2,1,50,0,0
190438,-166.666666666667,4,2,1,60,0,0
190680,-166.666666666667,4,2,1,5,0,0
190761,-125,4,2,1,65,0,0
191003,-125,4,2,1,5,0,0
191083,-100,4,2,1,70,0,0
191325,-100,4,2,1,5,0,0
191406,-83.3333333333334,4,2,1,75,0,0
191648,-83.3333333333334,4,2,1,5,0,0
191729,-90.9090909090909,4,2,1,80,0,1
193261,-90.9090909090909,4,2,1,5,0,1
193341,-90.9090909090909,4,2,1,80,0,1
193906,-90.9090909090909,4,2,1,5,0,1
193987,-90.9090909090909,4,2,1,80,0,1
194229,-90.9090909090909,4,2,1,5,0,1
194309,-90.9090909090909,4,2,1,80,0,1
195035,-90.9090909090909,4,2,1,5,0,1
195116,-90.9090909090909,4,2,1,80,0,1
195841,-90.9090909090909,4,2,1,5,0,1
195922,-90.9090909090909,4,2,1,80,0,1
196164,-90.9090909090909,4,2,1,5,0,1
196245,-90.9090909090909,4,2,1,80,0,1
196487,-90.9090909090909,4,2,1,5,0,1
196567,-90.9090909090909,4,2,1,80,0,1
196809,-90.9090909090909,4,2,1,5,0,1
196890,-90.9090909090909,4,2,1,80,0,1
197776,-90.9090909090909,4,2,1,5,0,1
197857,-90.9090909090909,4,2,1,80,0,1
198422,-90.9090909090909,4,2,1,5,0,1
198503,-90.9090909090909,4,2,1,80,0,1
199067,-90.9090909090909,4,2,1,5,0,1
199148,-90.9090909090909,4,2,1,80,0,1
201003,-90.9090909090909,4,2,1,5,0,1
201083,-90.9090909090909,4,2,1,80,0,1
203583,-90.9090909090909,4,2,1,5,0,1
203664,-90.9090909090909,4,2,1,80,0,1
204874,-90.9090909090909,4,2,1,5,0,1
204954,-90.9090909090909,4,2,1,80,0,1
206164,-90.9090909090909,4,2,1,5,0,1
206245,-90.9090909090909,4,2,1,80,0,1
207454,-90.9090909090909,4,2,1,5,0,1
207535,-90.9090909090909,4,2,1,80,0,1
209390,-90.9090909090909,4,2,1,5,0,1
209470,-90.9090909090909,4,2,1,80,0,1
210035,-90.9090909090909,4,2,1,5,0,1
210116,-90.9090909090909,4,2,1,80,0,1
211083,-200,4,2,1,80,0,0
212374,-200,4,2,0,50,0,0
217535,-142.857142857143,4,2,1,60,0,0
222696,-111.111111111111,4,2,3,70,0,0
233019,-100,4,2,3,70,0,0
239067,-100,4,2,3,5,0,0
239148,-100,4,2,3,70,0,0
240761,-100,4,2,1,70,0,0
243341,-90.9090909090909,4,2,3,80,0,0
248583,-90.9090909090909,4,2,1,80,0,0
251325,-90.9090909090909,4,2,1,5,0,0
251406,-90.9090909090909,4,2,1,80,0,0
254229,-90.9090909090909,4,2,1,5,0,0
254309,-90.9090909090909,4,2,1,80,0,0
254551,-90.9090909090909,4,2,1,5,0,0
254632,-90.9090909090909,4,2,1,80,0,0
254874,-90.9090909090909,4,2,1,5,0,0
254954,-90.9090909090909,4,2,1,80,0,0
256487,-90.9090909090909,4,2,1,5,0,0
256567,-90.9090909090909,4,2,1,80,0,0
257777,-90.9090909090909,4,2,1,5,0,0
257858,-90.9090909090909,4,2,1,80,0,0
258825,-142.857142857143,4,2,1,60,0,0
265277,-142.857142857143,4,2,1,40,0,0
266567,-200,4,2,1,40,0,0
274793,-1000,4,2,1,40,0,0
276890,-200,4,2,1,40,0,0
278180,-166.666666666667,4,2,1,60,0,0
278422,-166.666666666667,4,2,1,5,0,0
278503,-125,4,2,1,65,0,0
278745,-125,4,2,1,5,0,0
278825,-100,4,2,1,70,0,0
279067,-100,4,2,1,5,0,0
279148,-83.3333333333334,4,2,1,75,0,0
279390,-83.3333333333334,4,2,1,5,0,0
279470,-90.9090909090909,4,2,1,80,0,1
281003,-90.9090909090909,4,2,1,5,0,1
281083,-90.9090909090909,4,2,1,80,0,1
281648,-90.9090909090909,4,2,1,5,0,1
281729,-90.9090909090909,4,2,1,80,0,1
281970,-90.9090909090909,4,2,1,5,0,1
282051,-90.9090909090909,4,2,1,80,0,1
283583,-90.9090909090909,4,2,1,5,0,1
283664,-90.9090909090909,4,2,1,80,0,1
283906,-90.9090909090909,4,2,1,5,0,1
283987,-90.9090909090909,4,2,1,80,0,1
284229,-90.9090909090909,4,2,1,5,0,1
284309,-90.9090909090909,4,2,1,80,0,1
284551,-90.9090909090909,4,2,1,5,0,1
284632,-90.9090909090909,4,2,1,80,0,1
286164,-90.9090909090909,4,2,1,5,0,1
286245,-90.9090909090909,4,2,1,80,0,1
286809,-90.9090909090909,4,2,1,5,0,1
286890,-90.9090909090909,4,2,1,80,0,1
288745,-90.9090909090909,4,2,1,5,0,1
288825,-90.9090909090909,4,2,1,80,0,1
290035,-90.9090909090909,4,2,1,5,0,1
290116,-90.9090909090909,4,2,1,80,0,1
291325,-90.9090909090909,4,2,1,5,0,1
291406,-90.9090909090909,4,2,1,80,0,1
292616,-90.9090909090909,4,2,1,5,0,1
292696,-90.9090909090909,4,2,1,80,0,1
293906,-90.9090909090909,4,2,1,5,0,1
293987,-90.9090909090909,4,2,1,80,0,1
294229,-90.9090909090909,4,2,1,5,0,1
294309,-90.9090909090909,4,2,1,80,0,1
294551,-90.9090909090909,4,2,1,5,0,1
294632,-90.9090909090909,4,2,1,80,0,1
295196,-90.9090909090909,4,2,1,5,0,1
295277,-90.9090909090909,4,2,1,80,0,1
297132,-90.9090909090909,4,2,1,5,0,1
297212,-90.9090909090909,4,2,1,80,0,1
297938,-90.9090909090909,4,2,1,5,0,1
298019,-90.9090909090909,4,2,1,80,0,1
298825,-90.9090909090909,4,2,1,80,0,0
300116,-83.3333333333333,4,2,1,80,0,1
300358,-83.3333333333333,4,2,1,5,0,1
300438,-83.3333333333333,4,2,1,80,0,1
301003,-83.3333333333333,4,2,1,5,0,1
301083,-83.3333333333333,4,2,1,80,0,1
302293,-83.3333333333333,4,2,1,5,0,1
302374,-83.3333333333333,4,2,1,80,0,1
302616,-83.3333333333333,4,2,1,5,0,1
302696,-83.3333333333333,4,2,1,80,0,1
305519,-83.3333333333333,4,2,1,5,0,1
305600,-83.3333333333333,4,2,1,80,0,1
306164,-83.3333333333333,4,2,1,5,0,1
306245,-83.3333333333333,4,2,1,80,0,1
306809,-83.3333333333333,4,2,1,5,0,1
306890,-83.3333333333333,4,2,1,80,0,1
308100,-83.3333333333333,4,2,1,5,0,1
308180,-83.3333333333333,4,2,1,80,0,1
313261,-83.3333333333333,4,2,1,5,0,1
313341,-83.3333333333333,4,2,1,80,0,1
315841,-83.3333333333333,4,2,1,5,0,1
315922,-83.3333333333333,4,2,1,80,0,1
317132,-83.3333333333333,4,2,1,5,0,1
317212,-83.3333333333333,4,2,1,80,0,1
317454,-83.3333333333333,4,2,1,5,0,1
317535,-83.3333333333333,4,2,1,80,0,1
317777,-83.3333333333333,4,2,1,5,0,1
317858,-83.3333333333333,4,2,1,80,0,1
319712,-83.3333333333333,4,2,1,5,0,1
319793,-83.3333333333333,4,2,1,80,0,1
320761,-90.9090909090909,4,2,1,70,0,0
336245,-111.111111111111,4,2,1,60,0,0
341406,-142.857142857143,4,2,1,50,0,0
346406,-200,4,2,1,40,0,0
346487,-200,4,2,2,5,0,0

[Colours]
Combo1 : 255,47,47
Combo2 : 255,128,128
Combo3 : 255,142,199
Combo4 : 255,149,43

[HitObjects]
42,94,519,6,0,L|48:136,2,31.4999990386963,2|2|2,0:0|0:0|0:0,0:0:0:0:
78,153,761,6,0,B|141:139|127:192|210:176,1,125.999996154785,2|2,3:2|0:0,0:0:0:0:
275,132,1245,1,2,0:0:0:0:
390,258,1406,2,0,L|365:381,2,125.999996154785,2|2|2,0:0|0:0|0:0,0:0:0:0:
390,258,2696,6,0,P|421:240|466:246,1,62.9999980773926,2|0,0:0|0:0,0:0:0:0:
301,289,3019,2,0,P|274:272|243:270,1,62.9999980773926,2|0,0:0|0:0,0:0:0:0:
324,199,3341,2,0,L|314:57,1,125.999996154785,2|2,0:0|0:0,0:0:0:0:
315,73,3825,1,2,0:0:0:0:
194,138,3987,2,0,L|204:-4,1,125.999996154785,2|2,0:0|0:0,0:0:0:0:
202,12,4471,1,2,0:0:0:0:
108,104,4632,6,0,L|44:90,1,62.9999980773926,2|0,0:0|0:0,0:0:0:0:
194,138,4955,2,0,L|258:124,1,62.9999980773926,2|0,0:0|0:0,0:0:0:0:
122,196,5277,2,0,L|123:326,1,125.999996154785,2|2,0:0|0:0,0:0:0:0:
122,321,5761,1,0,0:0:0:0:
222,383,5922,6,0,P|291:372|364:362,1,125.999996154785,2|2,0:0|0:0,0:0:0:0:
458,384,6406,1,2,0:0:0:0:
421,251,6568,2,0,L|411:321,1,62.9999980773926,2|0,0:0|0:0,0:0:0:0:
326,189,6890,2,0,L|358:183,1,31.4999990386963,2|2,0:0|0:0,0:0:0:0:
387,146,7051,2,0,L|417:151,1,31.4999990386963,2|2,0:0|0:0,0:0:0:0:
512,225,7213,6,0,P|453:240|410:257,1,94.499997116089,2|0,0:0|0:0,0:0:0:0:
358,295,7535,1,2,0:0:0:0:
276,250,7697,1,2,0:0:0:0:
234,61,7858,1,2,0:0:0:0:
316,106,8020,1,2,0:0:0:0:
412,6,8180,5,2,3:2:0:0:
220,65,8342,1,2,3:2:0:0:
469,230,8503,1,2,3:2:0:0:
469,230,8826,6,0,L|389:249,1,62.9999980773926,0|2,0:0|0:0,0:0:0:0:
369,271,9068,1,2,0:0:0:0:
369,271,9148,1,2,0:0:0:0:
201,313,9471,6,0,L|281:332,1,62.9999980773926,0|2,0:0|0:0,0:0:0:0:
301,354,9713,1,2,0:0:0:0:
301,354,9793,1,2,0:0:0:0:
402,152,10277,5,2,0:0:0:0:
294,203,10439,2,0,L|286:117,1,62.9999980773926,10|0,0:0|0:0,0:0:0:0:
350,67,10761,1,2,1:2:0:0:
447,230,10922,1,10,0:0:0:0:
201,83,11084,6,0,L|180:266,1,180,6|0,3:2|0:0,0:0:0:0:
234,361,11568,1,10,0:0:0:0:
34,209,11729,2,0,P|52:164|55:217,1,135,2|0,1:2|0:0,0:0:0:0:
0,286,12051,2,0,B|70:262|45:334|137:312,1,135,2|0,1:2|0:0,0:0:0:0:
189,268,12374,5,10,0:0:0:0:
319,365,12535,1,2,0:0:0:0:
427,295,12697,2,0,L|417:192,1,90,10|8,0:3|0:0,0:0:0:0:
457,123,13019,1,2,0:0:0:0:
334,204,13180,1,2,0:0:0:0:
181,30,13342,5,2,3:2:0:0:
352,99,13503,1,2,3:2:0:0:
133,224,13664,6,0,L|31:211,1,90,2|0,3:2|0:0,0:0:0:0:
74,58,13987,1,2,0:0:0:0:
207,115,14148,2,0,P|220:231|224:276,1,135,2|0,1:2|0:0,0:0:0:0:
191,320,14471,5,2,0:0:0:0:
116,137,14632,1,2,1:2:0:0:
285,72,14793,1,2,0:0:0:0:
369,250,14955,6,0,L|259:270,1,90,10|0,0:0|0:0,0:0:0:0:
417,105,15277,2,0,L|527:125,1,90,10|8,0:3|0:0,0:0:0:0:
339,179,15600,1,2,1:2:0:0:
311,81,15761,1,2,0:0:0:0:
382,5,15922,5,10,0:3:0:0:
445,211,16084,1,10,0:0:0:0:
244,153,16245,6,0,L|230:256,1,90,2|0,3:2|0:0,0:0:0:0:
260,352,16568,1,10,0:3:0:0:
141,292,16729,1,2,1:2:0:0:
63,129,16890,2,0,P|94:82|166:83,1,135,2|0,0:0|0:0,0:0:0:0:
222,135,17213,5,2,1:2:0:0:
315,207,17374,1,10,0:3:0:0:
492,38,17535,1,14,0:0:0:0:
379,77,17697,1,2,0:0:0:0:
466,208,17858,2,0,L|455:108,1,90,10|8,0:3|0:0,0:0:0:0:
327,284,18180,2,0,B|358:262|417:252|433:315|386:326|379:290,1,135,2|0,0:0|0:0,0:0:0:0:
290,362,18503,2,0,L|278:253,1,90,2|0,3:0|0:0,0:0:0:0:
332,138,18826,5,2,1:2:0:0:
236,187,18987,1,2,0:0:0:0:
146,127,19148,1,2,0:0:0:0:
147,25,19310,2,0,P|192:10|237:32,1,90,2|0,1:2|0:0,0:0:0:0:
67,200,19632,1,2,0:0:0:0:
44,100,19793,1,2,1:2:0:0:
21,0,19955,1,10,0:3:0:0:
209,214,20116,6,0,P|150:244|87:286,1,135,10|0,0:0|0:0,0:0:0:0:
0,336,20439,2,0,B|58:316|58:382|136:361,1,135,2|0,1:2|0:0,0:0:0:0:
279,344,20761,2,0,P|306:294|248:324,1,135,2|0,0:0|0:0,0:0:0:0:
209,381,21084,5,2,3:2:0:0:
145,286,21245,1,8,0:0:0:0:
271,88,21406,5,6,0:0:0:0:
331,171,21568,1,2,0:0:0:0:
239,237,21729,1,2,0:0:0:0:
179,154,21891,1,2,0:0:0:0:
251,163,22051,6,0,P|200:182|140:210,1,121.499996292114,2|0,0:0|0:0,0:0:0:0:
43,200,22374,5,14,0:0:0:0:
79,281,22535,1,2,0:0:0:0:
120,100,22697,1,2,0:0:0:0:
101,140,22858,1,2,0:0:0:0:
261,43,23019,6,0,B|182:26|182:26|209:66,1,108,2|0,0:0|0:0,0:0:0:0:
298,129,23342,6,0,L|285:28,1,72,8|0,0:0|0:0,0:0:0:0:
214,183,23664,1,0,1:0:0:0:
344,222,23826,1,8,0:0:0:0:
199,90,23987,5,4,3:2:0:0:
199,90,25600,5,2,0:0:0:0:
267,268,25922,1,2,0:0:0:0:
80,231,26245,1,2,0:0:0:0:
185,196,26568,6,0,P|192:253|203:323,2,107.999996704102,2|0|0,0:0|0:0|0:0,0:0:0:0:
341,60,27535,2,0,L|336:114,1,53.9999983520508,2|0,0:0|0:0,0:0:0:0:
391,189,27858,2,0,P|451:194|491:153,1,107.999996704102,2|0,0:0|0:0,0:0:0:0:
303,194,28342,2,0,P|243:189|203:230,1,107.999996704102,2|0,0:0|0:0,0:0:0:0:
354,270,28826,1,2,0:0:0:0:
180,376,29148,5,0,0:0:0:0:
84,282,29471,1,2,0:0:0:0:
182,193,29793,1,0,0:0:0:0:
278,287,30116,1,0,0:0:0:0:
174,280,30439,1,0,0:0:0:0:
233,193,30761,5,2,0:0:0:0:
278,287,31084,1,2,0:0:0:0:
323,381,31406,1,2,0:0:0:0:
420,224,31729,6,0,P|376:194|312:218,2,107.999996704102,2|0|0,0:0|0:0|0:0,0:0:0:0:
512,111,32697,2,0,P|469:118|437:124,1,53.9999983520508,2|0,0:0|0:0,0:0:0:0:
395,57,33019,2,0,P|343:37|287:71,1,107.999996704102,2|0,0:0|0:0,0:0:0:0:
239,129,33503,2,0,P|187:149|131:115,1,107.999996704102,2|0,0:0|0:0,0:0:0:0:
87,54,33987,1,2,0:0:0:0:
5,239,34310,5,0,0:0:0:0:
108,159,34632,1,2,0:0:0:0:
89,343,34955,1,0,0:0:0:0:
192,263,35277,1,0,0:0:0:0:
95,253,35600,1,0,0:0:0:0:
267,349,35922,5,2,0:0:0:0:
288,225,36245,1,2,0:0:0:0:
309,101,36568,1,2,0:0:0:0:
456,264,36890,6,0,P|407:271|344:284,2,107.999996704102,2|0|0,0:0|0:0|0:0,0:0:0:0:
510,123,37858,2,0,L|452:109,1,53.9999983520508,2|0,0:0|0:0,0:0:0:0:
380,155,38180,2,0,L|267:175,1,107.999996704102,2|0,0:0|0:0,0:0:0:0:
183,112,38664,2,0,L|296:132,1,107.999996704102,2|0,0:0|0:0,0:0:0:0:
207,254,39148,2,0,L|198:179,1,53.9999983520508,2|0,0:0|0:0,0:0:0:0:
124,50,39471,6,0,P|72:55|45:166,1,161.999995056153,2|0,0:0|0:0,0:0:0:0:
99,239,40116,2,0,L|111:124,1,107.999996704102,2|2,0:0|0:0,0:0:0:0:
0,303,40761,6,0,B|49:279|97:319|82:344|143:384|208:341,1,215.999993408203
350,209,41729,2,0,L|342:270,1,53.9999983520508,2|0,0:0|0:0,0:0:0:0:
287,157,42051,6,0,P|317:134|385:136,2,107.999996704102,2|0|0,0:0|0:0|0:0,0:0:0:0:
97,105,43019,2,0,B|160:128|105:153|176:180,1,107.999996704102
264,330,43664,2,0,L|272:269,1,53.9999983520508,2|0,0:0|0:0,0:0:0:0:
184,370,43987,2,0,L|171:251,1,107.999996704102,2|0,0:0|0:0,0:0:0:0:
119,198,44471,1,2,0:0:0:0:
221,106,44632,6,0,P|265:123|339:152,2,107.999996704102,2|0|0,0:0|0:0|0:0,0:0:0:0:
74,49,45600,1,0,0:0:0:0:
148,79,45922,1,0,0:0:0:0:
330,33,46245,6,0,L|321:-8,2,35.9999989013672,2|0|0,0:0|0:0|0:0,0:0:0:0:
388,92,46568,2,0,L|411:102,2,17.9999994506836,2|0|0,0:0|0:0|0:0,0:0:0:0:
304,112,46890,2,0,L|293:120,2,8.99999972534181,2|0|0,0:0|0:0|0:0,0:0:0:0:
345,81,47213,6,0,P|330:143|318:215,1,125.999996154785,2|0,0:0|0:0,0:0:0:0:
330,302,47697,1,8,0:0:0:0:
237,215,47858,1,8,0:0:0:0:
463,337,48180,2,0,P|419:343|380:352,1,62.9999980773926,2|0,0:0|0:0,0:0:0:0:
225,381,48503,6,0,P|232:322|249:248,1,125.999996154785,6|0,0:0|0:0,0:0:0:0:
129,195,48987,2,0,P|136:254|153:328,1,125.999996154785,2|0,0:0|0:0,0:0:0:0:
53,370,49471,2,0,P|70:321|72:295,1,62.9999980773926,2|0,0:0|0:0,0:0:0:0:
2,158,49793,6,0,B|49:189|49:189|124:161,1,125.999996154785,0|2,1:0|0:0,0:0:0:0:
192,127,50277,1,8,0:0:0:0:
124,69,50439,1,8,0:0:0:0:
336,181,50761,1,8,0:0:0:0:
384,107,50922,1,8,0:0:0:0:
286,253,51084,1,4,0:0:0:0:
443,353,51406,6,2,L|438:279,1,62.9999980773926,2|0,0:0|0:0,0:0:0:0:
368,358,51729,2,0,L|363:284,1,62.9999980773926,2|0,0:0|0:0,0:0:0:0:
294,359,52051,2,0,L|289:285,1,62.9999980773926,2|0,0:0|0:0,0:0:0:0:
172,203,52374,6,0,P|136:221|127:311,1,125.999996154785,2|0,1:2|0:0,0:0:0:0:
173,375,52858,1,8,0:0:0:0:
219,290,53019,1,8,0:0:0:0:
85,146,53342,2,0,L|97:218,1,62.9999980773926,2|0,0:0|0:0,0:0:0:0:
175,80,53664,6,0,P|138:48|48:70,1,125.999996154785,6|0,1:2|0:0,0:0:0:0:
229,139,54148,2,0,P|289:149|338:113,1,125.999996154785,2|0,0:0|0:0,0:0:0:0:
420,30,54632,2,0,P|410:65|404:101,1,62.9999980773926,2|0,0:0|0:0,0:0:0:0:
488,211,54955,6,0,P|456:188|368:204,1,125.999996154785,0|2,1:0|0:0,0:0:0:0:
317,264,55439,1,8,0:0:0:0:
391,316,55600,1,8,0:0:0:0:
145,384,55922,2,0,L|138:312,1,62.9999980773926,8|0,0:0|0:0,0:0:0:0:
129,194,56245,1,4,0:0:0:0:
298,114,56568,6,0,P|307:154|304:182,1,62.9999980773926,2|0,0:0|0:0,0:0:0:0:
292,37,56890,2,0,P|314:14|341:0,1,62.9999980773926,2|0,0:0|0:0,0:0:0:0:
231,77,57213,2,0,P|200:69|173:52,1,62.9999980773926,2|0,0:0|0:0,0:0:0:0:
25,131,57535,6,0,B|46:105|81:105|81:105|99:135|147:136,1,125.999996154785,2|0,1:2|0:0,0:0:0:0:
209,112,58019,1,8,0:0:0:0:
168,209,58180,1,8,0:0:0:0:
333,371,58503,2,0,L|340:298,1,62.9999980773926,2|0,0:0|0:0,0:0:0:0:
439,195,58826,6,0,L|457:328,1,125.999996154785,6|0,1:2|0:0,0:0:0:0:
355,228,59310,2,0,L|373:95,1,125.999996154785,2|0,0:0|0:0,0:0:0:0:
450,37,59793,2,0,L|461:124,1,62.9999980773926,2|0,0:0|0:0,0:0:0:0:
292,24,60116,6,0,B|236:4|195:32|210:49|163:88|98:46,1,188.999994232178,2|0,1:2|1:0,0:0:0:0:
9,5,60761,2,0,P|19:41|28:80,1,62.9999980773926,2|0,1:2|0:0,0:0:0:0:
20,152,61084,1,2,0:0:0:0:
157,319,61406,6,0,L|176:190,2,125.999996154785,6|8|0,0:0|1:2|0:0,0:0:0:0:
256,149,62374,2,0,P|223:115|193:115,1,62.9999980773926,2|0,0:0|0:0,0:0:0:0:
256,245,62697,6,0,P|362:220|455:207,1,188.999994232178,2|0,1:2|1:0,0:0:0:0:
512,123,63342,2,0,P|485:100|401:116,2,125.999996154785,0|8|4,1:0|0:0|0:0,0:0:0:0:
280,118,64310,2,0,P|272:79|285:48,1,62.9999980773926,2|0,0:0|0:0,0:0:0:0:
342,191,64632,2,0,P|299:219|216:186,1,125.999996154785,2|0,0:0|0:0,0:0:0:0:
175,138,65116,1,2,0:0:0:0:
70,238,65277,6,0,B|111:205|158:218|158:218|174:274|242:282,1,188.999994232178,2|0,1:2|1:0,0:0:0:0:
257,361,65922,1,0,1:0:0:0:
405,295,66245,5,2,0:0:0:0:
423,258,66352,1,0,0:0:0:0:
413,218,66460,1,0,0:0:0:0:
387,182,66568,5,6,0:0:0:0:
362,136,66675,1,2,0:0:0:0:
374,87,66783,1,2,0:0:0:0:
407,50,66890,6,0,L|471:55,2,41.9999987182618,2|0|0,0:0|0:0|0:0,0:0:0:0:
269,117,67212,6,0,L|275:165,2,41.9999987182618,2|0|0,0:0|0:0|0:0,0:0:0:0:
162,70,67535,2,0,L|169:16,2,41.9999987182618,2|0|0,0:0|0:0|0:0,0:0:0:0:
58,132,67858,6,0,P|74:196|92:301,1,144,6|2,3:2|0:0,0:0:0:0:
215,210,68342,2,0,P|206:242|197:294,1,72,2|0,1:2|0:0,0:0:0:0:
215,370,68664,1,2,0:0:0:0:
300,265,68826,2,0,B|335:241|373:268|362:287|402:310|458:283,2,144,2|8|2,1:2|0:0|0:0,0:0:0:0:
436,80,69793,2,0,L|426:172,1,72,0|0,1:0|0:0,0:0:0:0:
311,69,70116,1,10,0:3:0:0:
376,14,70277,1,10,0:3:0:0:
290,153,70439,6,0,P|225:137|133:122,1,144,2|2,3:0|0:0,0:0:0:0:
40,43,70922,2,0,P|52:77|61:128,1,72,2|0,1:2|0:0,0:0:0:0:
23,214,71245,1,2,0:0:0:0:
149,123,71406,2,0,P|125:188|108:286,2,144,2|8|2,1:2|0:0|0:0,0:0:0:0:
283,299,72374,2,0,P|238:306|194:315,1,72,0|0,1:0|0:0,0:0:0:0:
198,237,72697,2,0,P|233:230|268:224,1,72,10|0,0:3|0:0,0:0:0:0:
400,324,73019,6,0,P|410:252|425:165,1,144,2|2,3:0|0:0,0:0:0:0:
318,73,73503,2,0,P|330:117|339:163,1,72,2|0,1:2|0:0,0:0:0:0:
329,227,73826,1,2,0:0:0:0:
424,95,73987,2,0,P|466:98|503:204,1,144,2|8,1:2|0:0,0:0:0:0:
231,85,74632,2,0,P|235:42|261:13,1,72,2|0,0:0|0:0,0:0:0:0:
174,141,74955,2,0,P|149:105|150:66,1,72,2|0,1:2|0:0,0:0:0:0:
164,217,75277,2,0,P|122:205|98:174,1,72,10|0,0:3|0:0,0:0:0:0:
202,285,75600,5,2,3:2:0:0:
435,254,75922,1,0,0:0:0:0:
429,182,76083,1,0,1:0:0:0:
352,186,76245,1,0,0:0:0:0:
357,257,76406,1,0,0:0:0:0:
385,117,76568,1,0,1:0:0:0:
403,331,76890,2,0,P|356:357|273:306,1,144,8|0,0:0|1:0,0:0:0:0:
91,211,77535,6,0,P|128:203|173:201,1,72,10|0,0:3|0:0,0:0:0:0:
91,98,77858,2,0,P|126:100|162:108,1,72,2|0,0:0|0:0,0:0:0:0:
301,20,78180,6,0,P|291:78|277:169,1,144,2|2,3:2|0:0,0:0:0:0:
412,121,78664,2,0,P|416:149|424:195,1,72,2|0,1:2|0:0,0:0:0:0:
417,285,78987,1,2,0:0:0:0:
277,162,79148,2,0,P|287:220|301:311,2,144,2|8|2,1:2|0:0|0:0,0:0:0:0:
92,33,80116,2,0,P|81:77|76:116,1,72,0|0,1:0|0:0,0:0:0:0:
106,223,80439,1,10,0:3:0:0:
33,175,80600,1,10,0:3:0:0:
164,144,80761,6,0,P|206:198|176:280,1,144,2|2,3:2|0:0,0:0:0:0:
118,374,81245,2,0,P|155:350|205:355,1,72,2|0,1:2|0:0,0:0:0:0:
269,377,81568,1,2,0:0:0:0:
394,305,81729,2,0,P|370:270|275:259,2,144,2|8|2,1:2|0:0|0:0,0:0:0:0:
489,102,82697,2,0,P|484:137|479:179,1,72,0|0,1:0|0:0,0:0:0:0:
402,162,83019,2,0,P|406:126|411:90,1,72,10|0,0:3|0:0,0:0:0:0:
262,3,83342,6,0,P|187:24|186:97,1,144,2|0,3:0|0:0,0:0:0:0:
71,82,83826,2,0,P|146:103|147:176,1,144,2|0,1:2|0:0,0:0:0:0:
247,220,84310,2,0,L|233:128,1,72,2|0,1:2|0:0,0:0:0:0:
143,322,84632,5,8,0:0:0:0:
331,251,84955,1,0,0:0:0:0:
154,160,85277,1,0,1:0:0:0:
326,70,85600,2,0,P|343:115|334:138,1,72,10|0,0:3|0:0,0:0:0:0:
470,216,85922,6,0,P|428:211|341:266,1,144,2|0,3:2|0:0,0:0:0:0:
269,367,86406,2,0,P|227:372|140:317,1,144,2|0,1:2|0:0,0:0:0:0:
24,246,86890,2,0,P|30:292|35:335,1,72,2|0,1:2|0:0,0:0:0:0:
156,194,87213,6,0,P|126:150|23:160,1,144,8|0,0:0|1:0,0:0:0:0:
307,233,87858,2,0,L|326:73,1,144,10|0,0:3|0:0,0:0:0:0:
396,0,88342,1,0,0:0:0:0:
245,41,88503,5,0,0:0:0:0:
476,229,88825,1,2,0:0:0:0:
480,206,88987,1,0,0:0:0:0:
395,276,89148,1,0,0:0:0:0:
391,253,89310,1,0,0:0:0:0:
294,234,89470,2,0,L|306:140,1,72,0|0,1:0|0:0,0:0:0:0:
163,99,89793,5,12,0:0:0:0:
95,173,89955,1,0,0:0:0:0:
189,298,90116,2,0,L|182:172,2,107.999996704102
168,382,90922,1,0,0:0:0:0:
277,289,91084,5,0,0:0:0:0:
275,287,92374,6,0,L|264:183,1,80.9999975280763,2|0,0:0|0:0,0:0:0:0:
172,143,92697,2,0,P|145:172|182:155,1,108,2|0,0:0|0:0,0:0:0:0:
305,90,93019,2,0,B|259:68|232:95|239:106|212:122|160:99,1,135,2|0,0:0|0:0,0:0:0:0:
53,33,93342,2,0,L|74:215,1,161.999995056153,2|0,0:0|0:0,0:0:0:0:
9,365,93664,6,0,P|60:287|166:312,1,198.000006042481,6|0,3:2|0:0,0:0:0:0:
305,227,94148,1,0,3:0:0:0:
191,34,94309,2,0,L|182:150,1,99.0000030212403,2|0,0:0|0:0,0:0:0:0:
299,303,94632,1,2,3:0:0:0:
96,189,94793,1,10,0:3:0:0:
300,67,94954,2,0,B|339:122|339:122|294:216,1,148.50000453186,8|0,0:0|0:0,0:0:0:0:
267,263,95277,1,0,0:0:0:0:
342,370,95439,1,0,0:0:0:0:
491,196,95600,6,0,P|457:145|359:161,1,148.50000453186,2|0,0:0|0:0,0:0:0:0:
185,117,95922,2,0,P|219:66|317:82,1,148.50000453186,2|0,1:2|0:0,0:0:0:0:
176,236,96245,2,0,L|169:117,1,99.0000030212403,2|0,3:0|0:0,0:0:0:0:
305,241,96568,1,2,0:0:0:0:
126,362,96729,2,0,P|67:337|65:209,1,198.000006042481,2|0,3:0|0:0,0:0:0:0:
169,137,97213,1,0,1:0:0:0:
61,75,97374,1,8,0:3:0:0:
198,257,97535,6,0,L|215:76,1,148.50000453186,6|0,0:0|0:0,0:0:0:0:
309,12,97858,2,0,P|335:52|297:14,1,148.50000453186,2|0,0:0|0:0,0:0:0:0:
454,88,98180,2,0,P|408:72|318:133,1,148.50000453186,2|0,0:0|0:0,0:0:0:0:
235,211,98503,2,0,B|327:226|261:274|372:301,1,148.50000453186,2|0,0:0|0:0,0:0:0:0:
510,380,98826,6,0,P|488:220|482:162,1,198.000006042481,2|0,3:0|0:0,0:0:0:0:
511,43,99310,1,0,3:0:0:0:
378,224,99471,2,0,P|330:242|281:212,1,99.0000030212403,2|0,0:0|0:0,0:0:0:0:
159,64,99793,1,2,3:2:0:0:
12,219,99955,1,10,0:3:0:0:
157,331,100116,6,0,P|142:216|134:144,1,148.50000453186,12|0,0:0|0:0,0:0:0:0:
155,101,100439,2,0,P|208:87|247:121,1,99.0000030212403,2|0,0:0|0:0,0:0:0:0:
470,234,100761,2,0,B|380:255|451:308|334:343,1,148.50000453186,2|0,0:0|0:0,0:0:0:0:
282,320,101084,1,2,1:2:0:0:
367,162,101245,1,10,0:3:0:0:
286,47,101406,6,0,L|266:155,1,99.0000030212403,8|0,0:0|0:0,0:0:0:0:
358,301,101729,1,2,0:0:0:0:
150,109,101890,2,0,B|103:173|103:173|157:284,1,198.000006042481,2|0,3:2|0:0,0:0:0:0:
215,369,102374,1,8,0:3:0:0:
306,249,102535,1,0,1:0:0:0:
186,40,102697,6,0,P|123:30|78:122,1,148.50000453186,14|0,0:0|0:0,0:0:0:0:
76,174,103019,1,8,0:3:0:0:
318,220,103180,2,0,P|342:73|353:8,1,198.000006042481,10|0,0:3|0:0,0:0:0:0:
168,181,103664,1,2,1:2:0:0:
321,367,103826,1,2,0:0:0:0:
512,260,103987,6,0,P|448:241|303:220,1,198.000006042481,0|0,3:0|0:0,0:0:0:0:
158,106,104471,2,0,P|228:116|224:232,1,198.000006042481,0|0,3:0|0:0,0:0:0:0:
138,272,104955,1,0,1:2:0:0:
258,367,105116,1,8,0:3:0:0:
63,89,105277,6,0,P|47:156|30:271,1,148.50000453186,14|0,0:2|0:0,0:0:0:0:
54,326,105600,1,8,0:3:0:0:
219,152,105761,1,10,0:3:0:0:
135,54,105922,1,8,0:0:0:0:
241,232,106084,1,0,0:0:0:0:
367,30,106245,1,2,1:2:0:0:
138,143,106406,1,10,0:3:0:0:
356,289,106568,6,0,P|370:210|394:109,1,148.50000453186,0|0,3:0|0:0,0:0:0:0:
436,74,106890,1,2,0:0:0:0:
268,271,107051,2,0,P|279:345|394:371,1,198.000006042481,2|0,3:0|0:0,0:0:0:0:
510,233,107535,1,2,1:2:0:0:
327,96,107697,1,2,0:0:0:0:
140,351,107858,6,0,P|88:332|95:242,1,148.50000453186,14|0,0:0|0:0,0:0:0:0:
198,120,108180,2,0,P|187:178|173:268,1,148.50000453186,2|0,1:2|0:0,0:0:0:0:
52,121,108503,2,0,P|101:113|52:147,1,148.50000453186,2|0,0:0|0:0,0:0:0:0:
170,43,108826,1,10,0:3:0:0:
13,220,108987,1,2,1:2:0:0:
174,377,109148,6,0,P|247:353|348:336,1,148.50000453186,0|0,3:0|0:0,0:0:0:0:
394,367,109471,1,0,0:0:0:0:
506,284,109632,2,0,P|453:268|400:252,1,99.0000030212403,0|0,3:0|0:0,0:0:0:0:
237,130,109955,1,2,0:0:0:0:
397,38,110116,1,2,1:2:0:0:
489,202,110277,1,2,0:0:0:0:
329,294,110439,6,0,P|317:237|303:171,1,99.0000030212403,14|0,0:0|0:0,0:0:0:0:
117,103,110761,2,0,P|105:160|91:226,1,99.0000030212403,2|8,1:2|0:3,0:0:0:0:
332,109,111084,2,0,P|296:46|204:50,1,148.50000453186,2|0,0:0|0:0,0:0:0:0:
157,85,111406,1,2,1:2:0:0:
288,274,111568,1,2,0:0:0:0:
156,373,111729,6,0,P|145:304|124:195,1,148.50000453186,0|0,3:0|0:0,0:0:0:0:
61,167,112051,1,2,0:0:0:0:
206,224,112213,1,8,0:3:0:0:
48,282,112374,2,0,L|38:177,1,99.0000030212403,0|0,1:0|0:0,0:0:0:0:
141,81,112697,1,8,0:3:0:0:
21,12,112858,1,8,0:0:0:0:
206,224,113019,5,2,1:2:0:0:
306,108,113180,1,8,0:0:0:0:
82,241,113342,2,0,L|102:358,1,99.0000030212403,10|0,0:0|0:0,0:0:0:0:
296,216,113664,1,10,0:0:0:0:
116,71,113826,1,8,0:0:0:0:
339,281,113987,1,10,0:0:0:0:
387,279,114067,1,8,0:0:0:0:
427,250,114148,1,8,0:0:0:0:
443,204,114228,1,8,0:0:0:0:
432,157,114309,6,0,B|345:125|373:216|251:185,1,161.999995056153,6|0,1:2|0:0,0:0:0:0:
198,136,114632,2,0,P|232:186|228:240,1,107.999996704102,8|0,0:0|0:0,0:0:0:0:
33,371,114955,2,0,P|27:313|7:184,1,161.999995056153,2|0,1:2|0:0,0:0:0:0:
81,95,115277,1,10,0:0:0:0:
241,332,115439,1,10,0:3:0:0:
388,203,115600,2,0,P|326:195|264:188,1,107.999996704102,0|0,1:0|0:0,0:0:0:0:
403,384,115922,2,0,P|465:376|527:369,1,107.999996704102,8|0,0:0|0:0,0:0:0:0:
279,107,116245,6,0,P|215:109|200:219,1,161.999995056153,2|0,1:2|0:0,0:0:0:0:
313,187,116568,2,0,L|295:-1,1,161.999995056153,10|0,0:0|0:0,0:0:0:0:
162,6,116890,2,0,L|153:127,1,107.999996704102,2|0,1:2|0:0,0:0:0:0:
151,368,117213,1,10,0:0:0:0:
10,200,117374,1,10,0:3:0:0:
115,96,117535,1,0,0:0:0:0:
230,168,117697,1,0,1:0:0:0:
390,21,117858,6,0,L|381:77,1,53.9999983520508,10|0,0:0|0:0,0:0:0:0:
407,102,118019,2,0,L|419:161,1,53.9999983520508,2|0,0:0|0:0,0:0:0:0:
437,237,118180,5,2,1:2:0:0:
501,196,118342,1,0,0:0:0:0:
345,296,118503,5,10,0:0:0:0:
439,343,118665,1,0,1:0:0:0:
218,223,118826,5,2,0:0:0:0:
226,378,118988,1,8,0:3:0:0:
198,41,119148,5,10,0:0:0:0:
0,173,119310,1,0,0:0:0:0:
292,276,119471,6,0,P|312:203|217:138,1,161.999995056153,2|0,3:0|0:0,0:0:0:0:
126,150,119793,1,8,0:0:0:0:
285,47,119955,1,0,1:0:0:0:
103,269,120116,2,0,P|42:254|24:152,1,161.999995056153,2|0,0:0|0:0,0:0:0:0:
73,71,120439,1,14,0:0:0:0:
221,297,120600,1,10,0:3:0:0:
385,215,120761,6,0,P|309:192|218:174,1,161.999995056153,0|0,1:0|0:0,0:0:0:0:
148,191,121084,1,10,0:0:0:0:
294,330,121245,1,8,0:3:0:0:
422,101,121406,2,0,P|409:151|398:217,1,107.999996704102,2|0,0:0|1:0,0:0:0:0:
443,384,121729,1,10,0:0:0:0:
183,182,121890,1,2,0:0:0:0:
261,50,122051,6,0,B|301:97|301:97|251:210,1,161.999995056153,0|0,1:0|0:0,0:0:0:0:
223,264,122374,1,10,0:0:0:0:
39,92,122535,2,0,P|55:145|67:215,1,107.999996704102,2|0,1:2|0:0,0:0:0:0:
30,365,122858,1,8,0:3:0:0:
123,295,123019,1,8,0:0:0:0:
7,252,123180,1,0,0:0:0:0:
273,384,123341,6,0,P|321:334|296:236,1,161.999995056153,6|0,3:2|0:0,0:0:0:0:
198,131,123664,2,0,P|220:194|234:261,1,107.999996704102,10|10,0:0|0:0,0:0:0:0:
196,303,123906,1,8,0:0:0:0:
196,303,123987,1,8,0:0:0:0:
307,248,124148,1,8,0:0:0:0:
117,41,124309,1,10,0:0:0:0:
64,49,124389,1,8,0:0:0:0:
29,89,124470,1,10,0:0:0:0:
27,142,124550,1,8,0:0:0:0:
58,184,124632,6,0,P|118:173|180:163,1,107.999996704102,12|0,0:0|1:0,0:0:0:0:
296,285,124954,1,8,0:3:0:0:
512,124,125116,2,0,B|452:88|394:129|415:157|352:191|288:145,1,215.999993408203,8|0,0:0|0:0,0:0:0:0:
428,367,125600,1,14,0:0:0:0:
512,264,125761,1,8,0:3:0:0:
308,60,125922,6,0,P|241:68|225:210,1,215.999993408203,14|8,0:0|0:3,0:0:0:0:
324,384,126406,2,0,P|307:259|298:196,1,161.999995056153,10|0,0:0|0:0,0:0:0:0:
295,130,126729,1,0,1:0:0:0:
117,321,126890,1,10,0:0:0:0:
8,78,127051,1,10,0:0:0:0:
8,78,127132,1,8,0:0:0:0:
8,78,127212,6,0,B|104:45|104:45|155:82,1,161.999995056153,12|0,0:0|0:0,0:0:0:0:
213,129,127535,1,2,1:2:0:0:
23,327,127696,2,0,P|28:251|158:233,1,215.999993408203,8|0,0:0|1:0,0:0:0:0:
316,384,128180,1,14,0:0:0:0:
418,291,128341,1,8,0:3:0:0:
300,87,128503,6,0,B|250:135|250:135|293:230,1,161.999995056153,6|0,1:2|0:0,0:0:0:0:
323,295,128825,1,0,1:0:0:0:
434,79,128987,2,0,P|385:14|259:20,1,215.999993408203,10|0,0:0|0:0,0:0:0:0:
99,208,129470,1,2,1:2:0:0:
4,4,129632,1,10,0:3:0:0:
238,151,129793,6,0,P|223:217|209:317,1,161.999995056153,4|0,3:2|0:0,0:0:0:0:
224,384,130116,1,8,0:0:0:0:
83,298,130277,1,0,1:0:0:0:
205,186,130438,1,8,0:3:0:0:
79,99,130600,1,0,1:0:0:0:
178,280,130761,1,8,0:0:0:0:
0,183,130922,1,8,0:3:0:0:
173,17,131083,6,0,B|339:52,1,161.999995056153,4|0,1:2|0:0,0:0:0:0:
494,141,131406,2,0,P|423:113|375:184,1,161.999995056153,10|0,0:0|0:0,0:0:0:0:
276,296,131729,2,0,L|300:123,1,161.999995056153,2|0,1:2|0:0,0:0:0:0:
155,13,132051,1,10,0:0:0:0:
101,11,132131,1,8,0:0:0:0:
57,41,132212,1,8,0:0:0:0:
39,90,132292,1,8,0:0:0:0:
52,142,132374,6,0,B|120:176|58:210|155:265,1,144,6|0,1:2|0:0,0:0:0:0:
276,296,132858,2,0,P|202:305|163:376,1,144,8|8,0:3|0:3,0:0:0:0:
369,287,133341,1,6,0:3:0:0:
308,215,133503,1,4,0:3:0:0:
383,36,133664,6,0,B|423:0|487:36|484:155|312:166|257:44,1,323.999990112305,6|2,1:2|0:0,0:0:0:0:
71,240,134954,6,0,P|108:212|184:220,1,125.999996154785,6|2,1:2|0:0,0:0:0:0:
183,219,135438,1,2,0:0:0:0:
240,328,135600,2,0,P|277:356|353:348,1,125.999996154785,2|2,0:0|0:0,0:0:0:0:
352,348,136084,1,2,0:0:0:0:
448,226,136245,2,0,L|308:265,1,125.999996154785,2|2,0:0|0:0,0:0:0:0:
326,259,136729,1,2,0:0:0:0:
255,180,136890,2,0,P|242:146|251:112,1,62.9999980773926,2|0,0:0|0:0,0:0:0:0:
337,115,137212,2,0,P|350:149|341:183,1,62.9999980773926,2|0,0:0|0:0,0:0:0:0:
181,87,137535,6,0,P|210:48|291:52,1,125.999996154785,2|2,0:0|0:0,0:0:0:0:
282,46,138019,1,2,0:0:0:0:
401,0,138180,2,0,P|390:37|373:141,1,125.999996154785,2|2,0:0|0:0,0:0:0:0:
374,122,138664,1,2,0:0:0:0:
459,242,138825,2,0,B|422:217|388:242|400:258|373:278|329:262,1,125.999996154785,2|0,0:0|0:0,0:0:0:0:
345,266,139309,1,0,0:0:0:0:
240,202,139470,2,0,P|253:248|260:278,1,62.9999980773926,2|0,0:0|0:0,0:0:0:0:
153,323,139793,2,0,P|160:292|169:262,1,62.9999980773926,2|0,0:0|0:0,0:0:0:0:
44,131,140116,6,0,B|9:175|9:175|41:246,1,125.999996154785,2|2,3:2|0:0,0:0:0:0:
37,238,140600,1,2,0:0:0:0:
138,315,140761,2,0,P|130:254|113:168,1,125.999996154785,2|2,0:0|0:0,0:0:0:0:
119,191,141245,1,2,0:0:0:0:
190,102,141406,2,0,B|224:90|251:107|244:124|277:142|314:123,1,125.999996154785,2|2,0:0|0:0,0:0:0:0:
306,126,141890,1,2,0:0:0:0:
410,37,142051,2,0,P|402:84|393:145,1,94.499997116089,2|0,0:0|0:0,0:0:0:0:
402,174,142374,1,2,0:0:0:0:
463,246,142535,1,2,0:0:0:0:
379,323,142696,6,0,P|308:306|239:301,1,125.999996154785,2|0,0:0|0:0,0:0:0:0:
256,302,143180,1,0,0:0:0:0:
177,247,143341,2,0,P|200:217|288:216,1,125.999996154785,2|0,0:0|0:0,0:0:0:0:
282,212,143825,1,0,0:0:0:0:
346,139,143987,1,2,0:0:0:0:
143,71,144309,5,2,0:0:0:0:
368,13,144632,1,2,0:0:0:0:
326,246,144954,1,2,0:0:0:0:
268,124,145277,6,0,P|340:108|417:94,1,144,2|0,3:0|0:0,0:0:0:0:
471,176,145761,1,8,0:3:0:0:
369,219,145922,1,8,0:3:0:0:
158,102,146245,2,0,L|167:18,1,72,2|0,1:2|0:0,0:0:0:0:
257,152,146567,6,0,P|191:170|98:205,1,144,6|0,0:0|0:0,0:0:0:0:
20,281,147051,2,0,P|86:299|179:334,1,144,2|0,0:0|0:0,0:0:0:0:
289,373,147535,2,0,P|294:321|298:286,1,72,2|0,1:2|0:0,0:0:0:0:
348,229,147858,1,0,1:0:0:0:
234,32,148180,5,2,0:0:0:0:
199,125,148341,1,0,0:0:0:0:
306,114,148503,2,0,P|269:108|226:100,1,72
117,211,148825,2,0,P|154:205|197:197,1,72,8|0,0:3|0:0,0:0:0:0:
270,268,149148,1,4,1:2:0:0:
25,378,149470,6,0,P|17:319|9:286,1,72,2|0,0:0|0:0,0:0:0:0:
73,226,149793,2,0,P|81:167|89:134,1,72,2|8,0:0|0:3,0:0:0:0:
10,85,150116,2,0,P|2:26|-6:-7,1,72,2|0,0:0|0:0,0:0:0:0:
155,115,150438,6,0,P|240:96|324:80,1,144,2|0,3:2|0:0,0:0:0:0:
393,110,150922,1,8,0:3:0:0:
295,6,151083,1,8,0:3:0:0:
467,246,151406,2,0,L|492:160,1,72,6|0,0:0|0:0,0:0:0:0:
368,281,151729,6,0,P|397:343|466:348,1,144,6|0,0:0|0:0,0:0:0:0:
299,217,152212,2,0,P|225:227|202:293,1,144,2|0,0:0|0:0,0:0:0:0:
380,197,152696,2,0,P|385:150|389:105,1,72,2|0,1:2|0:0,0:0:0:0:
407,12,153019,5,0,1:0:0:0:
139,105,153341,1,10,0:3:0:0:
207,28,153503,1,8,0:3:0:0:
251,125,153664,1,0,1:0:0:0:
327,298,153987,1,8,0:3:0:0:
429,293,154149,1,8,0:3:0:0:
380,197,154310,1,4,0:0:0:0:
167,367,154632,6,0,P|160:321|178:276,1,72,2|0,0:0|0:0,0:0:0:0:
288,212,154954,2,0,P|251:241|203:247,1,72,2|8,0:0|0:3,0:0:0:0:
93,183,155277,2,0,P|136:199|166:238,1,72,2|0,0:0|0:0,0:0:0:0:
36,373,155600,6,0,P|34:297|21:209,1,144,2|0,3:2|0:0,0:0:0:0:
0,120,156083,1,8,0:3:0:0:
112,156,156245,1,8,0:3:0:0:
333,37,156567,2,0,P|276:27|240:22,1,72,2|0,1:2|0:0,0:0:0:0:
327,153,156890,6,0,P|393:132|499:113,1,144,6|0,0:0|0:0,0:0:0:0:
403,217,157374,2,0,P|337:196|231:177,1,144,2|0,1:2|0:0,0:0:0:0:
166,234,157858,2,0,P|157:278|163:306,1,72,2|8,1:2|0:3,0:0:0:0:
40,384,158180,6,0,P|45:307|54:206,1,144,2|0,1:2|0:0,0:0:0:0:
1,138,158664,1,0,0:0:0:0:
59,32,158825,2,0,P|64:81|69:122,1,72,2|0,0:0|0:0,0:0:0:0:
154,156,159148,2,0,P|158:120|161:84,1,72,2|0,0:0|0:0,0:0:0:0:
275,11,159470,6,0,B|306:56|306:56|271:151,1,144,6|0,0:0|0:0,0:0:0:0:
411,83,159954,1,0,0:0:0:0:
351,224,160116,2,0,P|398:207|441:197,1,72
279,298,160438,2,0,P|271:245|264:214,1,72,2|0,1:2|0:0,0:0:0:0:
115,154,160761,6,0,P|75:173|74:269,1,144,2|0,3:2|0:0,0:0:0:0:
146,318,161245,1,8,0:3:0:0:
29,349,161406,1,8,0:3:0:0:
193,128,161729,2,0,P|200:169|207:218,1,72,4|0,0:0|0:0,0:0:0:0:
106,65,162051,6,0,P|149:23|243:36,1,144,4|2,0:0|0:0,0:0:0:0:
193,128,162535,1,0,0:0:0:0:
344,218,162696,2,0,P|333:137|318:61,1,144,2|0,0:0|0:0,0:0:0:0:
486,12,163180,1,2,0:0:0:0:
486,12,163341,6,0,P|476:75|461:176,1,144,2|0,1:2|0:0,0:0:0:0:
501,279,163825,1,8,0:3:0:0:
397,187,163987,1,8,0:3:0:0:
253,324,164309,5,2,0:0:0:0:
216,343,164416,1,0,0:0:0:0:
176,336,164524,1,0,0:0:0:0:
142,305,164632,5,2,0:0:0:0:
91,281,164739,1,2,0:0:0:0:
39,296,164847,1,2,0:0:0:0:
1,334,164954,6,0,L|9:401,2,48,2|0|0,0:0|0:0|0:0,0:0:0:0:
33,192,165277,6,0,L|83:203,2,48,2|0|0,0:0|0:0|0:0,0:0:0:0:
191,241,165600,2,0,L|237:230,2,48,2|0|0,0:0|0:0|0:0,0:0:0:0:
246,139,165922,6,0,B|237:94|192:79|192:79|339:16|341:171|445:139|487:84|469:31|469:31|422:2|345:27|330:82|354:117|411:164|417:211|382:266,1,755.999976928712,6|10,3:2|0:3,0:0:0:0:
389,252,168341,1,2,1:2:0:0:
265,372,168503,6,0,B|319:396|355:343|355:343|272:239|187:310|208:333|146:393|66:351|66:351|18:242|113:166|113:166|98:244|145:280,1,755.999976928712,2|10,3:0|0:3,0:0:0:0:
137,273,170922,1,0,1:2:0:0:
287,117,171083,6,0,B|247:39|124:120|178:271|358:244|425:171|425:92|425:92|425:181|527:226|485:308|485:308|425:318|401:274,1,755.999976928712,2|10,3:2|0:3,0:0:0:0:
405,280,173503,1,0,1:0:0:0:
261,335,173664,6,0,B|178:292|124:334|151:364|79:443|-61:375|-33:230|71:214|110:243|110:243|212:194|208:83|137:10|35:98|98:154,1,755.999976928712,2|2,3:0|0:0,0:0:0:0:
343,374,176245,6,0,P|354:327|344:298,1,72,6|0,3:2|0:0,0:0:0:0:
273,225,176567,1,2,0:0:0:0:
425,159,176729,2,0,B|393:195|390:228|390:228|419:255|426:290,1,144,2|0,3:2|0:0,0:0:0:0:
261,148,177212,2,0,P|312:154|340:193,1,72,2|0,1:2|0:0,0:0:0:0:
195,239,177535,6,0,P|185:170|162:97,1,144,12|10,0:0|0:3,0:0:0:0:
89,42,178019,1,8,0:3:0:0:
219,0,178180,1,0,1:0:0:0:
10,216,178503,1,10,0:3:0:0:
57,141,178664,1,10,0:3:0:0:
116,279,178825,6,0,P|58:288|19:303,1,72,2|0,3:2|0:0,0:0:0:0:
117,203,179148,1,2,0:0:0:0:
190,326,179309,2,0,P|240:352|313:275,1,144,2|0,3:2|0:0,0:0:0:0:
260,196,179793,2,0,P|252:232|243:280,1,72,2|0,1:2|0:0,0:0:0:0:
409,341,180116,6,0,P|382:232|368:183,1,144,14|2,0:0|0:0,0:0:0:0:
396,117,180600,1,0,1:0:0:0:
301,190,180761,1,8,0:3:0:0:
67,46,181083,2,0,L|149:30,1,72,2|0,1:2|0:0,0:0:0:0:
50,240,181406,6,0,P|31:171|14:101,1,144,14|0,3:2|0:0,0:0:0:0:
136,190,181890,2,0,P|154:120|171:50,1,144,2|0,1:2|0:0,0:0:0:0:
287,151,182374,2,0,P|277:116|269:81,1,72,2|0,1:2|0:0,0:0:0:0:
195,243,182696,6,0,P|253:257|321:306,1,144,14|0,0:0|0:0,0:0:0:0:
421,355,183180,1,0,1:0:0:0:
374,247,183341,1,8,0:3:0:0:
510,14,183664,2,0,P|500:64|493:107,1,72,2|0,1:2|0:0,0:0:0:0:
307,182,183987,6,0,P|351:136|436:154,1,144,14|0,3:2|0:0,0:0:0:0:
326,35,184470,2,0,B|278:11|242:38|255:51|223:80|171:52,1,144,2|0,3:2|0:0,0:0:0:0:
71,18,184954,2,0,P|98:61|88:93,1,72,2|0,1:2|0:0,0:0:0:0:
28,216,185277,5,12,0:0:0:0:
40,195,185438,1,0,1:0:0:0:
182,237,185600,1,8,0:3:0:0:
142,168,185761,1,8,0:3:0:0:
269,321,185922,2,0,L|291:189,1,108,10|0,0:3|0:0,0:0:0:0:
255,151,186245,1,8,0:0:0:0:
379,310,186406,1,8,0:0:0:0:
504,67,186567,6,0,P|461:45|384:103,1,144,12|2,3:2|0:0,0:0:0:0:
290,173,187051,2,0,L|302:85,1,72
410,207,187374,1,0,0:0:0:0:
389,215,187535,1,0,0:0:0:0:
289,305,187696,1,0,0:0:0:0:
359,331,187858,6,0,L|437:311,1,62.9999980773926,4|0,0:0|0:0,0:0:0:0:
228,381,188180,2,0,P|211:296|198:232,1,125.999996154785
210,142,188664,1,0,0:0:0:0:
109,215,188825,1,0,0:0:0:0:
85,193,188987,1,0,0:0:0:0:
359,331,189148,5,4,0:0:0:0:
359,331,190438,6,0,P|387:287|429:292,1,80.9999975280763,2|0,0:0|0:0,0:0:0:0:
285,372,190761,2,0,L|286:251,1,108,2|0,0:0|0:0,0:0:0:0:
381,157,191083,2,0,B|389:192|424:211|424:211|386:196|349:221,1,135,2|0,0:0|0:0,0:0:0:0:
314,73,191406,2,0,P|389:37|453:79,1,161.999995056153,2|0,0:0|0:0,0:0:0:0:
228,195,191729,6,0,B|176:129|176:129|214:7,1,198.000006042481,6|0,3:2|0:0,0:0:0:0:
317,104,192212,1,0,3:0:0:0:
65,22,192374,2,0,L|84:134,1,99.0000030212403,2|0,0:0|0:0,0:0:0:0:
0,323,192696,1,2,3:0:0:0:
157,143,192857,1,10,0:3:0:0:
37,28,193019,6,0,P|21:99|9:196,1,148.50000453186,8|0,0:0|0:0,0:0:0:0:
51,254,193341,1,0,0:0:0:0:
171,213,193503,1,0,0:0:0:0:
428,337,193664,6,0,B|440:317|463:307|463:307|347:291,1,148.50000453186,2|0,0:0|0:0,0:0:0:0:
245,212,193987,2,0,B|286:233|323:209|310:194|342:172|389:200,1,148.50000453186,2|0,1:2|0:0,0:0:0:0:
474,114,194309,2,0,P|458:178|449:231,1,99.0000030212403,2|0,3:0|0:0,0:0:0:0:
317,20,194632,1,2,0:0:0:0:
222,239,194793,2,0,P|147:253|92:178,1,148.50000453186,2|0,3:0|0:0,0:0:0:0:
82,122,195116,1,0,0:0:0:0:
253,41,195277,1,2,1:2:0:0:
393,207,195438,1,10,0:3:0:0:
256,352,195599,6,0,L|273:171,1,148.50000453186,14|0,0:0|0:0,0:0:0:0:
186,83,195922,2,0,B|153:132|153:132|195:224,1,148.50000453186,2|0,0:0|0:0,0:0:0:0:
313,106,196245,2,0,P|360:130|307:124,1,148.50000453186,2|0,1:2|0:0,0:0:0:0:
415,25,196567,2,0,P|399:77|379:185,1,148.50000453186,10|0,0:0|0:0,0:0:0:0:
478,315,196890,6,0,B|413:276|370:319|387:333|345:377|275:335,1,198.000006042481,2|0,3:0|0:0,0:0:0:0:
181,259,197374,1,0,3:0:0:0:
266,43,197535,2,0,P|250:115|228:213,1,148.50000453186,2|0,0:0|0:0,0:0:0:0:
267,266,197857,1,2,3:2:0:0:
92,125,198019,1,10,0:3:0:0:
410,270,198180,6,0,P|425:155|433:83,1,148.50000453186,12|0,0:0|0:0,0:0:0:0:
343,30,198503,2,0,P|319:82|335:127,1,99.0000030212403,2|0,0:0|0:0,0:0:0:0:
195,248,198825,2,0,P|225:197|312:206,1,148.50000453186,2|0,1:2|0:0,0:0:0:0:
338,283,199148,1,2,3:0:0:0:
128,384,199309,1,10,0:3:0:0:
5,285,199470,6,0,P|61:274|114:267,1,99.0000030212403,8|0,0:0|0:0,0:0:0:0:
302,357,199793,1,2,0:0:0:0:
244,113,199954,2,0,P|181:95|113:207,1,198.000006042481,2|0,3:2|0:0,0:0:0:0:
227,302,200438,1,8,0:3:0:0:
365,236,200599,1,0,1:0:0:0:
272,0,200761,6,0,L|255:153,1,148.50000453186,14|0,0:0|0:0,0:0:0:0:
218,226,201083,1,8,0:3:0:0:
464,21,201245,1,10,0:3:0:0:
352,81,201406,1,8,0:0:0:0:
461,159,201567,1,0,1:0:0:0:
317,340,201728,1,10,0:2:0:0:
173,159,201890,1,10,0:0:0:0:
287,0,202051,6,0,B|319:62|319:62|282:190,1,198.000006042481,4|0,3:2|0:0,0:0:0:0:
100,319,202535,2,0,B|158:296|205:332|190:351|235:381|306:343,1,198.000006042481,0|0,3:0|0:0,0:0:0:0:
102,132,203019,1,2,1:2:0:0:
0,380,203180,1,2,0:0:0:0:
284,174,203341,6,0,B|324:157|360:184|352:198|382:222|432:195,1,148.50000453186,14|0,0:2|0:0,0:0:0:0:
493,165,203664,1,8,0:3:0:0:
258,309,203825,2,0,P|246:210|224:101,1,198.000006042481,10|0,0:3|0:0,0:0:0:0:
394,3,204309,1,10,0:0:0:0:
144,101,204470,1,10,0:0:0:0:
144,101,204551,1,8,0:0:0:0:
144,101,204632,6,0,P|201:34|267:42,1,148.50000453186,4|0,3:2|0:0,0:0:0:0:
342,95,204954,1,2,0:0:0:0:
225,306,205116,2,0,B|171:345|120:298|142:281|98:241|26:283,1,198.000006042481,2|0,3:0|0:0,0:0:0:0:
262,182,205600,2,0,P|250:250|243:304,1,99.0000030212403,2|0,1:2|0:0,0:0:0:0:
20,102,205922,6,0,P|48:27|135:31,1,148.50000453186,14|0,0:0|0:0,0:0:0:0:
177,33,206245,1,0,1:0:0:0:
394,155,206406,2,0,P|314:168|276:181,1,99.0000030212403,10|0,0:0|1:0,0:0:0:0:
138,328,206729,1,8,0:0:0:0:
91,343,206809,1,8,0:0:0:0:
44,329,206890,1,10,0:0:0:0:
14,291,206970,1,8,0:0:0:0:
10,242,207051,1,10,0:0:0:0:
34,204,207132,1,8,0:0:0:0:
78,191,207212,6,0,B|175:207|102:257|216:275,1,148.50000453186,0|0,1:2|0:0,0:0:0:0:
286,280,207535,1,8,0:0:0:0:
439,202,207696,2,0,L|423:86,1,99.0000030212403,8|0,0:3|1:0,0:0:0:0:
257,0,208019,1,0,1:0:0:0:
238,99,208180,1,8,1:2:0:0:
219,198,208341,1,8,0:3:0:0:
382,372,208503,6,0,L|501:354,1,99.0000030212403,12|0,0:0|0:0,0:0:0:0:
326,153,208825,2,0,L|308:258,1,99.0000030212403,10|8,0:2|0:3,0:0:0:0:
66,368,209148,2,0,P|60:305|136:279,1,148.50000453186,10|0,0:3|0:0,0:0:0:0:
208,323,209470,2,0,L|223:214,1,99.0000030212403,10|8,1:2|0:3,0:0:0:0:
92,39,209793,6,0,B|137:82|137:82|227:43,1,148.50000453186,6|0,3:2|0:0,0:0:0:0:
293,6,210115,1,2,0:0:0:0:
388,113,210277,1,8,0:3:0:0:
276,226,210438,2,0,L|286:121,1,99.0000030212403,0|8,1:0|0:3,0:0:0:0:
76,235,210761,1,8,0:3:0:0:
189,305,210922,1,8,0:3:0:0:
422,244,211083,6,0,P|280:258|53:280,1,360,6|4,3:2|0:1,0:0:0:0:
153,90,217535,6,0,P|187:73|232:77,2,62.9999980773926,6|2|2,3:2|0:0|0:0,0:0:0:0:
82,189,218019,2,0,B|149:174|132:234|207:214,1,125.999996154785,2|0,0:0|0:0,0:0:0:0:
322,133,218503,2,0,P|312:171|306:206,2,62.9999980773926,2|2|2,0:0|0:0|0:0,0:0:0:0:
388,63,218987,2,0,P|421:57|476:123,1,125.999996154785,2|0,0:0|0:0,0:0:0:0:
406,221,219470,2,0,L|396:150,1,62.9999980773926,2|0,0:0|0:0,0:0:0:0:
496,262,219793,2,0,L|506:191,1,62.9999980773926,2|0,0:0|0:0,0:0:0:0:
357,304,220116,6,0,P|287:295|214:286,1,125.999996154785,2|0,0:0|0:0,0:0:0:0:
142,319,220600,1,0,1:0:0:0:
191,220,220761,1,8,0:3:0:0:
55,24,221083,2,0,L|49:101,1,62.9999980773926,0|0,1:0|0:0,0:0:0:0:
13,191,221406,6,0,P|76:170|156:157,1,125.999996154785,6|0,0:0|0:0,0:0:0:0:
234,86,221890,2,0,P|214:132|206:161,1,62.9999980773926,2|0,0:0|0:0,0:0:0:0:
280,217,222212,2,0,P|331:224|385:169,1,125.999996154785,2|0,0:0|0:0,0:0:0:0:
476,13,222696,5,14,1:2:0:0:
370,52,222858,1,10,0:0:0:0:
370,52,222938,1,8,0:0:0:0:
370,52,223019,1,10,0:0:0:0:
458,125,223180,1,10,0:0:0:0:
347,248,223341,6,0,L|218:209,1,121.499996292114,10|8,0:0|0:0,0:0:0:0:
192,218,223664,1,10,1:2:0:0:
97,254,223825,1,10,0:0:0:0:
97,254,223906,1,8,0:0:0:0:
97,254,223987,1,10,0:0:0:0:
143,131,224148,1,10,0:0:0:0:
183,14,224309,1,10,0:0:0:0:
183,14,224390,1,8,0:0:0:0:
183,14,224470,1,8,0:0:0:0:
70,129,224632,6,0,B|141:134|89:185|190:196,1,121.499996292114,10|0,0:0|0:0,0:0:0:0:
256,176,224954,2,0,L|243:235,1,40.4999987640381,10|8,0:0|0:0,0:0:0:0:
261,300,225116,1,10,0:0:0:0:
79,375,225277,6,0,L|64:258,1,80.9999975280763,10|8,1:2|0:0,0:0:0:0:
53,246,225519,1,8,0:0:0:0:
53,246,225600,1,10,0:0:0:0:
191,331,225761,1,10,0:0:0:0:
178,169,225922,1,8,0:0:0:0:
178,169,226003,1,8,0:0:0:0:
178,169,226083,2,0,L|164:286,1,80.9999975280763,10|8,0:0|0:0,0:0:0:0:
325,366,226406,5,10,0:0:0:0:
325,366,226487,1,8,0:0:0:0:
325,366,226567,1,8,0:0:0:0:
247,215,226729,1,8,0:0:0:0:
349,98,226890,1,8,0:0:0:0:
349,98,226970,1,8,0:0:0:0:
349,98,227051,1,8,0:0:0:0:
442,225,227212,1,10,0:0:0:0:
428,264,227292,1,8,0:0:0:0:
392,288,227373,1,8,0:0:0:0:
349,282,227453,1,8,0:0:0:0:
314,258,227535,2,0,L|308:209,1,40.4999987640381,10|8,0:0|0:0,0:0:0:0:
208,145,227696,2,0,L|203:185,1,40.4999987640381,8|8,0:0|0:0,0:0:0:0:
197,278,227857,5,14,3:2:0:0:
288,147,228019,1,10,0:0:0:0:
288,147,228100,1,8,0:0:0:0:
288,147,228180,1,10,0:0:0:0:
140,70,228342,1,10,0:0:0:0:
59,207,228503,6,0,P|100:228|177:287,1,121.499996292114,10|8,0:0|0:0,0:0:0:0:
214,330,228825,1,10,1:2:0:0:
346,278,228986,1,8,0:0:0:0:
346,278,229067,1,8,0:0:0:0:
346,278,229148,1,10,0:0:0:0:
242,202,229309,1,10,0:0:0:0:
214,330,229470,1,10,0:0:0:0:
214,330,229551,1,8,0:0:0:0:
214,330,229631,1,8,0:0:0:0:
487,199,229793,6,0,P|485:174|404:128,1,121.499996292114,10|8,0:0|0:0,0:0:0:0:
333,133,230116,2,0,L|322:197,1,40.4999987640381,10|8,0:0|0:0,0:0:0:0:
346,278,230277,1,10,0:0:0:0:
220,122,230438,6,0,P|168:115|131:153,1,80.9999975280763,14|8,1:2|0:0,0:0:0:0:
121,178,230680,1,8,0:0:0:0:
121,178,230761,1,10,0:0:0:0:
272,278,230922,1,10,0:0:0:0:
80,370,231083,1,8,0:0:0:0:
80,370,231164,1,8,0:0:0:0:
80,370,231244,6,0,L|65:253,1,80.9999975280763,10|0,0:0|0:0,0:0:0:0:
208,152,231567,2,0,L|193:269,1,80.9999975280763,10|8,0:0|0:0,0:0:0:0:
43,101,231890,2,0,P|82:72|133:88,1,80.9999975280763,10|8,0:0|0:0,0:0:0:0:
143,104,232132,1,8,0:0:0:0:
143,104,232212,1,10,0:0:0:0:
294,31,232374,1,8,0:0:0:0:
271,28,232454,1,8,0:0:0:0:
250,25,232535,1,8,0:0:0:0:
368,229,232696,1,8,0:0:0:0:
410,222,232776,1,8,0:0:0:0:
440,191,232857,1,8,0:0:0:0:
446,148,232937,1,8,0:0:0:0:
424,111,233018,5,14,1:2:0:0:
263,246,233180,1,10,0:0:0:0:
263,246,233261,1,8,0:0:0:0:
263,246,233341,1,10,1:2:0:0:
459,349,233503,1,10,0:0:0:0:
319,146,233664,2,0,L|214:167,1,90,10|0,1:2|0:0,0:0:0:0:
63,328,233987,6,0,B|115:353|115:353|190:319,1,135,10|8,1:2|0:0,0:0:0:0:
251,286,234309,1,10,1:2:0:0:
179,190,234470,1,10,0:0:0:0:
106,96,234632,1,10,1:2:0:0:
106,96,234712,1,8,0:0:0:0:
106,96,234793,1,8,0:0:0:0:
226,9,234954,5,10,1:2:0:0:
251,104,235116,1,10,0:0:0:0:
105,260,235277,1,10,1:2:0:0:
130,165,235439,1,10,0:0:0:0:
130,165,235519,1,8,0:0:0:0:
130,165,235600,6,0,B|210:177|157:222|254:239,1,135,10|8,1:2|0:0,0:0:0:0:
312,211,235922,1,10,1:2:0:0:
495,312,236083,2,0,P|444:321|380:340,1,90,10|8,0:0|1:2,0:0:0:0:
372,354,236325,1,8,0:0:0:0:
372,354,236406,1,10,0:0:0:0:
478,224,236567,1,8,1:2:0:0:
379,40,236729,6,0,P|370:101|365:142,1,90,10|0,0:0|1:2,0:0:0:0:
201,223,237051,2,0,P|192:162|187:121,1,90,10|8,0:0|1:2,0:0:0:0:
207,94,237293,1,8,0:0:0:0:
207,94,237374,1,8,0:0:0:0:
292,300,237535,1,8,1:2:0:0:
262,333,237615,1,8,0:0:0:0:
219,345,237696,1,10,0:0:0:0:
176,333,237776,1,8,0:0:0:0:
146,301,237857,1,10,1:2:0:0:
115,268,237939,1,8,0:0:0:0:
73,256,238019,1,10,0:0:0:0:
30,269,238100,1,8,0:0:0:0:
0,302,238180,6,0,P|18:211|27:130,1,135,12|8,3:2|0:0,0:0:0:0:
11,98,238503,1,8,1:2:0:0:
115,268,238664,1,8,0:0:0:0:
215,76,238825,2,0,P|274:51|341:115,1,135,10|0,1:2|0:0,0:0:0:0:
360,152,239148,1,10,0:0:0:0:
494,308,239309,1,10,1:2:0:0:
494,308,239390,1,8,1:2:0:0:
494,308,239470,6,0,P|387:323|316:371,1,180,12|8,1:2|1:2,0:0:0:0:
157,261,239954,1,10,0:0:0:0:
154,239,240035,1,8,0:0:0:0:
151,217,240115,1,8,1:2:0:0:
360,152,240277,1,8,0:0:0:0:
354,185,240357,1,8,0:0:0:0:
349,218,240438,1,10,1:2:0:0:
123,142,240600,1,10,0:0:0:0:
116,98,240681,1,8,0:0:0:0:
109,55,240761,6,0,P|152:17|230:41,1,135,4|0,3:2|0:0,0:0:0:0:
302,66,241083,1,8,0:0:0:0:
130,186,241245,1,8,0:0:0:0:
385,100,241406,1,8,0:0:0:0:
54,160,241567,1,8,0:0:0:0:
340,306,241729,1,10,0:0:0:0:
42,90,241890,1,8,0:0:0:0:
400,189,242051,5,10,0:0:0:0:
245,227,242212,1,0,1:0:0:0:
90,265,242374,2,0,P|67:219|80:170,1,90,8|0,0:0|0:0,0:0:0:0:
189,30,242696,1,10,0:0:0:0:
228,8,242776,1,8,0:0:0:0:
272,11,242857,1,8,0:0:0:0:
308,36,242937,1,8,0:0:0:0:
326,77,243018,1,8,0:0:0:0:
344,118,243100,1,8,0:0:0:0:
380,143,243180,1,8,0:0:0:0:
424,146,243261,1,8,0:0:0:0:
463,124,243341,6,0,B|438:109|430:74|430:74|416:224,1,198.000006042481,6|0,1:2|1:2,0:0:0:0:
275,325,243825,2,0,L|261:204,1,99.0000030212403,2|0,0:0|1:2,0:0:0:0:
236,42,244148,1,0,0:0:0:0:
79,147,244309,1,2,1:2:0:0:
193,192,244470,1,0,0:0:0:0:
307,237,244632,2,0,L|404:217,1,99.0000030212403,0|0,1:2|0:0,0:0:0:0:
220,72,244954,5,2,1:2:0:0:
115,219,245116,1,2,0:0:0:0:
228,375,245277,2,0,L|240:267,1,99.0000030212403,2|8,1:2|0:0,0:0:0:0:
87,110,245600,1,10,1:2:0:0:
40,126,245680,1,8,0:0:0:0:
11,165,245761,1,8,0:0:0:0:
9,214,245841,1,8,0:0:0:0:
34,256,245922,6,0,L|202:224,1,148.50000453186,10|8,1:2|0:0,0:0:0:0:
238,276,246245,1,8,1:2:0:0:
365,86,246406,1,10,0:0:0:0:
220,21,246567,1,8,1:2:0:0:
222,45,246647,1,8,0:0:0:0:
225,70,246728,1,8,0:0:0:0:
312,277,246890,2,0,P|365:300|408:271,1,99.0000030212403,10|8,1:2|0:0,0:0:0:0:
452,216,247132,1,8,0:0:0:0:
452,216,247212,6,0,L|459:43,1,148.50000453186,10|8,1:2|0:0,0:0:0:0:
396,11,247535,1,8,1:2:0:0:
396,11,247616,1,8,0:0:0:0:
396,11,247696,2,0,P|333:18|324:153,1,198.000006042481,10|8,0:0|0:0,0:0:0:0:
399,284,248180,1,10,1:2:0:0:
358,256,248260,1,8,0:0:0:0:
309,251,248341,1,8,0:0:0:0:
263,269,248421,1,8,0:0:0:0:
231,306,248503,6,0,P|176:352|71:282,1,198.000006042481,10|0,1:2|1:2,0:0:0:0:
152,88,248987,2,0,P|167:151|179:201,1,99.0000030212403,2|0,0:0|1:2,0:0:0:0:
198,312,249309,1,0,0:0:0:0:
366,182,249470,1,2,1:2:0:0:
287,75,249632,1,0,0:0:0:0:
431,331,249793,6,0,L|463:130,1,198.000006042481,2|0,1:2|1:2,0:0:0:0:
236,3,250277,2,0,P|199:53|213:104,1,99.0000030212403,2|0,0:0|1:2,0:0:0:0:
322,247,250599,1,2,0:0:0:0:
171,292,250761,1,2,1:2:0:0:
20,338,250922,1,2,0:0:0:0:
55,103,251083,6,0,B|145:110|98:166|192:171,1,148.50000453186,14|0,3:2|0:0,0:0:0:0:
218,171,251406,1,0,1:0:0:0:
447,32,251567,2,0,P|364:83|382:193,1,198.000006042481,10|0,0:0|0:0,0:0:0:0:
512,384,252051,1,14,3:2:0:0:
377,308,252212,1,0,0:0:0:0:
512,108,252374,1,2,1:2:0:0:
452,285,252535,5,8,0:0:0:0:
398,167,252696,1,0,1:2:0:0:
200,329,252858,5,8,0:0:0:0:
254,211,253019,1,0,1:2:0:0:
39,121,253180,5,8,0:0:0:0:
178,250,253341,1,0,0:0:0:0:
141,181,253503,1,8,0:3:0:0:
256,34,253664,6,0,P|311:20|357:60,1,99.0000030212403,0|0,1:2|0:0,0:0:0:0:
507,176,253987,2,0,B|420:184|475:244|358:257,1,148.50000453186,2|0,1:2|0:0,0:0:0:0:
240,280,254309,2,0,P|312:274|293:342,1,148.50000453186,2|0,1:2|0:0,0:0:0:0:
155,357,254632,2,0,L|168:198,1,148.50000453186,2|0,1:2|0:0,0:0:0:0:
47,100,254954,6,0,P|58:149|65:203,1,99.0000030212403,2|0,1:2|0:0,0:0:0:0:
31,363,255277,1,0,1:2:0:0:
218,95,255438,2,0,P|207:144|200:198,1,99.0000030212403,2|0,0:0|1:2,0:0:0:0:
234,358,255761,1,0,0:0:0:0:
431,183,255922,1,2,1:2:0:0:
354,93,256083,1,0,0:0:0:0:
104,248,256245,6,0,P|170:230|265:213,1,148.50000453186,14|0,3:2|0:0,0:0:0:0:
319,212,256567,1,0,0:0:0:0:
52,118,256729,2,0,B|3:177|3:177|47:333,1,198.000006042481,14|0,0:0|0:0,0:0:0:0:
210,78,257212,1,14,3:2:0:0:
110,16,257374,1,0,0:0:0:0:
319,212,257535,6,0,P|340:113|357:48,1,148.50000453186,2|0,1:2|0:0,0:0:0:0:
388,0,257858,1,0,1:0:0:0:
131,91,258019,2,0,P|147:150|159:197,1,99.0000030212403,10|0,0:0|1:2,0:0:0:0:
477,237,258341,1,10,0:0:0:0:
356,187,258503,1,2,1:2:0:0:
238,254,258664,1,2,1:2:0:0:
217,383,258825,6,0,P|263:365|352:341,1,125.999996154785,14|0,3:2|0:0,0:0:0:0:
192,309,259309,2,0,P|238:291|327:267,1,125.999996154785,2|0,0:0|0:0,0:0:0:0:
415,206,259793,2,0,P|391:197|347:184,1,62.9999980773926,2|0,0:0|0:0,0:0:0:0:
244,92,260116,6,0,P|269:63|357:61,1,125.999996154785,2|0,0:0|0:0,0:0:0:0:
208,168,260600,2,0,P|146:173|100:133,1,125.999996154785,2|0,0:0|0:0,0:0:0:0:
11,45,261083,2,0,L|23:118,1,62.9999980773926,2|0,0:0|0:0,0:0:0:0:
0,324,261406,6,0,P|62:296|142:284,1,125.999996154785,6|0,3:2|0:0,0:0:0:0:
223,325,261890,1,0,0:0:0:0:
198,223,262051,1,0,0:0:0:0:
383,46,262374,1,0,0:0:0:0:
449,119,262535,2,0,P|438:170|431:206,1,62.9999980773926
412,268,262858,1,0,0:0:0:0:
304,139,263019,2,0,P|251:148|162:168,2,125.999996154785
412,268,263825,1,0,0:0:0:0:
377,258,263987,5,0,0:0:0:0:
377,258,265277,5,0,0:0:0:0:
453,226,265600,1,0,0:0:0:0:
305,317,265922,1,0,0:0:0:0:
381,349,266245,1,0,0:0:0:0:
282,226,266567,6,0,P|229:225|189:302,1,135,2|0,0:0|0:0,0:0:0:0:
104,364,267212,2,0,L|111:273,1,90,2|0,0:0|0:0,0:0:0:0:
67,194,267696,1,0,0:0:0:0:
67,194,267858,1,2,0:0:0:0:
67,194,268503,5,0,0:0:0:0:
171,145,268825,1,0,0:0:0:0:
299,240,269148,2,0,L|405:221,1,90,2|0,0:0|0:0,0:0:0:0:
481,193,269632,1,0,0:0:0:0:
481,193,269793,2,0,P|469:243|460:288,1,90,2|2,0:0|0:0,0:0:0:0:
240,354,270438,5,2,0:0:0:0:
256,279,270761,1,0,0:0:0:0:
335,293,271083,1,0,0:0:0:0:
319,368,271406,1,0,0:0:0:0:
181,266,271729,6,0,P|211:209|276:204,1,135,2|0,0:0|0:0,0:0:0:0:
370,145,272374,2,0,L|279:129,1,90
202,74,272858,1,0,0:0:0:0:
202,74,273020,1,2,0:0:0:0:
76,201,273341,1,0,0:0:0:0:
151,274,273664,1,0,0:0:0:0:
226,347,273987,1,0,0:0:0:0:
226,347,274148,1,0,0:0:0:0:
310,310,274309,2,0,L|313:215,1,90,2|0,0:0|0:0,0:0:0:0:
235,113,274793,6,0,L|239:160,1,45,0|2,0:0|0:0,0:0:0:0:
252,197,276890,6,0,B|252:136|316:125|356:161|366:209|336:278|277:310,1,270
287,303,278180,6,0,P|333:316|380:339,1,80.9999975280763,2|0,0:0|0:0,0:0:0:0:
445,246,278503,2,0,P|418:275|455:258,1,108,2|0,0:0|0:0,0:0:0:0:
506,187,278825,2,0,P|447:171|367:161,1,135,2|0,0:0|0:0,0:0:0:0:
249,54,279148,2,0,P|173:74|71:87,1,161.999995056153,2|0,0:0|0:0,0:0:0:0:
0,229,279470,6,0,P|51:307|157:282,1,198.000006042481,6|0,3:2|0:0,0:0:0:0:
246,183,279954,1,0,3:0:0:0:
53,66,280116,2,0,L|45:164,1,99.0000030212403,2|0,0:0|0:0,0:0:0:0:
172,365,280438,1,2,3:0:0:0:
361,171,280599,1,10,0:3:0:0:
249,54,280761,2,0,B|210:109|210:109|255:203,1,148.50000453186,8|0,0:0|0:0,0:0:0:0:
293,270,281083,1,0,1:0:0:0:
179,220,281245,1,8,0:3:0:0:
438,84,281406,6,0,L|454:243,1,148.50000453186,10|0,0:0|0:0,0:0:0:0:
378,327,281728,2,0,P|413:280|501:297,1,148.50000453186,2|0,1:2|0:0,0:0:0:0:
298,368,282051,2,0,L|292:269,1,99.0000030212403,2|0,3:0|0:0,0:0:0:0:
300,1,282374,1,2,0:0:0:0:
135,225,282535,2,0,P|71:230|9:118,1,198.000006042481,2|0,3:0|0:0,0:0:0:0:
80,5,283019,1,0,1:0:0:0:
105,111,283180,1,8,0:3:0:0:
172,341,283341,6,0,P|256:324|335:308,1,148.50000453186,14|0,0:0|0:0,0:0:0:0:
468,206,283664,2,0,B|385:172|404:254|303:219,1,148.50000453186,2|0,0:0|0:0,0:0:0:0:
218,127,283987,2,0,B|255:172|255:172|223:264,1,148.50000453186,2|0,0:0|0:0,0:0:0:0:
78,296,284309,2,0,P|92:228|125:263,1,148.50000453186,10|0,0:0|0:0,0:0:0:0:
24,383,284632,6,0,L|4:166,1,198.000006042481,2|0,3:0|0:0,0:0:0:0:
0,58,285116,1,0,3:0:0:0:
127,272,285277,2,0,P|187:260|248:256,1,99.0000030212403,2|0,0:0|0:0,0:0:0:0:
472,357,285599,1,2,3:2:0:0:
470,89,285761,1,10,0:3:0:0:
284,164,285922,6,0,P|251:230|301:287,1,148.50000453186,12|0,0:0|0:0,0:0:0:0:
384,318,286245,2,0,P|376:249|371:195,1,99.0000030212403,2|0,0:0|0:0,0:0:0:0:
219,29,286567,2,0,B|129:50|200:103|83:138,1,148.50000453186,10|0,0:0|0:0,0:0:0:0:
37,94,286890,1,2,1:2:0:0:
167,297,287051,1,10,0:3:0:0:
40,365,287212,6,0,P|19:313|36:260,1,99.0000030212403,8|0,0:0|0:0,0:0:0:0:
125,79,287535,1,2,0:0:0:0:
262,261,287696,2,0,P|328:257|319:124,1,198.000006042481,2|0,3:2|0:0,0:0:0:0:
246,69,288180,1,8,0:3:0:0:
183,161,288341,1,0,1:0:0:0:
441,363,288503,6,0,P|452:287|466:184,1,148.50000453186,14|0,0:0|0:0,0:0:0:0:
433,122,288825,1,8,0:3:0:0:
286,346,288987,2,0,P|220:314|74:269,1,198.000006042481,10|0,0:3|0:0,0:0:0:0:
286,63,289470,1,2,1:2:0:0:
16,93,289632,1,10,0:0:0:0:
106,244,289793,6,0,B|141:194|141:194|116:80,1,148.50000453186,0|0,3:0|0:0,0:0:0:0:
94,29,290116,1,0,0:0:0:0:
359,20,290277,2,0,P|370:110|272:148,1,198.000006042481,0|0,3:0|0:0,0:0:0:0:
181,66,290761,1,0,1:2:0:0:
104,165,290922,1,8,0:3:0:0:
289,365,291083,6,0,L|459:337,1,148.50000453186,14|0,3:2|0:0,0:0:0:0:
503,373,291406,1,8,0:3:0:0:
317,149,291567,1,10,0:3:0:0:
441,121,291728,1,8,0:0:0:0:
406,242,291890,1,0,0:0:0:0:
209,91,292051,1,2,1:2:0:0:
398,9,292212,1,10,0:3:0:0:
208,173,292374,6,0,P|138:135|145:47,1,148.50000453186,0|0,3:0|0:0,0:0:0:0:
186,13,292696,1,2,0:0:0:0:
12,215,292858,2,0,B|135:232|56:291|192:317,1,198.000006042481,2|0,3:0|0:0,0:0:0:0:
322,138,293341,1,2,1:2:0:0:
395,366,293503,1,2,0:0:0:0:
512,135,293664,6,0,P|460:57|401:74,1,148.50000453186,14|0,0:0|0:0,0:0:0:0:
322,138,293987,2,0,B|406:143|355:200|472:217,1,148.50000453186,2|0,1:2|0:0,0:0:0:0:
325,265,294309,2,0,P|276:273|325:239,1,148.50000453186,10|0,0:0|0:0,0:0:0:0:
406,287,294632,1,10,0:0:0:0:
235,88,294793,1,10,0:2:0:0:
99,151,294954,6,0,L|114:317,1,148.50000453186,0|0,3:0|0:0,0:0:0:0:
88,384,295277,1,0,0:0:0:0:
225,251,295438,2,0,L|199:364,1,99.0000030212403,0|0,3:0|0:0,0:0:0:0:
23,165,295761,1,2,0:0:0:0:
169,133,295922,1,2,1:2:0:0:
315,101,296083,1,2,0:0:0:0:
497,300,296245,6,0,P|436:306|401:275,1,99.0000030212403,14|0,0:0|0:0,0:0:0:0:
344,87,296567,2,0,P|390:51|440:67,1,99.0000030212403,2|8,1:2|0:3,0:0:0:0:
268,326,296890,2,0,P|252:237|228:146,1,148.50000453186,2|0,0:0|0:0,0:0:0:0:
192,101,297212,1,2,1:2:0:0:
386,258,297374,1,2,0:0:0:0:
133,381,297535,5,4,3:2:0:0:
24,276,297696,2,0,B|114:243|114:243|173:277,1,148.50000453186,8|0,0:0|0:0,0:0:0:0:
236,309,298019,1,0,3:0:0:0:
56,105,298180,1,8,0:0:0:0:
3,374,298341,1,8,0:0:0:0:
196,181,298503,1,0,3:0:0:0:
330,382,298664,1,8,0:3:0:0:
486,144,298825,5,2,1:2:0:0:
316,268,298986,1,8,0:0:0:0:
222,59,299148,1,10,0:0:0:0:
248,19,299228,1,8,0:0:0:0:
293,0,299309,1,8,0:0:0:0:
341,9,299389,1,8,0:0:0:0:
375,44,299470,1,10,0:0:0:0:
325,289,299632,1,8,0:0:0:0:
107,94,299793,1,10,0:0:0:0:
63,115,299873,1,8,0:0:0:0:
38,157,299954,1,8,0:0:0:0:
41,206,300034,1,8,0:0:0:0:
68,243,300116,6,0,L|236:200,1,161.999995056153,6|0,1:2|0:2,0:2:0:0:
305,216,300438,2,0,P|328:159|305:115,1,107.999996704102,8|0,0:0|0:0,0:0:0:0:
133,303,300761,2,0,B|184:342|184:342|300:318,1,161.999995056153,2|0,1:2|0:0,0:0:0:0:
362,303,301083,1,10,0:0:0:0:
471,99,301245,1,10,0:3:0:0:
320,0,301406,2,0,L|338:115,1,107.999996704102,0|0,1:0|0:0,0:0:0:0:
496,275,301729,2,0,L|514:160,1,107.999996704102,8|0,0:0|0:0,0:0:0:0:
230,101,302051,6,0,P|236:171|349:190,1,161.999995056153,2|0,1:2|0:0,0:0:0:0:
453,255,302374,2,0,B|367:223|385:320|269:274,1,161.999995056153,10|0,0:0|0:0,0:0:0:0:
177,216,302696,2,0,L|186:337,1,107.999996704102,2|0,1:2|0:0,0:0:0:0:
318,104,303019,1,10,0:0:0:0:
49,24,303180,1,10,0:3:0:0:
0,158,303341,1,0,0:0:0:0:
105,265,303503,1,0,1:0:0:0:
318,104,303664,6,0,L|266:84,1,53.9999983520508,10|0,0:0|0:0,0:0:0:0:
177,65,303825,2,0,L|235:52,1,53.9999983520508,2|0,0:0|0:0,0:0:0:0:
486,134,303986,5,2,1:2:0:0:
457,234,304148,1,0,0:0:0:0:
318,104,304309,5,10,0:0:0:0:
363,253,304471,1,0,1:0:0:0:
230,65,304632,5,2,0:0:0:0:
165,290,304794,1,8,0:3:0:0:
0,20,304954,5,10,0:0:0:0:
84,313,305116,1,0,0:0:0:0:
309,70,305277,6,0,P|281:10|167:21,1,161.999995056153,2|0,3:0|0:0,0:0:0:0:
135,62,305599,1,8,0:0:0:0:
222,174,305761,1,0,1:0:0:0:
34,375,305922,2,0,L|58:213,1,161.999995056153,2|0,0:0|0:0,0:0:0:0:
26,128,306245,1,14,0:0:0:0:
179,356,306406,1,10,0:3:0:0:
309,69,306567,6,0,P|382:70|403:171,1,161.999995056153,0|0,1:0|0:0,0:0:0:0:
364,215,306890,1,10,0:0:0:0:
418,336,307051,1,8,0:3:0:0:
200,146,307212,2,0,L|224:30,1,107.999996704102,2|0,0:0|1:0,0:0:0:0:
301,279,307535,1,10,0:0:0:0:
91,87,307696,1,2,0:0:0:0:
0,233,307858,6,0,P|59:206|146:271,1,161.999995056153,0|0,1:0|0:0,0:0:0:0:
167,327,308180,1,10,0:0:0:0:
380,384,308341,2,0,L|393:257,1,107.999996704102,2|0,1:2|0:0,0:0:0:0:
480,131,308664,1,8,0:3:0:0:
357,25,308825,2,0,L|334:138,1,107.999996704102,8|0,0:0|0:0,0:0:0:0:
361,373,309148,5,6,3:2:0:0:
175,218,309309,1,8,0:0:0:0:
406,161,309470,1,10,0:0:0:0:
134,331,309632,1,10,0:0:0:0:
134,331,309712,1,8,0:0:0:0:
134,331,309793,1,8,0:0:0:0:
376,264,309954,1,8,0:0:0:0:
171,55,310116,1,10,0:0:0:0:
122,46,310196,1,8,0:0:0:0:
79,72,310277,1,10,0:0:0:0:
69,121,310358,1,8,0:0:0:0:
85,165,310438,6,0,P|133:190|204:162,1,107.999996704102,12|0,0:0|1:0,0:0:0:0:
306,57,310760,1,8,0:3:0:0:
451,263,310922,2,0,B|510:205|510:205|452:73,1,215.999993408203,8|0,0:0|0:0,0:0:0:0:
275,249,311406,1,14,0:0:0:0:
394,350,311567,1,8,0:3:0:0:
219,97,311729,5,14,0:0:0:0:
157,222,311890,1,8,0:0:0:0:
305,226,312051,1,8,0:3:0:0:
85,29,312212,1,10,0:0:0:0:
85,29,312293,1,8,0:0:0:0:
85,29,312374,1,8,0:0:0:0:
12,288,312535,1,8,0:0:0:0:
202,23,312696,1,10,0:0:0:0:
254,25,312776,1,8,0:0:0:0:
292,62,312857,1,10,0:0:0:0:
297,115,312937,1,8,0:0:0:0:
267,158,313019,6,0,L|94:184,1,161.999995056153,12|0,0:0|0:0,0:0:0:0:
33,140,313341,1,2,1:2:0:0:
187,368,313503,2,0,B|250:408|299:370|289:346|349:315|412:356,1,215.999993408203,8|0,0:0|1:0,0:0:0:0:
512,111,313986,1,14,0:0:0:0:
400,192,314147,1,8,0:3:0:0:
168,8,314309,5,14,1:2:0:0:
315,85,314470,2,0,P|294:161|283:207,1,107.999996704102,8|0,0:0|0:0,0:0:0:0:
251,379,314793,1,2,1:2:0:0:
96,166,314954,1,8,0:0:0:0:
322,292,315116,1,8,0:0:0:0:
490,122,315277,1,10,0:0:0:0:
490,122,315358,1,8,0:0:0:0:
490,122,315438,1,10,0:0:0:0:
281,6,315599,6,0,L|253:165,1,161.999995056153,4|0,3:2|0:0,0:0:0:0:
294,259,315922,1,8,0:0:0:0:
167,171,316083,1,0,1:0:0:0:
80,281,316244,1,8,0:3:0:0:
202,373,316406,1,0,1:0:0:0:
89,205,316567,1,8,0:0:0:0:
0,371,316728,1,8,0:3:0:0:
257,166,316890,5,4,2:2:0:0:
123,43,317051,1,8,0:0:0:0:
236,299,317212,2,0,P|328:293|354:223,1,161.999995056153,10|0,0:0|0:0,0:0:0:0:
471,124,317535,2,0,L|447:297,1,161.999995056153,2|0,0:0|0:0,0:0:0:0:
260,121,317858,1,10,0:0:0:0:
267,68,317938,1,8,0:0:0:0:
305,31,318019,1,8,0:0:0:0:
357,24,318099,1,8,0:0:0:0:
403,50,318180,5,14,0:0:0:0:
279,237,318341,1,0,1:0:0:0:
362,175,318503,1,8,0:3:0:0:
512,310,318664,1,0,1:0:0:0:
328,384,318825,1,8,0:0:0:0:
399,266,318987,1,0,1:0:0:0:
198,358,319148,1,10,0:0:0:0:
145,357,319228,1,8,0:0:0:0:
105,321,319309,1,8,0:0:0:0:
99,269,319389,1,8,0:0:0:0:
129,225,319470,6,0,P|191:237|285:276,1,161.999995056153,6|0,3:2|0:0,0:0:0:0:
361,324,319793,1,8,0:0:0:0:
245,139,319954,1,8,0:0:0:0:
106,363,320116,1,8,0:0:0:0:
380,195,320277,1,8,0:0:0:0:
74,42,320438,1,8,0:0:0:0:
24,60,320518,1,8,0:0:0:0:
0,106,320599,1,8,0:0:0:0:
3,158,320679,1,8,0:0:0:0:
41,194,320761,6,0,B|119:178|119:178|156:198|156:198|256:173,1,198.000006042481,6|2,3:2|0:0,0:0:0:0:
442,133,321245,1,2,1:2:0:0:
294,321,321406,2,0,L|303:216,1,99.0000030212403,2|0,0:0|0:0,0:0:0:0:
144,74,321729,1,2,1:2:0:0:
40,195,321890,1,10,0:3:0:0:
159,381,322052,6,0,L|355:357,1,198.000006042481,14|10,0:2|0:0,0:0:0:0:
486,241,322536,1,10,0:0:0:0:
337,112,322696,1,2,1:2:0:0:
292,239,322858,1,2,0:0:0:0:
421,287,323019,1,2,1:2:0:0:
466,160,323181,1,10,0:3:0:0:
236,3,323341,6,0,P|169:25|189:144,1,198.000006042481,2|2,3:0|0:0,0:0:0:0:
340,235,323826,1,2,0:0:0:0:
176,377,323987,2,0,P|165:312|156:265,1,99.0000030212403,2|0,0:0|0:0,0:0:0:0:
46,143,324309,1,2,1:2:0:0:
176,174,324470,1,10,0:3:0:0:
422,230,324632,6,0,P|459:183|366:84,1,198.000006042481,14|2,0:0|0:0,0:0:0:0:
252,139,325116,1,10,0:3:0:0:
397,361,325277,2,0,L|417:234,1,99.0000030212403,2|0,1:2|0:0,0:0:0:0:
195,213,325600,2,0,L|215:340,1,99.0000030212403,10|0,0:0|0:0,0:0:0:0:
355,109,325922,6,0,P|306:42|185:65,1,198.000006042481,2|2,3:0|0:0,0:0:0:0:
99,227,326407,1,2,0:0:0:0:
3,50,326567,2,0,P|52:22|101:38,1,99.0000030212403,2|0,0:0|0:0,0:0:0:0:
209,184,326890,1,2,0:0:0:0:
19,276,327052,1,2,0:0:0:0:
260,105,327212,6,0,P|313:168|229:257,1,198.000006042481,10|2,0:0|0:0,0:0:0:0:
69,210,327697,1,10,0:3:0:0:
287,379,327858,2,0,L|302:281,1,99.0000030212403,2|0,1:2|0:0,0:0:0:0:
418,99,328181,1,2,1:2:0:0:
492,202,328342,1,10,0:3:0:0:
264,354,328503,6,0,P|193:337|45:315,1,198.000006042481,0|2,3:0|0:0,0:0:0:0:
186,129,328987,1,2,0:0:0:0:
50,37,329148,2,0,P|64:101|71:143,1,99.0000030212403,2|0,0:0|0:0,0:0:0:0:
38,328,329470,1,2,1:2:0:0:
195,205,329632,1,10,0:3:0:0:
420,365,329793,6,0,B|489:314|489:314|428:190,1,198.000006042481,14|0,0:0|0:0,0:0:0:0:
310,10,330277,1,10,0:0:0:0:
429,84,330438,1,8,0:0:0:0:
363,210,330600,1,8,0:3:0:0:
130,71,330761,2,0,P|188:50|245:37,1,99.0000030212403,2|8,1:2|0:0,0:0:0:0:
112,253,331083,6,0,P|31:234|36:118,1,198.000006042481,2|2,3:0|0:0,0:0:0:0:
242,182,331567,1,2,1:2:0:0:
97,371,331729,2,0,L|-15:345,1,99.0000030212403,2|0,0:0|0:0,0:0:0:0:
148,174,332051,1,2,1:2:0:0:
252,355,332212,1,10,0:3:0:0:
423,128,332374,6,0,B|321:59|321:59|239:97,1,198.000006042481,14|2,0:0|1:2,0:0:0:0:
103,180,332858,1,10,0:0:0:0:
295,302,333019,1,2,0:0:0:0:
280,203,333180,1,2,0:0:0:0:
179,107,333341,1,2,1:2:0:0:
194,8,333502,1,10,0:0:0:0:
23,234,333664,6,0,B|12:205|-10:188|-10:188|138:215,1,198.000006042481,2|2,1:2|1:2,0:0:0:0:
295,302,334148,1,10,0:3:0:0:
400,124,334309,2,0,P|349:90|302:103,1,99.0000030212403,2|0,1:2|0:0,0:0:0:0:
198,257,334632,1,2,1:2:0:0:
339,172,334793,1,10,0:3:0:0:
89,384,334954,6,0,B|42:315|42:315|84:186,1,198.000006042481,14|2,0:0|1:2,0:0:0:0:
162,56,335438,1,2,0:0:0:0:
232,245,335600,2,0,P|285:264|328:241,1,99.0000030212403,10|0,0:0|0:0,0:0:0:0:
437,39,335922,1,10,0:0:0:0:
193,152,336083,1,10,0:0:0:0:
441,341,336245,6,0,P|451:256|461:177,1,161.999995056153,6|2,3:2|0:0,0:0:0:0:
460,180,336729,1,2,0:0:0:0:
387,74,336890,2,0,P|337:69|306:171,1,161.999995056153,2|2,0:0|0:0,0:0:0:0:
298,158,337374,1,2,0:0:0:0:
360,286,337535,2,0,B|272:258|292:345|177:308,1,161.999995056153,2|2,0:0|0:0,0:0:0:0:
207,315,338019,1,2,0:0:0:0:
46,249,338180,2,0,P|67:306|78:340,1,80.9999975280763,2|0,0:0|0:0,0:0:0:0:
174,185,338503,2,0,P|153:242|142:276,1,80.9999975280763,2|0,0:0|0:0,0:0:0:0:
33,97,338825,6,0,B|128:58|128:58|192:97,1,161.999995056153,2|2,0:0|0:0,0:0:0:0:
178,88,339309,1,2,0:0:0:0:
305,182,339470,2,0,L|327:13,1,161.999995056153,2|2,0:0|0:0,0:0:0:0:
325,21,339954,1,2,0:0:0:0:
463,141,340116,2,0,P|466:206|368:237,1,161.999995056153,2|2,0:0|0:0,0:0:0:0:
387,244,340600,1,2,0:0:0:0:
258,338,340761,2,0,P|315:343|347:309,1,80.9999975280763,2|0,0:0|0:0,0:0:0:0:
310,195,341083,2,0,P|253:190|221:224,1,80.9999975280763,2|0,0:0|0:0,0:0:0:0:
135,291,341406,6,0,L|128:359,1,62.9999980773926,2|0,1:2|0:0,0:0:0:0:
37,281,341729,1,0,0:0:0:0:
37,281,341890,1,0,0:0:0:0:
101,191,342051,2,0,L|168:203,1,62.9999980773926,2|0,0:0|0:0,0:0:0:0:
114,119,342374,2,0,L|181:131,1,62.9999980773926,2|0,0:0|0:0,0:0:0:0:
282,45,342696,1,0,0:0:0:0:
255,56,342858,1,0,0:0:0:0:
355,136,343019,1,0,0:0:0:0:
370,91,343180,1,0,0:0:0:0:
272,174,343341,6,0,L|281:242,1,62.9999980773926,2|0,0:0|0:0,0:0:0:0:
261,330,343664,1,0,0:0:0:0:
283,321,343825,1,0,0:0:0:0:
173,357,343987,1,0,0:0:0:0:
203,384,344148,1,0,0:0:0:0:
113,286,344309,6,0,L|179:269,1,62.9999980773926,2|0,0:0|0:0,0:0:0:0:
70,212,344632,1,0,0:0:0:0:
30,279,344793,1,0,0:0:0:0:
162,198,344954,1,0,0:0:0:0:
145,156,345116,1,0,0:0:0:0:
37,71,345277,6,0,L|31:140,1,62.9999980773926,2|0,0:0|0:0,0:0:0:0:
163,70,345600,1,0,0:0:0:0:
154,38,345761,1,0,0:0:0:0:
260,149,345922,1,0,0:0:0:0:
312,65,346083,1,0,0:0:0:0:
175,154,346245,1,0,0:0:0:0:
336,215,346406,6,0,B|435:233|401:146|484:150|484:150|376:86|322:173|322:173|369:90|275:81|306:11|306:11|214:95|278:174|278:174|209:101|186:190|118:139|118:139|171:252|266:216|266:216|176:254|248:316|182:355|182:355|299:346|301:240|301:240|312:339|392:285|409:362|409:362|427:274|376:232,1,1755,2|0,0:0|0:0,0:0:0:0:
