osu file format v14

[General]
AudioFilename: audio.mp3
AudioLeadIn: 0
PreviewTime: -1
Countdown: 1
SampleSet: Normal
StackLeniency: 1
Mode: 3
LetterboxInBreaks: 0
SpecialStyle: 0
WidescreenStoryboard: 0

[Editor]
DistanceSpacing: 0.8
BeatDivisor: 1
GridSize: 4
TimelineZoom: 1

[Metadata]
Title:uhhh
TitleUnicode:uhhh
Artist:uhhh
ArtistUnicode:uhhh
Creator:Subaru BRZ
Version:uhhh
Source:uhhh
Tags:uhhh
BeatmapID:1585495
BeatmapSetID:753046

[Difficulty]
HPDrainRate:0
CircleSize:1
OverallDifficulty:4
ApproachRate:5
SliderMultiplier:1.4
SliderTickRate:1

[Events]
//Background and Video events
//Break Periods
//Storyboard Layer 0 (Background)
//Storyboard Layer 1 (Fail)
//Storyboard Layer 2 (Pass)
//Storyboard Layer 3 (Foreground)
//Storyboard Sound Samples

[TimingPoints]
2695.42829078662,6,4,1,0,0,1,0

[HitObjects]
384,192,1,5,0,0:0:0:0:
256,192,5,1,0,0:0:0:0:
256,192,6,1,0,0:0:0:0:
384,192,7,1,0,0:0:0:0:
384,192,16,1,0,0:0:0:0:
256,192,26,1,0,0:0:0:0:
384,192,28,1,0,0:0:0:0:
384,192,30,1,0,0:0:0:0:
256,192,32,1,0,0:0:0:0:
384,192,36,1,0,0:0:0:0:
256,192,37,1,0,0:0:0:0:
256,192,42,5,0,0:0:0:0:
384,192,45,1,0,0:0:0:0:
256,192,55,1,0,0:0:0:0:
256,192,57,1,0,0:0:0:0:
384,192,60,1,0,0:0:0:0:
256,192,70,1,0,0:0:0:0:
384,192,72,1,0,0:0:0:0:
384,192,74,1,0,0:0:0:0:
384,192,80,1,0,0:0:0:0:
256,192,81,1,0,0:0:0:0:
256,192,83,1,0,0:0:0:0:
256,192,86,5,0,0:0:0:0:
384,192,98,1,0,0:0:0:0:
256,192,99,1,0,0:0:0:0:
256,192,101,1,0,0:0:0:0:
384,192,104,1,0,0:0:0:0:
384,192,106,1,0,0:0:0:0:
384,192,115,1,0,0:0:0:0:
256,192,121,1,0,0:0:0:0:
384,192,121,1,0,0:0:0:0:
384,192,125,1,0,0:0:0:0:
256,192,125,1,0,0:0:0:0:
384,192,126,1,0,0:0:0:0:
256,192,126,1,0,0:0:0:0:
256,192,127,1,0,0:0:0:0:
384,192,127,1,0,0:0:0:0:
256,192,131,1,0,0:0:0:0:
384,192,136,1,0,0:0:0:0:
256,192,137,1,0,0:0:0:0:
384,192,142,1,0,0:0:0:0:
256,192,146,1,0,0:0:0:0:
384,192,148,1,0,0:0:0:0:
256,192,150,1,0,0:0:0:0:
384,192,150,1,0,0:0:0:0:
256,192,151,1,0,0:0:0:0:
256,192,152,1,0,0:0:0:0:
384,192,156,1,0,0:0:0:0:
256,192,157,1,0,0:0:0:0:
384,192,158,1,0,0:0:0:0:
384,192,159,1,0,0:0:0:0:
256,192,165,1,0,0:0:0:0:
384,192,165,1,0,0:0:0:0:
384,192,169,1,0,0:0:0:0:
384,192,170,1,0,0:0:0:0:
384,192,171,1,0,0:0:0:0:
256,192,175,1,0,0:0:0:0:
256,192,177,1,0,0:0:0:0:
256,192,178,1,0,0:0:0:0:
384,192,180,1,0,0:0:0:0:
256,192,181,1,0,0:0:0:0:
384,192,181,1,0,0:0:0:0:
256,192,185,1,0,0:0:0:0:
256,192,186,1,0,0:0:0:0:
384,192,187,1,0,0:0:0:0:
256,192,190,1,0,0:0:0:0:
384,192,192,1,0,0:0:0:0:
256,192,194,1,0,0:0:0:0:
384,192,194,1,0,0:0:0:0:
256,192,195,1,0,0:0:0:0:
384,192,196,1,0,0:0:0:0:
384,192,200,1,0,0:0:0:0:
256,192,201,1,0,0:0:0:0:
384,192,202,1,0,0:0:0:0:
384,192,203,1,0,0:0:0:0:
256,192,203,1,0,0:0:0:0:
384,192,205,1,0,0:0:0:0:
256,192,206,1,0,0:0:0:0:
384,192,208,1,0,0:0:0:0:
384,192,210,1,0,0:0:0:0:
256,192,212,1,0,0:0:0:0:
256,192,216,1,0,0:0:0:0:
384,192,216,1,0,0:0:0:0:
256,192,217,1,0,0:0:0:0:
384,192,218,1,0,0:0:0:0:
256,192,219,1,0,0:0:0:0:
256,192,221,1,0,0:0:0:0:
256,192,222,1,0,0:0:0:0:
384,192,223,1,0,0:0:0:0:
384,192,224,1,0,0:0:0:0:
384,192,225,1,0,0:0:0:0:
256,192,226,1,0,0:0:0:0:
384,192,226,1,0,0:0:0:0:
256,192,232,1,0,0:0:0:0:
256,192,235,1,0,0:0:0:0:
256,192,237,1,0,0:0:0:0:
384,192,240,1,0,0:0:0:0:
256,192,241,1,0,0:0:0:0:
256,192,245,1,0,0:0:0:0:
384,192,245,1,0,0:0:0:0:
256,192,246,1,0,0:0:0:0:
384,192,246,1,0,0:0:0:0:
256,192,247,1,0,0:0:0:0:
384,192,247,1,0,0:0:0:0:
384,192,248,1,0,0:0:0:0:
384,192,249,1,0,0:0:0:0:
256,192,250,1,0,0:0:0:0:
256,192,251,1,0,0:0:0:0:
384,192,252,1,0,0:0:0:0:
384,192,253,1,0,0:0:0:0:
384,192,254,1,0,0:0:0:0:
256,192,257,1,0,0:0:0:0:
256,192,258,1,0,0:0:0:0:
384,192,259,1,0,0:0:0:0:
256,192,260,1,0,0:0:0:0:
384,192,260,1,0,0:0:0:0:
256,192,261,1,0,0:0:0:0:
384,192,262,1,0,0:0:0:0:
256,192,263,1,0,0:0:0:0:
384,192,267,1,0,0:0:0:0:
384,192,268,1,0,0:0:0:0:
384,192,269,1,0,0:0:0:0:
256,192,270,1,0,0:0:0:0:
384,192,270,1,0,0:0:0:0:
256,192,271,1,0,0:0:0:0:
256,192,273,1,0,0:0:0:0:
256,192,276,1,0,0:0:0:0:
384,192,278,1,0,0:0:0:0:
256,192,278,1,0,0:0:0:0:
256,192,279,1,0,0:0:0:0:
384,192,280,1,0,0:0:0:0:
256,192,281,1,0,0:0:0:0:
384,192,282,1,0,0:0:0:0:
384,192,284,1,0,0:0:0:0:
256,192,284,1,0,0:0:0:0:
256,192,285,1,0,0:0:0:0:
384,192,286,1,0,0:0:0:0:
384,192,288,1,0,0:0:0:0:
384,192,289,1,0,0:0:0:0:
256,192,289,1,0,0:0:0:0:
256,192,290,1,0,0:0:0:0:
384,192,290,1,0,0:0:0:0:
384,192,291,1,0,0:0:0:0:
384,192,292,1,0,0:0:0:0:
256,192,295,1,0,0:0:0:0:
384,192,297,1,0,0:0:0:0:
256,192,298,1,0,0:0:0:0:
384,192,301,1,0,0:0:0:0:
256,192,301,1,0,0:0:0:0:
384,192,302,1,0,0:0:0:0:
384,192,305,1,0,0:0:0:0:
384,192,306,1,0,0:0:0:0:
384,192,307,1,0,0:0:0:0:
256,192,307,1,0,0:0:0:0:
256,192,309,1,0,0:0:0:0:
256,192,311,1,0,0:0:0:0:
384,192,312,1,0,0:0:0:0:
256,192,314,1,0,0:0:0:0:
384,192,315,1,0,0:0:0:0:
256,192,315,1,0,0:0:0:0:
384,192,316,1,0,0:0:0:0:
256,192,317,1,0,0:0:0:0:
384,192,320,1,0,0:0:0:0:
384,192,321,1,0,0:0:0:0:
256,192,321,1,0,0:0:0:0:
384,192,322,1,0,0:0:0:0:
256,192,322,1,0,0:0:0:0:
384,192,323,1,0,0:0:0:0:
384,192,324,1,0,0:0:0:0:
256,192,326,1,0,0:0:0:0:
384,192,326,1,0,0:0:0:0:
384,192,330,1,0,0:0:0:0:
256,192,330,1,0,0:0:0:0:
256,192,331,1,0,0:0:0:0:
384,192,332,1,0,0:0:0:0:
256,192,333,1,0,0:0:0:0:
256,192,335,1,0,0:0:0:0:
256,192,336,1,0,0:0:0:0:
384,192,337,1,0,0:0:0:0:
384,192,338,1,0,0:0:0:0:
256,192,340,1,0,0:0:0:0:
256,192,341,1,0,0:0:0:0:
256,192,342,1,0,0:0:0:0:
384,192,343,1,0,0:0:0:0:
384,192,345,1,0,0:0:0:0:
256,192,345,1,0,0:0:0:0:
384,192,346,1,0,0:0:0:0:
256,192,346,1,0,0:0:0:0:
384,192,349,1,0,0:0:0:0:
384,192,350,1,0,0:0:0:0:
384,192,351,1,0,0:0:0:0:
256,192,351,1,0,0:0:0:0:
384,192,352,1,0,0:0:0:0:
256,192,353,1,0,0:0:0:0:
256,192,355,1,0,0:0:0:0:
384,192,356,1,0,0:0:0:0:
256,192,358,1,0,0:0:0:0:
384,192,358,1,0,0:0:0:0:
384,192,359,1,0,0:0:0:0:
384,192,360,1,0,0:0:0:0:
256,192,362,1,0,0:0:0:0:
384,192,364,1,0,0:0:0:0:
384,192,365,1,0,0:0:0:0:
256,192,365,1,0,0:0:0:0:
256,192,366,1,0,0:0:0:0:
384,192,366,1,0,0:0:0:0:
256,192,367,1,0,0:0:0:0:
384,192,367,1,0,0:0:0:0:
384,192,368,1,0,0:0:0:0:
256,192,368,1,0,0:0:0:0:
256,192,370,1,0,0:0:0:0:
384,192,372,1,0,0:0:0:0:
256,192,373,1,0,0:0:0:0:
256,192,374,1,0,0:0:0:0:
256,192,375,1,0,0:0:0:0:
384,192,376,1,0,0:0:0:0:
384,192,377,1,0,0:0:0:0:
384,192,378,1,0,0:0:0:0:
256,192,379,1,0,0:0:0:0:
384,192,379,1,0,0:0:0:0:
256,192,380,1,0,0:0:0:0:
384,192,381,1,0,0:0:0:0:
384,192,382,1,0,0:0:0:0:
384,192,383,1,0,0:0:0:0:
256,192,383,1,0,0:0:0:0:
256,192,384,1,0,0:0:0:0:
256,192,385,1,0,0:0:0:0:
384,192,387,1,0,0:0:0:0:
384,192,389,1,0,0:0:0:0:
256,192,390,1,0,0:0:0:0:
256,192,391,1,0,0:0:0:0:
256,192,393,1,0,0:0:0:0:
384,192,394,1,0,0:0:0:0:
256,192,396,1,0,0:0:0:0:
384,192,396,1,0,0:0:0:0:
384,192,400,1,0,0:0:0:0:
256,192,402,1,0,0:0:0:0:
384,192,402,1,0,0:0:0:0:
384,192,403,1,0,0:0:0:0:
256,192,403,1,0,0:0:0:0:
384,192,405,1,0,0:0:0:0:
384,192,406,1,0,0:0:0:0:
256,192,406,1,0,0:0:0:0:
384,192,408,1,0,0:0:0:0:
256,192,409,1,0,0:0:0:0:
256,192,410,1,0,0:0:0:0:
384,192,410,1,0,0:0:0:0:
384,192,412,1,0,0:0:0:0:
384,192,416,1,0,0:0:0:0:
256,192,417,1,0,0:0:0:0:
256,192,419,1,0,0:0:0:0:
384,192,420,1,0,0:0:0:0:
256,192,421,1,0,0:0:0:0:
384,192,421,1,0,0:0:0:0:
384,192,422,1,0,0:0:0:0:
384,192,423,1,0,0:0:0:0:
256,192,425,1,0,0:0:0:0:
256,192,426,1,0,0:0:0:0:
256,192,427,1,0,0:0:0:0:
384,192,427,1,0,0:0:0:0:
384,192,428,1,0,0:0:0:0:
256,192,430,1,0,0:0:0:0:
256,192,431,1,0,0:0:0:0:
384,192,434,1,0,0:0:0:0:
384,192,435,1,0,0:0:0:0:
256,192,435,1,0,0:0:0:0:
384,192,436,1,0,0:0:0:0:
256,192,437,1,0,0:0:0:0:
256,192,440,1,0,0:0:0:0:
384,192,440,1,0,0:0:0:0:
256,192,441,1,0,0:0:0:0:
384,192,441,1,0,0:0:0:0:
384,192,442,1,0,0:0:0:0:
384,192,444,1,0,0:0:0:0:
256,192,446,1,0,0:0:0:0:
384,192,447,1,0,0:0:0:0:
256,192,447,1,0,0:0:0:0:
384,192,448,1,0,0:0:0:0:
384,192,449,1,0,0:0:0:0:
256,192,450,1,0,0:0:0:0:
384,192,450,1,0,0:0:0:0:
256,192,452,1,0,0:0:0:0:
256,192,453,1,0,0:0:0:0:
384,192,454,1,0,0:0:0:0:
384,192,455,1,0,0:0:0:0:
384,192,456,1,0,0:0:0:0:
256,192,457,1,0,0:0:0:0:
256,192,460,1,0,0:0:0:0:
256,192,461,1,0,0:0:0:0:
384,192,461,1,0,0:0:0:0:
384,192,462,1,0,0:0:0:0:
384,192,463,1,0,0:0:0:0:
256,192,463,1,0,0:0:0:0:
256,192,465,1,0,0:0:0:0:
384,192,465,1,0,0:0:0:0:
384,192,466,1,0,0:0:0:0:
256,192,467,1,0,0:0:0:0:
256,192,468,1,0,0:0:0:0:
256,192,469,1,0,0:0:0:0:
256,192,470,1,0,0:0:0:0:
384,192,472,1,0,0:0:0:0:
256,192,474,1,0,0:0:0:0:
384,192,475,1,0,0:0:0:0:
256,192,475,1,0,0:0:0:0:
384,192,477,1,0,0:0:0:0:
256,192,477,1,0,0:0:0:0:
256,192,478,1,0,0:0:0:0:
384,192,478,1,0,0:0:0:0:
384,192,479,1,0,0:0:0:0:
384,192,480,1,0,0:0:0:0:
384,192,481,1,0,0:0:0:0:
384,192,484,1,0,0:0:0:0:
256,192,485,1,0,0:0:0:0:
384,192,485,1,0,0:0:0:0:
384,192,486,1,0,0:0:0:0:
256,192,486,1,0,0:0:0:0:
256,192,487,1,0,0:0:0:0:
384,192,490,1,0,0:0:0:0:
256,192,490,1,0,0:0:0:0:
256,192,491,1,0,0:0:0:0:
384,192,492,1,0,0:0:0:0:
384,192,494,1,0,0:0:0:0:
384,192,495,1,0,0:0:0:0:
256,192,497,1,0,0:0:0:0:
256,192,498,1,0,0:0:0:0:
384,192,499,1,0,0:0:0:0:
384,192,500,1,0,0:0:0:0:
384,192,501,1,0,0:0:0:0:
256,192,501,1,0,0:0:0:0:
384,192,503,1,0,0:0:0:0:
256,192,503,1,0,0:0:0:0:
256,192,504,1,0,0:0:0:0:
256,192,505,1,0,0:0:0:0:
384,192,505,1,0,0:0:0:0:
384,192,506,1,0,0:0:0:0:
384,192,507,1,0,0:0:0:0:
384,192,509,1,0,0:0:0:0:
384,192,510,1,0,0:0:0:0:
256,192,511,1,0,0:0:0:0:
256,192,512,1,0,0:0:0:0:
256,192,514,1,0,0:0:0:0:
256,192,516,1,0,0:0:0:0:
384,192,518,1,0,0:0:0:0:
384,192,519,1,0,0:0:0:0:
256,192,519,1,0,0:0:0:0:
256,192,520,1,0,0:0:0:0:
384,192,521,1,0,0:0:0:0:
256,192,521,1,0,0:0:0:0:
256,192,522,1,0,0:0:0:0:
384,192,524,1,0,0:0:0:0:
384,192,525,1,0,0:0:0:0:
256,192,525,1,0,0:0:0:0:
384,192,526,1,0,0:0:0:0:
256,192,530,1,0,0:0:0:0:
256,192,531,1,0,0:0:0:0:
384,192,532,1,0,0:0:0:0:
384,192,534,1,0,0:0:0:0:
256,192,535,1,0,0:0:0:0:
384,192,538,1,0,0:0:0:0:
384,192,539,1,0,0:0:0:0:
256,192,541,1,0,0:0:0:0:
256,192,542,1,0,0:0:0:0:
384,192,544,1,0,0:0:0:0:
256,192,545,1,0,0:0:0:0:
384,192,545,1,0,0:0:0:0:
384,192,546,1,0,0:0:0:0:
256,192,547,1,0,0:0:0:0:
384,192,547,1,0,0:0:0:0:
256,192,551,1,0,0:0:0:0:
256,192,552,1,0,0:0:0:0:
384,192,553,1,0,0:0:0:0:
256,192,558,1,0,0:0:0:0:
384,192,559,1,0,0:0:0:0:
256,192,560,1,0,0:0:0:0:
384,192,561,1,0,0:0:0:0:
256,192,562,1,0,0:0:0:0:
384,192,562,1,0,0:0:0:0:
384,192,563,1,0,0:0:0:0:
256,192,563,1,0,0:0:0:0:
256,192,564,1,0,0:0:0:0:
256,192,565,1,0,0:0:0:0:
384,192,567,1,0,0:0:0:0:
384,192,569,1,0,0:0:0:0:
256,192,569,1,0,0:0:0:0:
256,192,570,1,0,0:0:0:0:
384,192,570,1,0,0:0:0:0:
256,192,571,1,0,0:0:0:0:
384,192,572,1,0,0:0:0:0:
256,192,573,1,0,0:0:0:0:
384,192,573,1,0,0:0:0:0:
384,192,576,1,0,0:0:0:0:
384,192,578,1,0,0:0:0:0:
256,192,581,1,0,0:0:0:0:
384,192,582,1,0,0:0:0:0:
256,192,582,1,0,0:0:0:0:
384,192,583,1,0,0:0:0:0:
384,192,584,1,0,0:0:0:0:
256,192,585,1,0,0:0:0:0:
384,192,587,1,0,0:0:0:0:
384,192,589,1,0,0:0:0:0:
384,192,590,1,0,0:0:0:0:
384,192,591,1,0,0:0:0:0:
256,192,592,1,0,0:0:0:0:
256,192,593,1,0,0:0:0:0:
256,192,595,1,0,0:0:0:0:
256,192,596,1,0,0:0:0:0:
384,192,597,1,0,0:0:0:0:
256,192,598,1,0,0:0:0:0:
384,192,603,1,0,0:0:0:0:
384,192,605,1,0,0:0:0:0:
256,192,606,1,0,0:0:0:0:
256,192,607,1,0,0:0:0:0:
256,192,609,1,0,0:0:0:0:
256,192,611,1,0,0:0:0:0:
384,192,611,1,0,0:0:0:0:
256,192,614,1,0,0:0:0:0:
256,192,615,1,0,0:0:0:0:
384,192,616,1,0,0:0:0:0:
256,192,617,1,0,0:0:0:0:
384,192,617,1,0,0:0:0:0:
256,192,619,1,0,0:0:0:0:
384,192,622,1,0,0:0:0:0:
384,192,623,1,0,0:0:0:0:
256,192,625,1,0,0:0:0:0:
256,192,626,1,0,0:0:0:0:
384,192,628,1,0,0:0:0:0:
384,192,631,1,0,0:0:0:0:
384,192,635,1,0,0:0:0:0:
256,192,636,1,0,0:0:0:0:
256,192,637,1,0,0:0:0:0:
384,192,637,1,0,0:0:0:0:
384,192,641,1,0,0:0:0:0:
256,192,642,1,0,0:0:0:0:
384,192,643,1,0,0:0:0:0:
384,192,645,1,0,0:0:0:0:
256,192,646,1,0,0:0:0:0:
256,192,647,1,0,0:0:0:0:
384,192,651,1,0,0:0:0:0:
256,192,653,1,0,0:0:0:0:
256,192,655,1,0,0:0:0:0:
384,192,656,1,0,0:0:0:0:
384,192,657,1,0,0:0:0:0:
256,192,657,1,0,0:0:0:0:
384,192,660,1,0,0:0:0:0:
256,192,665,1,0,0:0:0:0:
384,192,666,1,0,0:0:0:0:
256,192,666,1,0,0:0:0:0:
384,192,667,1,0,0:0:0:0:
384,192,668,1,0,0:0:0:0:
256,192,675,5,0,0:0:0:0:
256,192,676,1,0,0:0:0:0:
384,192,677,1,0,0:0:0:0:
256,192,677,1,0,0:0:0:0:
256,192,680,1,0,0:0:0:0:
256,192,681,5,0,0:0:0:0:
384,192,681,1,0,0:0:0:0:
384,192,687,1,0,0:0:0:0:
384,192,689,1,0,0:0:0:0:
256,192,690,1,0,0:0:0:0:
256,192,691,1,0,0:0:0:0:
256,192,693,1,0,0:0:0:0:
384,192,695,1,0,0:0:0:0:
384,192,700,1,0,0:0:0:0:
384,192,701,1,0,0:0:0:0:
256,192,701,1,0,0:0:0:0:
256,192,703,1,0,0:0:0:0:
256,192,704,5,0,0:0:0:0:
256,192,705,1,0,0:0:0:0:
384,192,706,1,0,0:0:0:0:
256,192,709,1,0,0:0:0:0:
384,192,710,1,0,0:0:0:0:
256,192,710,1,0,0:0:0:0:
384,192,712,1,0,0:0:0:0:
256,192,719,5,0,0:0:0:0:
384,192,719,1,0,0:0:0:0:
256,192,720,1,0,0:0:0:0:
256,192,721,1,0,0:0:0:0:
384,192,721,1,0,0:0:0:0:
384,192,725,1,0,0:0:0:0:
256,192,731,1,0,0:0:0:0:
256,192,732,1,0,0:0:0:0:
384,192,735,1,0,0:0:0:0:
256,192,737,1,0,0:0:0:0:
384,192,740,1,0,0:0:0:0:
256,192,741,1,0,0:0:0:0:
384,192,741,1,0,0:0:0:0:
256,192,748,5,0,0:0:0:0:
384,192,748,1,0,0:0:0:0:
256,192,749,1,0,0:0:0:0:
384,192,750,1,0,0:0:0:0:
384,192,754,1,0,0:0:0:0:
256,192,760,1,0,0:0:0:0:
256,192,761,1,0,0:0:0:0:
384,192,765,1,0,0:0:0:0:
256,192,770,1,0,0:0:0:0:
384,192,775,1,0,0:0:0:0:
256,192,775,1,0,0:0:0:0:
256,192,776,1,0,0:0:0:0:
384,192,777,1,0,0:0:0:0:
384,192,779,1,0,0:0:0:0:
256,192,780,5,0,0:0:0:0:
384,192,784,1,0,0:0:0:0:
256,192,785,1,0,0:0:0:0:
384,192,785,1,0,0:0:0:0:
256,192,787,1,0,0:0:0:0:
384,192,792,1,0,0:0:0:0:
256,192,799,1,0,0:0:0:0:
256,192,800,5,0,0:0:0:0:
384,192,800,1,0,0:0:0:0:
384,192,803,1,0,0:0:0:0:
256,192,804,1,0,0:0:0:0:
256,192,805,1,0,0:0:0:0:
384,192,809,1,0,0:0:0:0:
256,192,814,1,0,0:0:0:0:
384,192,819,1,0,0:0:0:0:
384,192,821,1,0,0:0:0:0:
256,192,824,5,0,0:0:0:0:
256,192,827,1,0,0:0:0:0:
384,192,838,1,0,0:0:0:0:
256,192,843,1,0,0:0:0:0:
256,192,844,5,0,0:0:0:0:
384,192,844,1,0,0:0:0:0:
384,192,853,1,0,0:0:0:0:
256,192,865,1,0,0:0:0:0:
384,192,867,1,0,0:0:0:0:
256,192,871,1,0,0:0:0:0:
384,192,872,1,0,0:0:0:0:
384,192,873,1,0,0:0:0:0:
256,192,875,1,0,0:0:0:0:
384,192,882,1,0,0:0:0:0:
256,192,894,1,0,0:0:0:0:
256,192,895,1,0,0:0:0:0:
384,192,897,1,0,0:0:0:0:
256,192,909,1,0,0:0:0:0:
384,192,911,1,0,0:0:0:0:
384,192,916,1,0,0:0:0:0:
384,192,917,1,0,0:0:0:0:
256,192,919,1,0,0:0:0:0:
256,192,921,1,0,0:0:0:0:
384,192,935,1,0,0:0:0:0:
256,192,938,1,0,0:0:0:0:
256,192,939,1,0,0:0:0:0:
384,192,941,1,0,0:0:0:0:
384,192,943,1,0,0:0:0:0:
256,192,959,1,0,0:0:0:0:
384,192,963,1,0,0:0:0:0:
384,192,964,1,0,0:0:0:0:
256,192,965,1,0,0:0:0:0:
384,192,970,1,0,0:0:0:0:
256,192,970,1,0,0:0:0:0:
384,192,979,1,0,0:0:0:0:
384,192,987,1,0,0:0:0:0:
256,192,988,1,0,0:0:0:0:
256,192,990,1,0,0:0:0:0:
384,192,995,1,0,0:0:0:0:
256,192,1003,1,0,0:0:0:0:
384,192,1007,1,0,0:0:0:0:
384,192,1008,1,0,0:0:0:0:
384,192,1014,1,0,0:0:0:0:
256,192,1014,1,0,0:0:0:0:
256,192,1016,1,0,0:0:0:0:
256,192,1032,1,0,0:0:0:0:
384,192,1033,1,0,0:0:0:0:
256,192,1034,1,0,0:0:0:0:
384,192,1039,1,0,0:0:0:0:
384,192,1040,1,0,0:0:0:0:
256,192,1054,1,0,0:0:0:0:
256,192,1060,1,0,0:0:0:0:
384,192,1060,1,0,0:0:0:0:
384,192,1062,1,0,0:0:0:0:
256,192,1064,1,0,0:0:0:0:
384,192,1077,1,0,0:0:0:0:
256,192,1083,1,0,0:0:0:0:
384,192,1084,1,0,0:0:0:0:
256,192,1084,1,0,0:0:0:0:
384,192,1085,1,0,0:0:0:0:
256,192,1098,1,0,0:0:0:0:
384,192,1104,1,0,0:0:0:0:
384,192,1106,1,0,0:0:0:0:
256,192,1108,1,0,0:0:0:0:
256,192,1111,1,0,0:0:0:0:
384,192,1123,1,0,0:0:0:0:
256,192,1127,1,0,0:0:0:0:
256,192,1128,1,0,0:0:0:0:
384,192,1129,1,0,0:0:0:0:
384,192,1138,1,0,0:0:0:0:
256,192,1149,1,0,0:0:0:0:
384,192,1152,1,0,0:0:0:0:
256,192,1155,1,0,0:0:0:0:
384,192,1157,1,0,0:0:0:0:
384,192,1158,1,0,0:0:0:0:
256,192,1159,1,0,0:0:0:0:
384,192,1167,1,0,0:0:0:0:
256,192,1178,1,0,0:0:0:0:
256,192,1179,1,0,0:0:0:0:
384,192,1182,1,0,0:0:0:0:
256,192,1193,1,0,0:0:0:0:
384,192,1196,1,0,0:0:0:0:
384,192,1201,1,0,0:0:0:0:
384,192,1202,1,0,0:0:0:0:
256,192,1203,1,0,0:0:0:0:
256,192,1206,1,0,0:0:0:0:
384,192,1220,1,0,0:0:0:0:
256,192,1222,1,0,0:0:0:0:
256,192,1223,1,0,0:0:0:0:
384,192,1226,1,0,0:0:0:0:
384,192,1228,1,0,0:0:0:0:
256,192,1244,1,0,0:0:0:0:
384,192,1247,1,0,0:0:0:0:
384,192,1248,1,0,0:0:0:0:
384,192,1249,1,0,0:0:0:0:
256,192,1250,1,0,0:0:0:0:
256,192,1254,1,0,0:0:0:0:
384,192,1264,1,0,0:0:0:0:
384,192,1272,1,0,0:0:0:0:
256,192,1273,1,0,0:0:0:0:
256,192,1274,1,0,0:0:0:0:
256,192,1288,1,0,0:0:0:0:
384,192,1291,1,0,0:0:0:0:
384,192,1292,1,0,0:0:0:0:
384,192,1293,1,0,0:0:0:0:
256,192,1298,1,0,0:0:0:0:
256,192,1300,1,0,0:0:0:0:
384,192,1310,1,0,0:0:0:0:
384,192,1316,1,0,0:0:0:0:
256,192,1317,1,0,0:0:0:0:
256,192,1318,1,0,0:0:0:0:
384,192,1325,1,0,0:0:0:0:
256,192,1338,1,0,0:0:0:0:
384,192,1339,1,0,0:0:0:0:
256,192,1344,1,0,0:0:0:0:
384,192,1345,1,0,0:0:0:0:
256,192,1349,1,0,0:0:0:0:
384,192,1354,1,0,0:0:0:0:
256,192,1367,1,0,0:0:0:0:
384,192,1369,1,0,0:0:0:0:
256,192,1369,1,0,0:0:0:0:
384,192,1370,1,0,0:0:0:0:
256,192,1382,1,0,0:0:0:0:
384,192,1383,1,0,0:0:0:0:
384,192,1389,1,0,0:0:0:0:
256,192,1393,1,0,0:0:0:0:
256,192,1395,1,0,0:0:0:0:
384,192,1408,1,0,0:0:0:0:
256,192,1411,1,0,0:0:0:0:
256,192,1413,1,0,0:0:0:0:
384,192,1414,1,0,0:0:0:0:
384,192,1415,1,0,0:0:0:0:
256,192,1433,1,0,0:0:0:0:
384,192,1435,1,0,0:0:0:0:
384,192,1437,1,0,0:0:0:0:
256,192,1439,1,0,0:0:0:0:
256,192,1443,1,0,0:0:0:0:
384,192,1452,1,0,0:0:0:0:
384,192,1459,1,0,0:0:0:0:
256,192,1462,1,0,0:0:0:0:
256,192,1463,1,0,0:0:0:0:
384,192,1467,1,0,0:0:0:0:
256,192,1477,1,0,0:0:0:0:
384,192,1479,1,0,0:0:0:0:
384,192,1481,1,0,0:0:0:0:
256,192,1487,1,0,0:0:0:0:
256,192,1490,1,0,0:0:0:0:
384,192,1505,1,0,0:0:0:0:
256,192,1506,1,0,0:0:0:0:
256,192,1507,1,0,0:0:0:0:
384,192,1511,1,0,0:0:0:0:
384,192,1513,1,0,0:0:0:0:
256,192,1528,1,0,0:0:0:0:
384,192,1532,1,0,0:0:0:0:
384,192,1533,1,0,0:0:0:0:
256,192,1534,1,0,0:0:0:0:
384,192,1534,1,0,0:0:0:0:
256,192,1538,1,0,0:0:0:0:
384,192,1549,1,0,0:0:0:0:
256,192,1557,1,0,0:0:0:0:
384,192,1557,1,0,0:0:0:0:
256,192,1558,1,0,0:0:0:0:
384,192,1565,1,0,0:0:0:0:
256,192,1572,1,0,0:0:0:0:
384,192,1576,1,0,0:0:0:0:
384,192,1577,1,0,0:0:0:0:
384,192,1578,1,0,0:0:0:0:
256,192,1582,1,0,0:0:0:0:
256,192,1585,1,0,0:0:0:0:
256,192,1601,1,0,0:0:0:0:
256,192,1602,1,0,0:0:0:0:
384,192,1603,1,0,0:0:0:0:
384,192,1609,1,0,0:0:0:0:
384,192,1610,1,0,0:0:0:0:
256,192,1623,1,0,0:0:0:0:
256,192,1629,1,0,0:0:0:0:
384,192,1630,1,0,0:0:0:0:
384,192,1632,1,0,0:0:0:0:
256,192,1633,1,0,0:0:0:0:
384,192,1647,1,0,0:0:0:0:
256,192,1652,1,0,0:0:0:0:
256,192,1653,1,0,0:0:0:0:
384,192,1654,1,0,0:0:0:0:
384,192,1655,1,0,0:0:0:0:
256,192,1667,1,0,0:0:0:0:
384,192,1674,1,0,0:0:0:0:
384,192,1676,1,0,0:0:0:0:
256,192,1677,1,0,0:0:0:0:
256,192,1679,1,0,0:0:0:0:
384,192,1693,1,0,0:0:0:0:
256,192,1696,1,0,0:0:0:0:
256,192,1697,1,0,0:0:0:0:
384,192,1699,1,0,0:0:0:0:
384,192,1708,1,0,0:0:0:0:
256,192,1717,1,0,0:0:0:0:
384,192,1720,1,0,0:0:0:0:
384,192,1722,1,0,0:0:0:0:
256,192,1723,1,0,0:0:0:0:
256,192,1728,1,0,0:0:0:0:
384,192,1728,1,0,0:0:0:0:
384,192,1737,1,0,0:0:0:0:
256,192,1746,1,0,0:0:0:0:
256,192,1747,1,0,0:0:0:0:
256,192,1748,1,0,0:0:0:0:
384,192,1752,1,0,0:0:0:0:
256,192,1761,1,0,0:0:0:0:
384,192,1764,1,0,0:0:0:0:
384,192,1766,1,0,0:0:0:0:
256,192,1772,1,0,0:0:0:0:
384,192,1772,1,0,0:0:0:0:
256,192,1774,1,0,0:0:0:0:
384,192,1790,1,0,0:0:0:0:
256,192,1790,1,0,0:0:0:0:
256,192,1791,1,0,0:0:0:0:
256,192,1792,1,0,0:0:0:0:
384,192,1796,1,0,0:0:0:0:
384,192,1798,1,0,0:0:0:0:
256,192,1812,1,0,0:0:0:0:
384,192,1817,1,0,0:0:0:0:
256,192,1818,1,0,0:0:0:0:
384,192,1818,1,0,0:0:0:0:
384,192,1819,1,0,0:0:0:0:
256,192,1822,1,0,0:0:0:0:
384,192,1834,1,0,0:0:0:0:
256,192,1841,1,0,0:0:0:0:
384,192,1842,1,0,0:0:0:0:
256,192,1842,1,0,0:0:0:0:
256,192,1856,1,0,0:0:0:0:
384,192,1861,1,0,0:0:0:0:
384,192,1862,1,0,0:0:0:0:
384,192,1863,1,0,0:0:0:0:
256,192,1866,1,0,0:0:0:0:
256,192,1869,1,0,0:0:0:0:
384,192,1880,1,0,0:0:0:0:
256,192,1885,1,0,0:0:0:0:
384,192,1886,1,0,0:0:0:0:
256,192,1886,1,0,0:0:0:0:
384,192,1895,1,0,0:0:0:0:
256,192,1907,1,0,0:0:0:0:
384,192,1909,1,0,0:0:0:0:
256,192,1913,1,0,0:0:0:0:
384,192,1915,1,0,0:0:0:0:
256,192,1917,1,0,0:0:0:0:
384,192,1924,1,0,0:0:0:0:
256,192,1936,1,0,0:0:0:0:
256,192,1937,1,0,0:0:0:0:
384,192,1939,1,0,0:0:0:0:
384,192,1940,1,0,0:0:0:0:
256,192,1951,1,0,0:0:0:0:
384,192,1953,1,0,0:0:0:0:
384,192,1959,1,0,0:0:0:0:
256,192,1961,1,0,0:0:0:0:
256,192,1964,1,0,0:0:0:0:
384,192,1978,1,0,0:0:0:0:
256,192,1980,1,0,0:0:0:0:
256,192,1981,1,0,0:0:0:0:
384,192,1984,1,0,0:0:0:0:
384,192,1985,1,0,0:0:0:0:
256,192,2002,1,0,0:0:0:0:
384,192,2005,1,0,0:0:0:0:
384,192,2007,1,0,0:0:0:0:
256,192,2008,1,0,0:0:0:0:
256,192,2012,1,0,0:0:0:0:
384,192,2022,1,0,0:0:0:0:
384,192,2029,1,0,0:0:0:0:
384,192,2030,1,0,0:0:0:0:
256,192,2031,1,0,0:0:0:0:
256,192,2032,1,0,0:0:0:0:
256,192,2046,1,0,0:0:0:0:
384,192,2049,1,0,0:0:0:0:
384,192,2051,1,0,0:0:0:0:
256,192,2056,1,0,0:0:0:0:
256,192,2058,1,0,0:0:0:0:
384,192,2068,1,0,0:0:0:0:
384,192,2074,1,0,0:0:0:0:
256,192,2075,1,0,0:0:0:0:
256,192,2076,1,0,0:0:0:0:
384,192,2083,1,0,0:0:0:0:
256,192,2096,1,0,0:0:0:0:
384,192,2097,1,0,0:0:0:0:
384,192,2102,1,0,0:0:0:0:
256,192,2102,1,0,0:0:0:0:
384,192,2103,1,0,0:0:0:0:
256,192,2107,1,0,0:0:0:0:
384,192,2112,1,0,0:0:0:0:
256,192,2125,1,0,0:0:0:0:
256,192,2126,1,0,0:0:0:0:
384,192,2127,1,0,0:0:0:0:
256,192,2127,1,0,0:0:0:0:
256,192,2140,1,0,0:0:0:0:
384,192,2141,1,0,0:0:0:0:
384,192,2146,1,0,0:0:0:0:
384,192,2147,1,0,0:0:0:0:
256,192,2151,1,0,0:0:0:0:
256,192,2153,1,0,0:0:0:0:
384,192,2165,1,0,0:0:0:0:
256,192,2169,1,0,0:0:0:0:
256,192,2170,1,0,0:0:0:0:
384,192,2171,1,0,0:0:0:0:
256,192,2171,1,0,0:0:0:0:
384,192,2173,1,0,0:0:0:0:
256,192,2191,1,0,0:0:0:0:
384,192,2193,1,0,0:0:0:0:
384,192,2194,1,0,0:0:0:0:
256,192,2197,1,0,0:0:0:0:
384,192,2200,1,0,0:0:0:0:
256,192,2201,1,0,0:0:0:0:
384,192,2209,1,0,0:0:0:0:
384,192,2217,1,0,0:0:0:0:
256,192,2220,1,0,0:0:0:0:
256,192,2221,1,0,0:0:0:0:
384,192,2225,1,0,0:0:0:0:
256,192,2235,1,0,0:0:0:0:
384,192,2237,1,0,0:0:0:0:
384,192,2238,1,0,0:0:0:0:
384,192,2244,1,0,0:0:0:0:
256,192,2245,1,0,0:0:0:0:
256,192,2248,1,0,0:0:0:0:
384,192,2263,1,0,0:0:0:0:
256,192,2264,1,0,0:0:0:0:
256,192,2265,1,0,0:0:0:0:
384,192,2269,1,0,0:0:0:0:
384,192,2270,1,0,0:0:0:0:
256,192,2286,1,0,0:0:0:0:
384,192,2290,1,0,0:0:0:0:
256,192,2292,1,0,0:0:0:0:
384,192,2292,1,0,0:0:0:0:
256,192,2296,1,0,0:0:0:0:
384,192,2307,1,0,0:0:0:0:
384,192,2314,1,0,0:0:0:0:
384,192,2315,1,0,0:0:0:0:
256,192,2315,1,0,0:0:0:0:
256,192,2316,1,0,0:0:0:0:
256,192,2330,1,0,0:0:0:0:
384,192,2334,1,0,0:0:0:0:
384,192,2336,1,0,0:0:0:0:
256,192,2340,1,0,0:0:0:0:
256,192,2342,1,0,0:0:0:0:
384,192,2347,1,0,0:0:0:0:
256,192,2351,1,0,0:0:0:0:
256,192,2352,1,0,0:0:0:0:
384,192,2353,1,0,0:0:0:0:
384,192,2359,1,0,0:0:0:0:
256,192,2359,1,0,0:0:0:0:
256,192,2360,1,0,0:0:0:0:
384,192,2362,1,0,0:0:0:0:
384,192,2368,1,0,0:0:0:0:
256,192,2372,1,0,0:0:0:0:
384,192,2374,1,0,0:0:0:0:
384,192,2376,1,0,0:0:0:0:
256,192,2378,1,0,0:0:0:0:
256,192,2380,1,0,0:0:0:0:
384,192,2382,1,0,0:0:0:0:
256,192,2383,1,0,0:0:0:0:
256,192,2386,1,0,0:0:0:0:
384,192,2387,1,0,0:0:0:0:
256,192,2388,5,0,0:0:0:0:
384,192,2388,1,0,0:0:0:0:
256,192,2391,1,0,0:0:0:0:
384,192,2391,1,0,0:0:0:0:
384,192,2397,1,0,0:0:0:0:
256,192,2401,1,0,0:0:0:0:
256,192,2403,1,0,0:0:0:0:
384,192,2406,1,0,0:0:0:0:
256,192,2409,1,0,0:0:0:0:
256,192,2411,1,0,0:0:0:0:
384,192,2412,1,0,0:0:0:0:
256,192,2416,1,0,0:0:0:0:
384,192,2418,1,0,0:0:0:0:
384,192,2420,1,0,0:0:0:0:
256,192,2424,1,0,0:0:0:0:
384,192,2426,1,0,0:0:0:0:
256,192,2427,1,0,0:0:0:0:
256,192,2429,1,0,0:0:0:0:
384,192,2431,1,0,0:0:0:0:
256,192,2432,5,0,0:0:0:0:
384,192,2432,1,0,0:0:0:0:
256,192,2435,1,0,0:0:0:0:
256,192,2437,1,0,0:0:0:0:
384,192,2444,1,0,0:0:0:0:
256,192,2445,1,0,0:0:0:0:
256,192,2447,1,0,0:0:0:0:
384,192,2450,1,0,0:0:0:0:
384,192,2452,1,0,0:0:0:0:
256,192,2453,1,0,0:0:0:0:
256,192,2455,1,0,0:0:0:0:
384,192,2456,1,0,0:0:0:0:
384,192,2458,1,0,0:0:0:0:
384,192,2461,1,0,0:0:0:0:
384,192,2467,1,0,0:0:0:0:
256,192,2467,1,0,0:0:0:0:
384,192,2471,1,0,0:0:0:0:
256,192,2471,1,0,0:0:0:0:
384,192,2472,1,0,0:0:0:0:
256,192,2472,1,0,0:0:0:0:
256,192,2473,1,0,0:0:0:0:
384,192,2473,1,0,0:0:0:0:
256,192,2475,1,0,0:0:0:0:
384,192,2477,1,0,0:0:0:0:
256,192,2477,1,0,0:0:0:0:
384,192,2478,1,0,0:0:0:0:
384,192,2479,1,0,0:0:0:0:
256,192,2481,1,0,0:0:0:0:
384,192,2482,1,0,0:0:0:0:
256,192,2483,1,0,0:0:0:0:
256,192,2485,1,0,0:0:0:0:
384,192,2488,1,0,0:0:0:0:
256,192,2492,1,0,0:0:0:0:
384,192,2494,1,0,0:0:0:0:
384,192,2496,1,0,0:0:0:0:
256,192,2496,1,0,0:0:0:0:
256,192,2497,1,0,0:0:0:0:
256,192,2498,1,0,0:0:0:0:
384,192,2502,1,0,0:0:0:0:
256,192,2503,1,0,0:0:0:0:
256,192,2504,1,0,0:0:0:0:
384,192,2504,1,0,0:0:0:0:
256,192,2505,1,0,0:0:0:0:
384,192,2505,1,0,0:0:0:0:
384,192,2510,1,0,0:0:0:0:
256,192,2511,1,0,0:0:0:0:
384,192,2511,1,0,0:0:0:0:
384,192,2515,1,0,0:0:0:0:
384,192,2516,1,0,0:0:0:0:
384,192,2517,1,0,0:0:0:0:
256,192,2519,1,0,0:0:0:0:
384,192,2521,1,0,0:0:0:0:
256,192,2521,1,0,0:0:0:0:
384,192,2522,1,0,0:0:0:0:
384,192,2523,1,0,0:0:0:0:
256,192,2523,1,0,0:0:0:0:
256,192,2524,1,0,0:0:0:0:
384,192,2526,1,0,0:0:0:0:
384,192,2527,1,0,0:0:0:0:
256,192,2527,1,0,0:0:0:0:
256,192,2529,1,0,0:0:0:0:
256,192,2531,1,0,0:0:0:0:
256,192,2532,1,0,0:0:0:0:
384,192,2533,1,0,0:0:0:0:
256,192,2536,1,0,0:0:0:0:
384,192,2538,1,0,0:0:0:0:
256,192,2540,1,0,0:0:0:0:
384,192,2540,1,0,0:0:0:0:
256,192,2541,1,0,0:0:0:0:
384,192,2542,1,0,0:0:0:0:
384,192,2546,1,0,0:0:0:0:
256,192,2547,1,0,0:0:0:0:
256,192,2548,1,0,0:0:0:0:
384,192,2548,1,0,0:0:0:0:
384,192,2549,1,0,0:0:0:0:
256,192,2549,1,0,0:0:0:0:
384,192,2551,1,0,0:0:0:0:
256,192,2552,1,0,0:0:0:0:
384,192,2554,1,0,0:0:0:0:
384,192,2555,1,0,0:0:0:0:
384,192,2556,1,0,0:0:0:0:
256,192,2558,1,0,0:0:0:0:
384,192,2562,1,0,0:0:0:0:
256,192,2562,1,0,0:0:0:0:
256,192,2563,1,0,0:0:0:0:
384,192,2564,1,0,0:0:0:0:
256,192,2565,1,0,0:0:0:0:
256,192,2567,1,0,0:0:0:0:
256,192,2568,1,0,0:0:0:0:
384,192,2569,1,0,0:0:0:0:
256,192,2570,1,0,0:0:0:0:
384,192,2570,1,0,0:0:0:0:
384,192,2571,1,0,0:0:0:0:
384,192,2572,1,0,0:0:0:0:
256,192,2572,1,0,0:0:0:0:
384,192,2575,1,0,0:0:0:0:
256,192,2576,1,0,0:0:0:0:
384,192,2577,1,0,0:0:0:0:
256,192,2578,1,0,0:0:0:0:
256,192,2580,1,0,0:0:0:0:
256,192,2581,1,0,0:0:0:0:
256,192,2583,1,0,0:0:0:0:
384,192,2586,1,0,0:0:0:0:
256,192,2587,1,0,0:0:0:0:
256,192,2591,1,0,0:0:0:0:
384,192,2591,1,0,0:0:0:0:
384,192,2592,1,0,0:0:0:0:
256,192,2592,1,0,0:0:0:0:
256,192,2593,1,0,0:0:0:0:
384,192,2593,1,0,0:0:0:0:
384,192,2594,1,0,0:0:0:0:
384,192,2595,1,0,0:0:0:0:
256,192,2596,1,0,0:0:0:0:
256,192,2597,1,0,0:0:0:0:
384,192,2598,1,0,0:0:0:0:
256,192,2599,1,0,0:0:0:0:
384,192,2599,1,0,0:0:0:0:
256,192,2600,1,0,0:0:0:0:
384,192,2600,1,0,0:0:0:0:
256,192,2603,1,0,0:0:0:0:
256,192,2604,1,0,0:0:0:0:
384,192,2605,1,0,0:0:0:0:
384,192,2606,1,0,0:0:0:0:
256,192,2606,1,0,0:0:0:0:
256,192,2607,1,0,0:0:0:0:
384,192,2608,1,0,0:0:0:0:
256,192,2609,1,0,0:0:0:0:
384,192,2613,1,0,0:0:0:0:
256,192,2614,1,0,0:0:0:0:
384,192,2614,1,0,0:0:0:0:
384,192,2615,1,0,0:0:0:0:
384,192,2616,1,0,0:0:0:0:
256,192,2616,1,0,0:0:0:0:
256,192,2617,1,0,0:0:0:0:
384,192,2619,1,0,0:0:0:0:
256,192,2619,1,0,0:0:0:0:
384,192,2621,1,0,0:0:0:0:
256,192,2622,1,0,0:0:0:0:
256,192,2624,1,0,0:0:0:0:
384,192,2624,1,0,0:0:0:0:
256,192,2625,1,0,0:0:0:0:
384,192,2626,1,0,0:0:0:0:
256,192,2627,1,0,0:0:0:0:
384,192,2628,1,0,0:0:0:0:
256,192,2630,1,0,0:0:0:0:
384,192,2630,1,0,0:0:0:0:
256,192,2631,1,0,0:0:0:0:
384,192,2632,1,0,0:0:0:0:
384,192,2634,1,0,0:0:0:0:
256,192,2635,1,0,0:0:0:0:
384,192,2635,1,0,0:0:0:0:
256,192,2636,1,0,0:0:0:0:
384,192,2636,1,0,0:0:0:0:
384,192,2637,1,0,0:0:0:0:
384,192,2638,1,0,0:0:0:0:
256,192,2641,1,0,0:0:0:0:
256,192,2643,1,0,0:0:0:0:
384,192,2643,1,0,0:0:0:0:
384,192,2644,1,0,0:0:0:0:
256,192,2644,1,0,0:0:0:0:
384,192,2647,1,0,0:0:0:0:
256,192,2647,1,0,0:0:0:0:
384,192,2648,1,0,0:0:0:0:
384,192,2651,1,0,0:0:0:0:
384,192,2652,1,0,0:0:0:0:
256,192,2653,1,0,0:0:0:0:
384,192,2653,1,0,0:0:0:0:
256,192,2655,1,0,0:0:0:0:
256,192,2657,1,0,0:0:0:0:
384,192,2658,1,0,0:0:0:0:
256,192,2660,1,0,0:0:0:0:
256,192,2661,1,0,0:0:0:0:
384,192,2661,1,0,0:0:0:0:
384,192,2662,1,0,0:0:0:0:
256,192,2663,1,0,0:0:0:0:
256,192,2665,1,0,0:0:0:0:
384,192,2666,1,0,0:0:0:0:
384,192,2667,1,0,0:0:0:0:
256,192,2667,1,0,0:0:0:0:
384,192,2668,1,0,0:0:0:0:
256,192,2668,1,0,0:0:0:0:
384,192,2669,1,0,0:0:0:0:
384,192,2670,1,0,0:0:0:0:
256,192,2671,1,0,0:0:0:0:
384,192,2672,1,0,0:0:0:0:
256,192,2672,1,0,0:0:0:0:
384,192,2673,1,0,0:0:0:0:
256,192,2675,1,0,0:0:0:0:
384,192,2676,1,0,0:0:0:0:
256,192,2676,1,0,0:0:0:0:
256,192,2677,1,0,0:0:0:0:
384,192,2678,1,0,0:0:0:0:
256,192,2679,1,0,0:0:0:0:
256,192,2681,1,0,0:0:0:0:
384,192,2682,1,0,0:0:0:0:
256,192,2682,1,0,0:0:0:0:
384,192,2683,1,0,0:0:0:0:
384,192,2684,1,0,0:0:0:0:
256,192,2686,1,0,0:0:0:0:
256,192,2687,1,0,0:0:0:0:
256,192,2688,1,0,0:0:0:0:
384,192,2689,1,0,0:0:0:0:
384,192,2691,1,0,0:0:0:0:
256,192,2691,1,0,0:0:0:0:
256,192,2692,1,0,0:0:0:0:
384,192,2692,1,0,0:0:0:0:
256,192,2694,1,0,0:0:0:0:
256,192,2695,1,0,0:0:0:0:
384,192,2695,1,0,0:0:0:0:
384,192,2696,1,0,0:0:0:0:
384,192,2697,1,0,0:0:0:0:
256,192,2697,1,0,0:0:0:0:
384,192,2698,1,0,0:0:0:0:
256,192,2699,1,0,0:0:0:0:
256,192,2701,1,0,0:0:0:0:
384,192,2702,1,0,0:0:0:0:
256,192,2704,1,0,0:0:0:0:
384,192,2704,1,0,0:0:0:0:
384,192,2705,1,0,0:0:0:0:
384,192,2706,1,0,0:0:0:0:
256,192,2708,1,0,0:0:0:0:
256,192,2709,1,0,0:0:0:0:
384,192,2710,1,0,0:0:0:0:
384,192,2711,1,0,0:0:0:0:
256,192,2711,1,0,0:0:0:0:
384,192,2712,1,0,0:0:0:0:
256,192,2712,1,0,0:0:0:0:
256,192,2713,1,0,0:0:0:0:
384,192,2713,1,0,0:0:0:0:
384,192,2714,1,0,0:0:0:0:
256,192,2714,1,0,0:0:0:0:
384,192,2716,1,0,0:0:0:0:
256,192,2716,1,0,0:0:0:0:
384,192,2717,1,0,0:0:0:0:
384,192,2718,1,0,0:0:0:0:
256,192,2719,1,0,0:0:0:0:
256,192,2720,1,0,0:0:0:0:
256,192,2721,1,0,0:0:0:0:
384,192,2722,1,0,0:0:0:0:
384,192,2723,1,0,0:0:0:0:
384,192,2724,1,0,0:0:0:0:
384,192,2725,1,0,0:0:0:0:
256,192,2725,1,0,0:0:0:0:
256,192,2726,1,0,0:0:0:0:
384,192,2727,1,0,0:0:0:0:
384,192,2728,1,0,0:0:0:0:
256,192,2729,1,0,0:0:0:0:
384,192,2729,1,0,0:0:0:0:
256,192,2730,1,0,0:0:0:0:
256,192,2731,1,0,0:0:0:0:
384,192,2733,1,0,0:0:0:0:
384,192,2735,1,0,0:0:0:0:
256,192,2736,1,0,0:0:0:0:
256,192,2737,1,0,0:0:0:0:
256,192,2738,1,0,0:0:0:0:
256,192,2739,1,0,0:0:0:0:
384,192,2740,1,0,0:0:0:0:
384,192,2741,1,0,0:0:0:0:
256,192,2742,1,0,0:0:0:0:
384,192,2742,1,0,0:0:0:0:
384,192,2743,1,0,0:0:0:0:
384,192,2746,1,0,0:0:0:0:
256,192,2748,1,0,0:0:0:0:
384,192,2748,1,0,0:0:0:0:
256,192,2749,1,0,0:0:0:0:
384,192,2749,1,0,0:0:0:0:
384,192,2751,1,0,0:0:0:0:
384,192,2752,1,0,0:0:0:0:
256,192,2752,1,0,0:0:0:0:
384,192,2754,1,0,0:0:0:0:
256,192,2755,1,0,0:0:0:0:
384,192,2756,1,0,0:0:0:0:
256,192,2756,1,0,0:0:0:0:
384,192,2758,1,0,0:0:0:0:
256,192,2759,1,0,0:0:0:0:
384,192,2762,1,0,0:0:0:0:
384,192,2763,1,0,0:0:0:0:
256,192,2763,1,0,0:0:0:0:
384,192,2764,1,0,0:0:0:0:
256,192,2765,1,0,0:0:0:0:
384,192,2766,1,0,0:0:0:0:
256,192,2767,1,0,0:0:0:0:
384,192,2767,1,0,0:0:0:0:
384,192,2768,1,0,0:0:0:0:
384,192,2769,1,0,0:0:0:0:
384,192,2770,1,0,0:0:0:0:
256,192,2770,1,0,0:0:0:0:
256,192,2771,1,0,0:0:0:0:
256,192,2772,1,0,0:0:0:0:
256,192,2773,1,0,0:0:0:0:
384,192,2773,1,0,0:0:0:0:
384,192,2774,1,0,0:0:0:0:
256,192,2776,1,0,0:0:0:0:
256,192,2777,1,0,0:0:0:0:
384,192,2779,1,0,0:0:0:0:
384,192,2780,1,0,0:0:0:0:
256,192,2781,1,0,0:0:0:0:
384,192,2781,1,0,0:0:0:0:
384,192,2782,1,0,0:0:0:0:
256,192,2783,1,0,0:0:0:0:
384,192,2786,1,0,0:0:0:0:
256,192,2786,1,0,0:0:0:0:
384,192,2787,1,0,0:0:0:0:
256,192,2787,1,0,0:0:0:0:
256,192,2788,1,0,0:0:0:0:
384,192,2788,1,0,0:0:0:0:
256,192,2790,1,0,0:0:0:0:
384,192,2790,1,0,0:0:0:0:
256,192,2792,1,0,0:0:0:0:
256,192,2793,1,0,0:0:0:0:
384,192,2793,1,0,0:0:0:0:
384,192,2794,1,0,0:0:0:0:
384,192,2795,1,0,0:0:0:0:
384,192,2796,1,0,0:0:0:0:
256,192,2796,1,0,0:0:0:0:
256,192,2798,1,0,0:0:0:0:
256,192,2799,1,0,0:0:0:0:
384,192,2800,1,0,0:0:0:0:
384,192,2801,1,0,0:0:0:0:
384,192,2802,1,0,0:0:0:0:
256,192,2803,1,0,0:0:0:0:
256,192,2806,1,0,0:0:0:0:
384,192,2807,1,0,0:0:0:0:
256,192,2807,1,0,0:0:0:0:
384,192,2808,1,0,0:0:0:0:
384,192,2809,1,0,0:0:0:0:
256,192,2809,1,0,0:0:0:0:
256,192,2811,1,0,0:0:0:0:
384,192,2811,1,0,0:0:0:0:
384,192,2812,1,0,0:0:0:0:
256,192,2813,1,0,0:0:0:0:
384,192,2814,1,0,0:0:0:0:
256,192,2814,1,0,0:0:0:0:
256,192,2815,1,0,0:0:0:0:
256,192,2816,1,0,0:0:0:0:
384,192,2818,1,0,0:0:0:0:
256,192,2820,1,0,0:0:0:0:
256,192,2821,1,0,0:0:0:0:
384,192,2821,1,0,0:0:0:0:
256,192,2823,1,0,0:0:0:0:
384,192,2823,1,0,0:0:0:0:
384,192,2824,1,0,0:0:0:0:
256,192,2824,1,0,0:0:0:0:
384,192,2825,1,0,0:0:0:0:
384,192,2826,1,0,0:0:0:0:
384,192,2827,1,0,0:0:0:0:
384,192,2830,1,0,0:0:0:0:
256,192,2831,1,0,0:0:0:0:
384,192,2831,1,0,0:0:0:0:
384,192,2832,1,0,0:0:0:0:
256,192,2832,1,0,0:0:0:0:
384,192,2833,1,0,0:0:0:0:
256,192,2833,1,0,0:0:0:0:
256,192,2834,1,0,0:0:0:0:
384,192,2836,1,0,0:0:0:0:
256,192,2836,1,0,0:0:0:0:
256,192,2837,1,0,0:0:0:0:
384,192,2838,1,0,0:0:0:0:
384,192,2839,1,0,0:0:0:0:
384,192,2840,1,0,0:0:0:0:
384,192,2841,1,0,0:0:0:0:
256,192,2843,1,0,0:0:0:0:
256,192,2844,1,0,0:0:0:0:
384,192,2845,1,0,0:0:0:0:
384,192,2846,1,0,0:0:0:0:
384,192,2847,1,0,0:0:0:0:
256,192,2847,1,0,0:0:0:0:
256,192,2849,1,0,0:0:0:0:
384,192,2849,1,0,0:0:0:0:
256,192,2850,1,0,0:0:0:0:
256,192,2851,1,0,0:0:0:0:
384,192,2851,1,0,0:0:0:0:
384,192,2852,1,0,0:0:0:0:
384,192,2853,1,0,0:0:0:0:
256,192,2854,1,0,0:0:0:0:
384,192,2855,1,0,0:0:0:0:
384,192,2856,1,0,0:0:0:0:
256,192,2857,1,0,0:0:0:0:
256,192,2858,1,0,0:0:0:0:
384,192,2860,1,0,0:0:0:0:
256,192,2860,1,0,0:0:0:0:
384,192,2862,1,0,0:0:0:0:
256,192,2862,1,0,0:0:0:0:
256,192,2864,1,0,0:0:0:0:
384,192,2864,1,0,0:0:0:0:
256,192,2865,1,0,0:0:0:0:
384,192,2865,1,0,0:0:0:0:
256,192,2866,1,0,0:0:0:0:
256,192,2867,1,0,0:0:0:0:
384,192,2867,1,0,0:0:0:0:
256,192,2868,1,0,0:0:0:0:
384,192,2870,1,0,0:0:0:0:
256,192,2871,1,0,0:0:0:0:
384,192,2871,1,0,0:0:0:0:
384,192,2872,1,0,0:0:0:0:
256,192,2876,1,0,0:0:0:0:
384,192,2877,1,0,0:0:0:0:
256,192,2877,1,0,0:0:0:0:
384,192,2878,1,0,0:0:0:0:
384,192,2880,1,0,0:0:0:0:
256,192,2881,1,0,0:0:0:0:
256,192,2883,1,0,0:0:0:0:
256,192,2884,1,0,0:0:0:0:
384,192,2884,1,0,0:0:0:0:
384,192,2885,1,0,0:0:0:0:
256,192,2887,1,0,0:0:0:0:
256,192,2888,1,0,0:0:0:0:
384,192,2890,1,0,0:0:0:0:
256,192,2891,1,0,0:0:0:0:
384,192,2891,1,0,0:0:0:0:
384,192,2892,1,0,0:0:0:0:
384,192,2893,1,0,0:0:0:0:
256,192,2893,1,0,0:0:0:0:
256,192,2897,1,0,0:0:0:0:
256,192,2898,1,0,0:0:0:0:
384,192,2899,1,0,0:0:0:0:
384,192,2904,1,0,0:0:0:0:
256,192,2904,1,0,0:0:0:0:
384,192,2905,1,0,0:0:0:0:
384,192,2906,1,0,0:0:0:0:
256,192,2906,1,0,0:0:0:0:
384,192,2907,1,0,0:0:0:0:
384,192,2908,1,0,0:0:0:0:
256,192,2908,1,0,0:0:0:0:
384,192,2909,1,0,0:0:0:0:
256,192,2909,1,0,0:0:0:0:
256,192,2910,1,0,0:0:0:0:
256,192,2911,1,0,0:0:0:0:
384,192,2913,1,0,0:0:0:0:
256,192,2915,1,0,0:0:0:0:
384,192,2915,1,0,0:0:0:0:
256,192,2916,1,0,0:0:0:0:
384,192,2916,1,0,0:0:0:0:
256,192,2917,1,0,0:0:0:0:
384,192,2918,1,0,0:0:0:0:
384,192,2919,1,0,0:0:0:0:
256,192,2919,1,0,0:0:0:0:
384,192,2922,1,0,0:0:0:0:
384,192,2923,1,0,0:0:0:0:
384,192,2924,1,0,0:0:0:0:
256,192,2927,1,0,0:0:0:0:
256,192,2928,1,0,0:0:0:0:
384,192,2928,1,0,0:0:0:0:
384,192,2929,1,0,0:0:0:0:
384,192,2930,1,0,0:0:0:0:
256,192,2931,1,0,0:0:0:0:
384,192,2933,1,0,0:0:0:0:
384,192,2935,1,0,0:0:0:0:
384,192,2936,1,0,0:0:0:0:
384,192,2937,1,0,0:0:0:0:
384,192,2938,1,0,0:0:0:0:
256,192,2938,1,0,0:0:0:0:
256,192,2939,1,0,0:0:0:0:
256,192,2941,1,0,0:0:0:0:
256,192,2942,1,0,0:0:0:0:
384,192,2943,1,0,0:0:0:0:
256,192,2944,1,0,0:0:0:0:
256,192,2949,1,0,0:0:0:0:
384,192,2949,1,0,0:0:0:0:
384,192,2951,1,0,0:0:0:0:
384,192,2952,1,0,0:0:0:0:
256,192,2952,1,0,0:0:0:0:
256,192,2953,1,0,0:0:0:0:
256,192,2955,1,0,0:0:0:0:
256,192,2957,1,0,0:0:0:0:
384,192,2957,1,0,0:0:0:0:
384,192,2958,1,0,0:0:0:0:
256,192,2959,1,0,0:0:0:0:
256,192,2960,1,0,0:0:0:0:
256,192,2961,1,0,0:0:0:0:
384,192,2962,1,0,0:0:0:0:
256,192,2963,1,0,0:0:0:0:
384,192,2963,1,0,0:0:0:0:
256,192,2965,1,0,0:0:0:0:
384,192,2967,1,0,0:0:0:0:
384,192,2968,1,0,0:0:0:0:
384,192,2969,1,0,0:0:0:0:
256,192,2971,1,0,0:0:0:0:
256,192,2972,1,0,0:0:0:0:
384,192,2974,1,0,0:0:0:0:
384,192,2977,1,0,0:0:0:0:
256,192,2978,1,0,0:0:0:0:
256,192,2979,1,0,0:0:0:0:
384,192,2981,1,0,0:0:0:0:
384,192,2982,1,0,0:0:0:0:
256,192,2982,1,0,0:0:0:0:
256,192,2983,1,0,0:0:0:0:
384,192,2983,1,0,0:0:0:0:
384,192,2987,1,0,0:0:0:0:
256,192,2988,1,0,0:0:0:0:
384,192,2989,1,0,0:0:0:0:
384,192,2991,1,0,0:0:0:0:
256,192,2992,1,0,0:0:0:0:
256,192,2993,1,0,0:0:0:0:
384,192,2996,1,0,0:0:0:0:
384,192,2997,1,0,0:0:0:0:
256,192,2999,1,0,0:0:0:0:
384,192,3001,1,0,0:0:0:0:
256,192,3001,1,0,0:0:0:0:
384,192,3002,1,0,0:0:0:0:
256,192,3003,1,0,0:0:0:0:
384,192,3003,1,0,0:0:0:0:
256,192,3006,1,0,0:0:0:0:
384,192,3006,1,0,0:0:0:0:
256,192,3011,1,0,0:0:0:0:
256,192,3012,1,0,0:0:0:0:
384,192,3012,1,0,0:0:0:0:
384,192,3013,1,0,0:0:0:0:
384,192,3014,1,0,0:0:0:0:
384,192,3020,1,0,0:0:0:0:
256,192,3021,5,0,0:0:0:0:
256,192,3022,1,0,0:0:0:0:
384,192,3023,1,0,0:0:0:0:
256,192,3023,1,0,0:0:0:0:
384,192,3026,1,0,0:0:0:0:
256,192,3026,1,0,0:0:0:0:
256,192,3027,5,0,0:0:0:0:
384,192,3027,1,0,0:0:0:0:
384,192,3028,1,0,0:0:0:0:
384,192,3033,1,0,0:0:0:0:
384,192,3035,1,0,0:0:0:0:
256,192,3036,1,0,0:0:0:0:
256,192,3037,1,0,0:0:0:0:
256,192,3039,1,0,0:0:0:0:
384,192,3041,1,0,0:0:0:0:
256,192,3044,1,0,0:0:0:0:
384,192,3046,1,0,0:0:0:0:
384,192,3047,1,0,0:0:0:0:
256,192,3047,1,0,0:0:0:0:
384,192,3048,1,0,0:0:0:0:
384,192,3049,1,0,0:0:0:0:
256,192,3049,1,0,0:0:0:0:
256,192,3050,5,0,0:0:0:0:
256,192,3051,1,0,0:0:0:0:
384,192,3052,1,0,0:0:0:0:
256,192,3054,1,0,0:0:0:0:
256,192,3055,1,0,0:0:0:0:
256,192,3056,1,0,0:0:0:0:
384,192,3056,1,0,0:0:0:0:
384,192,3058,1,0,0:0:0:0:
384,192,3064,1,0,0:0:0:0:
256,192,3065,5,0,0:0:0:0:
384,192,3065,1,0,0:0:0:0:
256,192,3066,1,0,0:0:0:0:
384,192,3067,1,0,0:0:0:0:
256,192,3067,1,0,0:0:0:0:
384,192,3071,1,0,0:0:0:0:
384,192,3072,1,0,0:0:0:0:
256,192,3073,1,0,0:0:0:0:
256,192,3074,1,0,0:0:0:0:
256,192,3077,1,0,0:0:0:0:
256,192,3078,1,0,0:0:0:0:
384,192,3081,1,0,0:0:0:0:
256,192,3083,1,0,0:0:0:0:
384,192,3086,1,0,0:0:0:0:
384,192,3087,1,0,0:0:0:0:
256,192,3087,1,0,0:0:0:0:
256,192,3088,1,0,0:0:0:0:
384,192,3091,1,0,0:0:0:0:
384,192,3092,1,0,0:0:0:0:
384,192,3093,1,0,0:0:0:0:
256,192,3094,5,0,0:0:0:0:
384,192,3094,1,0,0:0:0:0:
256,192,3095,1,0,0:0:0:0:
384,192,3096,1,0,0:0:0:0:
256,192,3098,1,0,0:0:0:0:
256,192,3100,1,0,0:0:0:0:
384,192,3100,1,0,0:0:0:0:
256,192,3106,1,0,0:0:0:0:
256,192,3107,1,0,0:0:0:0:
384,192,3110,1,0,0:0:0:0:
384,192,3111,1,0,0:0:0:0:
384,192,3116,1,0,0:0:0:0:
256,192,3116,1,0,0:0:0:0:
256,192,3117,1,0,0:0:0:0:
256,192,3118,1,0,0:0:0:0:
384,192,3121,1,0,0:0:0:0:
256,192,3121,1,0,0:0:0:0:
256,192,3122,1,0,0:0:0:0:
384,192,3123,1,0,0:0:0:0:
384,192,3125,1,0,0:0:0:0:
256,192,3126,5,0,0:0:0:0:
384,192,3130,1,0,0:0:0:0:
384,192,3131,1,0,0:0:0:0:
256,192,3131,1,0,0:0:0:0:
256,192,3133,1,0,0:0:0:0:
256,192,3138,1,0,0:0:0:0:
384,192,3138,1,0,0:0:0:0:
384,192,3139,1,0,0:0:0:0:
256,192,3144,1,0,0:0:0:0:
384,192,3145,1,0,0:0:0:0:
256,192,3145,1,0,0:0:0:0:
256,192,3146,5,0,0:0:0:0:
384,192,3146,1,0,0:0:0:0:
256,192,3149,1,0,0:0:0:0:
384,192,3149,1,0,0:0:0:0:
256,192,3150,1,0,0:0:0:0:
256,192,3151,1,0,0:0:0:0:
384,192,3154,1,0,0:0:0:0:
384,192,3155,1,0,0:0:0:0:
256,192,3160,1,0,0:0:0:0:
384,192,3165,1,0,0:0:0:0:
256,192,3167,1,0,0:0:0:0:
384,192,3167,1,0,0:0:0:0:
384,192,3169,1,0,0:0:0:0:
256,192,3169,1,0,0:0:0:0:
256,192,3170,5,0,0:0:0:0:
384,192,3170,1,0,0:0:0:0:
256,192,3173,1,0,0:0:0:0:
256,192,3182,1,0,0:0:0:0:
384,192,3183,1,0,0:0:0:0:
384,192,3184,1,0,0:0:0:0:
384,192,3189,1,0,0:0:0:0:
256,192,3189,1,0,0:0:0:0:
256,192,3190,5,0,0:0:0:0:
384,192,3190,1,0,0:0:0:0:
256,192,3193,1,0,0:0:0:0:
256,192,3195,1,0,0:0:0:0:
384,192,3199,1,0,0:0:0:0:
384,192,3208,1,0,0:0:0:0:
256,192,3211,1,0,0:0:0:0:
256,192,3213,1,0,0:0:0:0:
384,192,3213,1,0,0:0:0:0:
384,192,3214,1,0,0:0:0:0:
384,192,3215,1,0,0:0:0:0:
256,192,3217,1,0,0:0:0:0:
384,192,3218,1,0,0:0:0:0:
384,192,3219,1,0,0:0:0:0:
256,192,3221,1,0,0:0:0:0:
384,192,3228,1,0,0:0:0:0:
256,192,3233,1,0,0:0:0:0:
384,192,3235,1,0,0:0:0:0:
384,192,3237,1,0,0:0:0:0:
256,192,3239,1,0,0:0:0:0:
256,192,3240,1,0,0:0:0:0:
256,192,3241,1,0,0:0:0:0:
256,192,3243,1,0,0:0:0:0:
384,192,3243,1,0,0:0:0:0:
384,192,3252,1,0,0:0:0:0:
256,192,3255,1,0,0:0:0:0:
384,192,3257,1,0,0:0:0:0:
384,192,3259,1,0,0:0:0:0:
256,192,3262,1,0,0:0:0:0:
384,192,3262,1,0,0:0:0:0:
256,192,3263,1,0,0:0:0:0:
384,192,3263,1,0,0:0:0:0:
256,192,3265,1,0,0:0:0:0:
384,192,3267,1,0,0:0:0:0:
256,192,3267,1,0,0:0:0:0:
256,192,3277,1,0,0:0:0:0:
384,192,3279,1,0,0:0:0:0:
384,192,3281,1,0,0:0:0:0:
256,192,3284,1,0,0:0:0:0:
256,192,3285,1,0,0:0:0:0:
256,192,3287,1,0,0:0:0:0:
384,192,3287,1,0,0:0:0:0:
384,192,3289,1,0,0:0:0:0:
256,192,3290,1,0,0:0:0:0:
384,192,3305,1,0,0:0:0:0:
256,192,3305,1,0,0:0:0:0:
256,192,3306,1,0,0:0:0:0:
256,192,3307,1,0,0:0:0:0:
384,192,3309,1,0,0:0:0:0:
384,192,3310,1,0,0:0:0:0:
384,192,3311,1,0,0:0:0:0:
256,192,3311,1,0,0:0:0:0:
384,192,3313,1,0,0:0:0:0:
256,192,3316,1,0,0:0:0:0:
384,192,3316,1,0,0:0:0:0:
384,192,3325,1,0,0:0:0:0:
256,192,3328,1,0,0:0:0:0:
384,192,3332,1,0,0:0:0:0:
384,192,3333,1,0,0:0:0:0:
384,192,3334,1,0,0:0:0:0:
256,192,3334,1,0,0:0:0:0:
256,192,3336,1,0,0:0:0:0:
256,192,3338,1,0,0:0:0:0:
384,192,3341,1,0,0:0:0:0:
384,192,3349,1,0,0:0:0:0:
256,192,3349,1,0,0:0:0:0:
384,192,3353,1,0,0:0:0:0:
384,192,3354,1,0,0:0:0:0:
256,192,3357,1,0,0:0:0:0:
384,192,3357,1,0,0:0:0:0:
256,192,3358,1,0,0:0:0:0:
384,192,3360,1,0,0:0:0:0:
256,192,3360,1,0,0:0:0:0:
256,192,3362,1,0,0:0:0:0:
384,192,3365,1,0,0:0:0:0:
256,192,3372,1,0,0:0:0:0:
384,192,3376,1,0,0:0:0:0:
384,192,3377,1,0,0:0:0:0:
384,192,3378,1,0,0:0:0:0:
256,192,3378,1,0,0:0:0:0:
384,192,3379,1,0,0:0:0:0:
256,192,3380,1,0,0:0:0:0:
256,192,3382,1,0,0:0:0:0:
256,192,3385,1,0,0:0:0:0:
384,192,3385,1,0,0:0:0:0:
384,192,3386,1,0,0:0:0:0:
256,192,3400,1,0,0:0:0:0:
256,192,3401,1,0,0:0:0:0:
256,192,3402,1,0,0:0:0:0:
384,192,3403,1,0,0:0:0:0:
256,192,3406,1,0,0:0:0:0:
384,192,3406,1,0,0:0:0:0:
384,192,3408,1,0,0:0:0:0:
384,192,3409,1,0,0:0:0:0:
384,192,3410,1,0,0:0:0:0:
256,192,3410,1,0,0:0:0:0:
256,192,3423,1,0,0:0:0:0:
384,192,3423,1,0,0:0:0:0:
256,192,3429,1,0,0:0:0:0:
256,192,3430,1,0,0:0:0:0:
384,192,3430,1,0,0:0:0:0:
384,192,3431,1,0,0:0:0:0:
384,192,3432,1,0,0:0:0:0:
256,192,3433,1,0,0:0:0:0:
256,192,3444,1,0,0:0:0:0:
384,192,3447,1,0,0:0:0:0:
384,192,3450,1,0,0:0:0:0:
256,192,3452,1,0,0:0:0:0:
384,192,3452,1,0,0:0:0:0:
256,192,3453,1,0,0:0:0:0:
384,192,3454,1,0,0:0:0:0:
256,192,3454,1,0,0:0:0:0:
384,192,3455,1,0,0:0:0:0:
256,192,3457,1,0,0:0:0:0:
256,192,3467,1,0,0:0:0:0:
384,192,3469,1,0,0:0:0:0:
256,192,3473,1,0,0:0:0:0:
384,192,3474,1,0,0:0:0:0:
256,192,3474,1,0,0:0:0:0:
384,192,3475,1,0,0:0:0:0:
384,192,3476,1,0,0:0:0:0:
256,192,3477,1,0,0:0:0:0:
256,192,3479,1,0,0:0:0:0:
384,192,3484,1,0,0:0:0:0:
384,192,3493,1,0,0:0:0:0:
256,192,3495,1,0,0:0:0:0:
256,192,3496,1,0,0:0:0:0:
256,192,3497,1,0,0:0:0:0:
384,192,3498,1,0,0:0:0:0:
384,192,3499,1,0,0:0:0:0:
256,192,3501,1,0,0:0:0:0:
384,192,3503,1,0,0:0:0:0:
384,192,3504,1,0,0:0:0:0:
256,192,3505,1,0,0:0:0:0:
384,192,3508,1,0,0:0:0:0:
384,192,3513,1,0,0:0:0:0:
256,192,3517,1,0,0:0:0:0:
384,192,3522,1,0,0:0:0:0:
256,192,3523,1,0,0:0:0:0:
256,192,3524,1,0,0:0:0:0:
256,192,3525,1,0,0:0:0:0:
384,192,3527,1,0,0:0:0:0:
256,192,3528,1,0,0:0:0:0:
384,192,3528,1,0,0:0:0:0:
384,192,3537,1,0,0:0:0:0:
256,192,3539,1,0,0:0:0:0:
384,192,3542,1,0,0:0:0:0:
256,192,3546,1,0,0:0:0:0:
384,192,3547,1,0,0:0:0:0:
256,192,3548,1,0,0:0:0:0:
384,192,3548,1,0,0:0:0:0:
256,192,3549,1,0,0:0:0:0:
384,192,3552,1,0,0:0:0:0:
256,192,3552,1,0,0:0:0:0:
256,192,3561,1,0,0:0:0:0:
384,192,3566,1,0,0:0:0:0:
384,192,3571,1,0,0:0:0:0:
256,192,3572,1,0,0:0:0:0:
384,192,3572,1,0,0:0:0:0:
256,192,3574,1,0,0:0:0:0:
384,192,3590,1,0,0:0:0:0:
256,192,3590,1,0,0:0:0:0:
256,192,3592,1,0,0:0:0:0:
384,192,3596,1,0,0:0:0:0:
384,192,3598,1,0,0:0:0:0:
256,192,3612,1,0,0:0:0:0:
384,192,3617,1,0,0:0:0:0:
256,192,3618,1,0,0:0:0:0:
384,192,3618,1,0,0:0:0:0:
384,192,3619,1,0,0:0:0:0:
256,192,3622,1,0,0:0:0:0:
384,192,3634,1,0,0:0:0:0:
256,192,3641,1,0,0:0:0:0:
384,192,3642,1,0,0:0:0:0:
256,192,3642,1,0,0:0:0:0:
256,192,3656,1,0,0:0:0:0:
384,192,3661,1,0,0:0:0:0:
384,192,3662,1,0,0:0:0:0:
384,192,3663,1,0,0:0:0:0:
256,192,3666,1,0,0:0:0:0:
256,192,3669,1,0,0:0:0:0:
384,192,3680,1,0,0:0:0:0:
256,192,3685,1,0,0:0:0:0:
384,192,3686,1,0,0:0:0:0:
256,192,3686,1,0,0:0:0:0:
384,192,3695,1,0,0:0:0:0:
256,192,3707,1,0,0:0:0:0:
384,192,3709,1,0,0:0:0:0:
256,192,3713,1,0,0:0:0:0:
384,192,3715,1,0,0:0:0:0:
256,192,3717,1,0,0:0:0:0:
384,192,3724,1,0,0:0:0:0:
256,192,3736,1,0,0:0:0:0:
256,192,3737,1,0,0:0:0:0:
384,192,3739,1,0,0:0:0:0:
384,192,3740,1,0,0:0:0:0:
256,192,3751,1,0,0:0:0:0:
384,192,3753,1,0,0:0:0:0:
384,192,3759,1,0,0:0:0:0:
256,192,3761,1,0,0:0:0:0:
256,192,3764,1,0,0:0:0:0:
384,192,3778,1,0,0:0:0:0:
256,192,3780,1,0,0:0:0:0:
256,192,3781,1,0,0:0:0:0:
384,192,3784,1,0,0:0:0:0:
384,192,3785,1,0,0:0:0:0:
256,192,3802,1,0,0:0:0:0:
384,192,3805,1,0,0:0:0:0:
384,192,3807,1,0,0:0:0:0:
256,192,3808,1,0,0:0:0:0:
256,192,3812,1,0,0:0:0:0:
384,192,3822,1,0,0:0:0:0:
384,192,3829,1,0,0:0:0:0:
384,192,3830,1,0,0:0:0:0:
256,192,3831,1,0,0:0:0:0:
256,192,3832,1,0,0:0:0:0:
256,192,3846,1,0,0:0:0:0:
384,192,3849,1,0,0:0:0:0:
384,192,3851,1,0,0:0:0:0:
256,192,3856,1,0,0:0:0:0:
256,192,3858,1,0,0:0:0:0:
384,192,3868,1,0,0:0:0:0:
384,192,3874,1,0,0:0:0:0:
256,192,3875,1,0,0:0:0:0:
256,192,3876,1,0,0:0:0:0:
384,192,3883,1,0,0:0:0:0:
256,192,3896,1,0,0:0:0:0:
384,192,3897,1,0,0:0:0:0:
384,192,3902,1,0,0:0:0:0:
256,192,3902,1,0,0:0:0:0:
384,192,3903,1,0,0:0:0:0:
256,192,3907,1,0,0:0:0:0:
384,192,3912,1,0,0:0:0:0:
256,192,3925,1,0,0:0:0:0:
384,192,3927,1,0,0:0:0:0:
256,192,3927,1,0,0:0:0:0:
256,192,3940,1,0,0:0:0:0:
384,192,3941,1,0,0:0:0:0:
384,192,3946,1,0,0:0:0:0:
384,192,3947,1,0,0:0:0:0:
256,192,3951,1,0,0:0:0:0:
256,192,3953,1,0,0:0:0:0:
384,192,3965,1,0,0:0:0:0:
256,192,3969,1,0,0:0:0:0:
384,192,3971,1,0,0:0:0:0:
256,192,3971,1,0,0:0:0:0:
384,192,3973,1,0,0:0:0:0:
256,192,3991,1,0,0:0:0:0:
384,192,3993,1,0,0:0:0:0:
384,192,3994,1,0,0:0:0:0:
256,192,3997,1,0,0:0:0:0:
384,192,4000,1,0,0:0:0:0:
256,192,4001,1,0,0:0:0:0:
384,192,4009,1,0,0:0:0:0:
384,192,4017,1,0,0:0:0:0:
256,192,4020,1,0,0:0:0:0:
256,192,4021,1,0,0:0:0:0:
384,192,4025,1,0,0:0:0:0:
256,192,4035,1,0,0:0:0:0:
384,192,4037,1,0,0:0:0:0:
384,192,4038,1,0,0:0:0:0:
384,192,4044,1,0,0:0:0:0:
256,192,4045,1,0,0:0:0:0:
256,192,4048,1,0,0:0:0:0:
384,192,4063,1,0,0:0:0:0:
256,192,4064,1,0,0:0:0:0:
256,192,4065,1,0,0:0:0:0:
384,192,4069,1,0,0:0:0:0:
384,192,4070,1,0,0:0:0:0:
256,192,4086,1,0,0:0:0:0:
384,192,4090,1,0,0:0:0:0:
256,192,4092,1,0,0:0:0:0:
384,192,4092,1,0,0:0:0:0:
256,192,4096,1,0,0:0:0:0:
384,192,4107,1,0,0:0:0:0:
384,192,4114,1,0,0:0:0:0:
256,192,4115,1,0,0:0:0:0:
256,192,4116,1,0,0:0:0:0:
384,192,4122,1,0,0:0:0:0:
256,192,4130,1,0,0:0:0:0:
384,192,4134,1,0,0:0:0:0:
384,192,4136,1,0,0:0:0:0:
256,192,4140,1,0,0:0:0:0:
256,192,4143,1,0,0:0:0:0:
256,192,4159,1,0,0:0:0:0:
384,192,4160,1,0,0:0:0:0:
256,192,4160,1,0,0:0:0:0:
384,192,4166,1,0,0:0:0:0:
384,192,4168,1,0,0:0:0:0:
256,192,4181,1,0,0:0:0:0:
384,192,4187,1,0,0:0:0:0:
256,192,4187,1,0,0:0:0:0:
384,192,4188,1,0,0:0:0:0:
384,192,4189,1,0,0:0:0:0:
256,192,4191,1,0,0:0:0:0:
384,192,4204,1,0,0:0:0:0:
256,192,4210,1,0,0:0:0:0:
256,192,4211,1,0,0:0:0:0:
384,192,4212,1,0,0:0:0:0:
256,192,4225,1,0,0:0:0:0:
384,192,4231,1,0,0:0:0:0:
384,192,4232,1,0,0:0:0:0:
384,192,4233,1,0,0:0:0:0:
256,192,4235,1,0,0:0:0:0:
256,192,4237,1,0,0:0:0:0:
384,192,4243,1,0,0:0:0:0:
256,192,4247,1,0,0:0:0:0:
256,192,4248,1,0,0:0:0:0:
384,192,4249,1,0,0:0:0:0:
384,192,4250,1,0,0:0:0:0:
256,192,4254,1,0,0:0:0:0:
256,192,4255,1,0,0:0:0:0:
384,192,4256,1,0,0:0:0:0:
384,192,4258,1,0,0:0:0:0:
384,192,4265,1,0,0:0:0:0:
256,192,4268,1,0,0:0:0:0:
384,192,4270,1,0,0:0:0:0:
384,192,4272,1,0,0:0:0:0:
256,192,4274,1,0,0:0:0:0:
256,192,4275,1,0,0:0:0:0:
384,192,4278,1,0,0:0:0:0:
384,192,4279,1,0,0:0:0:0:
256,192,4279,1,0,0:0:0:0:
256,192,4281,1,0,0:0:0:0:
256,192,4284,5,0,0:0:0:0:
384,192,4285,1,0,0:0:0:0:
256,192,4286,1,0,0:0:0:0:
384,192,4287,1,0,0:0:0:0:
384,192,4294,1,0,0:0:0:0:
256,192,4297,1,0,0:0:0:0:
256,192,4299,1,0,0:0:0:0:
384,192,4302,1,0,0:0:0:0:
256,192,4304,1,0,0:0:0:0:
256,192,4306,1,0,0:0:0:0:
384,192,4309,1,0,0:0:0:0:
384,192,4310,1,0,0:0:0:0:
256,192,4312,1,0,0:0:0:0:
384,192,4314,1,0,0:0:0:0:
384,192,4316,1,0,0:0:0:0:
256,192,4319,1,0,0:0:0:0:
384,192,4322,1,0,0:0:0:0:
384,192,4323,1,0,0:0:0:0:
256,192,4323,1,0,0:0:0:0:
256,192,4325,1,0,0:0:0:0:
256,192,4328,5,0,0:0:0:0:
384,192,4329,1,0,0:0:0:0:
256,192,4330,1,0,0:0:0:0:
256,192,4332,1,0,0:0:0:0:
384,192,4340,1,0,0:0:0:0:
256,192,4341,1,0,0:0:0:0:
256,192,4343,1,0,0:0:0:0:
384,192,4346,1,0,0:0:0:0:
256,192,4348,1,0,0:0:0:0:
384,192,4348,1,0,0:0:0:0:
256,192,4350,1,0,0:0:0:0:
384,192,4354,1,0,0:0:0:0:
384,192,4355,1,0,0:0:0:0:
384,192,4357,1,0,0:0:0:0:
384,192,4363,1,0,0:0:0:0:
256,192,4363,1,0,0:0:0:0:
384,192,4367,1,0,0:0:0:0:
256,192,4367,1,0,0:0:0:0:
384,192,4368,1,0,0:0:0:0:
256,192,4368,1,0,0:0:0:0:
256,192,4369,1,0,0:0:0:0:
384,192,4369,1,0,0:0:0:0:
256,192,4370,1,0,0:0:0:0:
256,192,4373,1,0,0:0:0:0:
384,192,4375,1,0,0:0:0:0:
256,192,4376,1,0,0:0:0:0:
384,192,4377,1,0,0:0:0:0:
384,192,4378,1,0,0:0:0:0:
256,192,4379,1,0,0:0:0:0:
256,192,4380,1,0,0:0:0:0:
384,192,4384,1,0,0:0:0:0:
256,192,4388,1,0,0:0:0:0:
384,192,4390,1,0,0:0:0:0:
384,192,4392,1,0,0:0:0:0:
256,192,4392,1,0,0:0:0:0:
256,192,4393,1,0,0:0:0:0:
256,192,4394,1,0,0:0:0:0:
384,192,4398,1,0,0:0:0:0:
384,192,4399,1,0,0:0:0:0:
256,192,4399,1,0,0:0:0:0:
256,192,4400,1,0,0:0:0:0:
384,192,4400,1,0,0:0:0:0:
384,192,4401,1,0,0:0:0:0:
256,192,4407,1,0,0:0:0:0:
384,192,4407,1,0,0:0:0:0:
384,192,4411,1,0,0:0:0:0:
384,192,4412,1,0,0:0:0:0:
384,192,4413,1,0,0:0:0:0:
256,192,4414,1,0,0:0:0:0:
256,192,4417,1,0,0:0:0:0:
384,192,4419,1,0,0:0:0:0:
256,192,4419,1,0,0:0:0:0:
256,192,4420,1,0,0:0:0:0:
384,192,4421,1,0,0:0:0:0:
384,192,4422,1,0,0:0:0:0:
384,192,4423,1,0,0:0:0:0:
256,192,4423,1,0,0:0:0:0:
256,192,4424,1,0,0:0:0:0:
256,192,4427,1,0,0:0:0:0:
256,192,4428,1,0,0:0:0:0:
384,192,4429,1,0,0:0:0:0:
256,192,4432,1,0,0:0:0:0:
384,192,4434,1,0,0:0:0:0:
256,192,4436,1,0,0:0:0:0:
384,192,4436,1,0,0:0:0:0:
256,192,4437,1,0,0:0:0:0:
384,192,4438,1,0,0:0:0:0:
384,192,4442,1,0,0:0:0:0:
256,192,4443,1,0,0:0:0:0:
256,192,4444,1,0,0:0:0:0:
384,192,4444,1,0,0:0:0:0:
384,192,4445,1,0,0:0:0:0:
256,192,4445,1,0,0:0:0:0:
384,192,4447,1,0,0:0:0:0:
256,192,4448,1,0,0:0:0:0:
384,192,4450,1,0,0:0:0:0:
384,192,4452,1,0,0:0:0:0:
384,192,4453,1,0,0:0:0:0:
256,192,4454,1,0,0:0:0:0:
384,192,4458,1,0,0:0:0:0:
256,192,4458,1,0,0:0:0:0:
256,192,4459,1,0,0:0:0:0:
384,192,4460,1,0,0:0:0:0:
256,192,4461,1,0,0:0:0:0:
256,192,4463,1,0,0:0:0:0:
256,192,4464,1,0,0:0:0:0:
256,192,4465,1,0,0:0:0:0:
384,192,4465,1,0,0:0:0:0:
384,192,4466,1,0,0:0:0:0:
384,192,4467,1,0,0:0:0:0:
384,192,4468,1,0,0:0:0:0:
256,192,4468,1,0,0:0:0:0:
256,192,4471,1,0,0:0:0:0:
384,192,4472,1,0,0:0:0:0:
384,192,4473,1,0,0:0:0:0:
256,192,4474,1,0,0:0:0:0:
256,192,4475,1,0,0:0:0:0:
256,192,4477,1,0,0:0:0:0:
256,192,4479,1,0,0:0:0:0:
384,192,4482,1,0,0:0:0:0:
256,192,4483,1,0,0:0:0:0:
256,192,4487,1,0,0:0:0:0:
384,192,4487,1,0,0:0:0:0:
384,192,4488,1,0,0:0:0:0:
256,192,4488,1,0,0:0:0:0:
256,192,4489,1,0,0:0:0:0:
384,192,4489,1,0,0:0:0:0:
384,192,4490,1,0,0:0:0:0:
384,192,4491,1,0,0:0:0:0:
256,192,4492,1,0,0:0:0:0:
256,192,4493,1,0,0:0:0:0:
256,192,4494,1,0,0:0:0:0:
384,192,4494,1,0,0:0:0:0:
256,192,4495,1,0,0:0:0:0:
384,192,4495,1,0,0:0:0:0:
384,192,4496,1,0,0:0:0:0:
384,192,4497,1,0,0:0:0:0:
256,192,4499,1,0,0:0:0:0:
256,192,4500,1,0,0:0:0:0:
384,192,4501,1,0,0:0:0:0:
384,192,4502,1,0,0:0:0:0:
256,192,4502,1,0,0:0:0:0:
256,192,4503,1,0,0:0:0:0:
384,192,4504,1,0,0:0:0:0:
256,192,4505,1,0,0:0:0:0:
256,192,4509,1,0,0:0:0:0:
384,192,4509,1,0,0:0:0:0:
384,192,4510,1,0,0:0:0:0:
384,192,4511,1,0,0:0:0:0:
384,192,4512,1,0,0:0:0:0:
256,192,4512,1,0,0:0:0:0:
256,192,4513,1,0,0:0:0:0:
256,192,4515,1,0,0:0:0:0:
384,192,4516,1,0,0:0:0:0:
384,192,4517,1,0,0:0:0:0:
256,192,4518,1,0,0:0:0:0:
256,192,4519,1,0,0:0:0:0:
256,192,4520,1,0,0:0:0:0:
384,192,4520,1,0,0:0:0:0:
256,192,4521,1,0,0:0:0:0:
256,192,4522,1,0,0:0:0:0:
384,192,4522,1,0,0:0:0:0:
256,192,4523,1,0,0:0:0:0:
384,192,4524,1,0,0:0:0:0:
256,192,4526,1,0,0:0:0:0:
384,192,4526,1,0,0:0:0:0:
256,192,4527,1,0,0:0:0:0:
384,192,4528,1,0,0:0:0:0:
384,192,4530,1,0,0:0:0:0:
256,192,4531,1,0,0:0:0:0:
384,192,4531,1,0,0:0:0:0:
256,192,4532,1,0,0:0:0:0:
384,192,4532,1,0,0:0:0:0:
384,192,4533,1,0,0:0:0:0:
384,192,4534,1,0,0:0:0:0:
384,192,4535,1,0,0:0:0:0:
256,192,4537,1,0,0:0:0:0:
256,192,4538,1,0,0:0:0:0:
256,192,4539,1,0,0:0:0:0:
384,192,4539,1,0,0:0:0:0:
256,192,4540,1,0,0:0:0:0:
384,192,4541,1,0,0:0:0:0:
384,192,4543,1,0,0:0:0:0:
256,192,4543,1,0,0:0:0:0:
384,192,4544,1,0,0:0:0:0:
384,192,4547,1,0,0:0:0:0:
384,192,4548,1,0,0:0:0:0:
256,192,4549,1,0,0:0:0:0:
384,192,4549,1,0,0:0:0:0:
256,192,4551,1,0,0:0:0:0:
256,192,4553,1,0,0:0:0:0:
384,192,4554,1,0,0:0:0:0:
256,192,4556,1,0,0:0:0:0:
256,192,4557,1,0,0:0:0:0:
384,192,4557,1,0,0:0:0:0:
384,192,4558,1,0,0:0:0:0:
256,192,4559,1,0,0:0:0:0:
256,192,4560,1,0,0:0:0:0:
384,192,4562,1,0,0:0:0:0:
384,192,4563,1,0,0:0:0:0:
256,192,4563,1,0,0:0:0:0:
384,192,4564,1,0,0:0:0:0:
256,192,4564,1,0,0:0:0:0:
384,192,4565,1,0,0:0:0:0:
256,192,4566,1,0,0:0:0:0:
384,192,4566,1,0,0:0:0:0:
384,192,4568,1,0,0:0:0:0:
256,192,4568,1,0,0:0:0:0:
384,192,4570,1,0,0:0:0:0:
256,192,4570,1,0,0:0:0:0:
384,192,4572,1,0,0:0:0:0:
256,192,4572,1,0,0:0:0:0:
256,192,4573,1,0,0:0:0:0:
384,192,4574,1,0,0:0:0:0:
256,192,4575,1,0,0:0:0:0:
256,192,4577,1,0,0:0:0:0:
256,192,4578,1,0,0:0:0:0:
384,192,4579,1,0,0:0:0:0:
384,192,4580,1,0,0:0:0:0:
256,192,4582,1,0,0:0:0:0:
256,192,4583,1,0,0:0:0:0:
256,192,4584,1,0,0:0:0:0:
384,192,4585,1,0,0:0:0:0:
384,192,4587,1,0,0:0:0:0:
256,192,4587,1,0,0:0:0:0:
256,192,4588,1,0,0:0:0:0:
384,192,4588,1,0,0:0:0:0:
256,192,4589,1,0,0:0:0:0:
256,192,4590,1,0,0:0:0:0:
384,192,4591,1,0,0:0:0:0:
384,192,4592,1,0,0:0:0:0:
384,192,4593,1,0,0:0:0:0:
256,192,4593,1,0,0:0:0:0:
384,192,4594,1,0,0:0:0:0:
384,192,4595,1,0,0:0:0:0:
256,192,4595,1,0,0:0:0:0:
256,192,4597,1,0,0:0:0:0:
384,192,4598,1,0,0:0:0:0:
256,192,4600,1,0,0:0:0:0:
384,192,4600,1,0,0:0:0:0:
384,192,4601,1,0,0:0:0:0:
384,192,4602,1,0,0:0:0:0:
256,192,4604,1,0,0:0:0:0:
384,192,4606,1,0,0:0:0:0:
384,192,4607,1,0,0:0:0:0:
256,192,4607,1,0,0:0:0:0:
384,192,4608,1,0,0:0:0:0:
256,192,4608,1,0,0:0:0:0:
256,192,4609,1,0,0:0:0:0:
384,192,4609,1,0,0:0:0:0:
384,192,4610,1,0,0:0:0:0:
256,192,4610,1,0,0:0:0:0:
256,192,4612,1,0,0:0:0:0:
256,192,4614,1,0,0:0:0:0:
384,192,4614,1,0,0:0:0:0:
384,192,4615,1,0,0:0:0:0:
256,192,4615,1,0,0:0:0:0:
256,192,4616,1,0,0:0:0:0:
256,192,4617,1,0,0:0:0:0:
384,192,4618,1,0,0:0:0:0:
256,192,4619,1,0,0:0:0:0:
384,192,4619,1,0,0:0:0:0:
256,192,4620,1,0,0:0:0:0:
384,192,4620,1,0,0:0:0:0:
384,192,4621,1,0,0:0:0:0:
256,192,4621,1,0,0:0:0:0:
256,192,4622,1,0,0:0:0:0:
384,192,4623,1,0,0:0:0:0:
384,192,4624,1,0,0:0:0:0:
256,192,4625,1,0,0:0:0:0:
384,192,4625,1,0,0:0:0:0:
256,192,4626,1,0,0:0:0:0:
256,192,4627,1,0,0:0:0:0:
384,192,4629,1,0,0:0:0:0:
384,192,4630,1,0,0:0:0:0:
384,192,4631,1,0,0:0:0:0:
256,192,4632,1,0,0:0:0:0:
384,192,4633,1,0,0:0:0:0:
256,192,4633,1,0,0:0:0:0:
256,192,4634,1,0,0:0:0:0:
256,192,4635,1,0,0:0:0:0:
384,192,4636,1,0,0:0:0:0:
256,192,4638,1,0,0:0:0:0:
384,192,4638,1,0,0:0:0:0:
384,192,4639,1,0,0:0:0:0:
384,192,4640,1,0,0:0:0:0:
256,192,4640,1,0,0:0:0:0:
384,192,4642,1,0,0:0:0:0:
256,192,4644,1,0,0:0:0:0:
384,192,4644,1,0,0:0:0:0:
256,192,4645,1,0,0:0:0:0:
384,192,4645,1,0,0:0:0:0:
256,192,4646,1,0,0:0:0:0:
384,192,4647,1,0,0:0:0:0:
384,192,4648,1,0,0:0:0:0:
256,192,4648,1,0,0:0:0:0:
384,192,4650,1,0,0:0:0:0:
256,192,4651,1,0,0:0:0:0:
384,192,4652,1,0,0:0:0:0:
256,192,4652,1,0,0:0:0:0:
256,192,4654,1,0,0:0:0:0:
384,192,4654,1,0,0:0:0:0:
256,192,4656,5,0,0:0:0:0:
384,192,4658,1,0,0:0:0:0:
384,192,4659,1,0,0:0:0:0:
256,192,4659,1,0,0:0:0:0:
256,192,4660,1,0,0:0:0:0:
384,192,4660,1,0,0:0:0:0:
256,192,4661,1,0,0:0:0:0:
384,192,4662,1,0,0:0:0:0:
256,192,4663,1,0,0:0:0:0:
384,192,4663,1,0,0:0:0:0:
384,192,4664,1,0,0:0:0:0:
256,192,4665,1,0,0:0:0:0:
384,192,4665,1,0,0:0:0:0:
256,192,4667,1,0,0:0:0:0:
256,192,4668,1,0,0:0:0:0:
256,192,4669,1,0,0:0:0:0:
384,192,4669,1,0,0:0:0:0:
384,192,4670,1,0,0:0:0:0:
256,192,4671,1,0,0:0:0:0:
256,192,4672,1,0,0:0:0:0:
256,192,4673,1,0,0:0:0:0:
384,192,4674,1,0,0:0:0:0:
384,192,4676,1,0,0:0:0:0:
256,192,4677,1,0,0:0:0:0:
384,192,4677,1,0,0:0:0:0:
384,192,4678,1,0,0:0:0:0:
256,192,4679,1,0,0:0:0:0:
384,192,4682,1,0,0:0:0:0:
256,192,4682,1,0,0:0:0:0:
384,192,4683,1,0,0:0:0:0:
256,192,4683,1,0,0:0:0:0:
256,192,4684,1,0,0:0:0:0:
384,192,4684,1,0,0:0:0:0:
384,192,4685,1,0,0:0:0:0:
256,192,4685,1,0,0:0:0:0:
384,192,4686,1,0,0:0:0:0:
384,192,4688,1,0,0:0:0:0:
256,192,4688,1,0,0:0:0:0:
256,192,4689,1,0,0:0:0:0:
384,192,4689,1,0,0:0:0:0:
384,192,4690,1,0,0:0:0:0:
384,192,4691,1,0,0:0:0:0:
384,192,4692,1,0,0:0:0:0:
256,192,4692,1,0,0:0:0:0:
384,192,4694,1,0,0:0:0:0:
256,192,4694,1,0,0:0:0:0:
256,192,4695,1,0,0:0:0:0:
384,192,4696,1,0,0:0:0:0:
256,192,4697,1,0,0:0:0:0:
384,192,4697,1,0,0:0:0:0:
256,192,4698,1,0,0:0:0:0:
384,192,4698,1,0,0:0:0:0:
256,192,4699,1,0,0:0:0:0:
256,192,4700,5,0,0:0:0:0:
256,192,4702,1,0,0:0:0:0:
384,192,4703,1,0,0:0:0:0:
256,192,4703,1,0,0:0:0:0:
384,192,4704,1,0,0:0:0:0:
384,192,4705,1,0,0:0:0:0:
256,192,4705,1,0,0:0:0:0:
384,192,4706,1,0,0:0:0:0:
256,192,4707,1,0,0:0:0:0:
384,192,4707,1,0,0:0:0:0:
384,192,4708,1,0,0:0:0:0:
256,192,4709,1,0,0:0:0:0:
256,192,4710,1,0,0:0:0:0:
256,192,4711,1,0,0:0:0:0:
384,192,4712,1,0,0:0:0:0:
256,192,4712,1,0,0:0:0:0:
256,192,4713,1,0,0:0:0:0:
384,192,4714,1,0,0:0:0:0:
256,192,4715,1,0,0:0:0:0:
256,192,4716,1,0,0:0:0:0:
256,192,4717,1,0,0:0:0:0:
384,192,4717,1,0,0:0:0:0:
384,192,4718,1,0,0:0:0:0:
256,192,4719,1,0,0:0:0:0:
384,192,4719,1,0,0:0:0:0:
384,192,4720,1,0,0:0:0:0:
256,192,4720,1,0,0:0:0:0:
384,192,4721,1,0,0:0:0:0:
384,192,4722,1,0,0:0:0:0:
384,192,4723,1,0,0:0:0:0:
384,192,4726,1,0,0:0:0:0:
256,192,4727,1,0,0:0:0:0:
384,192,4727,1,0,0:0:0:0:
384,192,4728,1,0,0:0:0:0:
256,192,4728,1,0,0:0:0:0:
384,192,4729,1,0,0:0:0:0:
256,192,4729,1,0,0:0:0:0:
384,192,4732,1,0,0:0:0:0:
256,192,4732,1,0,0:0:0:0:
256,192,4733,1,0,0:0:0:0:
384,192,4734,1,0,0:0:0:0:
256,192,4735,1,0,0:0:0:0:
384,192,4735,1,0,0:0:0:0:
384,192,4736,1,0,0:0:0:0:
384,192,4737,1,0,0:0:0:0:
384,192,4738,1,0,0:0:0:0:
384,192,4739,1,0,0:0:0:0:
256,192,4739,1,0,0:0:0:0:
384,192,4740,1,0,0:0:0:0:
256,192,4740,1,0,0:0:0:0:
256,192,4741,1,0,0:0:0:0:
384,192,4741,1,0,0:0:0:0:
384,192,4742,1,0,0:0:0:0:
384,192,4743,1,0,0:0:0:0:
256,192,4743,1,0,0:0:0:0:
256,192,4745,1,0,0:0:0:0:
384,192,4745,1,0,0:0:0:0:
256,192,4746,1,0,0:0:0:0:
256,192,4747,1,0,0:0:0:0:
384,192,4747,1,0,0:0:0:0:
384,192,4748,1,0,0:0:0:0:
256,192,4749,1,0,0:0:0:0:
384,192,4749,1,0,0:0:0:0:
384,192,4750,1,0,0:0:0:0:
256,192,4751,1,0,0:0:0:0:
384,192,4751,1,0,0:0:0:0:
384,192,4752,1,0,0:0:0:0:
256,192,4753,1,0,0:0:0:0:
256,192,4754,1,0,0:0:0:0:
256,192,4755,1,0,0:0:0:0:
384,192,4756,1,0,0:0:0:0:
256,192,4756,1,0,0:0:0:0:
384,192,4757,1,0,0:0:0:0:
384,192,4758,1,0,0:0:0:0:
256,192,4758,1,0,0:0:0:0:
256,192,4759,1,0,0:0:0:0:
256,192,4760,1,0,0:0:0:0:
384,192,4760,1,0,0:0:0:0:
256,192,4761,1,0,0:0:0:0:
384,192,4761,1,0,0:0:0:0:
384,192,4762,1,0,0:0:0:0:
256,192,4762,1,0,0:0:0:0:
256,192,4763,1,0,0:0:0:0:
384,192,4763,1,0,0:0:0:0:
384,192,4764,1,0,0:0:0:0:
256,192,4764,1,0,0:0:0:0:
256,192,4765,1,0,0:0:0:0:
256,192,4766,1,0,0:0:0:0:
384,192,4766,1,0,0:0:0:0:
256,192,4767,1,0,0:0:0:0:
384,192,4767,1,0,0:0:0:0:
384,192,4768,1,0,0:0:0:0:
384,192,4770,1,0,0:0:0:0:
256,192,4771,1,0,0:0:0:0:
384,192,4772,1,0,0:0:0:0:
256,192,4772,1,0,0:0:0:0:
384,192,4773,1,0,0:0:0:0:
256,192,4773,1,0,0:0:0:0:
384,192,4774,1,0,0:0:0:0:
384,192,4776,1,0,0:0:0:0:
256,192,4777,1,0,0:0:0:0:
256,192,4778,1,0,0:0:0:0:
384,192,4779,1,0,0:0:0:0:
256,192,4779,1,0,0:0:0:0:
384,192,4780,1,0,0:0:0:0:
384,192,4781,1,0,0:0:0:0:
384,192,4782,1,0,0:0:0:0:
384,192,4783,1,0,0:0:0:0:
256,192,4783,1,0,0:0:0:0:
384,192,4784,1,0,0:0:0:0:
256,192,4784,1,0,0:0:0:0:
384,192,4785,1,0,0:0:0:0:
384,192,4786,1,0,0:0:0:0:
256,192,4787,1,0,0:0:0:0:
384,192,4787,1,0,0:0:0:0:
384,192,4788,1,0,0:0:0:0:
384,192,4789,1,0,0:0:0:0:
256,192,4789,1,0,0:0:0:0:
256,192,4791,1,0,0:0:0:0:
256,192,4792,1,0,0:0:0:0:
256,192,4793,1,0,0:0:0:0:
384,192,4794,1,0,0:0:0:0:
256,192,4794,1,0,0:0:0:0:
256,192,4795,1,0,0:0:0:0:
384,192,4795,1,0,0:0:0:0:
384,192,4796,1,0,0:0:0:0:
256,192,4799,1,0,0:0:0:0:
256,192,4800,1,0,0:0:0:0:
384,192,4801,1,0,0:0:0:0:
384,192,4802,1,0,0:0:0:0:
256,192,4802,1,0,0:0:0:0:
256,192,4803,1,0,0:0:0:0:
384,192,4803,1,0,0:0:0:0:
384,192,4804,1,0,0:0:0:0:
256,192,4804,1,0,0:0:0:0:
384,192,4805,1,0,0:0:0:0:
256,192,4805,1,0,0:0:0:0:
384,192,4806,1,0,0:0:0:0:
256,192,4806,1,0,0:0:0:0:
256,192,4807,1,0,0:0:0:0:
384,192,4808,1,0,0:0:0:0:
256,192,4808,1,0,0:0:0:0:
256,192,4809,1,0,0:0:0:0:
384,192,4809,1,0,0:0:0:0:
384,192,4810,1,0,0:0:0:0:
256,192,4811,1,0,0:0:0:0:
384,192,4811,1,0,0:0:0:0:
256,192,4812,1,0,0:0:0:0:
384,192,4812,1,0,0:0:0:0:
256,192,4813,1,0,0:0:0:0:
384,192,4814,1,0,0:0:0:0:
384,192,4815,1,0,0:0:0:0:
256,192,4815,1,0,0:0:0:0:
384,192,4816,1,0,0:0:0:0:
256,192,4817,1,0,0:0:0:0:
384,192,4817,1,0,0:0:0:0:
384,192,4818,1,0,0:0:0:0:
384,192,4819,1,0,0:0:0:0:
256,192,4820,1,0,0:0:0:0:
384,192,4820,1,0,0:0:0:0:
256,192,4822,1,0,0:0:0:0:
384,192,4822,1,0,0:0:0:0:
256,192,4823,1,0,0:0:0:0:
256,192,4824,1,0,0:0:0:0:
384,192,4824,1,0,0:0:0:0:
384,192,4825,1,0,0:0:0:0:
256,192,4826,1,0,0:0:0:0:
384,192,4826,1,0,0:0:0:0:
256,192,4827,1,0,0:0:0:0:
384,192,4828,1,0,0:0:0:0:
384,192,4829,1,0,0:0:0:0:
256,192,4830,1,0,0:0:0:0:
384,192,4830,1,0,0:0:0:0:
256,192,4831,1,0,0:0:0:0:
384,192,4831,1,0,0:0:0:0:
384,192,4832,1,0,0:0:0:0:
256,192,4833,1,0,0:0:0:0:
384,192,4833,1,0,0:0:0:0:
256,192,4834,1,0,0:0:0:0:
256,192,4835,1,0,0:0:0:0:
256,192,4836,1,0,0:0:0:0:
384,192,4837,1,0,0:0:0:0:
256,192,4837,1,0,0:0:0:0:
384,192,4838,1,0,0:0:0:0:
256,192,4838,1,0,0:0:0:0:
384,192,4839,1,0,0:0:0:0:
384,192,4840,1,0,0:0:0:0:
256,192,4840,1,0,0:0:0:0:
256,192,4844,1,0,0:0:0:0:
384,192,4845,1,0,0:0:0:0:
256,192,4846,1,0,0:0:0:0:
384,192,4847,1,0,0:0:0:0:
384,192,4848,1,0,0:0:0:0:
256,192,4848,1,0,0:0:0:0:
384,192,4849,1,0,0:0:0:0:
256,192,4849,1,0,0:0:0:0:
256,192,4850,1,0,0:0:0:0:
256,192,4851,1,0,0:0:0:0:
256,192,4853,1,0,0:0:0:0:
384,192,4853,1,0,0:0:0:0:
256,192,4854,1,0,0:0:0:0:
384,192,4854,1,0,0:0:0:0:
256,192,4855,1,0,0:0:0:0:
256,192,4856,1,0,0:0:0:0:
256,192,4857,1,0,0:0:0:0:
384,192,4858,1,0,0:0:0:0:
256,192,4859,1,0,0:0:0:0:
384,192,4859,1,0,0:0:0:0:
256,192,4860,1,0,0:0:0:0:
384,192,4860,1,0,0:0:0:0:
384,192,4861,1,0,0:0:0:0:
256,192,4861,1,0,0:0:0:0:
384,192,4862,1,0,0:0:0:0:
384,192,4863,1,0,0:0:0:0:
256,192,4864,1,0,0:0:0:0:
384,192,4864,1,0,0:0:0:0:
256,192,4865,1,0,0:0:0:0:
384,192,4865,1,0,0:0:0:0:
384,192,4866,1,0,0:0:0:0:
384,192,4867,1,0,0:0:0:0:
256,192,4867,1,0,0:0:0:0:
384,192,4868,1,0,0:0:0:0:
256,192,4868,1,0,0:0:0:0:
384,192,4870,1,0,0:0:0:0:
256,192,4871,1,0,0:0:0:0:
384,192,4872,1,0,0:0:0:0:
256,192,4872,1,0,0:0:0:0:
256,192,4873,1,0,0:0:0:0:
384,192,4873,1,0,0:0:0:0:
256,192,4874,1,0,0:0:0:0:
384,192,4874,1,0,0:0:0:0:
256,192,4875,1,0,0:0:0:0:
384,192,4876,1,0,0:0:0:0:
256,192,4877,1,0,0:0:0:0:
384,192,4877,1,0,0:0:0:0:
256,192,4878,1,0,0:0:0:0:
256,192,4879,1,0,0:0:0:0:
384,192,4879,1,0,0:0:0:0:
384,192,4880,1,0,0:0:0:0:
384,192,4881,1,0,0:0:0:0:
384,192,4882,1,0,0:0:0:0:
384,192,4883,1,0,0:0:0:0:
384,192,4884,1,0,0:0:0:0:
256,192,4884,1,0,0:0:0:0:
256,192,4885,1,0,0:0:0:0:
384,192,4885,1,0,0:0:0:0:
256,192,4887,1,0,0:0:0:0:
384,192,4887,1,0,0:0:0:0:
256,192,4888,1,0,0:0:0:0:
256,192,4889,1,0,0:0:0:0:
256,192,4890,1,0,0:0:0:0:
384,192,4891,1,0,0:0:0:0:
384,192,4892,1,0,0:0:0:0:
256,192,4892,1,0,0:0:0:0:
256,192,4893,1,0,0:0:0:0:
384,192,4893,1,0,0:0:0:0:
384,192,4894,1,0,0:0:0:0:
256,192,4895,1,0,0:0:0:0:
384,192,4896,1,0,0:0:0:0:
256,192,4897,1,0,0:0:0:0:
256,192,4898,1,0,0:0:0:0:
384,192,4898,1,0,0:0:0:0:
256,192,4899,1,0,0:0:0:0:
384,192,4899,1,0,0:0:0:0:
384,192,4900,1,0,0:0:0:0:
256,192,4901,1,0,0:0:0:0:
384,192,4902,1,0,0:0:0:0:
384,192,4903,1,0,0:0:0:0:
256,192,4903,1,0,0:0:0:0:
384,192,4904,1,0,0:0:0:0:
256,192,4904,1,0,0:0:0:0:
384,192,4905,1,0,0:0:0:0:
384,192,4906,1,0,0:0:0:0:
256,192,4907,1,0,0:0:0:0:
256,192,4908,1,0,0:0:0:0:
384,192,4908,1,0,0:0:0:0:
256,192,4909,1,0,0:0:0:0:
384,192,4909,1,0,0:0:0:0:
384,192,4910,1,0,0:0:0:0:
384,192,4911,1,0,0:0:0:0:
256,192,4912,1,0,0:0:0:0:
256,192,4915,1,0,0:0:0:0:
384,192,4915,1,0,0:0:0:0:
384,192,4916,1,0,0:0:0:0:
256,192,4917,5,0,0:0:0:0:
384,192,4918,1,0,0:0:0:0:
256,192,4918,1,0,0:0:0:0:
384,192,4919,1,0,0:0:0:0:
256,192,4919,1,0,0:0:0:0:
384,192,4920,1,0,0:0:0:0:
384,192,4921,1,0,0:0:0:0:
256,192,4921,1,0,0:0:0:0:
256,192,4922,1,0,0:0:0:0:
256,192,4923,5,0,0:0:0:0:
384,192,4923,1,0,0:0:0:0:
384,192,4924,1,0,0:0:0:0:
384,192,4925,1,0,0:0:0:0:
256,192,4925,1,0,0:0:0:0:
384,192,4926,1,0,0:0:0:0:
256,192,4928,1,0,0:0:0:0:
256,192,4929,1,0,0:0:0:0:
384,192,4929,1,0,0:0:0:0:
384,192,4930,1,0,0:0:0:0:
256,192,4931,1,0,0:0:0:0:
384,192,4931,1,0,0:0:0:0:
256,192,4932,1,0,0:0:0:0:
256,192,4933,1,0,0:0:0:0:
384,192,4934,1,0,0:0:0:0:
384,192,4935,1,0,0:0:0:0:
256,192,4935,1,0,0:0:0:0:
256,192,4936,1,0,0:0:0:0:
384,192,4936,1,0,0:0:0:0:
384,192,4937,1,0,0:0:0:0:
384,192,4938,1,0,0:0:0:0:
256,192,4939,1,0,0:0:0:0:
256,192,4940,1,0,0:0:0:0:
384,192,4940,1,0,0:0:0:0:
384,192,4942,1,0,0:0:0:0:
384,192,4943,1,0,0:0:0:0:
256,192,4943,1,0,0:0:0:0:
256,192,4944,1,0,0:0:0:0:
384,192,4944,1,0,0:0:0:0:
384,192,4945,1,0,0:0:0:0:
256,192,4945,1,0,0:0:0:0:
256,192,4946,5,0,0:0:0:0:
384,192,4946,1,0,0:0:0:0:
384,192,4947,1,0,0:0:0:0:
256,192,4947,1,0,0:0:0:0:
384,192,4948,1,0,0:0:0:0:
256,192,4949,1,0,0:0:0:0:
256,192,4950,1,0,0:0:0:0:
384,192,4951,1,0,0:0:0:0:
256,192,4951,1,0,0:0:0:0:
256,192,4952,1,0,0:0:0:0:
384,192,4952,1,0,0:0:0:0:
256,192,4954,1,0,0:0:0:0:
384,192,4954,1,0,0:0:0:0:
256,192,4955,1,0,0:0:0:0:
256,192,4956,1,0,0:0:0:0:
384,192,4957,1,0,0:0:0:0:
256,192,4959,1,0,0:0:0:0:
384,192,4959,1,0,0:0:0:0:
384,192,4960,1,0,0:0:0:0:
256,192,4960,1,0,0:0:0:0:
256,192,4961,5,0,0:0:0:0:
384,192,4961,1,0,0:0:0:0:
384,192,4962,1,0,0:0:0:0:
256,192,4962,1,0,0:0:0:0:
384,192,4963,1,0,0:0:0:0:
256,192,4963,1,0,0:0:0:0:
384,192,4964,1,0,0:0:0:0:
256,192,4965,1,0,0:0:0:0:
384,192,4965,1,0,0:0:0:0:
384,192,4966,1,0,0:0:0:0:
256,192,4967,1,0,0:0:0:0:
384,192,4967,1,0,0:0:0:0:
256,192,4968,1,0,0:0:0:0:
384,192,4969,1,0,0:0:0:0:
256,192,4969,1,0,0:0:0:0:
384,192,4970,1,0,0:0:0:0:
384,192,4972,1,0,0:0:0:0:
256,192,4972,1,0,0:0:0:0:
384,192,4973,1,0,0:0:0:0:
256,192,4973,1,0,0:0:0:0:
384,192,4974,1,0,0:0:0:0:
256,192,4974,1,0,0:0:0:0:
256,192,4976,1,0,0:0:0:0:
384,192,4977,1,0,0:0:0:0:
384,192,4978,1,0,0:0:0:0:
384,192,4979,1,0,0:0:0:0:
256,192,4979,1,0,0:0:0:0:
256,192,4980,1,0,0:0:0:0:
384,192,4980,1,0,0:0:0:0:
384,192,4981,1,0,0:0:0:0:
256,192,4981,1,0,0:0:0:0:
256,192,4982,1,0,0:0:0:0:
384,192,4982,1,0,0:0:0:0:
384,192,4983,1,0,0:0:0:0:
256,192,4983,1,0,0:0:0:0:
256,192,4984,1,0,0:0:0:0:
384,192,4986,1,0,0:0:0:0:
256,192,4987,1,0,0:0:0:0:
256,192,4988,1,0,0:0:0:0:
384,192,4989,1,0,0:0:0:0:
256,192,4989,1,0,0:0:0:0:
256,192,4990,5,0,0:0:0:0:
384,192,4990,1,0,0:0:0:0:
384,192,4991,1,0,0:0:0:0:
256,192,4991,1,0,0:0:0:0:
384,192,4992,1,0,0:0:0:0:
256,192,4993,1,0,0:0:0:0:
384,192,4993,1,0,0:0:0:0:
256,192,4994,1,0,0:0:0:0:
256,192,4995,1,0,0:0:0:0:
384,192,4995,1,0,0:0:0:0:
384,192,4996,1,0,0:0:0:0:
384,192,4997,1,0,0:0:0:0:
256,192,4997,1,0,0:0:0:0:
256,192,4998,1,0,0:0:0:0:
256,192,4999,1,0,0:0:0:0:
384,192,5001,1,0,0:0:0:0:
256,192,5002,1,0,0:0:0:0:
384,192,5003,1,0,0:0:0:0:
256,192,5003,1,0,0:0:0:0:
256,192,5004,1,0,0:0:0:0:
256,192,5005,1,0,0:0:0:0:
256,192,5007,1,0,0:0:0:0:
384,192,5007,1,0,0:0:0:0:
384,192,5008,1,0,0:0:0:0:
384,192,5010,1,0,0:0:0:0:
256,192,5010,1,0,0:0:0:0:
256,192,5012,1,0,0:0:0:0:
256,192,5013,1,0,0:0:0:0:
384,192,5014,1,0,0:0:0:0:
384,192,5016,1,0,0:0:0:0:
256,192,5016,1,0,0:0:0:0:
384,192,5017,1,0,0:0:0:0:
256,192,5017,1,0,0:0:0:0:
256,192,5018,1,0,0:0:0:0:
384,192,5019,1,0,0:0:0:0:
256,192,5020,1,0,0:0:0:0:
384,192,5020,1,0,0:0:0:0:
384,192,5021,1,0,0:0:0:0:
256,192,5022,5,0,0:0:0:0:
384,192,5022,1,0,0:0:0:0:
384,192,5023,1,0,0:0:0:0:
256,192,5023,1,0,0:0:0:0:
256,192,5024,1,0,0:0:0:0:
384,192,5024,1,0,0:0:0:0:
384,192,5026,1,0,0:0:0:0:
384,192,5027,1,0,0:0:0:0:
256,192,5027,1,0,0:0:0:0:
256,192,5029,1,0,0:0:0:0:
384,192,5030,1,0,0:0:0:0:
256,192,5031,1,0,0:0:0:0:
256,192,5033,1,0,0:0:0:0:
384,192,5034,1,0,0:0:0:0:
384,192,5035,1,0,0:0:0:0:
256,192,5035,1,0,0:0:0:0:
384,192,5036,1,0,0:0:0:0:
384,192,5037,1,0,0:0:0:0:
256,192,5039,1,0,0:0:0:0:
256,192,5040,1,0,0:0:0:0:
384,192,5041,1,0,0:0:0:0:
256,192,5041,1,0,0:0:0:0:
256,192,5042,5,0,0:0:0:0:
384,192,5042,1,0,0:0:0:0:
384,192,5043,1,0,0:0:0:0:
256,192,5044,1,0,0:0:0:0:
256,192,5045,1,0,0:0:0:0:
384,192,5045,1,0,0:0:0:0:
256,192,5046,1,0,0:0:0:0:
256,192,5047,1,0,0:0:0:0:
384,192,5048,1,0,0:0:0:0:
384,192,5049,1,0,0:0:0:0:
256,192,5049,1,0,0:0:0:0:
384,192,5050,1,0,0:0:0:0:
256,192,5051,1,0,0:0:0:0:
384,192,5051,1,0,0:0:0:0:
384,192,5052,1,0,0:0:0:0:
256,192,5054,1,0,0:0:0:0:
384,192,5054,1,0,0:0:0:0:
256,192,5055,1,0,0:0:0:0:
384,192,5055,1,0,0:0:0:0:
384,192,5056,1,0,0:0:0:0:
256,192,5056,1,0,0:0:0:0:
384,192,5058,1,0,0:0:0:0:
256,192,5060,1,0,0:0:0:0:
256,192,5061,1,0,0:0:0:0:
384,192,5061,1,0,0:0:0:0:
256,192,5062,1,0,0:0:0:0:
384,192,5062,1,0,0:0:0:0:
384,192,5063,1,0,0:0:0:0:
256,192,5064,1,0,0:0:0:0:
384,192,5064,1,0,0:0:0:0:
256,192,5066,5,0,0:0:0:0:
384,192,5067,1,0,0:0:0:0:
256,192,5067,1,0,0:0:0:0:
384,192,5068,1,0,0:0:0:0:
384,192,5069,1,0,0:0:0:0:
256,192,5069,1,0,0:0:0:0:
384,192,5070,1,0,0:0:0:0:
256,192,5071,1,0,0:0:0:0:
256,192,5074,1,0,0:0:0:0:
256,192,5075,1,0,0:0:0:0:
384,192,5075,1,0,0:0:0:0:
384,192,5076,1,0,0:0:0:0:
256,192,5077,1,0,0:0:0:0:
384,192,5077,1,0,0:0:0:0:
384,192,5079,1,0,0:0:0:0:
256,192,5079,1,0,0:0:0:0:
384,192,5080,1,0,0:0:0:0:
384,192,5081,1,0,0:0:0:0:
256,192,5081,1,0,0:0:0:0:
256,192,5082,1,0,0:0:0:0:
384,192,5083,1,0,0:0:0:0:
256,192,5083,1,0,0:0:0:0:
256,192,5084,1,0,0:0:0:0:
256,192,5085,1,0,0:0:0:0:
256,192,5086,5,0,0:0:0:0:
384,192,5086,1,0,0:0:0:0:
384,192,5087,1,0,0:0:0:0:
256,192,5088,1,0,0:0:0:0:
384,192,5089,1,0,0:0:0:0:
256,192,5089,1,0,0:0:0:0:
256,192,5090,1,0,0:0:0:0:
384,192,5091,1,0,0:0:0:0:
256,192,5091,1,0,0:0:0:0:
256,192,5092,1,0,0:0:0:0:
384,192,5092,1,0,0:0:0:0:
384,192,5093,1,0,0:0:0:0:
384,192,5094,1,0,0:0:0:0:
384,192,5095,1,0,0:0:0:0:
384,192,5098,1,0,0:0:0:0:
384,192,5099,1,0,0:0:0:0:
256,192,5099,1,0,0:0:0:0:
256,192,5100,1,0,0:0:0:0:
384,192,5100,1,0,0:0:0:0:
384,192,5101,1,0,0:0:0:0:
256,192,5101,1,0,0:0:0:0:
256,192,5102,1,0,0:0:0:0:
256,192,5104,1,0,0:0:0:0:
384,192,5104,1,0,0:0:0:0:
384,192,5105,1,0,0:0:0:0:
256,192,5105,1,0,0:0:0:0:
256,192,5106,1,0,0:0:0:0:
384,192,5106,1,0,0:0:0:0:
256,192,5107,1,0,0:0:0:0:
256,192,5108,1,0,0:0:0:0:
384,192,5108,1,0,0:0:0:0:
384,192,5109,1,0,0:0:0:0:
384,192,5110,1,0,0:0:0:0:
384,192,5111,1,0,0:0:0:0:
256,192,5111,1,0,0:0:0:0:
384,192,5112,1,0,0:0:0:0:
256,192,5112,1,0,0:0:0:0:
384,192,5113,1,0,0:0:0:0:
256,192,5113,1,0,0:0:0:0:
384,192,5114,1,0,0:0:0:0:
256,192,5115,1,0,0:0:0:0:
384,192,5115,1,0,0:0:0:0:
384,192,5117,1,0,0:0:0:0:
256,192,5117,1,0,0:0:0:0:
256,192,5118,1,0,0:0:0:0:
384,192,5119,1,0,0:0:0:0:
256,192,5119,1,0,0:0:0:0:
256,192,5120,1,0,0:0:0:0:
384,192,5120,1,0,0:0:0:0:
384,192,5121,1,0,0:0:0:0:
384,192,5122,1,0,0:0:0:0:
256,192,5123,1,0,0:0:0:0:
384,192,5123,1,0,0:0:0:0:
256,192,5124,1,0,0:0:0:0:
384,192,5124,1,0,0:0:0:0:
384,192,5125,1,0,0:0:0:0:
256,192,5125,1,0,0:0:0:0:
256,192,5126,1,0,0:0:0:0:
256,192,5128,1,0,0:0:0:0:
384,192,5130,1,0,0:0:0:0:
256,192,5130,1,0,0:0:0:0:
256,192,5131,1,0,0:0:0:0:
384,192,5132,1,0,0:0:0:0:
384,192,5133,1,0,0:0:0:0:
256,192,5133,1,0,0:0:0:0:
384,192,5134,1,0,0:0:0:0:
256,192,5134,1,0,0:0:0:0:
384,192,5135,1,0,0:0:0:0:
256,192,5135,1,0,0:0:0:0:
384,192,5136,1,0,0:0:0:0:
256,192,5136,1,0,0:0:0:0:
256,192,5137,1,0,0:0:0:0:
256,192,5138,1,0,0:0:0:0:
384,192,5138,1,0,0:0:0:0:
256,192,5139,1,0,0:0:0:0:
384,192,5139,1,0,0:0:0:0:
384,192,5140,1,0,0:0:0:0:
256,192,5144,1,0,0:0:0:0:
256,192,5145,1,0,0:0:0:0:
256,192,5146,1,0,0:0:0:0:
384,192,5146,1,0,0:0:0:0:
384,192,5148,1,0,0:0:0:0:
384,192,5149,1,0,0:0:0:0:
256,192,5149,1,0,0:0:0:0:
384,192,5150,1,0,0:0:0:0:
256,192,5150,1,0,0:0:0:0:
256,192,5151,1,0,0:0:0:0:
384,192,5152,1,0,0:0:0:0:
384,192,5153,1,0,0:0:0:0:
384,192,5154,1,0,0:0:0:0:
256,192,5155,1,0,0:0:0:0:
384,192,5156,1,0,0:0:0:0:
256,192,5156,1,0,0:0:0:0:
384,192,5157,1,0,0:0:0:0:
256,192,5157,1,0,0:0:0:0:
256,192,5158,1,0,0:0:0:0:
384,192,5158,1,0,0:0:0:0:
256,192,5159,1,0,0:0:0:0:
384,192,5159,1,0,0:0:0:0:
384,192,5160,1,0,0:0:0:0:
384,192,5161,1,0,0:0:0:0:
256,192,5161,1,0,0:0:0:0:
384,192,5163,1,0,0:0:0:0:
256,192,5163,1,0,0:0:0:0:
256,192,5164,1,0,0:0:0:0:
384,192,5165,1,0,0:0:0:0:
256,192,5165,1,0,0:0:0:0:
384,192,5166,1,0,0:0:0:0:
256,192,5166,1,0,0:0:0:0:
384,192,5167,1,0,0:0:0:0:
384,192,5168,1,0,0:0:0:0:
256,192,5172,1,0,0:0:0:0:
256,192,5173,1,0,0:0:0:0:
384,192,5173,1,0,0:0:0:0:
384,192,5174,1,0,0:0:0:0:
256,192,5174,1,0,0:0:0:0:
256,192,5175,1,0,0:0:0:0:
384,192,5175,1,0,0:0:0:0:
256,192,5176,1,0,0:0:0:0:
384,192,5176,1,0,0:0:0:0:
256,192,5177,1,0,0:0:0:0:
384,192,5177,1,0,0:0:0:0:
384,192,5178,1,0,0:0:0:0:
256,192,5178,1,0,0:0:0:0:
256,192,5179,1,0,0:0:0:0:
384,192,5180,1,0,0:0:0:0:
256,192,5180,1,0,0:0:0:0:
384,192,5181,1,0,0:0:0:0:
256,192,5181,1,0,0:0:0:0:
256,192,5182,1,0,0:0:0:0:
384,192,5182,1,0,0:0:0:0:
256,192,5183,1,0,0:0:0:0:
384,192,5183,1,0,0:0:0:0:
384,192,5184,1,0,0:0:0:0:
256,192,5184,1,0,0:0:0:0:
256,192,5185,1,0,0:0:0:0:
384,192,5185,1,0,0:0:0:0:
384,192,5186,1,0,0:0:0:0:
256,192,5187,1,0,0:0:0:0:
384,192,5187,1,0,0:0:0:0:
256,192,5188,1,0,0:0:0:0:
384,192,5190,1,0,0:0:0:0:
384,192,5192,1,0,0:0:0:0:
256,192,5193,1,0,0:0:0:0:
256,192,5195,1,0,0:0:0:0:
384,192,5196,1,0,0:0:0:0:
256,192,5196,1,0,0:0:0:0:
256,192,5197,1,0,0:0:0:0:
384,192,5197,1,0,0:0:0:0:
384,192,5198,1,0,0:0:0:0:
256,192,5199,1,0,0:0:0:0:
384,192,5200,1,0,0:0:0:0:
384,192,5201,1,0,0:0:0:0:
256,192,5201,1,0,0:0:0:0:
256,192,5202,1,0,0:0:0:0:
384,192,5202,1,0,0:0:0:0:
256,192,5203,1,0,0:0:0:0:
384,192,5203,1,0,0:0:0:0:
384,192,5204,1,0,0:0:0:0:
384,192,5205,1,0,0:0:0:0:
256,192,5206,1,0,0:0:0:0:
384,192,5206,1,0,0:0:0:0:
256,192,5207,1,0,0:0:0:0:
384,192,5209,1,0,0:0:0:0:
256,192,5209,1,0,0:0:0:0:
384,192,5210,1,0,0:0:0:0:
256,192,5210,1,0,0:0:0:0:
384,192,5211,1,0,0:0:0:0:
256,192,5212,1,0,0:0:0:0:
384,192,5212,1,0,0:0:0:0:
256,192,5215,1,0,0:0:0:0:
384,192,5216,1,0,0:0:0:0:
256,192,5217,1,0,0:0:0:0:
384,192,5217,1,0,0:0:0:0:
384,192,5218,1,0,0:0:0:0:
256,192,5219,1,0,0:0:0:0:
384,192,5219,1,0,0:0:0:0:
384,192,5220,1,0,0:0:0:0:
256,192,5220,1,0,0:0:0:0:
256,192,5221,1,0,0:0:0:0:
384,192,5221,1,0,0:0:0:0:
384,192,5222,1,0,0:0:0:0:
256,192,5223,1,0,0:0:0:0:
384,192,5224,1,0,0:0:0:0:
384,192,5225,1,0,0:0:0:0:
256,192,5225,1,0,0:0:0:0:
384,192,5226,1,0,0:0:0:0:
256,192,5226,1,0,0:0:0:0:
256,192,5227,1,0,0:0:0:0:
256,192,5228,1,0,0:0:0:0:
256,192,5229,1,0,0:0:0:0:
384,192,5229,1,0,0:0:0:0:
384,192,5230,1,0,0:0:0:0:
256,192,5230,1,0,0:0:0:0:
384,192,5231,1,0,0:0:0:0:
256,192,5231,1,0,0:0:0:0:
384,192,5232,1,0,0:0:0:0:
256,192,5232,1,0,0:0:0:0:
256,192,5233,1,0,0:0:0:0:
384,192,5234,1,0,0:0:0:0:
384,192,5236,1,0,0:0:0:0:
384,192,5237,1,0,0:0:0:0:
256,192,5239,1,0,0:0:0:0:
256,192,5240,1,0,0:0:0:0:
256,192,5241,1,0,0:0:0:0:
384,192,5242,1,0,0:0:0:0:
384,192,5243,1,0,0:0:0:0:
256,192,5244,1,0,0:0:0:0:
384,192,5244,1,0,0:0:0:0:
384,192,5245,1,0,0:0:0:0:
256,192,5245,1,0,0:0:0:0:
384,192,5246,1,0,0:0:0:0:
384,192,5247,1,0,0:0:0:0:
256,192,5249,1,0,0:0:0:0:
384,192,5249,1,0,0:0:0:0:
256,192,5250,1,0,0:0:0:0:
384,192,5250,1,0,0:0:0:0:
384,192,5251,1,0,0:0:0:0:
256,192,5251,1,0,0:0:0:0:
256,192,5252,1,0,0:0:0:0:
384,192,5252,1,0,0:0:0:0:
256,192,5253,1,0,0:0:0:0:
384,192,5254,1,0,0:0:0:0:
256,192,5254,1,0,0:0:0:0:
384,192,5255,1,0,0:0:0:0:
384,192,5256,1,0,0:0:0:0:
256,192,5256,1,0,0:0:0:0:
384,192,5257,1,0,0:0:0:0:
256,192,5258,1,0,0:0:0:0:
256,192,5259,1,0,0:0:0:0:
384,192,5259,1,0,0:0:0:0:
384,192,5260,1,0,0:0:0:0:
256,192,5260,1,0,0:0:0:0:
256,192,5261,1,0,0:0:0:0:
384,192,5263,1,0,0:0:0:0:
384,192,5264,1,0,0:0:0:0:
384,192,5265,1,0,0:0:0:0:
256,192,5267,1,0,0:0:0:0:
256,192,5268,1,0,0:0:0:0:
384,192,5268,1,0,0:0:0:0:
256,192,5269,1,0,0:0:0:0:
256,192,5270,1,0,0:0:0:0:
384,192,5270,1,0,0:0:0:0:
384,192,5271,1,0,0:0:0:0:
256,192,5271,1,0,0:0:0:0:
384,192,5272,1,0,0:0:0:0:
256,192,5272,1,0,0:0:0:0:
384,192,5274,1,0,0:0:0:0:
256,192,5274,1,0,0:0:0:0:
384,192,5275,1,0,0:0:0:0:
384,192,5276,1,0,0:0:0:0:
256,192,5276,1,0,0:0:0:0:
256,192,5277,1,0,0:0:0:0:
384,192,5278,1,0,0:0:0:0:
384,192,5279,1,0,0:0:0:0:
256,192,5279,1,0,0:0:0:0:
384,192,5280,1,0,0:0:0:0:
256,192,5280,1,0,0:0:0:0:
384,192,5281,1,0,0:0:0:0:
384,192,5282,1,0,0:0:0:0:
256,192,5283,1,0,0:0:0:0:
384,192,5287,1,0,0:0:0:0:
256,192,5288,1,0,0:0:0:0:
384,192,5288,1,0,0:0:0:0:
256,192,5289,5,0,0:0:0:0:
384,192,5289,1,0,0:0:0:0:
384,192,5290,1,0,0:0:0:0:
256,192,5290,1,0,0:0:0:0:
256,192,5291,1,0,0:0:0:0:
384,192,5291,1,0,0:0:0:0:
256,192,5292,1,0,0:0:0:0:
384,192,5293,1,0,0:0:0:0:
256,192,5293,1,0,0:0:0:0:
256,192,5294,1,0,0:0:0:0:
256,192,5295,5,0,0:0:0:0:
384,192,5295,1,0,0:0:0:0:
384,192,5296,1,0,0:0:0:0:
256,192,5296,1,0,0:0:0:0:
256,192,5297,1,0,0:0:0:0:
384,192,5297,1,0,0:0:0:0:
256,192,5298,1,0,0:0:0:0:
384,192,5299,1,0,0:0:0:0:
384,192,5301,1,0,0:0:0:0:
256,192,5302,1,0,0:0:0:0:
384,192,5302,1,0,0:0:0:0:
384,192,5303,1,0,0:0:0:0:
256,192,5304,1,0,0:0:0:0:
384,192,5304,1,0,0:0:0:0:
256,192,5305,1,0,0:0:0:0:
256,192,5306,1,0,0:0:0:0:
256,192,5307,1,0,0:0:0:0:
384,192,5308,1,0,0:0:0:0:
384,192,5309,1,0,0:0:0:0:
256,192,5310,1,0,0:0:0:0:
256,192,5312,1,0,0:0:0:0:
256,192,5313,1,0,0:0:0:0:
384,192,5314,1,0,0:0:0:0:
256,192,5315,1,0,0:0:0:0:
384,192,5315,1,0,0:0:0:0:
384,192,5316,1,0,0:0:0:0:
256,192,5316,1,0,0:0:0:0:
384,192,5317,1,0,0:0:0:0:
256,192,5317,1,0,0:0:0:0:
256,192,5318,5,0,0:0:0:0:
256,192,5319,1,0,0:0:0:0:
384,192,5319,1,0,0:0:0:0:
256,192,5320,1,0,0:0:0:0:
384,192,5320,1,0,0:0:0:0:
256,192,5321,1,0,0:0:0:0:
384,192,5321,1,0,0:0:0:0:
384,192,5322,1,0,0:0:0:0:
256,192,5322,1,0,0:0:0:0:
384,192,5323,1,0,0:0:0:0:
256,192,5323,1,0,0:0:0:0:
384,192,5324,1,0,0:0:0:0:
256,192,5324,1,0,0:0:0:0:
256,192,5325,1,0,0:0:0:0:
256,192,5326,1,0,0:0:0:0:
384,192,5326,1,0,0:0:0:0:
384,192,5327,1,0,0:0:0:0:
256,192,5328,1,0,0:0:0:0:
384,192,5328,1,0,0:0:0:0:
256,192,5333,5,0,0:0:0:0:
384,192,5333,1,0,0:0:0:0:
384,192,5334,1,0,0:0:0:0:
256,192,5334,1,0,0:0:0:0:
256,192,5335,1,0,0:0:0:0:
384,192,5335,1,0,0:0:0:0:
256,192,5336,1,0,0:0:0:0:
384,192,5337,1,0,0:0:0:0:
256,192,5339,1,0,0:0:0:0:
384,192,5339,1,0,0:0:0:0:
256,192,5340,1,0,0:0:0:0:
384,192,5341,1,0,0:0:0:0:
384,192,5342,1,0,0:0:0:0:
384,192,5343,1,0,0:0:0:0:
256,192,5344,1,0,0:0:0:0:
384,192,5345,1,0,0:0:0:0:
256,192,5345,1,0,0:0:0:0:
256,192,5346,1,0,0:0:0:0:
384,192,5346,1,0,0:0:0:0:
256,192,5347,1,0,0:0:0:0:
256,192,5348,1,0,0:0:0:0:
384,192,5348,1,0,0:0:0:0:
256,192,5349,1,0,0:0:0:0:
384,192,5349,1,0,0:0:0:0:
256,192,5350,1,0,0:0:0:0:
256,192,5351,1,0,0:0:0:0:
384,192,5352,1,0,0:0:0:0:
256,192,5353,1,0,0:0:0:0:
256,192,5354,1,0,0:0:0:0:
384,192,5354,1,0,0:0:0:0:
256,192,5355,1,0,0:0:0:0:
384,192,5355,1,0,0:0:0:0:
384,192,5358,1,0,0:0:0:0:
384,192,5361,1,0,0:0:0:0:
256,192,5362,5,0,0:0:0:0:
384,192,5362,1,0,0:0:0:0:
384,192,5363,1,0,0:0:0:0:
256,192,5363,1,0,0:0:0:0:
256,192,5364,1,0,0:0:0:0:
384,192,5364,1,0,0:0:0:0:
256,192,5365,1,0,0:0:0:0:
384,192,5365,1,0,0:0:0:0:
256,192,5366,1,0,0:0:0:0:
384,192,5366,1,0,0:0:0:0:
256,192,5367,1,0,0:0:0:0:
384,192,5368,1,0,0:0:0:0:
256,192,5369,1,0,0:0:0:0:
256,192,5370,1,0,0:0:0:0:
384,192,5371,1,0,0:0:0:0:
256,192,5372,1,0,0:0:0:0:
384,192,5372,1,0,0:0:0:0:
256,192,5374,1,0,0:0:0:0:
256,192,5375,1,0,0:0:0:0:
384,192,5377,1,0,0:0:0:0:
256,192,5378,1,0,0:0:0:0:
384,192,5379,1,0,0:0:0:0:
384,192,5380,1,0,0:0:0:0:
256,192,5383,1,0,0:0:0:0:
256,192,5384,1,0,0:0:0:0:
384,192,5385,1,0,0:0:0:0:
384,192,5386,1,0,0:0:0:0:
256,192,5387,1,0,0:0:0:0:
384,192,5387,1,0,0:0:0:0:
256,192,5388,1,0,0:0:0:0:
256,192,5389,1,0,0:0:0:0:
384,192,5389,1,0,0:0:0:0:
384,192,5390,1,0,0:0:0:0:
256,192,5390,1,0,0:0:0:0:
384,192,5391,1,0,0:0:0:0:
256,192,5391,1,0,0:0:0:0:
256,192,5392,1,0,0:0:0:0:
256,192,5393,1,0,0:0:0:0:
384,192,5393,1,0,0:0:0:0:
256,192,5394,5,0,0:0:0:0:
384,192,5394,1,0,0:0:0:0:
384,192,5395,1,0,0:0:0:0:
384,192,5396,1,0,0:0:0:0:
384,192,5397,1,0,0:0:0:0:
256,192,5397,1,0,0:0:0:0:
384,192,5398,1,0,0:0:0:0:
256,192,5399,1,0,0:0:0:0:
384,192,5399,1,0,0:0:0:0:
384,192,5400,1,0,0:0:0:0:
256,192,5401,1,0,0:0:0:0:
384,192,5404,1,0,0:0:0:0:
256,192,5405,1,0,0:0:0:0:
384,192,5406,1,0,0:0:0:0:
256,192,5407,1,0,0:0:0:0:
256,192,5408,1,0,0:0:0:0:
384,192,5409,1,0,0:0:0:0:
384,192,5410,1,0,0:0:0:0:
256,192,5411,1,0,0:0:0:0:
256,192,5412,1,0,0:0:0:0:
256,192,5413,1,0,0:0:0:0:
256,192,5414,5,0,0:0:0:0:
384,192,5414,1,0,0:0:0:0:
384,192,5415,1,0,0:0:0:0:
256,192,5415,1,0,0:0:0:0:
256,192,5416,1,0,0:0:0:0:
256,192,5417,1,0,0:0:0:0:
384,192,5417,1,0,0:0:0:0:
384,192,5418,1,0,0:0:0:0:
256,192,5418,1,0,0:0:0:0:
384,192,5419,1,0,0:0:0:0:
256,192,5419,1,0,0:0:0:0:
256,192,5420,1,0,0:0:0:0:
384,192,5421,1,0,0:0:0:0:
256,192,5421,1,0,0:0:0:0:
256,192,5423,1,0,0:0:0:0:
384,192,5423,1,0,0:0:0:0:
384,192,5424,1,0,0:0:0:0:
256,192,5428,1,0,0:0:0:0:
256,192,5429,1,0,0:0:0:0:
256,192,5431,1,0,0:0:0:0:
384,192,5433,1,0,0:0:0:0:
384,192,5434,1,0,0:0:0:0:
256,192,5434,1,0,0:0:0:0:
384,192,5435,1,0,0:0:0:0:
256,192,5435,1,0,0:0:0:0:
256,192,5438,5,0,0:0:0:0:
384,192,5438,1,0,0:0:0:0:
256,192,5439,1,0,0:0:0:0:
384,192,5439,1,0,0:0:0:0:
384,192,5440,1,0,0:0:0:0:
384,192,5441,1,0,0:0:0:0:
256,192,5441,1,0,0:0:0:0:
256,192,5442,1,0,0:0:0:0:
384,192,5442,1,0,0:0:0:0:
256,192,5443,1,0,0:0:0:0:
384,192,5443,1,0,0:0:0:0:
384,192,5444,1,0,0:0:0:0:
256,192,5445,1,0,0:0:0:0:
384,192,5448,1,0,0:0:0:0:
256,192,5448,1,0,0:0:0:0:
256,192,5449,1,0,0:0:0:0:
384,192,5452,1,0,0:0:0:0:
384,192,5453,1,0,0:0:0:0:
256,192,5456,1,0,0:0:0:0:
256,192,5457,1,0,0:0:0:0:
256,192,5458,5,0,0:0:0:0:
384,192,5458,1,0,0:0:0:0:
384,192,5459,1,0,0:0:0:0:
256,192,5459,1,0,0:0:0:0:
256,192,5460,1,0,0:0:0:0:
384,192,5461,1,0,0:0:0:0:
256,192,5461,1,0,0:0:0:0:
384,192,5462,1,0,0:0:0:0:
384,192,5463,1,0,0:0:0:0:
384,192,5465,1,0,0:0:0:0:
256,192,5467,1,0,0:0:0:0:
384,192,5467,1,0,0:0:0:0:
256,192,5469,1,0,0:0:0:0:
256,192,5473,1,0,0:0:0:0:
384,192,5477,1,0,0:0:0:0:
256,192,5478,1,0,0:0:0:0:
256,192,5479,1,0,0:0:0:0:
384,192,5480,1,0,0:0:0:0:
384,192,5481,1,0,0:0:0:0:
384,192,5482,1,0,0:0:0:0:
256,192,5483,1,0,0:0:0:0:
384,192,5483,1,0,0:0:0:0:
256,192,5485,1,0,0:0:0:0:
256,192,5486,1,0,0:0:0:0:
384,192,5486,1,0,0:0:0:0:
256,192,5487,1,0,0:0:0:0:
384,192,5487,1,0,0:0:0:0:
256,192,5489,1,0,0:0:0:0:
384,192,5495,1,0,0:0:0:0:
384,192,5496,1,0,0:0:0:0:
384,192,5501,1,0,0:0:0:0:
256,192,5502,1,0,0:0:0:0:
256,192,5503,1,0,0:0:0:0:
256,192,5507,1,0,0:0:0:0:
384,192,5507,1,0,0:0:0:0:
256,192,5508,1,0,0:0:0:0:
384,192,5509,1,0,0:0:0:0:
256,192,5509,1,0,0:0:0:0:
384,192,5511,1,0,0:0:0:0:
256,192,5513,1,0,0:0:0:0:
384,192,5515,1,0,0:0:0:0:
256,192,5517,1,0,0:0:0:0:
256,192,5523,1,0,0:0:0:0:
384,192,5524,1,0,0:0:0:0:
384,192,5525,1,0,0:0:0:0:
384,192,5530,1,0,0:0:0:0:
384,192,5531,1,0,0:0:0:0:
256,192,5533,1,0,0:0:0:0:
256,192,5535,1,0,0:0:0:0:
256,192,5536,1,0,0:0:0:0:
256,192,5537,1,0,0:0:0:0:
384,192,5539,1,0,0:0:0:0:
384,192,5540,1,0,0:0:0:0:
384,192,5549,1,0,0:0:0:0:
256,192,5551,1,0,0:0:0:0:
256,192,5552,1,0,0:0:0:0:
384,192,5553,1,0,0:0:0:0:
256,192,5553,1,0,0:0:0:0:
384,192,5555,1,0,0:0:0:0:
384,192,5557,1,0,0:0:0:0:
384,192,5559,1,0,0:0:0:0:
256,192,5561,1,0,0:0:0:0:
256,192,5564,1,0,0:0:0:0:
256,192,5573,1,0,0:0:0:0:
384,192,5577,1,0,0:0:0:0:
384,192,5578,1,0,0:0:0:0:
256,192,5579,1,0,0:0:0:0:
256,192,5580,1,0,0:0:0:0:
256,192,5581,1,0,0:0:0:0:
384,192,5584,1,0,0:0:0:0:
256,192,5584,1,0,0:0:0:0:
384,192,5585,1,0,0:0:0:0:
384,192,5593,1,0,0:0:0:0:
384,192,5601,1,0,0:0:0:0:
256,192,5602,1,0,0:0:0:0:
256,192,5604,1,0,0:0:0:0:
384,192,5605,1,0,0:0:0:0:
384,192,5607,1,0,0:0:0:0:
256,192,5608,1,0,0:0:0:0:
384,192,5609,1,0,0:0:0:0:
256,192,5612,1,0,0:0:0:0:
256,192,5617,1,0,0:0:0:0:
384,192,5621,1,0,0:0:0:0:
384,192,5622,1,0,0:0:0:0:
256,192,5628,1,0,0:0:0:0:
384,192,5628,1,0,0:0:0:0:
384,192,5629,1,0,0:0:0:0:
384,192,5630,1,0,0:0:0:0:
256,192,5630,1,0,0:0:0:0:
256,192,5631,1,0,0:0:0:0:
256,192,5632,1,0,0:0:0:0:
256,192,5646,1,0,0:0:0:0:
384,192,5647,1,0,0:0:0:0:
256,192,5648,1,0,0:0:0:0:
384,192,5649,1,0,0:0:0:0:
384,192,5651,1,0,0:0:0:0:
384,192,5653,1,0,0:0:0:0:
384,192,5654,1,0,0:0:0:0:
256,192,5656,1,0,0:0:0:0:
256,192,5659,1,0,0:0:0:0:
384,192,5668,1,0,0:0:0:0:
256,192,5668,1,0,0:0:0:0:
384,192,5674,1,0,0:0:0:0:
256,192,5674,1,0,0:0:0:0:
256,192,5675,1,0,0:0:0:0:
256,192,5676,1,0,0:0:0:0:
384,192,5676,1,0,0:0:0:0:
256,192,5678,1,0,0:0:0:0:
384,192,5683,1,0,0:0:0:0:
384,192,5691,1,0,0:0:0:0:
384,192,5697,1,0,0:0:0:0:
256,192,5697,1,0,0:0:0:0:
384,192,5698,1,0,0:0:0:0:
256,192,5698,1,0,0:0:0:0:
384,192,5699,1,0,0:0:0:0:
384,192,5702,1,0,0:0:0:0:
256,192,5703,1,0,0:0:0:0:
384,192,5703,1,0,0:0:0:0:
256,192,5707,1,0,0:0:0:0:
384,192,5712,1,0,0:0:0:0:
256,192,5712,1,0,0:0:0:0:
384,192,5718,1,0,0:0:0:0:
384,192,5720,1,0,0:0:0:0:
256,192,5722,1,0,0:0:0:0:
256,192,5725,1,0,0:0:0:0:
256,192,5726,1,0,0:0:0:0:
384,192,5727,1,0,0:0:0:0:
256,192,5727,1,0,0:0:0:0:
384,192,5737,1,0,0:0:0:0:
384,192,5741,1,0,0:0:0:0:
256,192,5741,1,0,0:0:0:0:
256,192,5742,1,0,0:0:0:0:
384,192,5743,1,0,0:0:0:0:
384,192,5746,1,0,0:0:0:0:
384,192,5747,1,0,0:0:0:0:
256,192,5751,1,0,0:0:0:0:
384,192,5752,1,0,0:0:0:0:
256,192,5753,1,0,0:0:0:0:
256,192,5763,1,0,0:0:0:0:
384,192,5765,1,0,0:0:0:0:
384,192,5766,1,0,0:0:0:0:
256,192,5769,1,0,0:0:0:0:
256,192,5770,1,0,0:0:0:0:
256,192,5771,1,0,0:0:0:0:
384,192,5771,1,0,0:0:0:0:
384,192,5772,1,0,0:0:0:0:
384,192,5773,1,0,0:0:0:0:
256,192,5773,1,0,0:0:0:0:
384,192,5781,1,0,0:0:0:0:
256,192,5791,1,0,0:0:0:0:
256,192,5792,1,0,0:0:0:0:
384,192,5793,1,0,0:0:0:0:
256,192,5793,1,0,0:0:0:0:
384,192,5794,1,0,0:0:0:0:
384,192,5796,1,0,0:0:0:0:
256,192,5797,1,0,0:0:0:0:
384,192,5800,1,0,0:0:0:0:
256,192,5802,1,0,0:0:0:0:
256,192,5807,1,0,0:0:0:0:
384,192,5809,1,0,0:0:0:0:
384,192,5810,1,0,0:0:0:0:
384,192,5815,1,0,0:0:0:0:
384,192,5816,1,0,0:0:0:0:
384,192,5817,1,0,0:0:0:0:
256,192,5817,1,0,0:0:0:0:
256,192,5820,1,0,0:0:0:0:
256,192,5821,1,0,0:0:0:0:
256,192,5822,1,0,0:0:0:0:
384,192,5825,1,0,0:0:0:0:
256,192,5835,1,0,0:0:0:0:
384,192,5837,1,0,0:0:0:0:
384,192,5838,1,0,0:0:0:0:
384,192,5844,1,0,0:0:0:0:
256,192,5846,1,0,0:0:0:0:
256,192,5848,1,0,0:0:0:0:
384,192,5863,1,0,0:0:0:0:
256,192,5864,1,0,0:0:0:0:
256,192,5865,1,0,0:0:0:0:
256,192,5866,1,0,0:0:0:0:
384,192,5869,1,0,0:0:0:0:
384,192,5870,1,0,0:0:0:0:
256,192,5886,1,0,0:0:0:0:
384,192,5890,1,0,0:0:0:0:
256,192,5892,1,0,0:0:0:0:
384,192,5892,1,0,0:0:0:0:
256,192,5896,1,0,0:0:0:0:
384,192,5907,1,0,0:0:0:0:
384,192,5914,1,0,0:0:0:0:
256,192,5915,1,0,0:0:0:0:
256,192,5916,1,0,0:0:0:0:
384,192,5922,1,0,0:0:0:0:
256,192,5930,1,0,0:0:0:0:
384,192,5934,1,0,0:0:0:0:
384,192,5936,1,0,0:0:0:0:
256,192,5940,1,0,0:0:0:0:
256,192,5943,1,0,0:0:0:0:
256,192,5959,1,0,0:0:0:0:
384,192,5960,1,0,0:0:0:0:
256,192,5960,1,0,0:0:0:0:
384,192,5966,1,0,0:0:0:0:
384,192,5968,1,0,0:0:0:0:
256,192,5981,1,0,0:0:0:0:
384,192,5987,1,0,0:0:0:0:
256,192,5987,1,0,0:0:0:0:
384,192,5988,1,0,0:0:0:0:
384,192,5989,1,0,0:0:0:0:
256,192,5991,1,0,0:0:0:0:
384,192,6004,1,0,0:0:0:0:
256,192,6010,1,0,0:0:0:0:
256,192,6011,1,0,0:0:0:0:
384,192,6012,1,0,0:0:0:0:
256,192,6025,1,0,0:0:0:0:
384,192,6031,1,0,0:0:0:0:
384,192,6032,1,0,0:0:0:0:
384,192,6033,1,0,0:0:0:0:
256,192,6035,1,0,0:0:0:0:
256,192,6037,1,0,0:0:0:0:
384,192,6050,1,0,0:0:0:0:
256,192,6054,1,0,0:0:0:0:
256,192,6055,1,0,0:0:0:0:
384,192,6056,1,0,0:0:0:0:
384,192,6065,1,0,0:0:0:0:
256,192,6075,1,0,0:0:0:0:
384,192,6079,1,0,0:0:0:0:
256,192,6081,1,0,0:0:0:0:
384,192,6085,1,0,0:0:0:0:
256,192,6086,1,0,0:0:0:0:
384,192,6094,1,0,0:0:0:0:
256,192,6104,1,0,0:0:0:0:
256,192,6106,1,0,0:0:0:0:
384,192,6109,1,0,0:0:0:0:
384,192,6110,1,0,0:0:0:0:
256,192,6119,1,0,0:0:0:0:
384,192,6123,1,0,0:0:0:0:
384,192,6129,1,0,0:0:0:0:
256,192,6130,1,0,0:0:0:0:
256,192,6132,1,0,0:0:0:0:
384,192,6148,1,0,0:0:0:0:
256,192,6148,1,0,0:0:0:0:
256,192,6150,1,0,0:0:0:0:
384,192,6154,1,0,0:0:0:0:
384,192,6155,1,0,0:0:0:0:
256,192,6170,1,0,0:0:0:0:
384,192,6175,1,0,0:0:0:0:
256,192,6176,1,0,0:0:0:0:
384,192,6177,1,0,0:0:0:0:
256,192,6180,1,0,0:0:0:0:
384,192,6192,1,0,0:0:0:0:
256,192,6199,1,0,0:0:0:0:
384,192,6199,1,0,0:0:0:0:
384,192,6200,1,0,0:0:0:0:
256,192,6200,1,0,0:0:0:0:
256,192,6214,1,0,0:0:0:0:
384,192,6219,1,0,0:0:0:0:
384,192,6221,1,0,0:0:0:0:
256,192,6224,1,0,0:0:0:0:
256,192,6227,1,0,0:0:0:0:
384,192,6238,1,0,0:0:0:0:
256,192,6243,1,0,0:0:0:0:
384,192,6244,1,0,0:0:0:0:
256,192,6244,1,0,0:0:0:0:
384,192,6253,1,0,0:0:0:0:
256,192,6265,1,0,0:0:0:0:
384,192,6267,1,0,0:0:0:0:
256,192,6271,1,0,0:0:0:0:
384,192,6272,1,0,0:0:0:0:
384,192,6273,1,0,0:0:0:0:
256,192,6275,1,0,0:0:0:0:
384,192,6282,1,0,0:0:0:0:
256,192,6294,1,0,0:0:0:0:
256,192,6295,1,0,0:0:0:0:
384,192,6297,1,0,0:0:0:0:
256,192,6309,1,0,0:0:0:0:
384,192,6311,1,0,0:0:0:0:
384,192,6316,1,0,0:0:0:0:
384,192,6317,1,0,0:0:0:0:
256,192,6319,1,0,0:0:0:0:
256,192,6322,1,0,0:0:0:0:
384,192,6335,1,0,0:0:0:0:
256,192,6338,1,0,0:0:0:0:
256,192,6339,1,0,0:0:0:0:
384,192,6341,1,0,0:0:0:0:
384,192,6343,1,0,0:0:0:0:
256,192,6360,1,0,0:0:0:0:
384,192,6363,1,0,0:0:0:0:
384,192,6364,1,0,0:0:0:0:
256,192,6366,1,0,0:0:0:0:
384,192,6370,1,0,0:0:0:0:
256,192,6370,1,0,0:0:0:0:
384,192,6379,1,0,0:0:0:0:
384,192,6387,1,0,0:0:0:0:
256,192,6389,1,0,0:0:0:0:
256,192,6390,1,0,0:0:0:0:
384,192,6395,1,0,0:0:0:0:
256,192,6404,1,0,0:0:0:0:
384,192,6407,1,0,0:0:0:0:
384,192,6408,1,0,0:0:0:0:
384,192,6414,1,0,0:0:0:0:
256,192,6414,1,0,0:0:0:0:
256,192,6416,1,0,0:0:0:0:
384,192,6433,1,0,0:0:0:0:
256,192,6433,1,0,0:0:0:0:
256,192,6434,1,0,0:0:0:0:
384,192,6439,1,0,0:0:0:0:
384,192,6440,1,0,0:0:0:0:
256,192,6454,1,0,0:0:0:0:
256,192,6460,1,0,0:0:0:0:
384,192,6460,1,0,0:0:0:0:
384,192,6462,1,0,0:0:0:0:
256,192,6465,1,0,0:0:0:0:
384,192,6477,1,0,0:0:0:0:
256,192,6483,1,0,0:0:0:0:
384,192,6484,1,0,0:0:0:0:
384,192,6485,1,0,0:0:0:0:
256,192,6485,1,0,0:0:0:0:
256,192,6498,1,0,0:0:0:0:
384,192,6504,1,0,0:0:0:0:
384,192,6506,1,0,0:0:0:0:
256,192,6509,1,0,0:0:0:0:
256,192,6511,1,0,0:0:0:0:
384,192,6523,1,0,0:0:0:0:
256,192,6527,1,0,0:0:0:0:
384,192,6529,1,0,0:0:0:0:
256,192,6529,1,0,0:0:0:0:
384,192,6538,1,0,0:0:0:0:
256,192,6549,1,0,0:0:0:0:
384,192,6552,1,0,0:0:0:0:
256,192,6555,1,0,0:0:0:0:
384,192,6557,1,0,0:0:0:0:
384,192,6558,1,0,0:0:0:0:
256,192,6559,1,0,0:0:0:0:
384,192,6567,1,0,0:0:0:0:
256,192,6578,1,0,0:0:0:0:
256,192,6579,1,0,0:0:0:0:
384,192,6582,1,0,0:0:0:0:
256,192,6593,1,0,0:0:0:0:
384,192,6596,1,0,0:0:0:0:
384,192,6601,1,0,0:0:0:0:
384,192,6602,1,0,0:0:0:0:
256,192,6603,1,0,0:0:0:0:
256,192,6606,1,0,0:0:0:0:
384,192,6620,1,0,0:0:0:0:
256,192,6622,1,0,0:0:0:0:
256,192,6623,1,0,0:0:0:0:
384,192,6626,1,0,0:0:0:0:
384,192,6628,1,0,0:0:0:0:
256,192,6644,1,0,0:0:0:0:
384,192,6647,1,0,0:0:0:0:
384,192,6648,1,0,0:0:0:0:
384,192,6649,1,0,0:0:0:0:
256,192,6650,1,0,0:0:0:0:
256,192,6654,1,0,0:0:0:0:
384,192,6664,1,0,0:0:0:0:
384,192,6672,1,0,0:0:0:0:
256,192,6673,1,0,0:0:0:0:
256,192,6674,1,0,0:0:0:0:
384,192,6680,1,0,0:0:0:0:
256,192,6688,1,0,0:0:0:0:
384,192,6691,1,0,0:0:0:0:
384,192,6692,1,0,0:0:0:0:
384,192,6693,1,0,0:0:0:0:
256,192,6698,1,0,0:0:0:0:
256,192,6701,1,0,0:0:0:0:
256,192,6717,1,0,0:0:0:0:
384,192,6718,1,0,0:0:0:0:
256,192,6718,1,0,0:0:0:0:
384,192,6724,1,0,0:0:0:0:
384,192,6725,1,0,0:0:0:0:
256,192,6739,1,0,0:0:0:0:
256,192,6745,1,0,0:0:0:0:
384,192,6745,1,0,0:0:0:0:
384,192,6747,1,0,0:0:0:0:
256,192,6749,1,0,0:0:0:0:
384,192,6762,1,0,0:0:0:0:
256,192,6768,1,0,0:0:0:0:
384,192,6769,1,0,0:0:0:0:
256,192,6769,1,0,0:0:0:0:
384,192,6770,1,0,0:0:0:0:
256,192,6783,1,0,0:0:0:0:
384,192,6789,1,0,0:0:0:0:
384,192,6791,1,0,0:0:0:0:
256,192,6793,1,0,0:0:0:0:
256,192,6795,1,0,0:0:0:0:
384,192,6808,1,0,0:0:0:0:
256,192,6812,1,0,0:0:0:0:
256,192,6813,1,0,0:0:0:0:
384,192,6814,1,0,0:0:0:0:
384,192,6823,1,0,0:0:0:0:
256,192,6833,1,0,0:0:0:0:
384,192,6835,1,0,0:0:0:0:
384,192,6837,1,0,0:0:0:0:
256,192,6839,1,0,0:0:0:0:
384,192,6843,1,0,0:0:0:0:
256,192,6844,1,0,0:0:0:0:
384,192,6852,1,0,0:0:0:0:
256,192,6862,1,0,0:0:0:0:
256,192,6864,1,0,0:0:0:0:
384,192,6867,1,0,0:0:0:0:
256,192,6877,1,0,0:0:0:0:
384,192,6879,1,0,0:0:0:0:
384,192,6881,1,0,0:0:0:0:
384,192,6887,1,0,0:0:0:0:
256,192,6888,1,0,0:0:0:0:
256,192,6890,1,0,0:0:0:0:
384,192,6905,1,0,0:0:0:0:
256,192,6906,1,0,0:0:0:0:
256,192,6908,1,0,0:0:0:0:
384,192,6911,1,0,0:0:0:0:
384,192,6913,1,0,0:0:0:0:
256,192,6928,1,0,0:0:0:0:
384,192,6932,1,0,0:0:0:0:
384,192,6933,1,0,0:0:0:0:
256,192,6934,1,0,0:0:0:0:
384,192,6934,1,0,0:0:0:0:
256,192,6938,1,0,0:0:0:0:
384,192,6949,1,0,0:0:0:0:
256,192,6957,1,0,0:0:0:0:
384,192,6957,1,0,0:0:0:0:
256,192,6958,1,0,0:0:0:0:
384,192,6965,1,0,0:0:0:0:
256,192,6972,1,0,0:0:0:0:
384,192,6976,1,0,0:0:0:0:
384,192,6977,1,0,0:0:0:0:
384,192,6978,1,0,0:0:0:0:
256,192,6982,1,0,0:0:0:0:
256,192,6985,1,0,0:0:0:0:
256,192,7001,1,0,0:0:0:0:
256,192,7002,1,0,0:0:0:0:
384,192,7003,1,0,0:0:0:0:
384,192,7009,1,0,0:0:0:0:
384,192,7010,1,0,0:0:0:0:
256,192,7023,1,0,0:0:0:0:
256,192,7029,1,0,0:0:0:0:
384,192,7030,1,0,0:0:0:0:
384,192,7032,1,0,0:0:0:0:
256,192,7033,1,0,0:0:0:0:
384,192,7047,1,0,0:0:0:0:
256,192,7052,1,0,0:0:0:0:
256,192,7053,1,0,0:0:0:0:
384,192,7054,1,0,0:0:0:0:
384,192,7055,1,0,0:0:0:0:
256,192,7067,1,0,0:0:0:0:
384,192,7074,1,0,0:0:0:0:
384,192,7076,1,0,0:0:0:0:
256,192,7077,1,0,0:0:0:0:
256,192,7080,1,0,0:0:0:0:
384,192,7093,1,0,0:0:0:0:
256,192,7096,1,0,0:0:0:0:
256,192,7097,1,0,0:0:0:0:
384,192,7099,1,0,0:0:0:0:
384,192,7108,1,0,0:0:0:0:
256,192,7118,1,0,0:0:0:0:
384,192,7122,1,0,0:0:0:0:
256,192,7124,1,0,0:0:0:0:
384,192,7127,1,0,0:0:0:0:
256,192,7128,1,0,0:0:0:0:
384,192,7128,1,0,0:0:0:0:
384,192,7137,1,0,0:0:0:0:
256,192,7147,1,0,0:0:0:0:
256,192,7148,1,0,0:0:0:0:
384,192,7152,1,0,0:0:0:0:
256,192,7162,1,0,0:0:0:0:
384,192,7166,1,0,0:0:0:0:
384,192,7171,1,0,0:0:0:0:
256,192,7172,1,0,0:0:0:0:
384,192,7172,1,0,0:0:0:0:
256,192,7174,1,0,0:0:0:0:
384,192,7190,1,0,0:0:0:0:
256,192,7191,1,0,0:0:0:0:
256,192,7192,1,0,0:0:0:0:
384,192,7196,1,0,0:0:0:0:
384,192,7198,1,0,0:0:0:0:
256,192,7212,1,0,0:0:0:0:
384,192,7217,1,0,0:0:0:0:
256,192,7218,1,0,0:0:0:0:
384,192,7218,1,0,0:0:0:0:
384,192,7219,1,0,0:0:0:0:
256,192,7223,1,0,0:0:0:0:
384,192,7234,1,0,0:0:0:0:
256,192,7241,1,0,0:0:0:0:
384,192,7242,1,0,0:0:0:0:
256,192,7243,1,0,0:0:0:0:
256,192,7256,1,0,0:0:0:0:
384,192,7261,1,0,0:0:0:0:
384,192,7262,1,0,0:0:0:0:
384,192,7263,1,0,0:0:0:0:
256,192,7267,1,0,0:0:0:0:
256,192,7269,1,0,0:0:0:0:
384,192,7280,1,0,0:0:0:0:
256,192,7285,1,0,0:0:0:0:
384,192,7286,1,0,0:0:0:0:
256,192,7287,1,0,0:0:0:0:
384,192,7295,1,0,0:0:0:0:
256,192,7307,1,0,0:0:0:0:
384,192,7309,1,0,0:0:0:0:
256,192,7313,1,0,0:0:0:0:
384,192,7315,1,0,0:0:0:0:
256,192,7317,1,0,0:0:0:0:
384,192,7324,1,0,0:0:0:0:
256,192,7336,1,0,0:0:0:0:
256,192,7337,1,0,0:0:0:0:
384,192,7339,1,0,0:0:0:0:
384,192,7340,1,0,0:0:0:0:
256,192,7351,1,0,0:0:0:0:
384,192,7353,1,0,0:0:0:0:
384,192,7359,1,0,0:0:0:0:
256,192,7361,1,0,0:0:0:0:
256,192,7364,1,0,0:0:0:0:
384,192,7378,1,0,0:0:0:0:
256,192,7380,1,0,0:0:0:0:
256,192,7381,1,0,0:0:0:0:
384,192,7384,1,0,0:0:0:0:
384,192,7385,1,0,0:0:0:0:
256,192,7402,1,0,0:0:0:0:
384,192,7405,1,0,0:0:0:0:
384,192,7407,1,0,0:0:0:0:
256,192,7408,1,0,0:0:0:0:
256,192,7412,1,0,0:0:0:0:
384,192,7422,1,0,0:0:0:0:
384,192,7429,1,0,0:0:0:0:
384,192,7430,1,0,0:0:0:0:
256,192,7431,1,0,0:0:0:0:
256,192,7432,1,0,0:0:0:0:
256,192,7446,1,0,0:0:0:0:
384,192,7449,1,0,0:0:0:0:
384,192,7451,1,0,0:0:0:0:
256,192,7456,1,0,0:0:0:0:
256,192,7459,1,0,0:0:0:0:
384,192,7468,1,0,0:0:0:0:
384,192,7474,1,0,0:0:0:0:
256,192,7475,1,0,0:0:0:0:
256,192,7476,1,0,0:0:0:0:
384,192,7483,1,0,0:0:0:0:
256,192,7497,1,0,0:0:0:0:
384,192,7497,1,0,0:0:0:0:
384,192,7502,1,0,0:0:0:0:
256,192,7503,1,0,0:0:0:0:
384,192,7503,1,0,0:0:0:0:
256,192,7507,1,0,0:0:0:0:
384,192,7512,1,0,0:0:0:0:
256,192,7526,1,0,0:0:0:0:
384,192,7527,1,0,0:0:0:0:
256,192,7527,1,0,0:0:0:0:
256,192,7541,1,0,0:0:0:0:
384,192,7541,1,0,0:0:0:0:
384,192,7546,1,0,0:0:0:0:
384,192,7547,1,0,0:0:0:0:
256,192,7551,1,0,0:0:0:0:
256,192,7553,1,0,0:0:0:0:
384,192,7565,1,0,0:0:0:0:
256,192,7570,1,0,0:0:0:0:
384,192,7571,1,0,0:0:0:0:
256,192,7571,1,0,0:0:0:0:
384,192,7573,1,0,0:0:0:0:
256,192,7591,1,0,0:0:0:0:
384,192,7593,1,0,0:0:0:0:
384,192,7594,1,0,0:0:0:0:
256,192,7597,1,0,0:0:0:0:
384,192,7600,1,0,0:0:0:0:
256,192,7602,1,0,0:0:0:0:
384,192,7609,1,0,0:0:0:0:
384,192,7617,1,0,0:0:0:0:
256,192,7620,1,0,0:0:0:0:
256,192,7622,1,0,0:0:0:0:
384,192,7625,1,0,0:0:0:0:
256,192,7635,1,0,0:0:0:0:
384,192,7637,1,0,0:0:0:0:
384,192,7638,1,0,0:0:0:0:
384,192,7644,1,0,0:0:0:0:
256,192,7646,1,0,0:0:0:0:
256,192,7648,1,0,0:0:0:0:
384,192,7663,1,0,0:0:0:0:
256,192,7664,1,0,0:0:0:0:
256,192,7666,1,0,0:0:0:0:
384,192,7669,1,0,0:0:0:0:
384,192,7670,1,0,0:0:0:0:
256,192,7686,1,0,0:0:0:0:
384,192,7690,1,0,0:0:0:0:
256,192,7692,1,0,0:0:0:0:
384,192,7692,1,0,0:0:0:0:
256,192,7696,1,0,0:0:0:0:
384,192,7707,1,0,0:0:0:0:
384,192,7714,1,0,0:0:0:0:
256,192,7715,1,0,0:0:0:0:
256,192,7716,1,0,0:0:0:0:
384,192,7722,1,0,0:0:0:0:
256,192,7730,1,0,0:0:0:0:
384,192,7734,1,0,0:0:0:0:
384,192,7736,1,0,0:0:0:0:
256,192,7740,1,0,0:0:0:0:
256,192,7743,1,0,0:0:0:0:
256,192,7759,1,0,0:0:0:0:
384,192,7760,1,0,0:0:0:0:
256,192,7760,1,0,0:0:0:0:
384,192,7766,1,0,0:0:0:0:
384,192,7768,1,0,0:0:0:0:
256,192,7781,1,0,0:0:0:0:
384,192,7787,1,0,0:0:0:0:
256,192,7787,1,0,0:0:0:0:
384,192,7788,1,0,0:0:0:0:
384,192,7789,1,0,0:0:0:0:
256,192,7791,1,0,0:0:0:0:
384,192,7804,1,0,0:0:0:0:
256,192,7810,1,0,0:0:0:0:
256,192,7811,1,0,0:0:0:0:
384,192,7812,1,0,0:0:0:0:
256,192,7825,1,0,0:0:0:0:
384,192,7831,1,0,0:0:0:0:
384,192,7832,1,0,0:0:0:0:
384,192,7833,1,0,0:0:0:0:
256,192,7835,1,0,0:0:0:0:
256,192,7838,1,0,0:0:0:0:
256,192,7845,1,0,0:0:0:0:
384,192,7846,1,0,0:0:0:0:
256,192,7846,1,0,0:0:0:0:
384,192,7850,1,0,0:0:0:0:
256,192,7854,1,0,0:0:0:0:
256,192,7855,1,0,0:0:0:0:
384,192,7856,1,0,0:0:0:0:
384,192,7860,1,0,0:0:0:0:
256,192,7860,1,0,0:0:0:0:
384,192,7865,1,0,0:0:0:0:
384,192,7866,1,0,0:0:0:0:
256,192,7870,1,0,0:0:0:0:
256,192,7872,1,0,0:0:0:0:
256,192,7876,1,0,0:0:0:0:
384,192,7879,1,0,0:0:0:0:
256,192,7882,1,0,0:0:0:0:
384,192,7884,1,0,0:0:0:0:
384,192,7885,1,0,0:0:0:0:
256,192,7886,1,0,0:0:0:0:
256,192,7889,1,0,0:0:0:0:
384,192,7890,1,0,0:0:0:0:
256,192,7890,1,0,0:0:0:0:
384,192,7892,1,0,0:0:0:0:
384,192,7894,1,0,0:0:0:0:
256,192,7905,1,0,0:0:0:0:
256,192,7906,1,0,0:0:0:0:
384,192,7909,1,0,0:0:0:0:
384,192,7910,1,0,0:0:0:0:
256,192,7910,1,0,0:0:0:0:
384,192,7912,1,0,0:0:0:0:
384,192,7913,1,0,0:0:0:0:
256,192,7916,1,0,0:0:0:0:
384,192,7919,1,0,0:0:0:0:
256,192,7920,1,0,0:0:0:0:
256,192,7921,1,0,0:0:0:0:
384,192,7923,1,0,0:0:0:0:
384,192,7928,1,0,0:0:0:0:
384,192,7929,1,0,0:0:0:0:
256,192,7930,1,0,0:0:0:0:
256,192,7932,1,0,0:0:0:0:
384,192,7936,1,0,0:0:0:0:
256,192,7939,1,0,0:0:0:0:
256,192,7941,1,0,0:0:0:0:
384,192,7944,1,0,0:0:0:0:
384,192,7948,1,0,0:0:0:0:
256,192,7949,1,0,0:0:0:0:
256,192,7950,1,0,0:0:0:0:
384,192,7954,1,0,0:0:0:0:
256,192,7954,1,0,0:0:0:0:
384,192,7955,1,0,0:0:0:0:
384,192,7956,1,0,0:0:0:0:
384,192,7957,1,0,0:0:0:0:
384,192,7963,1,0,0:0:0:0:
256,192,7965,1,0,0:0:0:0:
256,192,7967,1,0,0:0:0:0:
256,192,7970,1,0,0:0:0:0:
384,192,7975,1,0,0:0:0:0:
256,192,7976,1,0,0:0:0:0:
384,192,7977,1,0,0:0:0:0:
256,192,7981,1,0,0:0:0:0:
384,192,7982,1,0,0:0:0:0:
256,192,7983,1,0,0:0:0:0:
256,192,7985,1,0,0:0:0:0:
384,192,7988,1,0,0:0:0:0:
384,192,7989,1,0,0:0:0:0:
384,192,7992,1,0,0:0:0:0:
256,192,7999,1,0,0:0:0:0:
384,192,7999,1,0,0:0:0:0:
384,192,8000,1,0,0:0:0:0:
256,192,8001,1,0,0:0:0:0:
256,192,8005,1,0,0:0:0:0:
384,192,8009,1,0,0:0:0:0:
384,192,8011,1,0,0:0:0:0:
256,192,8011,1,0,0:0:0:0:
256,192,8014,1,0,0:0:0:0:
256,192,8015,1,0,0:0:0:0:
384,192,8019,1,0,0:0:0:0:
384,192,8021,1,0,0:0:0:0:
256,192,8025,1,0,0:0:0:0:
384,192,8026,1,0,0:0:0:0:
256,192,8027,1,0,0:0:0:0:
384,192,8033,1,0,0:0:0:0:
256,192,8034,1,0,0:0:0:0:
256,192,8035,1,0,0:0:0:0:
384,192,8038,1,0,0:0:0:0:
384,192,8041,1,0,0:0:0:0:
256,192,8043,1,0,0:0:0:0:
384,192,8044,1,0,0:0:0:0:
256,192,8045,1,0,0:0:0:0:
256,192,8049,1,0,0:0:0:0:
384,192,8053,1,0,0:0:0:0:
384,192,8055,1,0,0:0:0:0:
256,192,8059,1,0,0:0:0:0:
256,192,8062,1,0,0:0:0:0:
256,192,8065,1,0,0:0:0:0:
384,192,8067,1,0,0:0:0:0:
256,192,8071,1,0,0:0:0:0:
384,192,8072,1,0,0:0:0:0:
384,192,8073,1,0,0:0:0:0:
256,192,8075,1,0,0:0:0:0:
256,192,8078,1,0,0:0:0:0:
256,192,8079,1,0,0:0:0:0:
384,192,8079,1,0,0:0:0:0:
384,192,8082,1,0,0:0:0:0:
384,192,8085,1,0,0:0:0:0:
384,192,8087,1,0,0:0:0:0:
256,192,8094,1,0,0:0:0:0:
256,192,8095,1,0,0:0:0:0:
384,192,8097,1,0,0:0:0:0:
256,192,8100,1,0,0:0:0:0:
384,192,8106,1,0,0:0:0:0:
256,192,8106,1,0,0:0:0:0:
384,192,8107,1,0,0:0:0:0:
384,192,8108,1,0,0:0:0:0:
256,192,8109,1,0,0:0:0:0:
256,192,8110,1,0,0:0:0:0:
384,192,8111,1,0,0:0:0:0:
384,192,8116,1,0,0:0:0:0:
384,192,8117,1,0,0:0:0:0:
256,192,8119,1,0,0:0:0:0:
256,192,8122,1,0,0:0:0:0:
384,192,8123,1,0,0:0:0:0:
256,192,8129,1,0,0:0:0:0:
256,192,8130,1,0,0:0:0:0:
384,192,8131,1,0,0:0:0:0:
384,192,8135,1,0,0:0:0:0:
256,192,8138,1,0,0:0:0:0:
256,192,8139,1,0,0:0:0:0:
384,192,8141,1,0,0:0:0:0:
384,192,8143,1,0,0:0:0:0:
256,192,8144,1,0,0:0:0:0:
384,192,8150,1,0,0:0:0:0:
384,192,8151,1,0,0:0:0:0:
384,192,8152,1,0,0:0:0:0:
256,192,8154,1,0,0:0:0:0:
256,192,8157,1,0,0:0:0:0:
256,192,8160,1,0,0:0:0:0:
384,192,8163,1,0,0:0:0:0:
384,192,8164,1,0,0:0:0:0:
256,192,8166,1,0,0:0:0:0:
384,192,8169,1,0,0:0:0:0:
384,192,8170,1,0,0:0:0:0:
256,192,8170,1,0,0:0:0:0:
256,192,8173,1,0,0:0:0:0:
256,192,8174,1,0,0:0:0:0:
384,192,8175,1,0,0:0:0:0:
384,192,8179,1,0,0:0:0:0:
384,192,8184,1,0,0:0:0:0:
384,192,8187,1,0,0:0:0:0:
256,192,8189,1,0,0:0:0:0:
256,192,8190,1,0,0:0:0:0:
384,192,8195,1,0,0:0:0:0:
256,192,8195,1,0,0:0:0:0:
384,192,8198,1,0,0:0:0:0:
256,192,8201,1,0,0:0:0:0:
256,192,8204,1,0,0:0:0:0:
384,192,8204,1,0,0:0:0:0:
256,192,8205,1,0,0:0:0:0:
384,192,8207,1,0,0:0:0:0:
384,192,8208,1,0,0:0:0:0:
384,192,8213,1,0,0:0:0:0:
384,192,8214,1,0,0:0:0:0:
256,192,8214,1,0,0:0:0:0:
256,192,8217,1,0,0:0:0:0:
256,192,8224,1,0,0:0:0:0:
256,192,8225,1,0,0:0:0:0:
384,192,8228,1,0,0:0:0:0:
384,192,8229,1,0,0:0:0:0:
384,192,8233,1,0,0:0:0:0:
256,192,8233,1,0,0:0:0:0:
256,192,8234,1,0,0:0:0:0:
384,192,8239,1,0,0:0:0:0:
256,192,8239,1,0,0:0:0:0:
384,192,8240,1,0,0:0:0:0:
384,192,8242,1,0,0:0:0:0:
384,192,8248,1,0,0:0:0:0:
256,192,8249,1,0,0:0:0:0:
256,192,8251,1,0,0:0:0:0:
256,192,8255,1,0,0:0:0:0:
384,192,8260,1,0,0:0:0:0:
256,192,8261,1,0,0:0:0:0:
384,192,8262,1,0,0:0:0:0:
256,192,8265,1,0,0:0:0:0:
384,192,8267,1,0,0:0:0:0:
256,192,8268,1,0,0:0:0:0:
256,192,8269,1,0,0:0:0:0:
384,192,8273,1,0,0:0:0:0:
384,192,8274,1,0,0:0:0:0:
384,192,8277,1,0,0:0:0:0:
256,192,8284,1,0,0:0:0:0:
384,192,8284,1,0,0:0:0:0:
384,192,8285,1,0,0:0:0:0:
256,192,8285,1,0,0:0:0:0:
256,192,8289,1,0,0:0:0:0:
384,192,8294,1,0,0:0:0:0:
256,192,8295,1,0,0:0:0:0:
384,192,8296,1,0,0:0:0:0:
256,192,8299,1,0,0:0:0:0:
256,192,8300,1,0,0:0:0:0:
384,192,8304,1,0,0:0:0:0:
384,192,8306,1,0,0:0:0:0:
256,192,8309,1,0,0:0:0:0:
256,192,8311,1,0,0:0:0:0:
384,192,8311,1,0,0:0:0:0:
256,192,8318,1,0,0:0:0:0:
384,192,8318,1,0,0:0:0:0:
384,192,8319,1,0,0:0:0:0:
256,192,8320,1,0,0:0:0:0:
384,192,8323,1,0,0:0:0:0:
256,192,8328,1,0,0:0:0:0:
384,192,8329,1,0,0:0:0:0:
256,192,8329,1,0,0:0:0:0:
256,192,8333,1,0,0:0:0:0:
384,192,8338,1,0,0:0:0:0:
384,192,8340,1,0,0:0:0:0:
256,192,8344,1,0,0:0:0:0:
256,192,8346,1,0,0:0:0:0:
256,192,8349,1,0,0:0:0:0:
384,192,8352,1,0,0:0:0:0:
256,192,8355,1,0,0:0:0:0:
384,192,8357,1,0,0:0:0:0:
384,192,8358,1,0,0:0:0:0:
256,192,8360,1,0,0:0:0:0:
256,192,8362,1,0,0:0:0:0:
384,192,8363,1,0,0:0:0:0:
256,192,8364,1,0,0:0:0:0:
384,192,8367,1,0,0:0:0:0:
384,192,8372,1,0,0:0:0:0:
256,192,8378,1,0,0:0:0:0:
256,192,8380,1,0,0:0:0:0:
384,192,8382,1,0,0:0:0:0:
256,192,8384,1,0,0:0:0:0:
384,192,8386,1,0,0:0:0:0:
256,192,8390,1,0,0:0:0:0:
384,192,8391,1,0,0:0:0:0:
384,192,8392,1,0,0:0:0:0:
256,192,8393,1,0,0:0:0:0:
256,192,8394,1,0,0:0:0:0:
384,192,8396,1,0,0:0:0:0:
384,192,8401,1,0,0:0:0:0:
384,192,8402,1,0,0:0:0:0:
256,192,8404,1,0,0:0:0:0:
256,192,8406,1,0,0:0:0:0:
256,192,8413,1,0,0:0:0:0:
256,192,8414,1,0,0:0:0:0:
384,192,8416,1,0,0:0:0:0:
384,192,8420,1,0,0:0:0:0:
256,192,8422,1,0,0:0:0:0:
256,192,8424,1,0,0:0:0:0:
384,192,8426,1,0,0:0:0:0:
384,192,8428,1,0,0:0:0:0:
256,192,8428,1,0,0:0:0:0:
384,192,8430,1,0,0:0:0:0:
384,192,8435,1,0,0:0:0:0:
384,192,8436,1,0,0:0:0:0:
256,192,8438,1,0,0:0:0:0:
256,192,8441,1,0,0:0:0:0:
256,192,8444,1,0,0:0:0:0:
384,192,8447,1,0,0:0:0:0:
384,192,8448,1,0,0:0:0:0:
384,192,8449,1,0,0:0:0:0:
256,192,8450,1,0,0:0:0:0:
256,192,8454,1,0,0:0:0:0:
384,192,8454,1,0,0:0:0:0:
256,192,8457,1,0,0:0:0:0:
256,192,8458,1,0,0:0:0:0:
384,192,8460,1,0,0:0:0:0:
384,192,8462,1,0,0:0:0:0:
384,192,8464,1,0,0:0:0:0:
384,192,8472,1,0,0:0:0:0:
256,192,8473,1,0,0:0:0:0:
256,192,8474,1,0,0:0:0:0:
256,192,8479,1,0,0:0:0:0:
384,192,8480,1,0,0:0:0:0:
384,192,8482,1,0,0:0:0:0:
384,192,8483,1,0,0:0:0:0:
256,192,8485,1,0,0:0:0:0:
256,192,8488,1,0,0:0:0:0:
256,192,8489,1,0,0:0:0:0:
384,192,8489,1,0,0:0:0:0:
384,192,8491,1,0,0:0:0:0:
384,192,8492,1,0,0:0:0:0:
384,192,8493,1,0,0:0:0:0:
256,192,8498,1,0,0:0:0:0:
384,192,8498,1,0,0:0:0:0:
256,192,8501,1,0,0:0:0:0:
384,192,8506,1,0,0:0:0:0:
256,192,8508,1,0,0:0:0:0:
256,192,8509,1,0,0:0:0:0:
384,192,8514,1,0,0:0:0:0:
256,192,8517,1,0,0:0:0:0:
384,192,8518,1,0,0:0:0:0:
256,192,8518,1,0,0:0:0:0:
256,192,8523,1,0,0:0:0:0:
384,192,8524,1,0,0:0:0:0:
384,192,8525,1,0,0:0:0:0:
384,192,8526,1,0,0:0:0:0:
384,192,8527,1,0,0:0:0:0:
384,192,8533,1,0,0:0:0:0:
256,192,8533,1,0,0:0:0:0:
256,192,8536,1,0,0:0:0:0:
256,192,8539,1,0,0:0:0:0:
256,192,8545,1,0,0:0:0:0:
384,192,8545,1,0,0:0:0:0:
384,192,8547,1,0,0:0:0:0:
256,192,8549,1,0,0:0:0:0:
256,192,8552,1,0,0:0:0:0:
384,192,8552,1,0,0:0:0:0:
256,192,8553,1,0,0:0:0:0:
384,192,8558,1,0,0:0:0:0:
384,192,8559,1,0,0:0:0:0:
384,192,8562,1,0,0:0:0:0:
256,192,8568,1,0,0:0:0:0:
384,192,8569,1,0,0:0:0:0:
256,192,8569,1,0,0:0:0:0:
384,192,8570,1,0,0:0:0:0:
256,192,8574,1,0,0:0:0:0:
384,192,8579,1,0,0:0:0:0:
256,192,8580,1,0,0:0:0:0:
384,192,8581,1,0,0:0:0:0:
256,192,8583,1,0,0:0:0:0:
256,192,8584,1,0,0:0:0:0:
384,192,8589,1,0,0:0:0:0:
384,192,8591,1,0,0:0:0:0:
256,192,8593,1,0,0:0:0:0:
256,192,8596,1,0,0:0:0:0:
384,192,8596,1,0,0:0:0:0:
256,192,8603,1,0,0:0:0:0:
384,192,8603,1,0,0:0:0:0:
256,192,8604,1,0,0:0:0:0:
384,192,8604,1,0,0:0:0:0:
384,192,8608,1,0,0:0:0:0:
256,192,8612,1,0,0:0:0:0:
256,192,8613,1,0,0:0:0:0:
384,192,8614,1,0,0:0:0:0:
256,192,8618,1,0,0:0:0:0:
384,192,8623,1,0,0:0:0:0:
384,192,8625,1,0,0:0:0:0:
256,192,8628,1,0,0:0:0:0:
256,192,8630,1,0,0:0:0:0:
256,192,8634,1,0,0:0:0:0:
384,192,8635,1,0,0:0:0:0:
384,192,8637,1,0,0:0:0:0:
256,192,8640,1,0,0:0:0:0:
384,192,8642,1,0,0:0:0:0:
384,192,8643,1,0,0:0:0:0:
256,192,8644,1,0,0:0:0:0:
256,192,8647,1,0,0:0:0:0:
384,192,8648,1,0,0:0:0:0:
256,192,8648,1,0,0:0:0:0:
384,192,8652,1,0,0:0:0:0:
384,192,8657,1,0,0:0:0:0:
256,192,8663,1,0,0:0:0:0:
256,192,8664,1,0,0:0:0:0:
384,192,8667,1,0,0:0:0:0:
256,192,8668,1,0,0:0:0:0:
384,192,8671,1,0,0:0:0:0:
256,192,8674,1,0,0:0:0:0:
384,192,8676,1,0,0:0:0:0:
384,192,8677,1,0,0:0:0:0:
256,192,8678,1,0,0:0:0:0:
384,192,8679,1,0,0:0:0:0:
256,192,8679,1,0,0:0:0:0:
384,192,8681,1,0,0:0:0:0:
384,192,8686,1,0,0:0:0:0:
384,192,8687,1,0,0:0:0:0:
256,192,8688,1,0,0:0:0:0:
256,192,8690,1,0,0:0:0:0:
256,192,8697,1,0,0:0:0:0:
256,192,8699,1,0,0:0:0:0:
384,192,8701,1,0,0:0:0:0:
384,192,8705,1,0,0:0:0:0:
256,192,8707,1,0,0:0:0:0:
256,192,8708,1,0,0:0:0:0:
384,192,8711,1,0,0:0:0:0:
256,192,8712,1,0,0:0:0:0:
384,192,8713,1,0,0:0:0:0:
384,192,8715,1,0,0:0:0:0:
384,192,8720,1,0,0:0:0:0:
384,192,8721,1,0,0:0:0:0:
256,192,8723,1,0,0:0:0:0:
256,192,8725,1,0,0:0:0:0:
256,192,8728,1,0,0:0:0:0:
384,192,8732,1,0,0:0:0:0:
384,192,8733,1,0,0:0:0:0:
256,192,8734,1,0,0:0:0:0:
384,192,8734,1,0,0:0:0:0:
256,192,8739,1,0,0:0:0:0:
384,192,8739,1,0,0:0:0:0:
256,192,8741,1,0,0:0:0:0:
256,192,8743,1,0,0:0:0:0:
384,192,8745,1,0,0:0:0:0:
384,192,8747,1,0,0:0:0:0:
384,192,8749,1,0,0:0:0:0:
256,192,8757,1,0,0:0:0:0:
384,192,8757,1,0,0:0:0:0:
256,192,8758,1,0,0:0:0:0:
256,192,8759,1,0,0:0:0:0:
256,192,8763,1,0,0:0:0:0:
384,192,8765,1,0,0:0:0:0:
384,192,8766,1,0,0:0:0:0:
384,192,8767,1,0,0:0:0:0:
384,192,8768,1,0,0:0:0:0:
256,192,8769,1,0,0:0:0:0:
256,192,8772,1,0,0:0:0:0:
256,192,8773,1,0,0:0:0:0:
384,192,8776,1,0,0:0:0:0:
384,192,8777,1,0,0:0:0:0:
384,192,8778,1,0,0:0:0:0:
256,192,8783,1,0,0:0:0:0:
384,192,8783,1,0,0:0:0:0:
256,192,8785,1,0,0:0:0:0:
384,192,8791,1,0,0:0:0:0:
256,192,8792,1,0,0:0:0:0:
256,192,8793,1,0,0:0:0:0:
384,192,8799,1,0,0:0:0:0:
256,192,8801,1,0,0:0:0:0:
256,192,8802,1,0,0:0:0:0:
384,192,8803,1,0,0:0:0:0:
256,192,8803,1,0,0:0:0:0:
256,192,8807,1,0,0:0:0:0:
384,192,8809,1,0,0:0:0:0:
384,192,8810,1,0,0:0:0:0:
384,192,8811,1,0,0:0:0:0:
384,192,8812,1,0,0:0:0:0:
256,192,8817,1,0,0:0:0:0:
256,192,8820,1,0,0:0:0:0:
256,192,8823,1,0,0:0:0:0:
256,192,8829,1,0,0:0:0:0:
384,192,8830,1,0,0:0:0:0:
384,192,8832,1,0,0:0:0:0:
256,192,8833,1,0,0:0:0:0:
256,192,8836,1,0,0:0:0:0:
256,192,8837,1,0,0:0:0:0:
384,192,8837,1,0,0:0:0:0:
384,192,8843,1,0,0:0:0:0:
384,192,8844,1,0,0:0:0:0:
384,192,8847,1,0,0:0:0:0:
256,192,8852,1,0,0:0:0:0:
256,192,8853,1,0,0:0:0:0:
384,192,8854,1,0,0:0:0:0:
384,192,8855,1,0,0:0:0:0:
256,192,8858,1,0,0:0:0:0:
256,192,8864,1,0,0:0:0:0:
384,192,8864,1,0,0:0:0:0:
384,192,8866,1,0,0:0:0:0:
256,192,8867,1,0,0:0:0:0:
256,192,8868,1,0,0:0:0:0:
384,192,8874,1,0,0:0:0:0:
384,192,8876,1,0,0:0:0:0:
256,192,8877,1,0,0:0:0:0:
256,192,8880,1,0,0:0:0:0:
384,192,8881,1,0,0:0:0:0:
256,192,8887,1,0,0:0:0:0:
384,192,8888,1,0,0:0:0:0:
256,192,8888,1,0,0:0:0:0:
384,192,8889,1,0,0:0:0:0:
384,192,8893,1,0,0:0:0:0:
256,192,8896,1,0,0:0:0:0:
256,192,8897,1,0,0:0:0:0:
384,192,8899,1,0,0:0:0:0:
256,192,8902,1,0,0:0:0:0:
384,192,8908,1,0,0:0:0:0:
384,192,8910,1,0,0:0:0:0:
256,192,8912,1,0,0:0:0:0:
256,192,8915,1,0,0:0:0:0:
256,192,8918,1,0,0:0:0:0:
384,192,8922,1,0,0:0:0:0:
256,192,8924,1,0,0:0:0:0:
384,192,8927,1,0,0:0:0:0:
256,192,8928,1,0,0:0:0:0:
384,192,8928,1,0,0:0:0:0:
256,192,8931,1,0,0:0:0:0:
256,192,8932,1,0,0:0:0:0:
384,192,8933,1,0,0:0:0:0:
384,192,8937,1,0,0:0:0:0:
384,192,8942,1,0,0:0:0:0:
256,192,8947,1,0,0:0:0:0:
256,192,8948,1,0,0:0:0:0:
384,192,8952,1,0,0:0:0:0:
256,192,8953,1,0,0:0:0:0:
384,192,8954,1,0,0:0:0:0:
384,192,8956,1,0,0:0:0:0:
256,192,8959,1,0,0:0:0:0:
256,192,8962,1,0,0:0:0:0:
384,192,8962,1,0,0:0:0:0:
256,192,8963,1,0,0:0:0:0:
384,192,8966,1,0,0:0:0:0:
384,192,8971,1,0,0:0:0:0:
256,192,8972,1,0,0:0:0:0:
384,192,8972,1,0,0:0:0:0:
256,192,8975,1,0,0:0:0:0:
256,192,8982,1,0,0:0:0:0:
256,192,8983,1,0,0:0:0:0:
384,192,8986,1,0,0:0:0:0:
384,192,8990,1,0,0:0:0:0:
256,192,8991,1,0,0:0:0:0:
256,192,8992,1,0,0:0:0:0:
384,192,8996,1,0,0:0:0:0:
256,192,8997,1,0,0:0:0:0:
384,192,8998,1,0,0:0:0:0:
384,192,9000,1,0,0:0:0:0:
384,192,9006,1,0,0:0:0:0:
256,192,9007,1,0,0:0:0:0:
256,192,9009,1,0,0:0:0:0:
256,192,9013,1,0,0:0:0:0:
384,192,9017,1,0,0:0:0:0:
384,192,9018,1,0,0:0:0:0:
256,192,9019,1,0,0:0:0:0:
384,192,9019,1,0,0:0:0:0:
256,192,9023,1,0,0:0:0:0:
384,192,9024,1,0,0:0:0:0:
256,192,9026,1,0,0:0:0:0:
256,192,9027,1,0,0:0:0:0:
384,192,9030,1,0,0:0:0:0:
384,192,9032,1,0,0:0:0:0:
384,192,9034,1,0,0:0:0:0:
256,192,9042,1,0,0:0:0:0:
384,192,9042,1,0,0:0:0:0:
256,192,9043,1,0,0:0:0:0:
256,192,9047,1,0,0:0:0:0:
384,192,9051,1,0,0:0:0:0:
384,192,9052,1,0,0:0:0:0:
256,192,9053,1,0,0:0:0:0:
384,192,9053,1,0,0:0:0:0:
256,192,9057,1,0,0:0:0:0:
256,192,9058,1,0,0:0:0:0:
384,192,9061,1,0,0:0:0:0:
384,192,9062,1,0,0:0:0:0:
384,192,9063,1,0,0:0:0:0:
256,192,9067,1,0,0:0:0:0:
384,192,9068,1,0,0:0:0:0:
256,192,9069,1,0,0:0:0:0:
256,192,9076,1,0,0:0:0:0:
384,192,9076,1,0,0:0:0:0:
256,192,9077,1,0,0:0:0:0:
256,192,9078,1,0,0:0:0:0:
384,192,9080,1,0,0:0:0:0:
384,192,9084,1,0,0:0:0:0:
384,192,9086,1,0,0:0:0:0:
256,192,9086,1,0,0:0:0:0:
256,192,9087,1,0,0:0:0:0:
256,192,9091,1,0,0:0:0:0:
384,192,9095,1,0,0:0:0:0:
384,192,9096,1,0,0:0:0:0:
384,192,9097,1,0,0:0:0:0:
256,192,9102,1,0,0:0:0:0:
256,192,9104,1,0,0:0:0:0:
256,192,9107,1,0,0:0:0:0:
384,192,9109,1,0,0:0:0:0:
256,192,9113,1,0,0:0:0:0:
384,192,9115,1,0,0:0:0:0:
256,192,9118,1,0,0:0:0:0:
256,192,9120,1,0,0:0:0:0:
256,192,9121,1,0,0:0:0:0:
256,192,9122,1,0,0:0:0:0:
384,192,9122,1,0,0:0:0:0:
384,192,9124,1,0,0:0:0:0:
384,192,9128,1,0,0:0:0:0:
384,192,9129,1,0,0:0:0:0:
256,192,9136,1,0,0:0:0:0:
256,192,9137,1,0,0:0:0:0:
256,192,9138,1,0,0:0:0:0:
384,192,9139,1,0,0:0:0:0:
384,192,9140,1,0,0:0:0:0:
256,192,9142,1,0,0:0:0:0:
256,192,9148,1,0,0:0:0:0:
384,192,9149,1,0,0:0:0:0:
256,192,9151,1,0,0:0:0:0:
384,192,9151,1,0,0:0:0:0:
256,192,9152,1,0,0:0:0:0:
384,192,9153,1,0,0:0:0:0:
384,192,9159,1,0,0:0:0:0:
256,192,9162,1,0,0:0:0:0:
256,192,9164,1,0,0:0:0:0:
384,192,9166,1,0,0:0:0:0:
256,192,9171,1,0,0:0:0:0:
256,192,9172,1,0,0:0:0:0:
384,192,9173,1,0,0:0:0:0:
384,192,9174,1,0,0:0:0:0:
384,192,9178,1,0,0:0:0:0:
256,192,9180,1,0,0:0:0:0:
256,192,9181,1,0,0:0:0:0:
256,192,9182,1,0,0:0:0:0:
384,192,9184,1,0,0:0:0:0:
384,192,9185,1,0,0:0:0:0:
256,192,9186,1,0,0:0:0:0:
384,192,9193,1,0,0:0:0:0:
384,192,9195,1,0,0:0:0:0:
256,192,9196,1,0,0:0:0:0:
256,192,9199,1,0,0:0:0:0:
256,192,9202,1,0,0:0:0:0:
384,192,9205,1,0,0:0:0:0:
384,192,9207,1,0,0:0:0:0:
256,192,9208,1,0,0:0:0:0:
256,192,9212,1,0,0:0:0:0:
384,192,9212,1,0,0:0:0:0:
256,192,9215,1,0,0:0:0:0:
256,192,9216,1,0,0:0:0:0:
384,192,9218,1,0,0:0:0:0:
384,192,9222,1,0,0:0:0:0:
384,192,9227,1,0,0:0:0:0:
384,192,9229,1,0,0:0:0:0:
384,192,9230,1,0,0:0:0:0:
256,192,9231,1,0,0:0:0:0:
256,192,9232,1,0,0:0:0:0:
256,192,9237,1,0,0:0:0:0:
384,192,9241,1,0,0:0:0:0:
256,192,9243,1,0,0:0:0:0:
256,192,9246,1,0,0:0:0:0:
384,192,9246,1,0,0:0:0:0:
256,192,9247,1,0,0:0:0:0:
384,192,9247,1,0,0:0:0:0:
384,192,9249,1,0,0:0:0:0:
384,192,9251,1,0,0:0:0:0:
256,192,9256,1,0,0:0:0:0:
384,192,9256,1,0,0:0:0:0:
256,192,9259,1,0,0:0:0:0:
256,192,9266,1,0,0:0:0:0:
256,192,9267,1,0,0:0:0:0:
384,192,9268,1,0,0:0:0:0:
384,192,9271,1,0,0:0:0:0:
384,192,9274,1,0,0:0:0:0:
256,192,9275,1,0,0:0:0:0:
256,192,9276,1,0,0:0:0:0:
256,192,9281,1,0,0:0:0:0:
384,192,9283,1,0,0:0:0:0:
384,192,9285,1,0,0:0:0:0:
384,192,9290,1,0,0:0:0:0:
384,192,9291,1,0,0:0:0:0:
256,192,9291,1,0,0:0:0:0:
256,192,9294,1,0,0:0:0:0:
256,192,9297,1,0,0:0:0:0:
384,192,9297,1,0,0:0:0:0:
384,192,9302,1,0,0:0:0:0:
256,192,9303,1,0,0:0:0:0:
384,192,9303,1,0,0:0:0:0:
256,192,9307,1,0,0:0:0:0:
384,192,9309,1,0,0:0:0:0:
256,192,9310,1,0,0:0:0:0:
256,192,9311,1,0,0:0:0:0:
384,192,9312,1,0,0:0:0:0:
384,192,9315,1,0,0:0:0:0:
384,192,9317,1,0,0:0:0:0:
256,192,9326,1,0,0:0:0:0:
384,192,9327,1,0,0:0:0:0:
256,192,9327,1,0,0:0:0:0:
256,192,9332,1,0,0:0:0:0:
384,192,9336,1,0,0:0:0:0:
384,192,9337,1,0,0:0:0:0:
384,192,9338,1,0,0:0:0:0:
256,192,9338,1,0,0:0:0:0:
256,192,9341,1,0,0:0:0:0:
384,192,9341,1,0,0:0:0:0:
256,192,9342,1,0,0:0:0:0:
384,192,9346,1,0,0:0:0:0:
384,192,9347,1,0,0:0:0:0:
256,192,9351,1,0,0:0:0:0:
256,192,9353,1,0,0:0:0:0:
384,192,9353,1,0,0:0:0:0:
256,192,9361,1,0,0:0:0:0:
384,192,9361,1,0,0:0:0:0:
256,192,9362,1,0,0:0:0:0:
384,192,9365,1,0,0:0:0:0:
256,192,9370,1,0,0:0:0:0:
384,192,9371,1,0,0:0:0:0:
256,192,9371,1,0,0:0:0:0:
384,192,9373,1,0,0:0:0:0:
256,192,9376,1,0,0:0:0:0:
384,192,9380,1,0,0:0:0:0:
384,192,9381,1,0,0:0:0:0:
384,192,9382,1,0,0:0:0:0:
256,192,9386,1,0,0:0:0:0:
256,192,9388,1,0,0:0:0:0:
256,192,9391,1,0,0:0:0:0:
384,192,9393,1,0,0:0:0:0:
384,192,9394,1,0,0:0:0:0:
256,192,9397,1,0,0:0:0:0:
384,192,9399,1,0,0:0:0:0:
384,192,9400,1,0,0:0:0:0:
256,192,9402,1,0,0:0:0:0:
384,192,9405,1,0,0:0:0:0:
256,192,9405,1,0,0:0:0:0:
256,192,9406,1,0,0:0:0:0:
384,192,9409,1,0,0:0:0:0:
384,192,9414,1,0,0:0:0:0:
384,192,9417,1,0,0:0:0:0:
256,192,9420,1,0,0:0:0:0:
256,192,9422,1,0,0:0:0:0:
384,192,9425,1,0,0:0:0:0:
256,192,9426,1,0,0:0:0:0:
384,192,9428,1,0,0:0:0:0:
256,192,9432,1,0,0:0:0:0:
384,192,9434,1,0,0:0:0:0:
256,192,9435,1,0,0:0:0:0:
384,192,9437,1,0,0:0:0:0:
256,192,9437,1,0,0:0:0:0:
384,192,9438,1,0,0:0:0:0:
384,192,9443,1,0,0:0:0:0:
384,192,9444,1,0,0:0:0:0:
256,192,9446,1,0,0:0:0:0:
256,192,9448,1,0,0:0:0:0:
256,192,9455,1,0,0:0:0:0:
256,192,9456,1,0,0:0:0:0:
256,192,9457,1,0,0:0:0:0:
384,192,9458,1,0,0:0:0:0:
384,192,9459,1,0,0:0:0:0:
384,192,9463,1,0,0:0:0:0:
256,192,9464,1,0,0:0:0:0:
256,192,9466,1,0,0:0:0:0:
384,192,9469,1,0,0:0:0:0:
384,192,9470,1,0,0:0:0:0:
256,192,9470,1,0,0:0:0:0:
384,192,9472,1,0,0:0:0:0:
384,192,9478,1,0,0:0:0:0:
256,192,9481,1,0,0:0:0:0:
256,192,9483,1,0,0:0:0:0:
256,192,9486,1,0,0:0:0:0:
384,192,9490,1,0,0:0:0:0:
256,192,9492,1,0,0:0:0:0:
384,192,9492,1,0,0:0:0:0:
256,192,9496,1,0,0:0:0:0:
384,192,9497,1,0,0:0:0:0:
256,192,9499,1,0,0:0:0:0:
256,192,9500,1,0,0:0:0:0:
256,192,9501,1,0,0:0:0:0:
384,192,9503,1,0,0:0:0:0:
384,192,9504,1,0,0:0:0:0:
384,192,9507,1,0,0:0:0:0:
384,192,9514,1,0,0:0:0:0:
256,192,9515,1,0,0:0:0:0:
256,192,9516,1,0,0:0:0:0:
256,192,9521,1,0,0:0:0:0:
384,192,9522,1,0,0:0:0:0:
384,192,9524,1,0,0:0:0:0:
384,192,9526,1,0,0:0:0:0:
256,192,9527,1,0,0:0:0:0:
256,192,9530,1,0,0:0:0:0:
256,192,9531,1,0,0:0:0:0:
384,192,9534,1,0,0:0:0:0:
384,192,9536,1,0,0:0:0:0:
256,192,9540,1,0,0:0:0:0:
384,192,9541,1,0,0:0:0:0:
256,192,9543,1,0,0:0:0:0:
384,192,9548,1,0,0:0:0:0:
384,192,9549,1,0,0:0:0:0:
256,192,9550,1,0,0:0:0:0:
256,192,9551,1,0,0:0:0:0:
256,192,9559,1,0,0:0:0:0:
384,192,9560,1,0,0:0:0:0:
256,192,9560,1,0,0:0:0:0:
256,192,9565,1,0,0:0:0:0:
384,192,9566,1,0,0:0:0:0:
384,192,9568,1,0,0:0:0:0:
384,192,9570,1,0,0:0:0:0:
256,192,9575,1,0,0:0:0:0:
256,192,9578,1,0,0:0:0:0:
256,192,9581,1,0,0:0:0:0:
256,192,9587,1,0,0:0:0:0:
384,192,9587,1,0,0:0:0:0:
384,192,9588,1,0,0:0:0:0:
384,192,9589,1,0,0:0:0:0:
256,192,9591,1,0,0:0:0:0:
384,192,9593,1,0,0:0:0:0:
256,192,9594,1,0,0:0:0:0:
256,192,9595,1,0,0:0:0:0:
384,192,9602,1,0,0:0:0:0:
384,192,9604,1,0,0:0:0:0:
256,192,9610,1,0,0:0:0:0:
256,192,9611,1,0,0:0:0:0:
384,192,9612,1,0,0:0:0:0:
256,192,9616,1,0,0:0:0:0:
384,192,9616,1,0,0:0:0:0:
384,192,9621,1,0,0:0:0:0:
384,192,9622,1,0,0:0:0:0:
256,192,9622,1,0,0:0:0:0:
256,192,9625,1,0,0:0:0:0:
256,192,9626,1,0,0:0:0:0:
384,192,9631,1,0,0:0:0:0:
384,192,9632,1,0,0:0:0:0:
384,192,9633,1,0,0:0:0:0:
256,192,9635,1,0,0:0:0:0:
256,192,9638,1,0,0:0:0:0:
256,192,9645,1,0,0:0:0:0:
384,192,9646,1,0,0:0:0:0:
256,192,9646,1,0,0:0:0:0:
384,192,9650,1,0,0:0:0:0:
256,192,9654,1,0,0:0:0:0:
256,192,9655,1,0,0:0:0:0:
384,192,9656,1,0,0:0:0:0:
384,192,9660,1,0,0:0:0:0:
256,192,9660,1,0,0:0:0:0:
384,192,9665,1,0,0:0:0:0:
384,192,9666,1,0,0:0:0:0:
256,192,9670,1,0,0:0:0:0:
256,192,9672,1,0,0:0:0:0:
256,192,9676,1,0,0:0:0:0:
384,192,9679,1,0,0:0:0:0:
256,192,9682,1,0,0:0:0:0:
384,192,9684,1,0,0:0:0:0:
384,192,9685,1,0,0:0:0:0:
256,192,9686,1,0,0:0:0:0:
256,192,9689,1,0,0:0:0:0:
384,192,9690,1,0,0:0:0:0:
256,192,9690,1,0,0:0:0:0:
384,192,9692,1,0,0:0:0:0:
384,192,9694,1,0,0:0:0:0:
256,192,9705,1,0,0:0:0:0:
256,192,9706,1,0,0:0:0:0:
384,192,9709,1,0,0:0:0:0:
384,192,9710,1,0,0:0:0:0:
256,192,9710,1,0,0:0:0:0:
384,192,9712,1,0,0:0:0:0:
384,192,9713,1,0,0:0:0:0:
256,192,9716,1,0,0:0:0:0:
384,192,9719,1,0,0:0:0:0:
256,192,9720,1,0,0:0:0:0:
256,192,9721,1,0,0:0:0:0:
384,192,9723,1,0,0:0:0:0:
384,192,9728,1,0,0:0:0:0:
384,192,9729,1,0,0:0:0:0:
256,192,9730,1,0,0:0:0:0:
256,192,9732,1,0,0:0:0:0:
384,192,9736,1,0,0:0:0:0:
256,192,9739,1,0,0:0:0:0:
256,192,9741,1,0,0:0:0:0:
384,192,9744,1,0,0:0:0:0:
384,192,9748,1,0,0:0:0:0:
256,192,9749,1,0,0:0:0:0:
256,192,9750,1,0,0:0:0:0:
384,192,9754,1,0,0:0:0:0:
256,192,9754,1,0,0:0:0:0:
384,192,9755,1,0,0:0:0:0:
384,192,9756,1,0,0:0:0:0:
384,192,9757,1,0,0:0:0:0:
384,192,9763,1,0,0:0:0:0:
256,192,9765,1,0,0:0:0:0:
256,192,9767,1,0,0:0:0:0:
256,192,9770,1,0,0:0:0:0:
384,192,9775,1,0,0:0:0:0:
256,192,9776,1,0,0:0:0:0:
384,192,9777,1,0,0:0:0:0:
256,192,9781,1,0,0:0:0:0:
384,192,9782,1,0,0:0:0:0:
256,192,9783,1,0,0:0:0:0:
256,192,9785,1,0,0:0:0:0:
384,192,9788,1,0,0:0:0:0:
384,192,9789,1,0,0:0:0:0:
384,192,9792,1,0,0:0:0:0:
256,192,9799,1,0,0:0:0:0:
384,192,9799,1,0,0:0:0:0:
384,192,9800,1,0,0:0:0:0:
256,192,9801,1,0,0:0:0:0:
256,192,9805,1,0,0:0:0:0:
384,192,9809,1,0,0:0:0:0:
384,192,9811,1,0,0:0:0:0:
256,192,9811,1,0,0:0:0:0:
256,192,9814,1,0,0:0:0:0:
256,192,9815,1,0,0:0:0:0:
384,192,9819,1,0,0:0:0:0:
384,192,9821,1,0,0:0:0:0:
256,192,9825,1,0,0:0:0:0:
384,192,9826,1,0,0:0:0:0:
256,192,9827,1,0,0:0:0:0:
384,192,9833,1,0,0:0:0:0:
256,192,9834,1,0,0:0:0:0:
256,192,9835,1,0,0:0:0:0:
384,192,9838,1,0,0:0:0:0:
384,192,9841,1,0,0:0:0:0:
256,192,9843,1,0,0:0:0:0:
384,192,9844,1,0,0:0:0:0:
256,192,9845,1,0,0:0:0:0:
256,192,9849,1,0,0:0:0:0:
384,192,9853,1,0,0:0:0:0:
256,192,9865,1,0,0:0:0:0:
384,192,9867,1,0,0:0:0:0:
256,192,9871,1,0,0:0:0:0:
384,192,9872,1,0,0:0:0:0:
384,192,9873,1,0,0:0:0:0:
256,192,9875,1,0,0:0:0:0:
384,192,9882,1,0,0:0:0:0:
256,192,9894,1,0,0:0:0:0:
256,192,9895,1,0,0:0:0:0:
384,192,9897,1,0,0:0:0:0:
256,192,9909,1,0,0:0:0:0:
384,192,9911,1,0,0:0:0:0:
384,192,9916,1,0,0:0:0:0:
384,192,9917,1,0,0:0:0:0:
256,192,9919,1,0,0:0:0:0:
256,192,9922,1,0,0:0:0:0:
384,192,9935,1,0,0:0:0:0:
256,192,9938,1,0,0:0:0:0:
256,192,9939,1,0,0:0:0:0:
384,192,9941,1,0,0:0:0:0:
384,192,9943,1,0,0:0:0:0:
256,192,9960,1,0,0:0:0:0:
384,192,9963,1,0,0:0:0:0:
384,192,9964,1,0,0:0:0:0:
256,192,9966,1,0,0:0:0:0:
384,192,9970,1,0,0:0:0:0:
256,192,9970,1,0,0:0:0:0:
384,192,9979,1,0,0:0:0:0:
384,192,9987,1,0,0:0:0:0:
256,192,9989,1,0,0:0:0:0:
256,192,9990,1,0,0:0:0:0:
384,192,9995,1,0,0:0:0:0:
256,192,10004,1,0,0:0:0:0:
384,192,10007,1,0,0:0:0:0:
384,192,10008,1,0,0:0:0:0:
384,192,10014,1,0,0:0:0:0:
256,192,10014,1,0,0:0:0:0:
256,192,10017,1,0,0:0:0:0:
384,192,10033,1,0,0:0:0:0:
256,192,10033,1,0,0:0:0:0:
256,192,10034,1,0,0:0:0:0:
384,192,10039,1,0,0:0:0:0:
384,192,10040,1,0,0:0:0:0:
256,192,10055,1,0,0:0:0:0:
384,192,10060,1,0,0:0:0:0:
256,192,10061,1,0,0:0:0:0:
384,192,10062,1,0,0:0:0:0:
256,192,10065,1,0,0:0:0:0:
384,192,10077,1,0,0:0:0:0:
256,192,10084,1,0,0:0:0:0:
384,192,10084,1,0,0:0:0:0:
384,192,10085,1,0,0:0:0:0:
256,192,10085,1,0,0:0:0:0:
256,192,10099,1,0,0:0:0:0:
384,192,10104,1,0,0:0:0:0:
384,192,10106,1,0,0:0:0:0:
256,192,10109,1,0,0:0:0:0:
256,192,10111,1,0,0:0:0:0:
384,192,10123,1,0,0:0:0:0:
256,192,10128,1,0,0:0:0:0:
384,192,10129,1,0,0:0:0:0:
256,192,10129,1,0,0:0:0:0:
384,192,10138,1,0,0:0:0:0:
256,192,10149,1,0,0:0:0:0:
384,192,10152,1,0,0:0:0:0:
256,192,10155,1,0,0:0:0:0:
384,192,10157,1,0,0:0:0:0:
384,192,10158,1,0,0:0:0:0:
256,192,10160,1,0,0:0:0:0:
384,192,10167,1,0,0:0:0:0:
256,192,10178,1,0,0:0:0:0:
256,192,10180,1,0,0:0:0:0:
384,192,10182,1,0,0:0:0:0:
256,192,10193,1,0,0:0:0:0:
384,192,10196,1,0,0:0:0:0:
384,192,10201,1,0,0:0:0:0:
384,192,10202,1,0,0:0:0:0:
256,192,10204,1,0,0:0:0:0:
256,192,10206,1,0,0:0:0:0:
384,192,10220,1,0,0:0:0:0:
256,192,10222,1,0,0:0:0:0:
256,192,10224,1,0,0:0:0:0:
384,192,10226,1,0,0:0:0:0:
384,192,10228,1,0,0:0:0:0:
256,192,10244,1,0,0:0:0:0:
384,192,10247,1,0,0:0:0:0:
384,192,10248,1,0,0:0:0:0:
384,192,10249,1,0,0:0:0:0:
256,192,10250,1,0,0:0:0:0:
256,192,10254,1,0,0:0:0:0:
384,192,10264,1,0,0:0:0:0:
384,192,10272,1,0,0:0:0:0:
256,192,10273,1,0,0:0:0:0:
256,192,10274,1,0,0:0:0:0:
384,192,10280,1,0,0:0:0:0:
256,192,10288,1,0,0:0:0:0:
384,192,10291,1,0,0:0:0:0:
384,192,10292,1,0,0:0:0:0:
384,192,10293,1,0,0:0:0:0:
256,192,10298,1,0,0:0:0:0:
256,192,10301,1,0,0:0:0:0:
256,192,10317,1,0,0:0:0:0:
384,192,10318,1,0,0:0:0:0:
256,192,10318,1,0,0:0:0:0:
384,192,10324,1,0,0:0:0:0:
384,192,10325,1,0,0:0:0:0:
256,192,10339,1,0,0:0:0:0:
256,192,10345,1,0,0:0:0:0:
384,192,10345,1,0,0:0:0:0:
384,192,10347,1,0,0:0:0:0:
256,192,10349,1,0,0:0:0:0:
384,192,10362,1,0,0:0:0:0:
256,192,10368,1,0,0:0:0:0:
384,192,10369,1,0,0:0:0:0:
256,192,10369,1,0,0:0:0:0:
384,192,10370,1,0,0:0:0:0:
256,192,10383,1,0,0:0:0:0:
384,192,10389,1,0,0:0:0:0:
384,192,10391,1,0,0:0:0:0:
256,192,10393,1,0,0:0:0:0:
256,192,10396,1,0,0:0:0:0:
384,192,10408,1,0,0:0:0:0:
256,192,10412,1,0,0:0:0:0:
256,192,10413,1,0,0:0:0:0:
384,192,10414,1,0,0:0:0:0:
384,192,10423,1,0,0:0:0:0:
256,192,10434,1,0,0:0:0:0:
384,192,10435,1,0,0:0:0:0:
384,192,10437,1,0,0:0:0:0:
256,192,10440,1,0,0:0:0:0:
384,192,10443,1,0,0:0:0:0:
256,192,10444,1,0,0:0:0:0:
384,192,10452,1,0,0:0:0:0:
256,192,10463,1,0,0:0:0:0:
256,192,10464,1,0,0:0:0:0:
384,192,10467,1,0,0:0:0:0:
256,192,10478,1,0,0:0:0:0:
384,192,10479,1,0,0:0:0:0:
384,192,10481,1,0,0:0:0:0:
384,192,10487,1,0,0:0:0:0:
256,192,10488,1,0,0:0:0:0:
256,192,10490,1,0,0:0:0:0:
384,192,10505,1,0,0:0:0:0:
256,192,10507,1,0,0:0:0:0:
256,192,10508,1,0,0:0:0:0:
384,192,10511,1,0,0:0:0:0:
384,192,10513,1,0,0:0:0:0:
256,192,10528,1,0,0:0:0:0:
384,192,10532,1,0,0:0:0:0:
384,192,10533,1,0,0:0:0:0:
256,192,10534,1,0,0:0:0:0:
384,192,10534,1,0,0:0:0:0:
256,192,10539,1,0,0:0:0:0:
384,192,10549,1,0,0:0:0:0:
256,192,10557,1,0,0:0:0:0:
384,192,10557,1,0,0:0:0:0:
256,192,10559,1,0,0:0:0:0:
384,192,10565,1,0,0:0:0:0:
256,192,10572,1,0,0:0:0:0:
384,192,10576,1,0,0:0:0:0:
384,192,10577,1,0,0:0:0:0:
384,192,10578,1,0,0:0:0:0:
256,192,10583,1,0,0:0:0:0:
256,192,10585,1,0,0:0:0:0:
256,192,10601,1,0,0:0:0:0:
384,192,10603,1,0,0:0:0:0:
256,192,10603,1,0,0:0:0:0:
384,192,10609,1,0,0:0:0:0:
384,192,10610,1,0,0:0:0:0:
256,192,10623,1,0,0:0:0:0:
256,192,10629,1,0,0:0:0:0:
384,192,10630,1,0,0:0:0:0:
384,192,10632,1,0,0:0:0:0:
256,192,10633,1,0,0:0:0:0:
384,192,10647,1,0,0:0:0:0:
256,192,10652,1,0,0:0:0:0:
256,192,10653,1,0,0:0:0:0:
384,192,10654,1,0,0:0:0:0:
384,192,10655,1,0,0:0:0:0:
256,192,10667,1,0,0:0:0:0:
384,192,10674,1,0,0:0:0:0:
384,192,10676,1,0,0:0:0:0:
256,192,10677,1,0,0:0:0:0:
256,192,10680,1,0,0:0:0:0:
384,192,10693,1,0,0:0:0:0:
256,192,10696,1,0,0:0:0:0:
256,192,10697,1,0,0:0:0:0:
384,192,10699,1,0,0:0:0:0:
384,192,10708,1,0,0:0:0:0:
256,192,10718,1,0,0:0:0:0:
384,192,10722,1,0,0:0:0:0:
256,192,10724,1,0,0:0:0:0:
384,192,10727,1,0,0:0:0:0:
256,192,10728,1,0,0:0:0:0:
384,192,10728,1,0,0:0:0:0:
384,192,10737,1,0,0:0:0:0:
256,192,10747,1,0,0:0:0:0:
256,192,10748,1,0,0:0:0:0:
384,192,10752,1,0,0:0:0:0:
256,192,10762,1,0,0:0:0:0:
384,192,10766,1,0,0:0:0:0:
384,192,10771,1,0,0:0:0:0:
256,192,10772,1,0,0:0:0:0:
384,192,10772,1,0,0:0:0:0:
256,192,10775,1,0,0:0:0:0:
384,192,10790,1,0,0:0:0:0:
256,192,10791,1,0,0:0:0:0:
256,192,10792,1,0,0:0:0:0:
384,192,10796,1,0,0:0:0:0:
384,192,10798,1,0,0:0:0:0:
256,192,10813,1,0,0:0:0:0:
384,192,10817,1,0,0:0:0:0:
384,192,10818,1,0,0:0:0:0:
256,192,10819,1,0,0:0:0:0:
384,192,10819,1,0,0:0:0:0:
256,192,10823,1,0,0:0:0:0:
384,192,10834,1,0,0:0:0:0:
256,192,10842,1,0,0:0:0:0:
384,192,10842,1,0,0:0:0:0:
256,192,10843,1,0,0:0:0:0:
256,192,10857,1,0,0:0:0:0:
384,192,10861,1,0,0:0:0:0:
384,192,10862,1,0,0:0:0:0:
384,192,10863,1,0,0:0:0:0:
256,192,10867,1,0,0:0:0:0:
256,192,10869,1,0,0:0:0:0:
384,192,10880,1,0,0:0:0:0:
384,192,10886,1,0,0:0:0:0:
256,192,10886,1,0,0:0:0:0:
256,192,10887,1,0,0:0:0:0:
384,192,10895,1,0,0:0:0:0:
256,192,10907,1,0,0:0:0:0:
384,192,10909,1,0,0:0:0:0:
256,192,10913,1,0,0:0:0:0:
384,192,10915,1,0,0:0:0:0:
256,192,10918,1,0,0:0:0:0:
384,192,10924,1,0,0:0:0:0:
256,192,10936,1,0,0:0:0:0:
256,192,10938,1,0,0:0:0:0:
384,192,10939,1,0,0:0:0:0:
384,192,10940,1,0,0:0:0:0:
256,192,10951,1,0,0:0:0:0:
384,192,10953,1,0,0:0:0:0:
384,192,10959,1,0,0:0:0:0:
256,192,10962,1,0,0:0:0:0:
256,192,10964,1,0,0:0:0:0:
384,192,10978,1,0,0:0:0:0:
256,192,10980,1,0,0:0:0:0:
256,192,10982,1,0,0:0:0:0:
384,192,10984,1,0,0:0:0:0:
384,192,10985,1,0,0:0:0:0:
256,192,11002,1,0,0:0:0:0:
384,192,11005,1,0,0:0:0:0:
384,192,11007,1,0,0:0:0:0:
256,192,11008,1,0,0:0:0:0:
256,192,11012,1,0,0:0:0:0:
384,192,11022,1,0,0:0:0:0:
384,192,11029,1,0,0:0:0:0:
384,192,11030,1,0,0:0:0:0:
256,192,11031,1,0,0:0:0:0:
256,192,11032,1,0,0:0:0:0:
256,192,11046,1,0,0:0:0:0:
384,192,11049,1,0,0:0:0:0:
384,192,11051,1,0,0:0:0:0:
256,192,11056,1,0,0:0:0:0:
256,192,11059,1,0,0:0:0:0:
384,192,11068,1,0,0:0:0:0:
384,192,11074,1,0,0:0:0:0:
256,192,11075,1,0,0:0:0:0:
256,192,11076,1,0,0:0:0:0:
384,192,11083,1,0,0:0:0:0:
256,192,11097,1,0,0:0:0:0:
384,192,11097,1,0,0:0:0:0:
384,192,11102,1,0,0:0:0:0:
256,192,11103,1,0,0:0:0:0:
384,192,11103,1,0,0:0:0:0:
256,192,11107,1,0,0:0:0:0:
384,192,11112,1,0,0:0:0:0:
256,192,11126,1,0,0:0:0:0:
384,192,11127,1,0,0:0:0:0:
256,192,11127,1,0,0:0:0:0:
256,192,11141,1,0,0:0:0:0:
384,192,11141,1,0,0:0:0:0:
384,192,11146,1,0,0:0:0:0:
384,192,11147,1,0,0:0:0:0:
256,192,11151,1,0,0:0:0:0:
256,192,11154,1,0,0:0:0:0:
384,192,11165,1,0,0:0:0:0:
256,192,11170,1,0,0:0:0:0:
384,192,11171,1,0,0:0:0:0:
256,192,11171,1,0,0:0:0:0:
384,192,11173,1,0,0:0:0:0:
256,192,11192,1,0,0:0:0:0:
384,192,11193,1,0,0:0:0:0:
384,192,11194,1,0,0:0:0:0:
256,192,11198,1,0,0:0:0:0:
384,192,11200,1,0,0:0:0:0:
256,192,11202,1,0,0:0:0:0:
384,192,11209,1,0,0:0:0:0:
384,192,11217,1,0,0:0:0:0:
256,192,11221,1,0,0:0:0:0:
256,192,11222,1,0,0:0:0:0:
384,192,11225,1,0,0:0:0:0:
256,192,11236,1,0,0:0:0:0:
384,192,11237,1,0,0:0:0:0:
384,192,11238,1,0,0:0:0:0:
384,192,11244,1,0,0:0:0:0:
256,192,11246,1,0,0:0:0:0:
256,192,11248,1,0,0:0:0:0:
384,192,11263,1,0,0:0:0:0:
256,192,11265,1,0,0:0:0:0:
256,192,11266,1,0,0:0:0:0:
384,192,11269,1,0,0:0:0:0:
384,192,11270,1,0,0:0:0:0:
256,192,11286,1,0,0:0:0:0:
384,192,11290,1,0,0:0:0:0:
256,192,11292,1,0,0:0:0:0:
384,192,11292,1,0,0:0:0:0:
256,192,11297,1,0,0:0:0:0:
384,192,11307,1,0,0:0:0:0:
384,192,11314,1,0,0:0:0:0:
256,192,11315,1,0,0:0:0:0:
256,192,11317,1,0,0:0:0:0:
384,192,11322,1,0,0:0:0:0:
256,192,11330,1,0,0:0:0:0:
384,192,11334,1,0,0:0:0:0:
384,192,11336,1,0,0:0:0:0:
256,192,11341,1,0,0:0:0:0:
256,192,11343,1,0,0:0:0:0:
256,192,11359,1,0,0:0:0:0:
384,192,11360,1,0,0:0:0:0:
256,192,11361,1,0,0:0:0:0:
384,192,11366,1,0,0:0:0:0:
384,192,11368,1,0,0:0:0:0:
256,192,11381,1,0,0:0:0:0:
384,192,11387,1,0,0:0:0:0:
256,192,11387,1,0,0:0:0:0:
384,192,11388,1,0,0:0:0:0:
384,192,11389,1,0,0:0:0:0:
256,192,11391,1,0,0:0:0:0:
384,192,11404,1,0,0:0:0:0:
256,192,11410,1,0,0:0:0:0:
256,192,11411,1,0,0:0:0:0:
384,192,11412,1,0,0:0:0:0:
256,192,11425,1,0,0:0:0:0:
384,192,11431,1,0,0:0:0:0:
384,192,11432,1,0,0:0:0:0:
384,192,11433,1,0,0:0:0:0:
256,192,11435,1,0,0:0:0:0:
256,192,11438,1,0,0:0:0:0:
384,192,11450,1,0,0:0:0:0:
256,192,11454,1,0,0:0:0:0:
256,192,11455,1,0,0:0:0:0:
384,192,11456,1,0,0:0:0:0:
384,192,11465,1,0,0:0:0:0:
256,192,11476,1,0,0:0:0:0:
384,192,11479,1,0,0:0:0:0:
256,192,11482,1,0,0:0:0:0:
384,192,11485,1,0,0:0:0:0:
256,192,11486,1,0,0:0:0:0:
384,192,11494,1,0,0:0:0:0:
256,192,11505,1,0,0:0:0:0:
256,192,11506,1,0,0:0:0:0:
384,192,11509,1,0,0:0:0:0:
384,192,11510,1,0,0:0:0:0:
256,192,11520,1,0,0:0:0:0:
384,192,11523,1,0,0:0:0:0:
384,192,11529,1,0,0:0:0:0:
256,192,11530,1,0,0:0:0:0:
256,192,11533,1,0,0:0:0:0:
384,192,11548,1,0,0:0:0:0:
256,192,11549,1,0,0:0:0:0:
256,192,11550,1,0,0:0:0:0:
384,192,11554,1,0,0:0:0:0:
384,192,11555,1,0,0:0:0:0:
256,192,11571,1,0,0:0:0:0:
384,192,11575,1,0,0:0:0:0:
256,192,11577,1,0,0:0:0:0:
384,192,11577,1,0,0:0:0:0:
256,192,11581,1,0,0:0:0:0:
384,192,11592,1,0,0:0:0:0:
384,192,11599,1,0,0:0:0:0:
384,192,11600,1,0,0:0:0:0:
256,192,11600,1,0,0:0:0:0:
256,192,11601,1,0,0:0:0:0:
256,192,11615,1,0,0:0:0:0:
384,192,11619,1,0,0:0:0:0:
384,192,11621,1,0,0:0:0:0:
256,192,11625,1,0,0:0:0:0:
256,192,11627,1,0,0:0:0:0:
384,192,11638,1,0,0:0:0:0:
384,192,11644,1,0,0:0:0:0:
256,192,11644,1,0,0:0:0:0:
256,192,11645,1,0,0:0:0:0:
384,192,11653,1,0,0:0:0:0:
256,192,11665,1,0,0:0:0:0:
384,192,11667,1,0,0:0:0:0:
256,192,11671,1,0,0:0:0:0:
384,192,11672,1,0,0:0:0:0:
384,192,11673,1,0,0:0:0:0:
256,192,11676,1,0,0:0:0:0:
384,192,11682,1,0,0:0:0:0:
256,192,11694,1,0,0:0:0:0:
256,192,11696,1,0,0:0:0:0:
384,192,11697,1,0,0:0:0:0:
256,192,11709,1,0,0:0:0:0:
384,192,11711,1,0,0:0:0:0:
384,192,11716,1,0,0:0:0:0:
384,192,11717,1,0,0:0:0:0:
256,192,11720,1,0,0:0:0:0:
256,192,11722,1,0,0:0:0:0:
384,192,11735,1,0,0:0:0:0:
256,192,11738,1,0,0:0:0:0:
256,192,11740,1,0,0:0:0:0:
384,192,11741,1,0,0:0:0:0:
384,192,11743,1,0,0:0:0:0:
256,192,11760,1,0,0:0:0:0:
384,192,11763,1,0,0:0:0:0:
384,192,11764,1,0,0:0:0:0:
256,192,11766,1,0,0:0:0:0:
384,192,11770,1,0,0:0:0:0:
256,192,11770,1,0,0:0:0:0:
384,192,11779,1,0,0:0:0:0:
384,192,11787,1,0,0:0:0:0:
256,192,11789,1,0,0:0:0:0:
256,192,11790,1,0,0:0:0:0:
384,192,11795,1,0,0:0:0:0:
256,192,11804,1,0,0:0:0:0:
384,192,11807,1,0,0:0:0:0:
384,192,11808,1,0,0:0:0:0:
384,192,11814,1,0,0:0:0:0:
256,192,11814,1,0,0:0:0:0:
256,192,11817,1,0,0:0:0:0:
384,192,11833,1,0,0:0:0:0:
256,192,11833,1,0,0:0:0:0:
256,192,11834,1,0,0:0:0:0:
384,192,11839,1,0,0:0:0:0:
384,192,11840,1,0,0:0:0:0:
256,192,11855,1,0,0:0:0:0:
384,192,11860,1,0,0:0:0:0:
256,192,11861,1,0,0:0:0:0:
384,192,11862,1,0,0:0:0:0:
256,192,11865,1,0,0:0:0:0:
384,192,11877,1,0,0:0:0:0:
256,192,11884,1,0,0:0:0:0:
384,192,11884,1,0,0:0:0:0:
384,192,11885,1,0,0:0:0:0:
256,192,11885,1,0,0:0:0:0:
256,192,11899,1,0,0:0:0:0:
384,192,11904,1,0,0:0:0:0:
384,192,11906,1,0,0:0:0:0:
256,192,11909,1,0,0:0:0:0:
256,192,11912,1,0,0:0:0:0:
384,192,11923,1,0,0:0:0:0:
256,192,11928,1,0,0:0:0:0:
384,192,11929,1,0,0:0:0:0:
256,192,11929,1,0,0:0:0:0:
384,192,11938,1,0,0:0:0:0:
256,192,11950,1,0,0:0:0:0:
384,192,11952,1,0,0:0:0:0:
256,192,11956,1,0,0:0:0:0:
384,192,11957,1,0,0:0:0:0:
384,192,11958,1,0,0:0:0:0:
256,192,11960,1,0,0:0:0:0:
384,192,11967,1,0,0:0:0:0:
256,192,11979,1,0,0:0:0:0:
256,192,11980,1,0,0:0:0:0:
384,192,11982,1,0,0:0:0:0:
256,192,11994,1,0,0:0:0:0:
384,192,11996,1,0,0:0:0:0:
384,192,12001,1,0,0:0:0:0:
384,192,12002,1,0,0:0:0:0:
256,192,12004,1,0,0:0:0:0:
256,192,12006,1,0,0:0:0:0:
384,192,12020,1,0,0:0:0:0:
256,192,12023,1,0,0:0:0:0:
256,192,12024,1,0,0:0:0:0:
384,192,12026,1,0,0:0:0:0:
384,192,12028,1,0,0:0:0:0:
256,192,12044,1,0,0:0:0:0:
384,192,12047,1,0,0:0:0:0:
384,192,12048,1,0,0:0:0:0:
384,192,12049,1,0,0:0:0:0:
256,192,12050,1,0,0:0:0:0:
256,192,12055,1,0,0:0:0:0:
384,192,12064,1,0,0:0:0:0:
384,192,12072,1,0,0:0:0:0:
256,192,12073,1,0,0:0:0:0:
256,192,12074,1,0,0:0:0:0:
256,192,12075,1,0,0:0:0:0:
384,192,12080,1,0,0:0:0:0:
256,192,12088,1,0,0:0:0:0:
384,192,12091,1,0,0:0:0:0:
384,192,12092,1,0,0:0:0:0:
384,192,12093,1,0,0:0:0:0:
256,192,12099,1,0,0:0:0:0:
256,192,12101,1,0,0:0:0:0:
256,192,12117,1,0,0:0:0:0:
256,192,12118,1,0,0:0:0:0:
384,192,12118,1,0,0:0:0:0:
256,192,12119,1,0,0:0:0:0:
384,192,12124,1,0,0:0:0:0:
384,192,12125,1,0,0:0:0:0:
256,192,12139,1,0,0:0:0:0:
256,192,12145,1,0,0:0:0:0:
384,192,12145,1,0,0:0:0:0:
384,192,12147,1,0,0:0:0:0:
256,192,12149,1,0,0:0:0:0:
384,192,12162,1,0,0:0:0:0:
256,192,12168,1,0,0:0:0:0:
384,192,12169,1,0,0:0:0:0:
256,192,12169,1,0,0:0:0:0:
384,192,12170,1,0,0:0:0:0:
256,192,12183,1,0,0:0:0:0:
384,192,12189,1,0,0:0:0:0:
384,192,12191,1,0,0:0:0:0:
256,192,12193,1,0,0:0:0:0:
256,192,12196,1,0,0:0:0:0:
384,192,12208,1,0,0:0:0:0:
256,192,12212,1,0,0:0:0:0:
256,192,12213,1,0,0:0:0:0:
384,192,12214,1,0,0:0:0:0:
384,192,12223,1,0,0:0:0:0:
256,192,12234,1,0,0:0:0:0:
384,192,12235,1,0,0:0:0:0:
384,192,12237,1,0,0:0:0:0:
256,192,12240,1,0,0:0:0:0:
384,192,12243,1,0,0:0:0:0:
256,192,12244,1,0,0:0:0:0:
384,192,12252,1,0,0:0:0:0:
256,192,12263,1,0,0:0:0:0:
256,192,12264,1,0,0:0:0:0:
384,192,12267,1,0,0:0:0:0:
256,192,12278,1,0,0:0:0:0:
384,192,12279,1,0,0:0:0:0:
384,192,12281,1,0,0:0:0:0:
384,192,12287,1,0,0:0:0:0:
256,192,12288,1,0,0:0:0:0:
256,192,12291,1,0,0:0:0:0:
384,192,12305,1,0,0:0:0:0:
256,192,12307,1,0,0:0:0:0:
256,192,12308,1,0,0:0:0:0:
384,192,12311,1,0,0:0:0:0:
384,192,12313,1,0,0:0:0:0:
256,192,12329,1,0,0:0:0:0:
384,192,12332,1,0,0:0:0:0:
384,192,12333,1,0,0:0:0:0:
384,192,12334,1,0,0:0:0:0:
256,192,12335,1,0,0:0:0:0:
256,192,12339,1,0,0:0:0:0:
384,192,12349,1,0,0:0:0:0:
384,192,12357,1,0,0:0:0:0:
256,192,12358,1,0,0:0:0:0:
256,192,12359,1,0,0:0:0:0:
384,192,12365,1,0,0:0:0:0:
256,192,12373,1,0,0:0:0:0:
384,192,12376,1,0,0:0:0:0:
384,192,12377,1,0,0:0:0:0:
384,192,12378,1,0,0:0:0:0:
256,192,12383,1,0,0:0:0:0:
256,192,12385,1,0,0:0:0:0:
256,192,12402,1,0,0:0:0:0:
384,192,12403,1,0,0:0:0:0:
256,192,12403,1,0,0:0:0:0:
384,192,12409,1,0,0:0:0:0:
384,192,12410,1,0,0:0:0:0:
256,192,12423,1,0,0:0:0:0:
256,192,12429,1,0,0:0:0:0:
384,192,12430,1,0,0:0:0:0:
384,192,12432,1,0,0:0:0:0:
256,192,12434,1,0,0:0:0:0:
384,192,12447,1,0,0:0:0:0:
256,192,12452,1,0,0:0:0:0:
256,192,12453,1,0,0:0:0:0:
384,192,12454,1,0,0:0:0:0:
256,192,12454,1,0,0:0:0:0:
384,192,12455,1,0,0:0:0:0:
256,192,12467,1,0,0:0:0:0:
384,192,12474,1,0,0:0:0:0:
384,192,12476,1,0,0:0:0:0:
256,192,12478,1,0,0:0:0:0:
256,192,12480,1,0,0:0:0:0:
384,192,12493,1,0,0:0:0:0:
256,192,12496,1,0,0:0:0:0:
256,192,12497,1,0,0:0:0:0:
256,192,12498,1,0,0:0:0:0:
384,192,12499,1,0,0:0:0:0:
384,192,12508,1,0,0:0:0:0:
256,192,12518,1,0,0:0:0:0:
384,192,12522,1,0,0:0:0:0:
256,192,12524,1,0,0:0:0:0:
384,192,12527,1,0,0:0:0:0:
256,192,12528,1,0,0:0:0:0:
384,192,12528,1,0,0:0:0:0:
384,192,12537,1,0,0:0:0:0:
256,192,12547,1,0,0:0:0:0:
256,192,12548,1,0,0:0:0:0:
384,192,12552,1,0,0:0:0:0:
256,192,12562,1,0,0:0:0:0:
384,192,12566,1,0,0:0:0:0:
384,192,12571,1,0,0:0:0:0:
256,192,12572,1,0,0:0:0:0:
384,192,12572,1,0,0:0:0:0:
256,192,12575,1,0,0:0:0:0:
384,192,12590,1,0,0:0:0:0:
256,192,12591,1,0,0:0:0:0:
256,192,12592,1,0,0:0:0:0:
384,192,12596,1,0,0:0:0:0:
384,192,12598,1,0,0:0:0:0:
256,192,12613,1,0,0:0:0:0:
384,192,12617,1,0,0:0:0:0:
384,192,12618,1,0,0:0:0:0:
256,192,12619,1,0,0:0:0:0:
384,192,12619,1,0,0:0:0:0:
256,192,12623,1,0,0:0:0:0:
384,192,12634,1,0,0:0:0:0:
256,192,12642,1,0,0:0:0:0:
384,192,12642,1,0,0:0:0:0:
256,192,12643,1,0,0:0:0:0:
256,192,12657,1,0,0:0:0:0:
384,192,12661,1,0,0:0:0:0:
384,192,12662,1,0,0:0:0:0:
384,192,12663,1,0,0:0:0:0:
256,192,12667,1,0,0:0:0:0:
256,192,12669,1,0,0:0:0:0:
384,192,12680,1,0,0:0:0:0:
384,192,12686,1,0,0:0:0:0:
256,192,12686,1,0,0:0:0:0:
256,192,12687,1,0,0:0:0:0:
384,192,12695,1,0,0:0:0:0:
256,192,12707,1,0,0:0:0:0:
384,192,12709,1,0,0:0:0:0:
256,192,12713,1,0,0:0:0:0:
384,192,12715,1,0,0:0:0:0:
256,192,12718,1,0,0:0:0:0:
384,192,12724,1,0,0:0:0:0:
256,192,12736,1,0,0:0:0:0:
256,192,12738,1,0,0:0:0:0:
384,192,12739,1,0,0:0:0:0:
384,192,12740,1,0,0:0:0:0:
256,192,12751,1,0,0:0:0:0:
384,192,12753,1,0,0:0:0:0:
384,192,12759,1,0,0:0:0:0:
256,192,12762,1,0,0:0:0:0:
256,192,12764,1,0,0:0:0:0:
384,192,12778,1,0,0:0:0:0:
256,192,12780,1,0,0:0:0:0:
256,192,12782,1,0,0:0:0:0:
384,192,12784,1,0,0:0:0:0:
384,192,12785,1,0,0:0:0:0:
256,192,12802,1,0,0:0:0:0:
384,192,12805,1,0,0:0:0:0:
384,192,12807,1,0,0:0:0:0:
256,192,12808,1,0,0:0:0:0:
256,192,12812,1,0,0:0:0:0:
384,192,12822,1,0,0:0:0:0:
384,192,12829,1,0,0:0:0:0:
384,192,12830,1,0,0:0:0:0:
256,192,12831,1,0,0:0:0:0:
256,192,12832,1,0,0:0:0:0:
256,192,12846,1,0,0:0:0:0:
384,192,12849,1,0,0:0:0:0:
384,192,12851,1,0,0:0:0:0:
256,192,12856,1,0,0:0:0:0:
256,192,12859,1,0,0:0:0:0:
384,192,12868,1,0,0:0:0:0:
384,192,12874,1,0,0:0:0:0:
256,192,12875,1,0,0:0:0:0:
256,192,12876,1,0,0:0:0:0:
384,192,12883,1,0,0:0:0:0:
256,192,12897,1,0,0:0:0:0:
384,192,12897,1,0,0:0:0:0:
384,192,12902,1,0,0:0:0:0:
256,192,12903,1,0,0:0:0:0:
384,192,12903,1,0,0:0:0:0:
256,192,12907,1,0,0:0:0:0:
384,192,12912,1,0,0:0:0:0:
256,192,12926,1,0,0:0:0:0:
384,192,12927,1,0,0:0:0:0:
256,192,12927,1,0,0:0:0:0:
256,192,12941,1,0,0:0:0:0:
384,192,12941,1,0,0:0:0:0:
384,192,12946,1,0,0:0:0:0:
384,192,12947,1,0,0:0:0:0:
256,192,12951,1,0,0:0:0:0:
256,192,12954,1,0,0:0:0:0:
384,192,12965,1,0,0:0:0:0:
256,192,12970,1,0,0:0:0:0:
384,192,12971,1,0,0:0:0:0:
256,192,12971,1,0,0:0:0:0:
384,192,12973,1,0,0:0:0:0:
256,192,12992,1,0,0:0:0:0:
384,192,12993,1,0,0:0:0:0:
384,192,12994,1,0,0:0:0:0:
256,192,12998,1,0,0:0:0:0:
384,192,13000,1,0,0:0:0:0:
256,192,13002,1,0,0:0:0:0:
384,192,13009,1,0,0:0:0:0:
384,192,13017,1,0,0:0:0:0:
256,192,13021,1,0,0:0:0:0:
256,192,13022,1,0,0:0:0:0:
384,192,13025,1,0,0:0:0:0:
256,192,13036,1,0,0:0:0:0:
384,192,13037,1,0,0:0:0:0:
384,192,13038,1,0,0:0:0:0:
384,192,13044,1,0,0:0:0:0:
256,192,13046,1,0,0:0:0:0:
256,192,13048,1,0,0:0:0:0:
384,192,13063,1,0,0:0:0:0:
256,192,13065,1,0,0:0:0:0:
256,192,13066,1,0,0:0:0:0:
384,192,13069,1,0,0:0:0:0:
384,192,13070,1,0,0:0:0:0:
256,192,13086,1,0,0:0:0:0:
384,192,13090,1,0,0:0:0:0:
256,192,13092,1,0,0:0:0:0:
384,192,13092,1,0,0:0:0:0:
256,192,13097,1,0,0:0:0:0:
384,192,13107,1,0,0:0:0:0:
384,192,13114,1,0,0:0:0:0:
256,192,13115,1,0,0:0:0:0:
256,192,13117,1,0,0:0:0:0:
384,192,13122,1,0,0:0:0:0:
256,192,13130,1,0,0:0:0:0:
384,192,13134,1,0,0:0:0:0:
384,192,13136,1,0,0:0:0:0:
256,192,13141,1,0,0:0:0:0:
256,192,13143,1,0,0:0:0:0:
256,192,13159,1,0,0:0:0:0:
384,192,13160,1,0,0:0:0:0:
256,192,13161,1,0,0:0:0:0:
384,192,13166,1,0,0:0:0:0:
384,192,13168,1,0,0:0:0:0:
256,192,13181,1,0,0:0:0:0:
384,192,13187,1,0,0:0:0:0:
256,192,13187,1,0,0:0:0:0:
384,192,13188,1,0,0:0:0:0:
384,192,13189,1,0,0:0:0:0:
256,192,13189,1,0,0:0:0:0:
256,192,13191,1,0,0:0:0:0:
256,192,13192,1,0,0:0:0:0:
384,192,13203,1,0,0:0:0:0:
384,192,13204,1,0,0:0:0:0:
256,192,13208,1,0,0:0:0:0:
384,192,13209,1,0,0:0:0:0:
256,192,13209,1,0,0:0:0:0:
256,192,13210,1,0,0:0:0:0:
256,192,13211,1,0,0:0:0:0:
384,192,13212,1,0,0:0:0:0:
384,192,13218,1,0,0:0:0:0:
256,192,13225,1,0,0:0:0:0:
256,192,13230,1,0,0:0:0:0:
384,192,13231,1,0,0:0:0:0:
384,192,13232,1,0,0:0:0:0:
384,192,13233,1,0,0:0:0:0:
256,192,13235,1,0,0:0:0:0:
256,192,13236,1,0,0:0:0:0:
384,192,13237,1,0,0:0:0:0:
256,192,13238,1,0,0:0:0:0:
384,192,13238,1,0,0:0:0:0:
256,192,13240,1,0,0:0:0:0:
384,192,13247,1,0,0:0:0:0:
384,192,13250,1,0,0:0:0:0:
256,192,13254,1,0,0:0:0:0:
256,192,13255,1,0,0:0:0:0:
384,192,13256,1,0,0:0:0:0:
256,192,13259,1,0,0:0:0:0:
256,192,13260,1,0,0:0:0:0:
384,192,13262,1,0,0:0:0:0:
384,192,13265,1,0,0:0:0:0:
256,192,13274,1,0,0:0:0:0:
256,192,13276,1,0,0:0:0:0:
384,192,13276,1,0,0:0:0:0:
384,192,13279,1,0,0:0:0:0:
384,192,13281,1,0,0:0:0:0:
256,192,13282,1,0,0:0:0:0:
384,192,13282,1,0,0:0:0:0:
256,192,13284,1,0,0:0:0:0:
384,192,13285,1,0,0:0:0:0:
256,192,13286,1,0,0:0:0:0:
384,192,13294,1,0,0:0:0:0:
384,192,13300,1,0,0:0:0:0:
256,192,13303,1,0,0:0:0:0:
256,192,13304,1,0,0:0:0:0:
256,192,13305,1,0,0:0:0:0:
256,192,13306,1,0,0:0:0:0:
384,192,13306,1,0,0:0:0:0:
384,192,13308,1,0,0:0:0:0:
384,192,13309,1,0,0:0:0:0:
384,192,13310,1,0,0:0:0:0:
256,192,13320,1,0,0:0:0:0:
256,192,13321,1,0,0:0:0:0:
384,192,13323,1,0,0:0:0:0:
256,192,13324,1,0,0:0:0:0:
384,192,13327,1,0,0:0:0:0:
384,192,13328,1,0,0:0:0:0:
384,192,13329,1,0,0:0:0:0:
256,192,13330,1,0,0:0:0:0:
256,192,13333,1,0,0:0:0:0:
256,192,13335,1,0,0:0:0:0:
384,192,13335,1,0,0:0:0:0:
256,192,13340,1,0,0:0:0:0:
256,192,13341,1,0,0:0:0:0:
384,192,13341,1,0,0:0:0:0:
384,192,13344,1,0,0:0:0:0:
384,192,13348,1,0,0:0:0:0:
256,192,13349,1,0,0:0:0:0:
256,192,13350,1,0,0:0:0:0:
384,192,13350,1,0,0:0:0:0:
384,192,13352,1,0,0:0:0:0:
256,192,13353,1,0,0:0:0:0:
384,192,13354,1,0,0:0:0:0:
384,192,13355,1,0,0:0:0:0:
256,192,13355,1,0,0:0:0:0:
256,192,13357,1,0,0:0:0:0:
384,192,13360,1,0,0:0:0:0:
256,192,13360,1,0,0:0:0:0:
256,192,13362,1,0,0:0:0:0:
384,192,13364,1,0,0:0:0:0:
256,192,13368,1,0,0:0:0:0:
384,192,13369,1,0,0:0:0:0:
384,192,13370,1,0,0:0:0:0:
256,192,13371,1,0,0:0:0:0:
384,192,13371,1,0,0:0:0:0:
384,192,13372,1,0,0:0:0:0:
256,192,13372,1,0,0:0:0:0:
384,192,13373,1,0,0:0:0:0:
384,192,13375,1,0,0:0:0:0:
256,192,13376,1,0,0:0:0:0:
384,192,13377,1,0,0:0:0:0:
256,192,13377,1,0,0:0:0:0:
256,192,13379,1,0,0:0:0:0:
384,192,13379,1,0,0:0:0:0:
256,192,13381,1,0,0:0:0:0:
384,192,13386,1,0,0:0:0:0:
256,192,13391,1,0,0:0:0:0:
384,192,13392,1,0,0:0:0:0:
256,192,13392,1,0,0:0:0:0:
256,192,13393,1,0,0:0:0:0:
384,192,13394,1,0,0:0:0:0:
256,192,13396,1,0,0:0:0:0:
256,192,13397,1,0,0:0:0:0:
384,192,13398,1,0,0:0:0:0:
256,192,13398,1,0,0:0:0:0:
384,192,13399,1,0,0:0:0:0:
256,192,13399,1,0,0:0:0:0:
256,192,13400,1,0,0:0:0:0:
384,192,13400,1,0,0:0:0:0:
256,192,13401,1,0,0:0:0:0:
384,192,13404,1,0,0:0:0:0:
256,192,13404,1,0,0:0:0:0:
384,192,13405,1,0,0:0:0:0:
256,192,13406,1,0,0:0:0:0:
384,192,13406,1,0,0:0:0:0:
384,192,13407,1,0,0:0:0:0:
384,192,13408,1,0,0:0:0:0:
256,192,13408,1,0,0:0:0:0:
256,192,13412,1,0,0:0:0:0:
256,192,13413,1,0,0:0:0:0:
384,192,13413,1,0,0:0:0:0:
384,192,13414,1,0,0:0:0:0:
256,192,13415,1,0,0:0:0:0:
384,192,13415,1,0,0:0:0:0:
256,192,13416,1,0,0:0:0:0:
256,192,13418,1,0,0:0:0:0:
384,192,13419,1,0,0:0:0:0:
256,192,13419,1,0,0:0:0:0:
384,192,13421,1,0,0:0:0:0:
384,192,13422,1,0,0:0:0:0:
256,192,13425,1,0,0:0:0:0:
384,192,13425,1,0,0:0:0:0:
384,192,13427,1,0,0:0:0:0:
256,192,13427,1,0,0:0:0:0:
256,192,13428,1,0,0:0:0:0:
256,192,13429,1,0,0:0:0:0:
384,192,13430,1,0,0:0:0:0:
384,192,13432,1,0,0:0:0:0:
256,192,13434,1,0,0:0:0:0:
256,192,13435,1,0,0:0:0:0:
256,192,13436,1,0,0:0:0:0:
384,192,13436,1,0,0:0:0:0:
384,192,13438,1,0,0:0:0:0:
384,192,13440,1,0,0:0:0:0:
256,192,13440,1,0,0:0:0:0:
384,192,13441,1,0,0:0:0:0:
256,192,13442,1,0,0:0:0:0:
384,192,13442,1,0,0:0:0:0:
384,192,13444,1,0,0:0:0:0:
256,192,13444,1,0,0:0:0:0:
256,192,13445,1,0,0:0:0:0:
256,192,13447,1,0,0:0:0:0:
256,192,13448,1,0,0:0:0:0:
256,192,13449,1,0,0:0:0:0:
384,192,13449,1,0,0:0:0:0:
384,192,13450,1,0,0:0:0:0:
256,192,13450,1,0,0:0:0:0:
384,192,13451,1,0,0:0:0:0:
256,192,13452,1,0,0:0:0:0:
384,192,13453,1,0,0:0:0:0:
256,192,13454,1,0,0:0:0:0:
256,192,13456,1,0,0:0:0:0:
384,192,13459,1,0,0:0:0:0:
384,192,13460,1,0,0:0:0:0:
384,192,13461,1,0,0:0:0:0:
256,192,13462,1,0,0:0:0:0:
256,192,13463,1,0,0:0:0:0:
256,192,13464,1,0,0:0:0:0:
256,192,13465,1,0,0:0:0:0:
384,192,13466,1,0,0:0:0:0:
256,192,13466,1,0,0:0:0:0:
384,192,13467,1,0,0:0:0:0:
256,192,13467,1,0,0:0:0:0:
384,192,13468,1,0,0:0:0:0:
384,192,13469,1,0,0:0:0:0:
384,192,13471,1,0,0:0:0:0:
256,192,13471,1,0,0:0:0:0:
384,192,13472,1,0,0:0:0:0:
256,192,13472,1,0,0:0:0:0:
384,192,13473,1,0,0:0:0:0:
256,192,13473,1,0,0:0:0:0:
384,192,13474,1,0,0:0:0:0:
256,192,13476,1,0,0:0:0:0:
384,192,13476,1,0,0:0:0:0:
256,192,13478,1,0,0:0:0:0:
384,192,13480,1,0,0:0:0:0:
384,192,13482,1,0,0:0:0:0:
256,192,13483,1,0,0:0:0:0:
384,192,13484,1,0,0:0:0:0:
256,192,13485,1,0,0:0:0:0:
384,192,13485,1,0,0:0:0:0:
384,192,13486,1,0,0:0:0:0:
256,192,13486,1,0,0:0:0:0:
256,192,13487,1,0,0:0:0:0:
384,192,13488,1,0,0:0:0:0:
256,192,13488,1,0,0:0:0:0:
256,192,13490,1,0,0:0:0:0:
384,192,13490,1,0,0:0:0:0:
384,192,13492,1,0,0:0:0:0:
256,192,13492,1,0,0:0:0:0:
256,192,13493,1,0,0:0:0:0:
384,192,13494,1,0,0:0:0:0:
256,192,13494,1,0,0:0:0:0:
384,192,13495,1,0,0:0:0:0:
256,192,13496,1,0,0:0:0:0:
384,192,13496,1,0,0:0:0:0:
384,192,13497,1,0,0:0:0:0:
256,192,13498,1,0,0:0:0:0:
256,192,13500,1,0,0:0:0:0:
256,192,13502,1,0,0:0:0:0:
256,192,13503,1,0,0:0:0:0:
384,192,13503,1,0,0:0:0:0:
384,192,13504,1,0,0:0:0:0:
384,192,13505,1,0,0:0:0:0:
256,192,13507,1,0,0:0:0:0:
256,192,13508,1,0,0:0:0:0:
256,192,13509,1,0,0:0:0:0:
384,192,13510,1,0,0:0:0:0:
384,192,13511,1,0,0:0:0:0:
256,192,13511,1,0,0:0:0:0:
384,192,13512,1,0,0:0:0:0:
256,192,13513,1,0,0:0:0:0:
256,192,13514,1,0,0:0:0:0:
384,192,13515,1,0,0:0:0:0:
384,192,13516,1,0,0:0:0:0:
384,192,13517,1,0,0:0:0:0:
256,192,13517,1,0,0:0:0:0:
256,192,13518,1,0,0:0:0:0:
256,192,13520,1,0,0:0:0:0:
384,192,13520,1,0,0:0:0:0:
256,192,13521,1,0,0:0:0:0:
256,192,13522,1,0,0:0:0:0:
384,192,13523,1,0,0:0:0:0:
256,192,13523,1,0,0:0:0:0:
256,192,13524,1,0,0:0:0:0:
384,192,13526,1,0,0:0:0:0:
384,192,13528,1,0,0:0:0:0:
256,192,13528,1,0,0:0:0:0:
256,192,13529,1,0,0:0:0:0:
384,192,13530,1,0,0:0:0:0:
256,192,13530,1,0,0:0:0:0:
384,192,13531,1,0,0:0:0:0:
256,192,13531,1,0,0:0:0:0:
256,192,13532,1,0,0:0:0:0:
384,192,13532,1,0,0:0:0:0:
384,192,13533,1,0,0:0:0:0:
384,192,13534,1,0,0:0:0:0:
256,192,13534,1,0,0:0:0:0:
384,192,13535,1,0,0:0:0:0:
384,192,13536,1,0,0:0:0:0:
256,192,13536,1,0,0:0:0:0:
384,192,13537,1,0,0:0:0:0:
256,192,13538,1,0,0:0:0:0:
256,192,13539,1,0,0:0:0:0:
384,192,13539,1,0,0:0:0:0:
256,192,13540,1,0,0:0:0:0:
384,192,13540,1,0,0:0:0:0:
384,192,13541,1,0,0:0:0:0:
256,192,13542,1,0,0:0:0:0:
384,192,13543,1,0,0:0:0:0:
256,192,13543,1,0,0:0:0:0:
256,192,13544,1,0,0:0:0:0:
384,192,13545,1,0,0:0:0:0:
384,192,13547,1,0,0:0:0:0:
256,192,13547,1,0,0:0:0:0:
384,192,13548,1,0,0:0:0:0:
256,192,13549,1,0,0:0:0:0:
256,192,13550,1,0,0:0:0:0:
384,192,13551,1,0,0:0:0:0:
256,192,13551,1,0,0:0:0:0:
256,192,13553,1,0,0:0:0:0:
256,192,13554,1,0,0:0:0:0:
384,192,13556,1,0,0:0:0:0:
384,192,13557,1,0,0:0:0:0:
256,192,13557,1,0,0:0:0:0:
256,192,13558,1,0,0:0:0:0:
384,192,13558,1,0,0:0:0:0:
384,192,13559,1,0,0:0:0:0:
256,192,13559,1,0,0:0:0:0:
256,192,13560,1,0,0:0:0:0:
384,192,13560,1,0,0:0:0:0:
384,192,13561,1,0,0:0:0:0:
256,192,13561,1,0,0:0:0:0:
256,192,13562,1,0,0:0:0:0:
384,192,13563,1,0,0:0:0:0:
384,192,13564,1,0,0:0:0:0:
256,192,13564,1,0,0:0:0:0:
256,192,13565,1,0,0:0:0:0:
256,192,13566,1,0,0:0:0:0:
384,192,13566,1,0,0:0:0:0:
384,192,13567,1,0,0:0:0:0:
256,192,13567,1,0,0:0:0:0:
256,192,13568,1,0,0:0:0:0:
256,192,13570,1,0,0:0:0:0:
384,192,13570,1,0,0:0:0:0:
256,192,13571,1,0,0:0:0:0:
384,192,13572,1,0,0:0:0:0:
256,192,13572,1,0,0:0:0:0:
384,192,13573,1,0,0:0:0:0:
384,192,13574,1,0,0:0:0:0:
384,192,13575,1,0,0:0:0:0:
384,192,13576,1,0,0:0:0:0:
384,192,13577,1,0,0:0:0:0:
256,192,13578,1,0,0:0:0:0:
384,192,13579,1,0,0:0:0:0:
384,192,13580,1,0,0:0:0:0:
256,192,13580,1,0,0:0:0:0:
256,192,13581,1,0,0:0:0:0:
384,192,13581,1,0,0:0:0:0:
384,192,13582,1,0,0:0:0:0:
256,192,13582,1,0,0:0:0:0:
256,192,13583,1,0,0:0:0:0:
256,192,13585,1,0,0:0:0:0:
384,192,13585,1,0,0:0:0:0:
384,192,13586,1,0,0:0:0:0:
256,192,13587,1,0,0:0:0:0:
384,192,13587,1,0,0:0:0:0:
256,192,13588,1,0,0:0:0:0:
256,192,13589,1,0,0:0:0:0:
384,192,13589,1,0,0:0:0:0:
256,192,13590,1,0,0:0:0:0:
384,192,13590,1,0,0:0:0:0:
384,192,13591,1,0,0:0:0:0:
384,192,13593,1,0,0:0:0:0:
256,192,13593,1,0,0:0:0:0:
384,192,13594,1,0,0:0:0:0:
256,192,13595,1,0,0:0:0:0:
384,192,13595,1,0,0:0:0:0:
256,192,13597,1,0,0:0:0:0:
256,192,13598,1,0,0:0:0:0:
384,192,13600,1,0,0:0:0:0:
256,192,13600,1,0,0:0:0:0:
384,192,13601,1,0,0:0:0:0:
256,192,13601,1,0,0:0:0:0:
384,192,13602,1,0,0:0:0:0:
256,192,13602,1,0,0:0:0:0:
384,192,13603,1,0,0:0:0:0:
256,192,13603,1,0,0:0:0:0:
256,192,13604,1,0,0:0:0:0:
384,192,13604,1,0,0:0:0:0:
256,192,13605,1,0,0:0:0:0:
384,192,13607,1,0,0:0:0:0:
384,192,13608,1,0,0:0:0:0:
256,192,13608,1,0,0:0:0:0:
256,192,13609,1,0,0:0:0:0:
384,192,13609,1,0,0:0:0:0:
384,192,13610,1,0,0:0:0:0:
256,192,13611,1,0,0:0:0:0:
384,192,13611,1,0,0:0:0:0:
384,192,13612,1,0,0:0:0:0:
256,192,13612,1,0,0:0:0:0:
384,192,13613,1,0,0:0:0:0:
256,192,13613,1,0,0:0:0:0:
256,192,13614,1,0,0:0:0:0:
384,192,13614,1,0,0:0:0:0:
256,192,13615,1,0,0:0:0:0:
256,192,13616,1,0,0:0:0:0:
384,192,13617,1,0,0:0:0:0:
256,192,13617,1,0,0:0:0:0:
256,192,13618,1,0,0:0:0:0:
384,192,13618,1,0,0:0:0:0:
256,192,13619,1,0,0:0:0:0:
384,192,13619,1,0,0:0:0:0:
384,192,13620,1,0,0:0:0:0:
384,192,13621,1,0,0:0:0:0:
384,192,13622,1,0,0:0:0:0:
256,192,13623,1,0,0:0:0:0:
384,192,13623,1,0,0:0:0:0:
256,192,13624,1,0,0:0:0:0:
384,192,13624,1,0,0:0:0:0:
256,192,13625,1,0,0:0:0:0:
256,192,13626,1,0,0:0:0:0:
384,192,13626,1,0,0:0:0:0:
256,192,13628,1,0,0:0:0:0:
384,192,13629,1,0,0:0:0:0:
256,192,13629,1,0,0:0:0:0:
384,192,13630,1,0,0:0:0:0:
384,192,13631,1,0,0:0:0:0:
256,192,13631,1,0,0:0:0:0:
256,192,13632,1,0,0:0:0:0:
384,192,13633,1,0,0:0:0:0:
256,192,13633,1,0,0:0:0:0:
256,192,13634,1,0,0:0:0:0:
384,192,13634,1,0,0:0:0:0:
384,192,13635,1,0,0:0:0:0:
256,192,13636,1,0,0:0:0:0:
384,192,13637,1,0,0:0:0:0:
256,192,13637,1,0,0:0:0:0:
384,192,13638,1,0,0:0:0:0:
256,192,13638,1,0,0:0:0:0:
384,192,13639,1,0,0:0:0:0:
256,192,13639,1,0,0:0:0:0:
384,192,13640,1,0,0:0:0:0:
256,192,13641,1,0,0:0:0:0:
384,192,13642,1,0,0:0:0:0:
256,192,13644,1,0,0:0:0:0:
256,192,13645,1,0,0:0:0:0:
384,192,13645,1,0,0:0:0:0:
256,192,13646,1,0,0:0:0:0:
384,192,13646,1,0,0:0:0:0:
256,192,13647,1,0,0:0:0:0:
384,192,13647,1,0,0:0:0:0:
384,192,13648,1,0,0:0:0:0:
256,192,13648,1,0,0:0:0:0:
384,192,13649,1,0,0:0:0:0:
256,192,13649,1,0,0:0:0:0:
384,192,13650,1,0,0:0:0:0:
256,192,13652,1,0,0:0:0:0:
256,192,13653,1,0,0:0:0:0:
384,192,13653,1,0,0:0:0:0:
384,192,13654,1,0,0:0:0:0:
256,192,13655,1,0,0:0:0:0:
384,192,13655,1,0,0:0:0:0:
384,192,13656,1,0,0:0:0:0:
256,192,13656,1,0,0:0:0:0:
256,192,13657,1,0,0:0:0:0:
256,192,13658,1,0,0:0:0:0:
384,192,13660,1,0,0:0:0:0:
256,192,13660,1,0,0:0:0:0:
256,192,13661,1,0,0:0:0:0:
256,192,13662,1,0,0:0:0:0:
384,192,13662,1,0,0:0:0:0:
384,192,13663,1,0,0:0:0:0:
384,192,13664,1,0,0:0:0:0:
256,192,13665,1,0,0:0:0:0:
384,192,13665,1,0,0:0:0:0:
384,192,13666,1,0,0:0:0:0:
256,192,13666,1,0,0:0:0:0:
384,192,13667,1,0,0:0:0:0:
256,192,13667,1,0,0:0:0:0:
256,192,13668,1,0,0:0:0:0:
384,192,13669,1,0,0:0:0:0:
256,192,13669,1,0,0:0:0:0:
384,192,13670,1,0,0:0:0:0:
384,192,13671,1,0,0:0:0:0:
384,192,13672,1,0,0:0:0:0:
256,192,13672,1,0,0:0:0:0:
384,192,13673,1,0,0:0:0:0:
256,192,13673,1,0,0:0:0:0:
256,192,13674,1,0,0:0:0:0:
384,192,13675,1,0,0:0:0:0:
256,192,13675,1,0,0:0:0:0:
256,192,13676,1,0,0:0:0:0:
384,192,13676,1,0,0:0:0:0:
384,192,13677,1,0,0:0:0:0:
256,192,13677,1,0,0:0:0:0:
384,192,13678,1,0,0:0:0:0:
384,192,13679,1,0,0:0:0:0:
384,192,13680,1,0,0:0:0:0:
256,192,13680,1,0,0:0:0:0:
384,192,13681,1,0,0:0:0:0:
256,192,13682,1,0,0:0:0:0:
384,192,13682,1,0,0:0:0:0:
256,192,13683,1,0,0:0:0:0:
384,192,13683,1,0,0:0:0:0:
384,192,13684,1,0,0:0:0:0:
256,192,13684,1,0,0:0:0:0:
256,192,13685,1,0,0:0:0:0:
384,192,13685,1,0,0:0:0:0:
384,192,13686,1,0,0:0:0:0:
256,192,13687,1,0,0:0:0:0:
256,192,13688,1,0,0:0:0:0:
384,192,13689,1,0,0:0:0:0:
256,192,13689,1,0,0:0:0:0:
256,192,13690,1,0,0:0:0:0:
384,192,13690,1,0,0:0:0:0:
256,192,13691,1,0,0:0:0:0:
384,192,13691,1,0,0:0:0:0:
384,192,13692,1,0,0:0:0:0:
256,192,13692,1,0,0:0:0:0:
384,192,13693,1,0,0:0:0:0:
256,192,13693,1,0,0:0:0:0:
384,192,13694,1,0,0:0:0:0:
256,192,13694,1,0,0:0:0:0:
256,192,13695,1,0,0:0:0:0:
256,192,13696,1,0,0:0:0:0:
256,192,13697,1,0,0:0:0:0:
384,192,13698,1,0,0:0:0:0:
256,192,13699,1,0,0:0:0:0:
384,192,13699,1,0,0:0:0:0:
256,192,13700,1,0,0:0:0:0:
384,192,13700,1,0,0:0:0:0:
384,192,13701,1,0,0:0:0:0:
384,192,13702,1,0,0:0:0:0:
256,192,13702,1,0,0:0:0:0:
256,192,13703,1,0,0:0:0:0:
384,192,13704,1,0,0:0:0:0:
256,192,13704,1,0,0:0:0:0:
256,192,13705,1,0,0:0:0:0:
256,192,13706,1,0,0:0:0:0:
384,192,13706,1,0,0:0:0:0:
384,192,13707,1,0,0:0:0:0:
256,192,13707,1,0,0:0:0:0:
384,192,13708,1,0,0:0:0:0:
256,192,13708,1,0,0:0:0:0:
256,192,13709,1,0,0:0:0:0:
256,192,13710,1,0,0:0:0:0:
256,192,13711,1,0,0:0:0:0:
256,192,13712,1,0,0:0:0:0:
384,192,13712,1,0,0:0:0:0:
256,192,13713,1,0,0:0:0:0:
384,192,13713,1,0,0:0:0:0:
384,192,13714,1,0,0:0:0:0:
384,192,13715,1,0,0:0:0:0:
384,192,13716,1,0,0:0:0:0:
256,192,13716,1,0,0:0:0:0:
384,192,13717,1,0,0:0:0:0:
256,192,13718,1,0,0:0:0:0:
384,192,13718,1,0,0:0:0:0:
256,192,13719,1,0,0:0:0:0:
384,192,13719,1,0,0:0:0:0:
384,192,13720,1,0,0:0:0:0:
256,192,13720,1,0,0:0:0:0:
384,192,13721,1,0,0:0:0:0:
256,192,13721,1,0,0:0:0:0:
384,192,13723,1,0,0:0:0:0:
256,192,13723,1,0,0:0:0:0:
384,192,13724,1,0,0:0:0:0:
256,192,13724,1,0,0:0:0:0:
256,192,13725,1,0,0:0:0:0:
384,192,13725,1,0,0:0:0:0:
256,192,13726,1,0,0:0:0:0:
384,192,13726,1,0,0:0:0:0:
256,192,13727,1,0,0:0:0:0:
384,192,13727,1,0,0:0:0:0:
256,192,13728,1,0,0:0:0:0:
256,192,13729,1,0,0:0:0:0:
384,192,13729,1,0,0:0:0:0:
256,192,13730,1,0,0:0:0:0:
256,192,13731,1,0,0:0:0:0:
384,192,13732,1,0,0:0:0:0:
256,192,13732,1,0,0:0:0:0:
256,192,13734,1,0,0:0:0:0:
384,192,13734,1,0,0:0:0:0:
384,192,13735,1,0,0:0:0:0:
256,192,13735,1,0,0:0:0:0:
256,192,13736,1,0,0:0:0:0:
384,192,13736,1,0,0:0:0:0:
384,192,13737,1,0,0:0:0:0:
384,192,13738,1,0,0:0:0:0:
256,192,13738,1,0,0:0:0:0:
256,192,13739,1,0,0:0:0:0:
384,192,13740,1,0,0:0:0:0:
256,192,13740,1,0,0:0:0:0:
256,192,13741,1,0,0:0:0:0:
256,192,13742,1,0,0:0:0:0:
384,192,13742,1,0,0:0:0:0:
384,192,13743,1,0,0:0:0:0:
256,192,13743,1,0,0:0:0:0:
384,192,13744,1,0,0:0:0:0:
384,192,13745,1,0,0:0:0:0:
384,192,13746,1,0,0:0:0:0:
256,192,13746,1,0,0:0:0:0:
384,192,13747,1,0,0:0:0:0:
256,192,13747,1,0,0:0:0:0:
256,192,13748,1,0,0:0:0:0:
384,192,13748,1,0,0:0:0:0:
384,192,13749,1,0,0:0:0:0:
256,192,13750,1,0,0:0:0:0:
384,192,13750,1,0,0:0:0:0:
384,192,13751,1,0,0:0:0:0:
256,192,13751,1,0,0:0:0:0:
384,192,13752,1,0,0:0:0:0:
256,192,13752,1,0,0:0:0:0:
256,192,13753,1,0,0:0:0:0:
384,192,13753,1,0,0:0:0:0:
384,192,13754,1,0,0:0:0:0:
256,192,13754,1,0,0:0:0:0:
384,192,13755,1,0,0:0:0:0:
256,192,13755,1,0,0:0:0:0:
384,192,13756,1,0,0:0:0:0:
256,192,13756,1,0,0:0:0:0:
384,192,13757,1,0,0:0:0:0:
256,192,13757,1,0,0:0:0:0:
384,192,13758,1,0,0:0:0:0:
384,192,13759,1,0,0:0:0:0:
256,192,13760,1,0,0:0:0:0:
384,192,13760,1,0,0:0:0:0:
256,192,13761,1,0,0:0:0:0:
384,192,13761,1,0,0:0:0:0:
256,192,13762,1,0,0:0:0:0:
384,192,13762,1,0,0:0:0:0:
256,192,13763,1,0,0:0:0:0:
384,192,13763,1,0,0:0:0:0:
256,192,13764,1,0,0:0:0:0:
384,192,13764,1,0,0:0:0:0:
384,192,13765,1,0,0:0:0:0:
256,192,13766,1,0,0:0:0:0:
256,192,13767,1,0,0:0:0:0:
384,192,13767,1,0,0:0:0:0:
384,192,13768,1,0,0:0:0:0:
256,192,13768,1,0,0:0:0:0:
384,192,13769,1,0,0:0:0:0:
256,192,13769,1,0,0:0:0:0:
256,192,13770,1,0,0:0:0:0:
384,192,13770,1,0,0:0:0:0:
384,192,13771,1,0,0:0:0:0:
256,192,13771,1,0,0:0:0:0:
256,192,13772,1,0,0:0:0:0:
384,192,13772,1,0,0:0:0:0:
384,192,13773,1,0,0:0:0:0:
256,192,13774,1,0,0:0:0:0:
384,192,13775,1,0,0:0:0:0:
256,192,13775,1,0,0:0:0:0:
384,192,13776,1,0,0:0:0:0:
256,192,13776,1,0,0:0:0:0:
256,192,13777,1,0,0:0:0:0:
384,192,13777,1,0,0:0:0:0:
256,192,13778,1,0,0:0:0:0:
384,192,13778,1,0,0:0:0:0:
384,192,13779,1,0,0:0:0:0:
256,192,13779,1,0,0:0:0:0:
256,192,13780,1,0,0:0:0:0:
384,192,13780,1,0,0:0:0:0:
384,192,13781,1,0,0:0:0:0:
384,192,13782,1,0,0:0:0:0:
256,192,13782,1,0,0:0:0:0:
256,192,13783,1,0,0:0:0:0:
384,192,13783,1,0,0:0:0:0:
256,192,13784,1,0,0:0:0:0:
384,192,13784,1,0,0:0:0:0:
384,192,13785,1,0,0:0:0:0:
384,192,13786,1,0,0:0:0:0:
256,192,13786,1,0,0:0:0:0:
256,192,13787,1,0,0:0:0:0:
384,192,13788,1,0,0:0:0:0:
384,192,13789,1,0,0:0:0:0:
256,192,13789,1,0,0:0:0:0:
384,192,13790,1,0,0:0:0:0:
256,192,13790,1,0,0:0:0:0:
256,192,13791,1,0,0:0:0:0:
384,192,13791,1,0,0:0:0:0:
256,192,13792,1,0,0:0:0:0:
384,192,13792,1,0,0:0:0:0:
384,192,13793,1,0,0:0:0:0:
256,192,13794,1,0,0:0:0:0:
384,192,13795,1,0,0:0:0:0:
384,192,13796,1,0,0:0:0:0:
256,192,13797,1,0,0:0:0:0:
384,192,13797,1,0,0:0:0:0:
384,192,13798,1,0,0:0:0:0:
384,192,13799,1,0,0:0:0:0:
256,192,13799,1,0,0:0:0:0:
256,192,13800,1,0,0:0:0:0:
384,192,13800,1,0,0:0:0:0:
384,192,13801,1,0,0:0:0:0:
256,192,13801,1,0,0:0:0:0:
384,192,13802,1,0,0:0:0:0:
256,192,13802,1,0,0:0:0:0:
384,192,13804,1,0,0:0:0:0:
256,192,13804,1,0,0:0:0:0:
384,192,13805,1,0,0:0:0:0:
256,192,13805,1,0,0:0:0:0:
384,192,13806,1,0,0:0:0:0:
256,192,13806,1,0,0:0:0:0:
256,192,13807,1,0,0:0:0:0:
384,192,13807,1,0,0:0:0:0:
256,192,13808,1,0,0:0:0:0:
384,192,13808,1,0,0:0:0:0:
384,192,13809,1,0,0:0:0:0:
256,192,13810,1,0,0:0:0:0:
384,192,13811,1,0,0:0:0:0:
384,192,13812,1,0,0:0:0:0:
256,192,13812,1,0,0:0:0:0:
256,192,13813,1,0,0:0:0:0:
384,192,13813,1,0,0:0:0:0:
256,192,13814,1,0,0:0:0:0:
384,192,13814,1,0,0:0:0:0:
256,192,13815,1,0,0:0:0:0:
384,192,13815,1,0,0:0:0:0:
256,192,13816,1,0,0:0:0:0:
384,192,13816,1,0,0:0:0:0:
384,192,13817,1,0,0:0:0:0:
384,192,13818,1,0,0:0:0:0:
256,192,13818,1,0,0:0:0:0:
256,192,13819,1,0,0:0:0:0:
384,192,13819,1,0,0:0:0:0:
384,192,13820,1,0,0:0:0:0:
256,192,13820,1,0,0:0:0:0:
384,192,13821,1,0,0:0:0:0:
256,192,13821,1,0,0:0:0:0:
384,192,13822,1,0,0:0:0:0:
256,192,13822,1,0,0:0:0:0:
256,192,13823,1,0,0:0:0:0:
256,192,13824,1,0,0:0:0:0:
384,192,13824,1,0,0:0:0:0:
384,192,13825,1,0,0:0:0:0:
256,192,13825,1,0,0:0:0:0:
256,192,13826,1,0,0:0:0:0:
384,192,13826,1,0,0:0:0:0:
256,192,13827,1,0,0:0:0:0:
384,192,13827,1,0,0:0:0:0:
384,192,13828,1,0,0:0:0:0:
256,192,13829,1,0,0:0:0:0:
384,192,13829,1,0,0:0:0:0:
256,192,13830,1,0,0:0:0:0:
384,192,13830,1,0,0:0:0:0:
384,192,13832,1,0,0:0:0:0:
256,192,13832,1,0,0:0:0:0:
384,192,13833,1,0,0:0:0:0:
256,192,13833,1,0,0:0:0:0:
256,192,13834,1,0,0:0:0:0:
384,192,13835,1,0,0:0:0:0:
256,192,13835,1,0,0:0:0:0:
384,192,13836,1,0,0:0:0:0:
256,192,13837,1,0,0:0:0:0:
256,192,13838,1,0,0:0:0:0:
384,192,13840,1,0,0:0:0:0:
256,192,13840,1,0,0:0:0:0:
384,192,13841,1,0,0:0:0:0:
256,192,13841,1,0,0:0:0:0:
384,192,13842,1,0,0:0:0:0:
256,192,13842,1,0,0:0:0:0:
256,192,13843,1,0,0:0:0:0:
384,192,13843,1,0,0:0:0:0:
256,192,13844,1,0,0:0:0:0:
384,192,13844,1,0,0:0:0:0:
256,192,13845,1,0,0:0:0:0:
384,192,13845,1,0,0:0:0:0:
256,192,13846,1,0,0:0:0:0:
384,192,13846,1,0,0:0:0:0:
384,192,13847,1,0,0:0:0:0:
384,192,13848,1,0,0:0:0:0:
256,192,13848,1,0,0:0:0:0:
384,192,13849,1,0,0:0:0:0:
256,192,13849,1,0,0:0:0:0:
256,192,13850,1,0,0:0:0:0:
384,192,13850,1,0,0:0:0:0:
384,192,13851,1,0,0:0:0:0:
256,192,13851,1,0,0:0:0:0:
384,192,13852,1,0,0:0:0:0:
256,192,13852,1,0,0:0:0:0:
256,192,13853,1,0,0:0:0:0:
384,192,13853,1,0,0:0:0:0:
384,192,13854,1,0,0:0:0:0:
384,192,13855,1,0,0:0:0:0:
256,192,13855,1,0,0:0:0:0:
256,192,13856,1,0,0:0:0:0:
384,192,13857,1,0,0:0:0:0:
256,192,13857,1,0,0:0:0:0:
384,192,13858,1,0,0:0:0:0:
256,192,13859,1,0,0:0:0:0:
384,192,13859,1,0,0:0:0:0:
384,192,13860,1,0,0:0:0:0:
256,192,13860,1,0,0:0:0:0:
256,192,13861,1,0,0:0:0:0:
384,192,13861,1,0,0:0:0:0:
384,192,13862,1,0,0:0:0:0:
256,192,13862,1,0,0:0:0:0:
384,192,13863,1,0,0:0:0:0:
256,192,13863,1,0,0:0:0:0:
384,192,13864,1,0,0:0:0:0:
256,192,13864,1,0,0:0:0:0:
256,192,13865,1,0,0:0:0:0:
384,192,13865,1,0,0:0:0:0:
256,192,13866,1,0,0:0:0:0:
384,192,13866,1,0,0:0:0:0:
256,192,13867,1,0,0:0:0:0:
256,192,13868,1,0,0:0:0:0:
384,192,13868,1,0,0:0:0:0:
256,192,13869,1,0,0:0:0:0:
384,192,13869,1,0,0:0:0:0:
384,192,13870,1,0,0:0:0:0:
256,192,13870,1,0,0:0:0:0:
384,192,13871,1,0,0:0:0:0:
256,192,13871,1,0,0:0:0:0:
256,192,13872,1,0,0:0:0:0:
384,192,13872,1,0,0:0:0:0:
384,192,13873,1,0,0:0:0:0:
256,192,13873,1,0,0:0:0:0:
384,192,13874,1,0,0:0:0:0:
256,192,13874,1,0,0:0:0:0:
256,192,13875,1,0,0:0:0:0:
384,192,13875,1,0,0:0:0:0:
256,192,13876,1,0,0:0:0:0:
384,192,13876,1,0,0:0:0:0:
256,192,13877,1,0,0:0:0:0:
384,192,13877,1,0,0:0:0:0:
384,192,13878,1,0,0:0:0:0:
256,192,13879,1,0,0:0:0:0:
384,192,13879,1,0,0:0:0:0:
384,192,13880,1,0,0:0:0:0:
256,192,13880,1,0,0:0:0:0:
256,192,13881,1,0,0:0:0:0:
384,192,13881,1,0,0:0:0:0:
256,192,13882,1,0,0:0:0:0:
384,192,13882,1,0,0:0:0:0:
384,192,13883,1,0,0:0:0:0:
256,192,13883,1,0,0:0:0:0:
384,192,13884,1,0,0:0:0:0:
256,192,13884,1,0,0:0:0:0:
384,192,13885,1,0,0:0:0:0:
256,192,13885,1,0,0:0:0:0:
384,192,13886,1,0,0:0:0:0:
256,192,13886,1,0,0:0:0:0:
384,192,13887,1,0,0:0:0:0:
256,192,13887,1,0,0:0:0:0:
256,192,13888,1,0,0:0:0:0:
384,192,13888,1,0,0:0:0:0:
256,192,13889,1,0,0:0:0:0:
384,192,13889,1,0,0:0:0:0:
384,192,13890,1,0,0:0:0:0:
256,192,13890,1,0,0:0:0:0:
256,192,13891,1,0,0:0:0:0:
384,192,13891,1,0,0:0:0:0:
256,192,13892,1,0,0:0:0:0:
384,192,13892,1,0,0:0:0:0:
256,192,13893,1,0,0:0:0:0:
384,192,13893,1,0,0:0:0:0:
384,192,13894,1,0,0:0:0:0:
384,192,13895,1,0,0:0:0:0:
256,192,13895,1,0,0:0:0:0:
256,192,13896,1,0,0:0:0:0:
384,192,13896,1,0,0:0:0:0:
384,192,13897,1,0,0:0:0:0:
256,192,13897,1,0,0:0:0:0:
384,192,13898,1,0,0:0:0:0:
256,192,13898,1,0,0:0:0:0:
256,192,13899,1,0,0:0:0:0:
256,192,13900,1,0,0:0:0:0:
384,192,13901,1,0,0:0:0:0:
256,192,13901,1,0,0:0:0:0:
256,192,13902,1,0,0:0:0:0:
384,192,13902,1,0,0:0:0:0:
256,192,13903,1,0,0:0:0:0:
384,192,13903,1,0,0:0:0:0:
384,192,13904,1,0,0:0:0:0:
256,192,13904,1,0,0:0:0:0:
384,192,13905,1,0,0:0:0:0:
256,192,13905,1,0,0:0:0:0:
256,192,13906,1,0,0:0:0:0:
384,192,13906,1,0,0:0:0:0:
384,192,13907,1,0,0:0:0:0:
256,192,13907,1,0,0:0:0:0:
384,192,13908,1,0,0:0:0:0:
256,192,13909,1,0,0:0:0:0:
384,192,13909,1,0,0:0:0:0:
384,192,13910,1,0,0:0:0:0:
256,192,13910,1,0,0:0:0:0:
256,192,13911,1,0,0:0:0:0:
384,192,13911,1,0,0:0:0:0:
256,192,13912,1,0,0:0:0:0:
384,192,13912,1,0,0:0:0:0:
384,192,13913,1,0,0:0:0:0:
256,192,13913,1,0,0:0:0:0:
384,192,13914,1,0,0:0:0:0:
256,192,13914,1,0,0:0:0:0:
384,192,13915,1,0,0:0:0:0:
256,192,13915,1,0,0:0:0:0:
256,192,13916,1,0,0:0:0:0:
384,192,13916,1,0,0:0:0:0:
384,192,13917,1,0,0:0:0:0:
256,192,13917,1,0,0:0:0:0:
384,192,13918,1,0,0:0:0:0:
256,192,13918,1,0,0:0:0:0:
384,192,13919,1,0,0:0:0:0:
256,192,13919,1,0,0:0:0:0:
384,192,13920,1,0,0:0:0:0:
256,192,13920,1,0,0:0:0:0:
384,192,13921,1,0,0:0:0:0:
256,192,13921,1,0,0:0:0:0:
256,192,13922,1,0,0:0:0:0:
384,192,13922,1,0,0:0:0:0:
384,192,13923,1,0,0:0:0:0:
384,192,13924,1,0,0:0:0:0:
256,192,13925,1,0,0:0:0:0:
384,192,13925,1,0,0:0:0:0:
384,192,13926,1,0,0:0:0:0:
256,192,13926,1,0,0:0:0:0:
384,192,13927,1,0,0:0:0:0:
256,192,13927,1,0,0:0:0:0:
256,192,13928,1,0,0:0:0:0:
384,192,13928,1,0,0:0:0:0:
384,192,13929,1,0,0:0:0:0:
256,192,13929,1,0,0:0:0:0:
384,192,13930,1,0,0:0:0:0:
256,192,13930,1,0,0:0:0:0:
384,192,13931,1,0,0:0:0:0:
256,192,13931,1,0,0:0:0:0:
256,192,13932,1,0,0:0:0:0:
384,192,13932,1,0,0:0:0:0:
256,192,13933,1,0,0:0:0:0:
384,192,13933,1,0,0:0:0:0:
384,192,13934,1,0,0:0:0:0:
256,192,13934,1,0,0:0:0:0:
384,192,13935,1,0,0:0:0:0:
256,192,13935,1,0,0:0:0:0:
256,192,13936,1,0,0:0:0:0:
384,192,13936,1,0,0:0:0:0:
256,192,13937,1,0,0:0:0:0:
384,192,13937,1,0,0:0:0:0:
384,192,13938,1,0,0:0:0:0:
256,192,13938,1,0,0:0:0:0:
256,192,13939,1,0,0:0:0:0:
384,192,13939,1,0,0:0:0:0:
256,192,13940,1,0,0:0:0:0:
384,192,13940,1,0,0:0:0:0:
256,192,13941,1,0,0:0:0:0:
384,192,13941,1,0,0:0:0:0:
256,192,13942,1,0,0:0:0:0:
384,192,13942,1,0,0:0:0:0:
384,192,13943,1,0,0:0:0:0:
256,192,13943,1,0,0:0:0:0:
384,192,13944,1,0,0:0:0:0:
384,192,13945,1,0,0:0:0:0:
256,192,13945,1,0,0:0:0:0:
256,192,13946,1,0,0:0:0:0:
384,192,13947,1,0,0:0:0:0:
256,192,13947,1,0,0:0:0:0:
384,192,13948,1,0,0:0:0:0:
256,192,13948,1,0,0:0:0:0:
384,192,13949,1,0,0:0:0:0:
256,192,13949,1,0,0:0:0:0:
384,192,13950,1,0,0:0:0:0:
256,192,13950,1,0,0:0:0:0:
384,192,13951,1,0,0:0:0:0:
256,192,13951,1,0,0:0:0:0:
256,192,13952,1,0,0:0:0:0:
384,192,13952,1,0,0:0:0:0:
256,192,13953,1,0,0:0:0:0:
384,192,13953,1,0,0:0:0:0:
384,192,13954,1,0,0:0:0:0:
256,192,13954,1,0,0:0:0:0:
384,192,13955,1,0,0:0:0:0:
256,192,13955,1,0,0:0:0:0:
256,192,13956,1,0,0:0:0:0:
384,192,13956,1,0,0:0:0:0:
256,192,13957,1,0,0:0:0:0:
384,192,13957,1,0,0:0:0:0:
256,192,13958,1,0,0:0:0:0:
384,192,13958,1,0,0:0:0:0:
384,192,13959,1,0,0:0:0:0:
256,192,13959,1,0,0:0:0:0:
256,192,13960,1,0,0:0:0:0:
384,192,13961,1,0,0:0:0:0:
256,192,13961,1,0,0:0:0:0:
256,192,13962,1,0,0:0:0:0:
384,192,13962,1,0,0:0:0:0:
384,192,13963,1,0,0:0:0:0:
256,192,13963,1,0,0:0:0:0:
384,192,13964,1,0,0:0:0:0:
256,192,13964,1,0,0:0:0:0:
256,192,13965,1,0,0:0:0:0:
384,192,13965,1,0,0:0:0:0:
256,192,13966,1,0,0:0:0:0:
384,192,13966,1,0,0:0:0:0:
384,192,13967,1,0,0:0:0:0:
256,192,13967,1,0,0:0:0:0:
384,192,13968,1,0,0:0:0:0:
256,192,13968,1,0,0:0:0:0:
384,192,13969,1,0,0:0:0:0:
256,192,13969,1,0,0:0:0:0:
384,192,13970,1,0,0:0:0:0:
256,192,13970,1,0,0:0:0:0:
256,192,13971,1,0,0:0:0:0:
384,192,13971,1,0,0:0:0:0:
256,192,13972,1,0,0:0:0:0:
384,192,13972,1,0,0:0:0:0:
256,192,13973,1,0,0:0:0:0:
384,192,13973,1,0,0:0:0:0:
384,192,13974,1,0,0:0:0:0:
256,192,13974,1,0,0:0:0:0:
256,192,13975,1,0,0:0:0:0:
384,192,13975,1,0,0:0:0:0:
384,192,13976,1,0,0:0:0:0:
256,192,13976,1,0,0:0:0:0:
384,192,13977,1,0,0:0:0:0:
256,192,13977,1,0,0:0:0:0:
384,192,13978,1,0,0:0:0:0:
256,192,13978,1,0,0:0:0:0:
256,192,13979,1,0,0:0:0:0:
384,192,13979,1,0,0:0:0:0:
256,192,13980,1,0,0:0:0:0:
384,192,13980,1,0,0:0:0:0:
256,192,13981,1,0,0:0:0:0:
384,192,13981,1,0,0:0:0:0:
384,192,13982,1,0,0:0:0:0:
256,192,13982,1,0,0:0:0:0:
256,192,13983,1,0,0:0:0:0:
384,192,13983,1,0,0:0:0:0:
256,192,13984,1,0,0:0:0:0:
384,192,13984,1,0,0:0:0:0:
256,192,13985,1,0,0:0:0:0:
384,192,13985,1,0,0:0:0:0:
384,192,13986,1,0,0:0:0:0:
256,192,13986,1,0,0:0:0:0:
256,192,13987,1,0,0:0:0:0:
384,192,13987,1,0,0:0:0:0:
256,192,13988,1,0,0:0:0:0:
384,192,13988,1,0,0:0:0:0:
384,192,13989,1,0,0:0:0:0:
256,192,13989,1,0,0:0:0:0:
256,192,13990,1,0,0:0:0:0:
384,192,13991,1,0,0:0:0:0:
256,192,13991,1,0,0:0:0:0:
384,192,13992,1,0,0:0:0:0:
256,192,13992,1,0,0:0:0:0:
384,192,13993,1,0,0:0:0:0:
256,192,13993,1,0,0:0:0:0:
384,192,13994,1,0,0:0:0:0:
256,192,13994,1,0,0:0:0:0:
256,192,13995,1,0,0:0:0:0:
384,192,13995,1,0,0:0:0:0:
256,192,13996,1,0,0:0:0:0:
384,192,13996,1,0,0:0:0:0:
384,192,13997,1,0,0:0:0:0:
256,192,13997,1,0,0:0:0:0:
256,192,13998,1,0,0:0:0:0:
384,192,13999,1,0,0:0:0:0:
256,192,13999,1,0,0:0:0:0:
256,192,14000,1,0,0:0:0:0:
384,192,14000,1,0,0:0:0:0:
384,192,14001,1,0,0:0:0:0:
256,192,14001,1,0,0:0:0:0:
256,192,14002,1,0,0:0:0:0:
384,192,14002,1,0,0:0:0:0:
384,192,14003,1,0,0:0:0:0:
256,192,14004,1,0,0:0:0:0:
384,192,14004,1,0,0:0:0:0:
384,192,14005,1,0,0:0:0:0:
256,192,14005,1,0,0:0:0:0:
256,192,14006,1,0,0:0:0:0:
384,192,14006,1,0,0:0:0:0:
384,192,14007,1,0,0:0:0:0:
256,192,14007,1,0,0:0:0:0:
384,192,14008,1,0,0:0:0:0:
256,192,14008,1,0,0:0:0:0:
256,192,14009,1,0,0:0:0:0:
384,192,14009,1,0,0:0:0:0:
256,192,14010,1,0,0:0:0:0:
384,192,14010,1,0,0:0:0:0:
384,192,14011,1,0,0:0:0:0:
256,192,14011,1,0,0:0:0:0:
384,192,14012,1,0,0:0:0:0:
256,192,14012,1,0,0:0:0:0:
256,192,14013,1,0,0:0:0:0:
384,192,14014,1,0,0:0:0:0:
256,192,14014,1,0,0:0:0:0:
256,192,14015,1,0,0:0:0:0:
384,192,14015,1,0,0:0:0:0:
384,192,14016,1,0,0:0:0:0:
256,192,14017,1,0,0:0:0:0:
384,192,14017,1,0,0:0:0:0:
384,192,14018,1,0,0:0:0:0:
256,192,14018,1,0,0:0:0:0:
256,192,14019,1,0,0:0:0:0:
384,192,14019,1,0,0:0:0:0:
256,192,14020,1,0,0:0:0:0:
384,192,14020,1,0,0:0:0:0:
384,192,14021,1,0,0:0:0:0:
256,192,14021,1,0,0:0:0:0:
384,192,14022,1,0,0:0:0:0:
256,192,14022,1,0,0:0:0:0:
256,192,14023,1,0,0:0:0:0:
384,192,14023,1,0,0:0:0:0:
256,192,14024,1,0,0:0:0:0:
384,192,14024,1,0,0:0:0:0:
256,192,14025,1,0,0:0:0:0:
384,192,14025,1,0,0:0:0:0:
256,192,14026,1,0,0:0:0:0:
384,192,14026,1,0,0:0:0:0:
384,192,14027,1,0,0:0:0:0:
256,192,14027,1,0,0:0:0:0:
384,192,14028,1,0,0:0:0:0:
256,192,14028,1,0,0:0:0:0:
256,192,14029,1,0,0:0:0:0:
384,192,14029,1,0,0:0:0:0:
256,192,14030,1,0,0:0:0:0:
384,192,14031,1,0,0:0:0:0:
256,192,14031,1,0,0:0:0:0:
384,192,14032,1,0,0:0:0:0:
256,192,14032,1,0,0:0:0:0:
384,192,14033,1,0,0:0:0:0:
256,192,14033,1,0,0:0:0:0:
256,192,14034,1,0,0:0:0:0:
384,192,14034,1,0,0:0:0:0:
384,192,14035,1,0,0:0:0:0:
384,192,14036,1,0,0:0:0:0:
256,192,14036,1,0,0:0:0:0:
384,192,14037,1,0,0:0:0:0:
256,192,14037,1,0,0:0:0:0:
256,192,14038,1,0,0:0:0:0:
384,192,14038,1,0,0:0:0:0:
256,192,14039,1,0,0:0:0:0:
384,192,14039,1,0,0:0:0:0:
384,192,14040,1,0,0:0:0:0:
256,192,14040,1,0,0:0:0:0:
384,192,14041,1,0,0:0:0:0:
256,192,14041,1,0,0:0:0:0:
256,192,14042,1,0,0:0:0:0:
384,192,14042,1,0,0:0:0:0:
384,192,14043,1,0,0:0:0:0:
256,192,14043,1,0,0:0:0:0:
256,192,14044,1,0,0:0:0:0:
384,192,14044,1,0,0:0:0:0:
384,192,14045,1,0,0:0:0:0:
256,192,14045,1,0,0:0:0:0:
384,192,14046,1,0,0:0:0:0:
384,192,14047,1,0,0:0:0:0:
256,192,14048,1,0,0:0:0:0:
384,192,14048,1,0,0:0:0:0:
256,192,14049,1,0,0:0:0:0:
384,192,14049,1,0,0:0:0:0:
384,192,14050,1,0,0:0:0:0:
256,192,14050,1,0,0:0:0:0:
256,192,14051,1,0,0:0:0:0:
384,192,14051,1,0,0:0:0:0:
256,192,14052,1,0,0:0:0:0:
384,192,14052,1,0,0:0:0:0:
384,192,14053,1,0,0:0:0:0:
256,192,14053,1,0,0:0:0:0:
384,192,14054,1,0,0:0:0:0:
256,192,14054,1,0,0:0:0:0:
256,192,14055,1,0,0:0:0:0:
384,192,14055,1,0,0:0:0:0:
256,192,14056,1,0,0:0:0:0:
384,192,14056,1,0,0:0:0:0:
384,192,14057,1,0,0:0:0:0:
256,192,14057,1,0,0:0:0:0:
384,192,14058,1,0,0:0:0:0:
256,192,14058,1,0,0:0:0:0:
256,192,14059,1,0,0:0:0:0:
384,192,14059,1,0,0:0:0:0:
256,192,14060,1,0,0:0:0:0:
384,192,14060,1,0,0:0:0:0:
256,192,14061,1,0,0:0:0:0:
384,192,14061,1,0,0:0:0:0:
384,192,14062,1,0,0:0:0:0:
256,192,14062,1,0,0:0:0:0:
384,192,14063,1,0,0:0:0:0:
256,192,14063,1,0,0:0:0:0:
384,192,14064,1,0,0:0:0:0:
256,192,14064,1,0,0:0:0:0:
384,192,14065,1,0,0:0:0:0:
256,192,14065,1,0,0:0:0:0:
256,192,14066,1,0,0:0:0:0:
384,192,14066,1,0,0:0:0:0:
256,192,14067,1,0,0:0:0:0:
384,192,14067,1,0,0:0:0:0:
256,192,14068,1,0,0:0:0:0:
256,192,14069,1,0,0:0:0:0:
384,192,14069,1,0,0:0:0:0:
384,192,14070,1,0,0:0:0:0:
256,192,14070,1,0,0:0:0:0:
256,192,14071,1,0,0:0:0:0:
384,192,14071,1,0,0:0:0:0:
384,192,14072,1,0,0:0:0:0:
256,192,14072,1,0,0:0:0:0:
256,192,14073,1,0,0:0:0:0:
384,192,14073,1,0,0:0:0:0:
384,192,14074,1,0,0:0:0:0:
256,192,14074,1,0,0:0:0:0:
256,192,14075,1,0,0:0:0:0:
384,192,14075,1,0,0:0:0:0:
384,192,14076,1,0,0:0:0:0:
256,192,14076,1,0,0:0:0:0:
384,192,14077,1,0,0:0:0:0:
256,192,14077,1,0,0:0:0:0:
256,192,14078,1,0,0:0:0:0:
384,192,14078,1,0,0:0:0:0:
384,192,14079,1,0,0:0:0:0:
256,192,14079,1,0,0:0:0:0:
384,192,14080,1,0,0:0:0:0:
256,192,14080,1,0,0:0:0:0:
256,192,14081,1,0,0:0:0:0:
384,192,14081,1,0,0:0:0:0:
384,192,14082,1,0,0:0:0:0:
256,192,14082,1,0,0:0:0:0:
384,192,14083,1,0,0:0:0:0:
384,192,14084,1,0,0:0:0:0:
256,192,14084,1,0,0:0:0:0:
384,192,14085,1,0,0:0:0:0:
256,192,14085,1,0,0:0:0:0:
256,192,14086,1,0,0:0:0:0:
384,192,14086,1,0,0:0:0:0:
256,192,14087,1,0,0:0:0:0:
384,192,14087,1,0,0:0:0:0:
384,192,14088,1,0,0:0:0:0:
256,192,14088,1,0,0:0:0:0:
256,192,14089,1,0,0:0:0:0:
256,192,14090,1,0,0:0:0:0:
384,192,14090,1,0,0:0:0:0:
256,192,14091,1,0,0:0:0:0:
384,192,14091,1,0,0:0:0:0:
256,192,14092,1,0,0:0:0:0:
384,192,14092,1,0,0:0:0:0:
256,192,14093,1,0,0:0:0:0:
384,192,14093,1,0,0:0:0:0:
256,192,14094,1,0,0:0:0:0:
384,192,14094,1,0,0:0:0:0:
256,192,14095,1,0,0:0:0:0:
384,192,14095,1,0,0:0:0:0:
256,192,14096,1,0,0:0:0:0:
384,192,14097,1,0,0:0:0:0:
384,192,14098,1,0,0:0:0:0:
384,192,14099,1,0,0:0:0:0:
256,192,14099,1,0,0:0:0:0:
384,192,14100,1,0,0:0:0:0:
256,192,14101,1,0,0:0:0:0:
384,192,14101,1,0,0:0:0:0:
256,192,14102,1,0,0:0:0:0:
384,192,14102,1,0,0:0:0:0:
384,192,14103,1,0,0:0:0:0:
256,192,14103,1,0,0:0:0:0:
256,192,14104,1,0,0:0:0:0:
384,192,14104,1,0,0:0:0:0:
384,192,14105,1,0,0:0:0:0:
256,192,14105,1,0,0:0:0:0:
256,192,14106,1,0,0:0:0:0:
384,192,14106,1,0,0:0:0:0:
256,192,14107,1,0,0:0:0:0:
384,192,14107,1,0,0:0:0:0:
384,192,14108,1,0,0:0:0:0:
256,192,14108,1,0,0:0:0:0:
384,192,14109,1,0,0:0:0:0:
256,192,14109,1,0,0:0:0:0:
256,192,14110,1,0,0:0:0:0:
384,192,14110,1,0,0:0:0:0:
384,192,14111,1,0,0:0:0:0:
256,192,14112,1,0,0:0:0:0:
384,192,14113,1,0,0:0:0:0:
256,192,14114,1,0,0:0:0:0:
384,192,14114,1,0,0:0:0:0:
384,192,14115,1,0,0:0:0:0:
256,192,14115,1,0,0:0:0:0:
384,192,14116,1,0,0:0:0:0:
256,192,14116,1,0,0:0:0:0:
256,192,14117,1,0,0:0:0:0:
384,192,14117,1,0,0:0:0:0:
384,192,14118,1,0,0:0:0:0:
256,192,14118,1,0,0:0:0:0:
384,192,14119,1,0,0:0:0:0:
256,192,14120,1,0,0:0:0:0:
384,192,14120,1,0,0:0:0:0:
384,192,14121,1,0,0:0:0:0:
256,192,14121,1,0,0:0:0:0:
384,192,14122,1,0,0:0:0:0:
256,192,14122,1,0,0:0:0:0:
384,192,14123,1,0,0:0:0:0:
256,192,14123,1,0,0:0:0:0:
384,192,14124,1,0,0:0:0:0:
256,192,14124,1,0,0:0:0:0:
256,192,14125,1,0,0:0:0:0:
256,192,14126,1,0,0:0:0:0:
384,192,14126,1,0,0:0:0:0:
256,192,14127,1,0,0:0:0:0:
384,192,14127,1,0,0:0:0:0:
384,192,14128,1,0,0:0:0:0:
256,192,14128,1,0,0:0:0:0:
384,192,14129,1,0,0:0:0:0:
256,192,14129,1,0,0:0:0:0:
384,192,14130,1,0,0:0:0:0:
256,192,14131,1,0,0:0:0:0:
384,192,14131,1,0,0:0:0:0:
256,192,14132,1,0,0:0:0:0:
384,192,14132,1,0,0:0:0:0:
384,192,14133,1,0,0:0:0:0:
256,192,14133,1,0,0:0:0:0:
256,192,14134,1,0,0:0:0:0:
384,192,14134,1,0,0:0:0:0:
384,192,14135,1,0,0:0:0:0:
256,192,14135,1,0,0:0:0:0:
256,192,14136,1,0,0:0:0:0:
256,192,14137,1,0,0:0:0:0:
384,192,14137,1,0,0:0:0:0:
384,192,14138,1,0,0:0:0:0:
384,192,14139,1,0,0:0:0:0:
256,192,14139,1,0,0:0:0:0:
256,192,14140,1,0,0:0:0:0:
384,192,14141,1,0,0:0:0:0:
384,192,14142,1,0,0:0:0:0:
256,192,14142,1,0,0:0:0:0:
384,192,14143,1,0,0:0:0:0:
256,192,14143,1,0,0:0:0:0:
256,192,14144,1,0,0:0:0:0:
384,192,14144,1,0,0:0:0:0:
256,192,14145,1,0,0:0:0:0:
384,192,14145,1,0,0:0:0:0:
256,192,14146,1,0,0:0:0:0:
384,192,14146,1,0,0:0:0:0:
384,192,14147,1,0,0:0:0:0:
256,192,14147,1,0,0:0:0:0:
256,192,14148,1,0,0:0:0:0:
384,192,14148,1,0,0:0:0:0:
384,192,14149,1,0,0:0:0:0:
256,192,14150,1,0,0:0:0:0:
384,192,14150,1,0,0:0:0:0:
256,192,14151,1,0,0:0:0:0:
384,192,14151,1,0,0:0:0:0:
256,192,14152,1,0,0:0:0:0:
384,192,14152,1,0,0:0:0:0:
256,192,14153,1,0,0:0:0:0:
384,192,14153,1,0,0:0:0:0:
256,192,14154,1,0,0:0:0:0:
384,192,14154,1,0,0:0:0:0:
256,192,14155,1,0,0:0:0:0:
384,192,14155,1,0,0:0:0:0:
256,192,14156,1,0,0:0:0:0:
384,192,14156,1,0,0:0:0:0:
384,192,14157,1,0,0:0:0:0:
256,192,14157,1,0,0:0:0:0:
384,192,14158,1,0,0:0:0:0:
256,192,14158,1,0,0:0:0:0:
256,192,14159,1,0,0:0:0:0:
384,192,14159,1,0,0:0:0:0:
384,192,14160,1,0,0:0:0:0:
256,192,14161,1,0,0:0:0:0:
384,192,14161,1,0,0:0:0:0:
384,192,14162,1,0,0:0:0:0:
384,192,14163,1,0,0:0:0:0:
256,192,14163,1,0,0:0:0:0:
256,192,14164,1,0,0:0:0:0:
256,192,14165,1,0,0:0:0:0:
384,192,14165,1,0,0:0:0:0:
384,192,14166,1,0,0:0:0:0:
256,192,14166,1,0,0:0:0:0:
384,192,14167,1,0,0:0:0:0:
256,192,14167,1,0,0:0:0:0:
256,192,14168,1,0,0:0:0:0:
384,192,14168,1,0,0:0:0:0:
256,192,14169,1,0,0:0:0:0:
256,192,14170,1,0,0:0:0:0:
384,192,14170,1,0,0:0:0:0:
256,192,14171,1,0,0:0:0:0:
384,192,14171,1,0,0:0:0:0:
384,192,14172,1,0,0:0:0:0:
256,192,14172,1,0,0:0:0:0:
384,192,14173,1,0,0:0:0:0:
256,192,14173,1,0,0:0:0:0:
384,192,14174,1,0,0:0:0:0:
256,192,14174,1,0,0:0:0:0:
384,192,14175,1,0,0:0:0:0:
256,192,14175,1,0,0:0:0:0:
384,192,14176,1,0,0:0:0:0:
384,192,14177,1,0,0:0:0:0:
256,192,14177,1,0,0:0:0:0:
256,192,14178,1,0,0:0:0:0:
384,192,14178,1,0,0:0:0:0:
256,192,14179,1,0,0:0:0:0:
384,192,14179,1,0,0:0:0:0:
256,192,14180,1,0,0:0:0:0:
384,192,14180,1,0,0:0:0:0:
256,192,14181,1,0,0:0:0:0:
384,192,14181,1,0,0:0:0:0:
384,192,14182,1,0,0:0:0:0:
256,192,14183,1,0,0:0:0:0:
256,192,14184,1,0,0:0:0:0:
384,192,14184,1,0,0:0:0:0:
256,192,14185,1,0,0:0:0:0:
256,192,14186,1,0,0:0:0:0:
384,192,14186,1,0,0:0:0:0:
384,192,14187,1,0,0:0:0:0:
256,192,14187,1,0,0:0:0:0:
256,192,14188,1,0,0:0:0:0:
384,192,14188,1,0,0:0:0:0:
384,192,14189,1,0,0:0:0:0:
256,192,14190,1,0,0:0:0:0:
384,192,14190,1,0,0:0:0:0:
256,192,14191,1,0,0:0:0:0:
384,192,14191,1,0,0:0:0:0:
384,192,14192,1,0,0:0:0:0:
384,192,14193,1,0,0:0:0:0:
256,192,14194,1,0,0:0:0:0:
384,192,14194,1,0,0:0:0:0:
384,192,14195,1,0,0:0:0:0:
256,192,14195,1,0,0:0:0:0:
384,192,14196,1,0,0:0:0:0:
384,192,14197,1,0,0:0:0:0:
256,192,14197,1,0,0:0:0:0:
384,192,14198,1,0,0:0:0:0:
256,192,14198,1,0,0:0:0:0:
256,192,14199,1,0,0:0:0:0:
384,192,14200,1,0,0:0:0:0:
256,192,14200,1,0,0:0:0:0:
256,192,14201,1,0,0:0:0:0:
256,192,14202,1,0,0:0:0:0:
384,192,14203,1,0,0:0:0:0:
256,192,14203,1,0,0:0:0:0:
384,192,14204,1,0,0:0:0:0:
384,192,14205,1,0,0:0:0:0:
256,192,14205,1,0,0:0:0:0:
384,192,14206,1,0,0:0:0:0:
384,192,14207,1,0,0:0:0:0:
256,192,14207,1,0,0:0:0:0:
384,192,14208,1,0,0:0:0:0:
256,192,14208,1,0,0:0:0:0:
256,192,14209,1,0,0:0:0:0:
384,192,14209,1,0,0:0:0:0:
384,192,14210,1,0,0:0:0:0:
256,192,14211,1,0,0:0:0:0:
384,192,14211,1,0,0:0:0:0:
256,192,14212,1,0,0:0:0:0:
384,192,14212,1,0,0:0:0:0:
384,192,14213,1,0,0:0:0:0:
256,192,14214,1,0,0:0:0:0:
384,192,14214,1,0,0:0:0:0:
256,192,14215,1,0,0:0:0:0:
384,192,14215,1,0,0:0:0:0:
256,192,14216,1,0,0:0:0:0:
384,192,14216,1,0,0:0:0:0:
256,192,14217,1,0,0:0:0:0:
384,192,14217,1,0,0:0:0:0:
256,192,14218,1,0,0:0:0:0:
256,192,14219,1,0,0:0:0:0:
384,192,14219,1,0,0:0:0:0:
384,192,14220,1,0,0:0:0:0:
384,192,14221,1,0,0:0:0:0:
256,192,14221,1,0,0:0:0:0:
256,192,14222,1,0,0:0:0:0:
384,192,14222,1,0,0:0:0:0:
256,192,14223,1,0,0:0:0:0:
384,192,14223,1,0,0:0:0:0:
256,192,14224,1,0,0:0:0:0:
384,192,14224,1,0,0:0:0:0:
384,192,14225,1,0,0:0:0:0:
384,192,14226,1,0,0:0:0:0:
384,192,14227,1,0,0:0:0:0:
256,192,14227,1,0,0:0:0:0:
384,192,14228,1,0,0:0:0:0:
384,192,14229,1,0,0:0:0:0:
256,192,14229,1,0,0:0:0:0:
384,192,14230,1,0,0:0:0:0:
256,192,14230,1,0,0:0:0:0:
256,192,14231,1,0,0:0:0:0:
384,192,14231,1,0,0:0:0:0:
256,192,14232,1,0,0:0:0:0:
384,192,14232,1,0,0:0:0:0:
384,192,14233,1,0,0:0:0:0:
256,192,14234,1,0,0:0:0:0:
384,192,14234,1,0,0:0:0:0:
384,192,14235,1,0,0:0:0:0:
384,192,14236,1,0,0:0:0:0:
384,192,14237,1,0,0:0:0:0:
256,192,14237,1,0,0:0:0:0:
256,192,14238,1,0,0:0:0:0:
256,192,14239,1,0,0:0:0:0:
384,192,14240,1,0,0:0:0:0:
256,192,14241,1,0,0:0:0:0:
384,192,14241,1,0,0:0:0:0:
384,192,14242,1,0,0:0:0:0:
256,192,14242,1,0,0:0:0:0:
384,192,14243,1,0,0:0:0:0:
256,192,14243,1,0,0:0:0:0:
256,192,14244,1,0,0:0:0:0:
384,192,14244,1,0,0:0:0:0:
384,192,14245,1,0,0:0:0:0:
256,192,14245,1,0,0:0:0:0:
384,192,14246,1,0,0:0:0:0:
384,192,14247,1,0,0:0:0:0:
256,192,14247,1,0,0:0:0:0:
384,192,14249,1,0,0:0:0:0:
256,192,14249,1,0,0:0:0:0:
256,192,14251,1,0,0:0:0:0:
384,192,14251,1,0,0:0:0:0:
256,192,14252,1,0,0:0:0:0:
384,192,14252,1,0,0:0:0:0:
256,192,14253,1,0,0:0:0:0:
384,192,14253,1,0,0:0:0:0:
384,192,14254,1,0,0:0:0:0:
256,192,14254,1,0,0:0:0:0:
256,192,14255,1,0,0:0:0:0:
384,192,14255,1,0,0:0:0:0:
384,192,14256,1,0,0:0:0:0:
384,192,14257,1,0,0:0:0:0:
256,192,14258,1,0,0:0:0:0:
384,192,14258,1,0,0:0:0:0:
256,192,14259,1,0,0:0:0:0:
384,192,14259,1,0,0:0:0:0:
256,192,14260,1,0,0:0:0:0:
384,192,14260,1,0,0:0:0:0:
384,192,14261,1,0,0:0:0:0:
256,192,14261,1,0,0:0:0:0:
256,192,14262,1,0,0:0:0:0:
256,192,14263,1,0,0:0:0:0:
384,192,14263,1,0,0:0:0:0:
384,192,14264,1,0,0:0:0:0:
384,192,14265,1,0,0:0:0:0:
256,192,14265,1,0,0:0:0:0:
256,192,14266,1,0,0:0:0:0:
384,192,14266,1,0,0:0:0:0:
256,192,14267,1,0,0:0:0:0:
384,192,14267,1,0,0:0:0:0:
384,192,14268,1,0,0:0:0:0:
256,192,14268,1,0,0:0:0:0:
384,192,14269,1,0,0:0:0:0:
256,192,14269,1,0,0:0:0:0:
256,192,14270,1,0,0:0:0:0:
384,192,14270,1,0,0:0:0:0:
256,192,14271,1,0,0:0:0:0:
384,192,14271,1,0,0:0:0:0:
384,192,14272,1,0,0:0:0:0:
256,192,14273,1,0,0:0:0:0:
384,192,14273,1,0,0:0:0:0:
384,192,14274,1,0,0:0:0:0:
256,192,14274,1,0,0:0:0:0:
384,192,14275,1,0,0:0:0:0:
256,192,14275,1,0,0:0:0:0:
384,192,14276,1,0,0:0:0:0:
256,192,14277,1,0,0:0:0:0:
384,192,14277,1,0,0:0:0:0:
256,192,14278,1,0,0:0:0:0:
384,192,14278,1,0,0:0:0:0:
256,192,14280,1,0,0:0:0:0:
256,192,14281,1,0,0:0:0:0:
384,192,14282,1,0,0:0:0:0:
256,192,14282,1,0,0:0:0:0:
256,192,14283,1,0,0:0:0:0:
256,192,14285,1,0,0:0:0:0:
384,192,14285,1,0,0:0:0:0:
384,192,14286,1,0,0:0:0:0:
384,192,14287,1,0,0:0:0:0:
384,192,14288,1,0,0:0:0:0:
256,192,14289,1,0,0:0:0:0:
384,192,14289,1,0,0:0:0:0:
384,192,14290,1,0,0:0:0:0:
256,192,14290,1,0,0:0:0:0:
384,192,14291,1,0,0:0:0:0:
256,192,14291,1,0,0:0:0:0:
384,192,14293,1,0,0:0:0:0:
256,192,14293,1,0,0:0:0:0:
256,192,14294,1,0,0:0:0:0:
256,192,14295,1,0,0:0:0:0:
384,192,14295,1,0,0:0:0:0:
256,192,14296,1,0,0:0:0:0:
384,192,14297,1,0,0:0:0:0:
256,192,14297,1,0,0:0:0:0:
384,192,14298,1,0,0:0:0:0:
256,192,14298,1,0,0:0:0:0:
384,192,14299,1,0,0:0:0:0:
384,192,14301,1,0,0:0:0:0:
256,192,14302,1,0,0:0:0:0:
256,192,14303,1,0,0:0:0:0:
384,192,14303,1,0,0:0:0:0:
256,192,14304,1,0,0:0:0:0:
384,192,14305,1,0,0:0:0:0:
256,192,14306,1,0,0:0:0:0:
384,192,14306,1,0,0:0:0:0:
384,192,14307,1,0,0:0:0:0:
384,192,14308,1,0,0:0:0:0:
384,192,14309,1,0,0:0:0:0:
256,192,14309,1,0,0:0:0:0:
256,192,14310,1,0,0:0:0:0:
384,192,14310,1,0,0:0:0:0:
384,192,14311,1,0,0:0:0:0:
256,192,14311,1,0,0:0:0:0:
384,192,14312,1,0,0:0:0:0:
256,192,14313,1,0,0:0:0:0:
384,192,14313,1,0,0:0:0:0:
384,192,14314,1,0,0:0:0:0:
256,192,14314,1,0,0:0:0:0:
256,192,14315,1,0,0:0:0:0:
384,192,14316,1,0,0:0:0:0:
256,192,14317,1,0,0:0:0:0:
384,192,14317,1,0,0:0:0:0:
256,192,14318,1,0,0:0:0:0:
384,192,14318,1,0,0:0:0:0:
384,192,14319,1,0,0:0:0:0:
256,192,14319,1,0,0:0:0:0:
384,192,14321,1,0,0:0:0:0:
256,192,14321,1,0,0:0:0:0:
384,192,14322,1,0,0:0:0:0:
384,192,14323,1,0,0:0:0:0:
384,192,14324,1,0,0:0:0:0:
256,192,14324,1,0,0:0:0:0:
256,192,14325,1,0,0:0:0:0:
384,192,14325,1,0,0:0:0:0:
256,192,14326,1,0,0:0:0:0:
384,192,14326,1,0,0:0:0:0:
384,192,14327,1,0,0:0:0:0:
256,192,14328,1,0,0:0:0:0:
384,192,14328,1,0,0:0:0:0:
384,192,14329,1,0,0:0:0:0:
256,192,14329,1,0,0:0:0:0:
384,192,14331,1,0,0:0:0:0:
256,192,14332,1,0,0:0:0:0:
256,192,14333,1,0,0:0:0:0:
384,192,14333,1,0,0:0:0:0:
256,192,14334,1,0,0:0:0:0:
384,192,14334,1,0,0:0:0:0:
384,192,14335,1,0,0:0:0:0:
384,192,14336,1,0,0:0:0:0:
256,192,14336,1,0,0:0:0:0:
384,192,14337,1,0,0:0:0:0:
256,192,14338,1,0,0:0:0:0:
256,192,14339,1,0,0:0:0:0:
384,192,14339,1,0,0:0:0:0:
256,192,14340,1,0,0:0:0:0:
384,192,14341,1,0,0:0:0:0:
256,192,14341,1,0,0:0:0:0:
256,192,14342,1,0,0:0:0:0:
384,192,14342,1,0,0:0:0:0:
256,192,14343,1,0,0:0:0:0:
384,192,14343,1,0,0:0:0:0:
384,192,14345,1,0,0:0:0:0:
256,192,14346,1,0,0:0:0:0:
256,192,14347,1,0,0:0:0:0:
256,192,14348,1,0,0:0:0:0:
384,192,14349,1,0,0:0:0:0:
256,192,14350,1,0,0:0:0:0:
384,192,14350,1,0,0:0:0:0:
384,192,14351,1,0,0:0:0:0:
384,192,14352,1,0,0:0:0:0:
256,192,14353,1,0,0:0:0:0:
384,192,14353,1,0,0:0:0:0:
384,192,14354,1,0,0:0:0:0:
384,192,14355,1,0,0:0:0:0:
256,192,14355,1,0,0:0:0:0:
384,192,14356,1,0,0:0:0:0:
256,192,14357,1,0,0:0:0:0:
384,192,14358,1,0,0:0:0:0:
384,192,14359,1,0,0:0:0:0:
256,192,14360,1,0,0:0:0:0:
384,192,14360,1,0,0:0:0:0:
256,192,14361,1,0,0:0:0:0:
256,192,14362,1,0,0:0:0:0:
384,192,14363,1,0,0:0:0:0:
256,192,14363,1,0,0:0:0:0:
384,192,14364,1,0,0:0:0:0:
256,192,14365,1,0,0:0:0:0:
384,192,14365,1,0,0:0:0:0:
384,192,14366,1,0,0:0:0:0:
256,192,14366,1,0,0:0:0:0:
384,192,14367,1,0,0:0:0:0:
256,192,14368,1,0,0:0:0:0:
256,192,14369,1,0,0:0:0:0:
384,192,14369,1,0,0:0:0:0:
256,192,14370,1,0,0:0:0:0:
384,192,14371,1,0,0:0:0:0:
256,192,14372,1,0,0:0:0:0:
384,192,14372,1,0,0:0:0:0:
384,192,14373,1,0,0:0:0:0:
256,192,14375,1,0,0:0:0:0:
384,192,14375,1,0,0:0:0:0:
256,192,14376,1,0,0:0:0:0:
384,192,14377,1,0,0:0:0:0:
256,192,14377,1,0,0:0:0:0:
384,192,14378,1,0,0:0:0:0:
384,192,14379,1,0,0:0:0:0:
256,192,14380,1,0,0:0:0:0:
384,192,14380,1,0,0:0:0:0:
384,192,14381,1,0,0:0:0:0:
384,192,14383,1,0,0:0:0:0:
384,192,14385,1,0,0:0:0:0:
256,192,14386,1,0,0:0:0:0:
256,192,14387,1,0,0:0:0:0:
384,192,14387,1,0,0:0:0:0:
384,192,14389,1,0,0:0:0:0:
256,192,14389,1,0,0:0:0:0:
384,192,14390,1,0,0:0:0:0:
256,192,14390,1,0,0:0:0:0:
256,192,14391,1,0,0:0:0:0:
256,192,14392,1,0,0:0:0:0:
256,192,14393,1,0,0:0:0:0:
384,192,14394,1,0,0:0:0:0:
384,192,14395,1,0,0:0:0:0:
384,192,14396,1,0,0:0:0:0:
256,192,14397,1,0,0:0:0:0:
384,192,14398,1,0,0:0:0:0:
256,192,14398,1,0,0:0:0:0:
384,192,14399,1,0,0:0:0:0:
256,192,14401,1,0,0:0:0:0:
384,192,14401,1,0,0:0:0:0:
384,192,14402,1,0,0:0:0:0:
384,192,14403,1,0,0:0:0:0:
256,192,14404,1,0,0:0:0:0:
256,192,14405,1,0,0:0:0:0:
256,192,14406,1,0,0:0:0:0:
256,192,14407,1,0,0:0:0:0:
384,192,14407,1,0,0:0:0:0:
256,192,14408,1,0,0:0:0:0:
384,192,14408,1,0,0:0:0:0:
384,192,14409,1,0,0:0:0:0:
256,192,14409,1,0,0:0:0:0:
256,192,14410,1,0,0:0:0:0:
384,192,14411,1,0,0:0:0:0:
256,192,14413,1,0,0:0:0:0:
384,192,14413,1,0,0:0:0:0:
384,192,14415,1,0,0:0:0:0:
256,192,14416,1,0,0:0:0:0:
384,192,14416,1,0,0:0:0:0:
384,192,14417,1,0,0:0:0:0:
384,192,14418,1,0,0:0:0:0:
384,192,14419,1,0,0:0:0:0:
256,192,14419,1,0,0:0:0:0:
256,192,14423,1,0,0:0:0:0:
256,192,14427,1,0,0:0:0:0:
256,192,14428,1,0,0:0:0:0:
384,192,14429,1,0,0:0:0:0:
384,192,14430,1,0,0:0:0:0:
384,192,14431,1,0,0:0:0:0:
256,192,14431,1,0,0:0:0:0:
384,192,14432,1,0,0:0:0:0:
256,192,14433,1,0,0:0:0:0:
384,192,14433,1,0,0:0:0:0:
256,192,14434,1,0,0:0:0:0:
384,192,14434,1,0,0:0:0:0:
384,192,14435,1,0,0:0:0:0:
256,192,14435,1,0,0:0:0:0:
384,192,14436,1,0,0:0:0:0:
256,192,14436,1,0,0:0:0:0:
256,192,14437,1,0,0:0:0:0:
384,192,14437,1,0,0:0:0:0:
256,192,14438,1,0,0:0:0:0:
384,192,14439,1,0,0:0:0:0:
384,192,14441,1,0,0:0:0:0:
256,192,14441,1,0,0:0:0:0:
384,192,14442,1,0,0:0:0:0:
256,192,14442,1,0,0:0:0:0:
256,192,14443,1,0,0:0:0:0:
384,192,14443,1,0,0:0:0:0:
384,192,14445,1,0,0:0:0:0:
384,192,14446,1,0,0:0:0:0:
384,192,14447,1,0,0:0:0:0:
384,192,14451,1,0,0:0:0:0:
256,192,14452,1,0,0:0:0:0:
256,192,14455,1,0,0:0:0:0:
256,192,14457,1,0,0:0:0:0:
256,192,14458,1,0,0:0:0:0:
384,192,14459,1,0,0:0:0:0:
256,192,14460,1,0,0:0:0:0:
384,192,14460,1,0,0:0:0:0:
384,192,14461,1,0,0:0:0:0:
256,192,14461,1,0,0:0:0:0:
384,192,14462,1,0,0:0:0:0:
384,192,14463,1,0,0:0:0:0:
256,192,14463,1,0,0:0:0:0:
384,192,14467,1,0,0:0:0:0:
256,192,14467,1,0,0:0:0:0:
384,192,14469,1,0,0:0:0:0:
256,192,14470,1,0,0:0:0:0:
256,192,14471,1,0,0:0:0:0:
256,192,14472,1,0,0:0:0:0:
384,192,14473,1,0,0:0:0:0:
384,192,14475,1,0,0:0:0:0:
256,192,14475,1,0,0:0:0:0:
384,192,14477,1,0,0:0:0:0:
384,192,14478,1,0,0:0:0:0:
384,192,14479,1,0,0:0:0:0:
384,192,14480,1,0,0:0:0:0:
384,192,14481,1,0,0:0:0:0:
256,192,14482,1,0,0:0:0:0:
256,192,14485,1,0,0:0:0:0:
384,192,14486,1,0,0:0:0:0:
256,192,14486,1,0,0:0:0:0:
256,192,14487,1,0,0:0:0:0:
256,192,14493,1,0,0:0:0:0:
384,192,14495,1,0,0:0:0:0:
384,192,14496,1,0,0:0:0:0:
384,192,14497,1,0,0:0:0:0:
384,192,14498,1,0,0:0:0:0:
384,192,14499,1,0,0:0:0:0:
256,192,14499,1,0,0:0:0:0:
256,192,14501,1,0,0:0:0:0:
256,192,14502,1,0,0:0:0:0:
256,192,14503,1,0,0:0:0:0:
256,192,14504,1,0,0:0:0:0:
256,192,14505,1,0,0:0:0:0:
384,192,14505,1,0,0:0:0:0:
384,192,14507,1,0,0:0:0:0:
256,192,14508,1,0,0:0:0:0:
384,192,14509,1,0,0:0:0:0:
384,192,14511,1,0,0:0:0:0:
384,192,14512,1,0,0:0:0:0:
384,192,14513,1,0,0:0:0:0:
256,192,14514,1,0,0:0:0:0:
384,192,14515,1,0,0:0:0:0:
256,192,14518,1,0,0:0:0:0:
256,192,14523,1,0,0:0:0:0:
384,192,14524,1,0,0:0:0:0:
256,192,14525,1,0,0:0:0:0:
384,192,14526,1,0,0:0:0:0:
384,192,14527,1,0,0:0:0:0:
384,192,14528,1,0,0:0:0:0:
256,192,14529,1,0,0:0:0:0:
256,192,14531,1,0,0:0:0:0:
384,192,14532,1,0,0:0:0:0:
256,192,14533,1,0,0:0:0:0:
384,192,14534,1,0,0:0:0:0:
256,192,14536,1,0,0:0:0:0:
256,192,14537,1,0,0:0:0:0:
256,192,14538,1,0,0:0:0:0:
384,192,14539,1,0,0:0:0:0:
384,192,14540,1,0,0:0:0:0:
384,192,14543,1,0,0:0:0:0:
384,192,14549,1,0,0:0:0:0:
256,192,14552,1,0,0:0:0:0:
384,192,14553,1,0,0:0:0:0:
256,192,14554,1,0,0:0:0:0:
256,192,14556,1,0,0:0:0:0:
384,192,14556,1,0,0:0:0:0:
384,192,14557,1,0,0:0:0:0:
384,192,14559,1,0,0:0:0:0:
256,192,14562,1,0,0:0:0:0:
256,192,14564,1,0,0:0:0:0:
256,192,14569,1,0,0:0:0:0:
384,192,14576,1,0,0:0:0:0:
384,192,14578,1,0,0:0:0:0:
256,192,14580,1,0,0:0:0:0:
256,192,14581,1,0,0:0:0:0:
256,192,14582,1,0,0:0:0:0:
384,192,14584,1,0,0:0:0:0:
384,192,14585,1,0,0:0:0:0:
384,192,14595,1,0,0:0:0:0:
256,192,14598,1,0,0:0:0:0:
256,192,14600,1,0,0:0:0:0:
384,192,14601,1,0,0:0:0:0:
256,192,14602,1,0,0:0:0:0:
384,192,14605,1,0,0:0:0:0:
384,192,14607,1,0,0:0:0:0:
256,192,14608,1,0,0:0:0:0:
256,192,14613,1,0,0:0:0:0:
384,192,14622,1,0,0:0:0:0:
384,192,14629,1,0,0:0:0:0:
384,192,14630,1,0,0:0:0:0:
256,192,14631,1,0,0:0:0:0:
256,192,14633,1,0,0:0:0:0:
256,192,14646,1,0,0:0:0:0:
384,192,14649,1,0,0:0:0:0:
384,192,14651,1,0,0:0:0:0:
256,192,14657,1,0,0:0:0:0:
256,192,14659,1,0,0:0:0:0:
384,192,14668,1,0,0:0:0:0:
384,192,14674,1,0,0:0:0:0:
256,192,14675,1,0,0:0:0:0:
256,192,14677,1,0,0:0:0:0:
384,192,14683,1,0,0:0:0:0:
256,192,14697,1,0,0:0:0:0:
384,192,14697,1,0,0:0:0:0:
384,192,14702,1,0,0:0:0:0:
256,192,14703,1,0,0:0:0:0:
384,192,14703,1,0,0:0:0:0:
256,192,14707,1,0,0:0:0:0:
384,192,14712,1,0,0:0:0:0:
256,192,14726,1,0,0:0:0:0:
384,192,14727,1,0,0:0:0:0:
256,192,14727,1,0,0:0:0:0:
256,192,14741,1,0,0:0:0:0:
384,192,14741,1,0,0:0:0:0:
384,192,14746,1,0,0:0:0:0:
384,192,14747,1,0,0:0:0:0:
256,192,14751,1,0,0:0:0:0:
256,192,14754,1,0,0:0:0:0:
384,192,14765,1,0,0:0:0:0:
256,192,14770,1,0,0:0:0:0:
384,192,14771,1,0,0:0:0:0:
256,192,14771,1,0,0:0:0:0:
384,192,14773,1,0,0:0:0:0:
256,192,14792,1,0,0:0:0:0:
384,192,14793,1,0,0:0:0:0:
384,192,14794,1,0,0:0:0:0:
256,192,14798,1,0,0:0:0:0:
384,192,14800,1,0,0:0:0:0:
256,192,14802,1,0,0:0:0:0:
384,192,14809,1,0,0:0:0:0:
384,192,14817,1,0,0:0:0:0:
256,192,14821,1,0,0:0:0:0:
256,192,14822,1,0,0:0:0:0:
384,192,14825,1,0,0:0:0:0:
256,192,14836,1,0,0:0:0:0:
384,192,14837,1,0,0:0:0:0:
384,192,14838,1,0,0:0:0:0:
384,192,14844,1,0,0:0:0:0:
256,192,14846,1,0,0:0:0:0:
256,192,14849,1,0,0:0:0:0:
384,192,14863,1,0,0:0:0:0:
256,192,14865,1,0,0:0:0:0:
256,192,14866,1,0,0:0:0:0:
384,192,14869,1,0,0:0:0:0:
384,192,14870,1,0,0:0:0:0:
256,192,14887,1,0,0:0:0:0:
384,192,14890,1,0,0:0:0:0:
384,192,14892,1,0,0:0:0:0:
256,192,14893,1,0,0:0:0:0:
256,192,14897,1,0,0:0:0:0:
384,192,14907,1,0,0:0:0:0:
384,192,14914,1,0,0:0:0:0:
256,192,14916,1,0,0:0:0:0:
256,192,14917,1,0,0:0:0:0:
384,192,14922,1,0,0:0:0:0:
256,192,14931,1,0,0:0:0:0:
384,192,14934,1,0,0:0:0:0:
384,192,14936,1,0,0:0:0:0:
256,192,14941,1,0,0:0:0:0:
256,192,14943,1,0,0:0:0:0:
384,192,14960,1,0,0:0:0:0:
256,192,14960,1,0,0:0:0:0:
256,192,14961,1,0,0:0:0:0:
384,192,14966,1,0,0:0:0:0:
384,192,14968,1,0,0:0:0:0:
256,192,14981,1,0,0:0:0:0:
384,192,14987,1,0,0:0:0:0:
256,192,14987,1,0,0:0:0:0:
384,192,14988,1,0,0:0:0:0:
384,192,14989,1,0,0:0:0:0:
256,192,14992,1,0,0:0:0:0:
384,192,15004,1,0,0:0:0:0:
256,192,15010,1,0,0:0:0:0:
384,192,15012,1,0,0:0:0:0:
256,192,15012,1,0,0:0:0:0:
256,192,15025,1,0,0:0:0:0:
384,192,15031,1,0,0:0:0:0:
384,192,15032,1,0,0:0:0:0:
384,192,15033,1,0,0:0:0:0:
256,192,15036,1,0,0:0:0:0:
256,192,15038,1,0,0:0:0:0:
384,192,15050,1,0,0:0:0:0:
256,192,15054,1,0,0:0:0:0:
384,192,15056,1,0,0:0:0:0:
256,192,15056,1,0,0:0:0:0:
384,192,15065,1,0,0:0:0:0:
256,192,15076,1,0,0:0:0:0:
384,192,15079,1,0,0:0:0:0:
256,192,15082,1,0,0:0:0:0:
384,192,15085,1,0,0:0:0:0:
256,192,15086,1,0,0:0:0:0:
384,192,15094,1,0,0:0:0:0:
256,192,15105,1,0,0:0:0:0:
256,192,15106,1,0,0:0:0:0:
384,192,15109,1,0,0:0:0:0:
384,192,15110,1,0,0:0:0:0:
256,192,15120,1,0,0:0:0:0:
384,192,15123,1,0,0:0:0:0:
384,192,15129,1,0,0:0:0:0:
256,192,15130,1,0,0:0:0:0:
256,192,15133,1,0,0:0:0:0:
384,192,15148,1,0,0:0:0:0:
256,192,15149,1,0,0:0:0:0:
256,192,15150,1,0,0:0:0:0:
384,192,15154,1,0,0:0:0:0:
384,192,15155,1,0,0:0:0:0:
256,192,15171,1,0,0:0:0:0:
384,192,15175,1,0,0:0:0:0:
256,192,15177,1,0,0:0:0:0:
384,192,15177,1,0,0:0:0:0:
256,192,15181,1,0,0:0:0:0:
384,192,15192,1,0,0:0:0:0:
384,192,15199,1,0,0:0:0:0:
384,192,15200,1,0,0:0:0:0:
256,192,15200,1,0,0:0:0:0:
256,192,15201,1,0,0:0:0:0:
256,192,15215,1,0,0:0:0:0:
384,192,15219,1,0,0:0:0:0:
384,192,15221,1,0,0:0:0:0:
256,192,15225,1,0,0:0:0:0:
256,192,15228,1,0,0:0:0:0:
384,192,15238,1,0,0:0:0:0:
384,192,15244,1,0,0:0:0:0:
256,192,15244,1,0,0:0:0:0:
256,192,15245,1,0,0:0:0:0:
384,192,15253,1,0,0:0:0:0:
256,192,15266,1,0,0:0:0:0:
384,192,15267,1,0,0:0:0:0:
384,192,15272,1,0,0:0:0:0:
256,192,15272,1,0,0:0:0:0:
384,192,15273,1,0,0:0:0:0:
256,192,15276,1,0,0:0:0:0:
384,192,15282,1,0,0:0:0:0:
256,192,15295,1,0,0:0:0:0:
256,192,15296,1,0,0:0:0:0:
384,192,15297,1,0,0:0:0:0:
256,192,15310,1,0,0:0:0:0:
384,192,15311,1,0,0:0:0:0:
384,192,15316,1,0,0:0:0:0:
384,192,15317,1,0,0:0:0:0:
256,192,15320,1,0,0:0:0:0:
256,192,15322,1,0,0:0:0:0:
384,192,15335,1,0,0:0:0:0:
256,192,15339,1,0,0:0:0:0:
256,192,15340,1,0,0:0:0:0:
384,192,15341,1,0,0:0:0:0:
384,192,15343,1,0,0:0:0:0:
256,192,15360,1,0,0:0:0:0:
384,192,15363,1,0,0:0:0:0:
384,192,15364,1,0,0:0:0:0:
256,192,15366,1,0,0:0:0:0:
384,192,15370,1,0,0:0:0:0:
256,192,15371,1,0,0:0:0:0:
384,192,15379,1,0,0:0:0:0:
384,192,15387,1,0,0:0:0:0:
256,192,15389,1,0,0:0:0:0:
256,192,15391,1,0,0:0:0:0:
384,192,15395,1,0,0:0:0:0:
256,192,15404,1,0,0:0:0:0:
384,192,15407,1,0,0:0:0:0:
384,192,15408,1,0,0:0:0:0:
384,192,15414,1,0,0:0:0:0:
256,192,15415,1,0,0:0:0:0:
256,192,15417,1,0,0:0:0:0:
384,192,15433,1,0,0:0:0:0:
256,192,15433,1,0,0:0:0:0:
256,192,15435,1,0,0:0:0:0:
384,192,15439,1,0,0:0:0:0:
384,192,15440,1,0,0:0:0:0:
256,192,15455,1,0,0:0:0:0:
384,192,15460,1,0,0:0:0:0:
256,192,15461,1,0,0:0:0:0:
384,192,15462,1,0,0:0:0:0:
256,192,15465,1,0,0:0:0:0:
384,192,15477,1,0,0:0:0:0:
256,192,15484,1,0,0:0:0:0:
384,192,15484,1,0,0:0:0:0:
384,192,15485,1,0,0:0:0:0:
256,192,15485,1,0,0:0:0:0:
256,192,15499,1,0,0:0:0:0:
384,192,15504,1,0,0:0:0:0:
384,192,15506,1,0,0:0:0:0:
256,192,15509,1,0,0:0:0:0:
256,192,15512,1,0,0:0:0:0:
384,192,15523,1,0,0:0:0:0:
256,192,15528,1,0,0:0:0:0:
384,192,15529,1,0,0:0:0:0:
256,192,15529,1,0,0:0:0:0:
384,192,15538,1,0,0:0:0:0:
256,192,15550,1,0,0:0:0:0:
384,192,15552,1,0,0:0:0:0:
256,192,15556,1,0,0:0:0:0:
384,192,15557,1,0,0:0:0:0:
384,192,15558,1,0,0:0:0:0:
256,192,15560,1,0,0:0:0:0:
384,192,15567,1,0,0:0:0:0:
256,192,15579,1,0,0:0:0:0:
256,192,15580,1,0,0:0:0:0:
384,192,15582,1,0,0:0:0:0:
256,192,15594,1,0,0:0:0:0:
384,192,15596,1,0,0:0:0:0:
384,192,15601,1,0,0:0:0:0:
384,192,15602,1,0,0:0:0:0:
256,192,15604,1,0,0:0:0:0:
256,192,15607,1,0,0:0:0:0:
384,192,15620,1,0,0:0:0:0:
256,192,15623,1,0,0:0:0:0:
256,192,15624,1,0,0:0:0:0:
384,192,15626,1,0,0:0:0:0:
384,192,15628,1,0,0:0:0:0:
256,192,15645,1,0,0:0:0:0:
384,192,15647,1,0,0:0:0:0:
384,192,15648,1,0,0:0:0:0:
384,192,15649,1,0,0:0:0:0:
256,192,15651,1,0,0:0:0:0:
256,192,15655,1,0,0:0:0:0:
384,192,15664,1,0,0:0:0:0:
384,192,15672,1,0,0:0:0:0:
256,192,15674,1,0,0:0:0:0:
256,192,15675,1,0,0:0:0:0:
384,192,15680,1,0,0:0:0:0:
256,192,15689,1,0,0:0:0:0:
384,192,15691,1,0,0:0:0:0:
384,192,15692,1,0,0:0:0:0:
384,192,15693,1,0,0:0:0:0:
256,192,15699,1,0,0:0:0:0:
256,192,15701,1,0,0:0:0:0:
384,192,15718,1,0,0:0:0:0:
256,192,15718,1,0,0:0:0:0:
256,192,15719,1,0,0:0:0:0:
384,192,15724,1,0,0:0:0:0:
384,192,15725,1,0,0:0:0:0:
256,192,15739,1,0,0:0:0:0:
256,192,15745,1,0,0:0:0:0:
384,192,15745,1,0,0:0:0:0:
384,192,15747,1,0,0:0:0:0:
256,192,15750,1,0,0:0:0:0:
384,192,15762,1,0,0:0:0:0:
256,192,15768,1,0,0:0:0:0:
256,192,15769,1,0,0:0:0:0:
384,192,15769,1,0,0:0:0:0:
384,192,15770,1,0,0:0:0:0:
256,192,15770,1,0,0:0:0:0:
256,192,15783,1,0,0:0:0:0:
384,192,15789,1,0,0:0:0:0:
384,192,15791,1,0,0:0:0:0:
256,192,15794,1,0,0:0:0:0:
256,192,15796,1,0,0:0:0:0:
384,192,15808,1,0,0:0:0:0:
256,192,15812,1,0,0:0:0:0:
256,192,15813,1,0,0:0:0:0:
384,192,15814,1,0,0:0:0:0:
256,192,15814,1,0,0:0:0:0:
384,192,15823,1,0,0:0:0:0:
256,192,15834,1,0,0:0:0:0:
384,192,15835,1,0,0:0:0:0:
384,192,15837,1,0,0:0:0:0:
256,192,15840,1,0,0:0:0:0:
384,192,15843,1,0,0:0:0:0:
256,192,15844,1,0,0:0:0:0:
384,192,15852,1,0,0:0:0:0:
256,192,15863,1,0,0:0:0:0:
256,192,15864,1,0,0:0:0:0:
384,192,15867,1,0,0:0:0:0:
256,192,15878,1,0,0:0:0:0:
384,192,15879,1,0,0:0:0:0:
384,192,15881,1,0,0:0:0:0:
384,192,15887,1,0,0:0:0:0:
256,192,15888,1,0,0:0:0:0:
256,192,15891,1,0,0:0:0:0:
384,192,15905,1,0,0:0:0:0:
256,192,15907,1,0,0:0:0:0:
256,192,15908,1,0,0:0:0:0:
384,192,15911,1,0,0:0:0:0:
384,192,15913,1,0,0:0:0:0:
256,192,15929,1,0,0:0:0:0:
384,192,15932,1,0,0:0:0:0:
384,192,15933,1,0,0:0:0:0:
384,192,15934,1,0,0:0:0:0:
256,192,15935,1,0,0:0:0:0:
256,192,15939,1,0,0:0:0:0:
384,192,15949,1,0,0:0:0:0:
384,192,15957,1,0,0:0:0:0:
256,192,15958,1,0,0:0:0:0:
256,192,15959,1,0,0:0:0:0:
384,192,15965,1,0,0:0:0:0:
256,192,15973,1,0,0:0:0:0:
384,192,15976,1,0,0:0:0:0:
384,192,15977,1,0,0:0:0:0:
384,192,15978,1,0,0:0:0:0:
256,192,15983,1,0,0:0:0:0:
256,192,15986,1,0,0:0:0:0:
256,192,16002,1,0,0:0:0:0:
384,192,16003,1,0,0:0:0:0:
256,192,16003,1,0,0:0:0:0:
384,192,16009,1,0,0:0:0:0:
384,192,16010,1,0,0:0:0:0:
256,192,16024,1,0,0:0:0:0:
256,192,16030,1,0,0:0:0:0:
384,192,16030,1,0,0:0:0:0:
384,192,16032,1,0,0:0:0:0:
256,192,16034,1,0,0:0:0:0:
384,192,16047,1,0,0:0:0:0:
256,192,16053,1,0,0:0:0:0:
384,192,16054,1,0,0:0:0:0:
256,192,16054,1,0,0:0:0:0:
384,192,16055,1,0,0:0:0:0:
256,192,16068,1,0,0:0:0:0:
384,192,16074,1,0,0:0:0:0:
384,192,16076,1,0,0:0:0:0:
256,192,16078,1,0,0:0:0:0:
256,192,16080,1,0,0:0:0:0:
384,192,16093,1,0,0:0:0:0:
256,192,16097,1,0,0:0:0:0:
256,192,16098,1,0,0:0:0:0:
384,192,16099,1,0,0:0:0:0:
384,192,16108,1,0,0:0:0:0:
256,192,16118,1,0,0:0:0:0:
384,192,16122,1,0,0:0:0:0:
256,192,16124,1,0,0:0:0:0:
384,192,16127,1,0,0:0:0:0:
384,192,16128,1,0,0:0:0:0:
256,192,16129,1,0,0:0:0:0:
384,192,16137,1,0,0:0:0:0:
256,192,16147,1,0,0:0:0:0:
256,192,16148,1,0,0:0:0:0:
256,192,16149,1,0,0:0:0:0:
384,192,16152,1,0,0:0:0:0:
256,192,16162,1,0,0:0:0:0:
384,192,16166,1,0,0:0:0:0:
384,192,16171,1,0,0:0:0:0:
384,192,16172,1,0,0:0:0:0:
256,192,16173,1,0,0:0:0:0:
256,192,16175,1,0,0:0:0:0:
384,192,16190,1,0,0:0:0:0:
256,192,16191,1,0,0:0:0:0:
256,192,16192,1,0,0:0:0:0:
256,192,16193,1,0,0:0:0:0:
384,192,16196,1,0,0:0:0:0:
384,192,16198,1,0,0:0:0:0:
256,192,16213,1,0,0:0:0:0:
384,192,16217,1,0,0:0:0:0:
384,192,16218,1,0,0:0:0:0:
256,192,16219,1,0,0:0:0:0:
384,192,16219,1,0,0:0:0:0:
256,192,16223,1,0,0:0:0:0:
384,192,16234,1,0,0:0:0:0:
256,192,16242,1,0,0:0:0:0:
384,192,16242,1,0,0:0:0:0:
256,192,16243,1,0,0:0:0:0:
256,192,16257,1,0,0:0:0:0:
384,192,16261,1,0,0:0:0:0:
384,192,16262,1,0,0:0:0:0:
384,192,16263,1,0,0:0:0:0:
256,192,16267,1,0,0:0:0:0:
256,192,16270,1,0,0:0:0:0:
384,192,16280,1,0,0:0:0:0:
384,192,16286,1,0,0:0:0:0:
256,192,16286,1,0,0:0:0:0:
256,192,16287,1,0,0:0:0:0:
384,192,16295,1,0,0:0:0:0:
256,192,16308,1,0,0:0:0:0:
384,192,16309,1,0,0:0:0:0:
256,192,16314,1,0,0:0:0:0:
384,192,16315,1,0,0:0:0:0:
256,192,16318,1,0,0:0:0:0:
384,192,16324,1,0,0:0:0:0:
256,192,16337,1,0,0:0:0:0:
256,192,16338,1,0,0:0:0:0:
384,192,16339,1,0,0:0:0:0:
384,192,16340,1,0,0:0:0:0:
256,192,16352,1,0,0:0:0:0:
384,192,16353,1,0,0:0:0:0:
384,192,16359,1,0,0:0:0:0:
256,192,16362,1,0,0:0:0:0:
256,192,16364,1,0,0:0:0:0:
384,192,16378,1,0,0:0:0:0:
256,192,16381,1,0,0:0:0:0:
256,192,16382,1,0,0:0:0:0:
384,192,16384,1,0,0:0:0:0:
384,192,16385,1,0,0:0:0:0:
256,192,16402,1,0,0:0:0:0:
384,192,16405,1,0,0:0:0:0:
384,192,16407,1,0,0:0:0:0:
256,192,16408,1,0,0:0:0:0:
256,192,16413,1,0,0:0:0:0:
384,192,16422,1,0,0:0:0:0:
384,192,16429,1,0,0:0:0:0:
384,192,16430,1,0,0:0:0:0:
256,192,16431,1,0,0:0:0:0:
256,192,16433,1,0,0:0:0:0:
256,192,16446,1,0,0:0:0:0:
384,192,16449,1,0,0:0:0:0:
384,192,16451,1,0,0:0:0:0:
256,192,16457,1,0,0:0:0:0:
256,192,16459,1,0,0:0:0:0:
384,192,16468,1,0,0:0:0:0:
384,192,16474,1,0,0:0:0:0:
256,192,16475,1,0,0:0:0:0:
256,192,16477,1,0,0:0:0:0:
384,192,16483,1,0,0:0:0:0:
256,192,16497,1,0,0:0:0:0:
384,192,16497,1,0,0:0:0:0:
384,192,16502,1,0,0:0:0:0:
256,192,16503,1,0,0:0:0:0:
384,192,16503,1,0,0:0:0:0:
256,192,16507,1,0,0:0:0:0:
384,192,16512,1,0,0:0:0:0:
256,192,16526,1,0,0:0:0:0:
384,192,16527,1,0,0:0:0:0:
256,192,16527,1,0,0:0:0:0:
256,192,16541,1,0,0:0:0:0:
384,192,16541,1,0,0:0:0:0:
384,192,16546,1,0,0:0:0:0:
384,192,16547,1,0,0:0:0:0:
256,192,16551,1,0,0:0:0:0:
256,192,16554,1,0,0:0:0:0:
384,192,16565,1,0,0:0:0:0:
256,192,16570,1,0,0:0:0:0:
384,192,16571,1,0,0:0:0:0:
256,192,16571,1,0,0:0:0:0:
384,192,16573,1,0,0:0:0:0:
256,192,16592,1,0,0:0:0:0:
384,192,16593,1,0,0:0:0:0:
384,192,16594,1,0,0:0:0:0:
256,192,16598,1,0,0:0:0:0:
384,192,16600,1,0,0:0:0:0:
256,192,16602,1,0,0:0:0:0:
384,192,16609,1,0,0:0:0:0:
384,192,16617,1,0,0:0:0:0:
256,192,16621,1,0,0:0:0:0:
256,192,16622,1,0,0:0:0:0:
384,192,16625,1,0,0:0:0:0:
256,192,16636,1,0,0:0:0:0:
384,192,16637,1,0,0:0:0:0:
384,192,16638,1,0,0:0:0:0:
384,192,16644,1,0,0:0:0:0:
256,192,16646,1,0,0:0:0:0:
256,192,16649,1,0,0:0:0:0:
384,192,16663,1,0,0:0:0:0:
256,192,16665,1,0,0:0:0:0:
256,192,16666,1,0,0:0:0:0:
384,192,16669,1,0,0:0:0:0:
384,192,16670,1,0,0:0:0:0:
256,192,16687,1,0,0:0:0:0:
384,192,16690,1,0,0:0:0:0:
384,192,16692,1,0,0:0:0:0:
256,192,16693,1,0,0:0:0:0:
256,192,16697,1,0,0:0:0:0:
384,192,16707,1,0,0:0:0:0:
384,192,16714,1,0,0:0:0:0:
256,192,16716,1,0,0:0:0:0:
256,192,16717,1,0,0:0:0:0:
384,192,16722,1,0,0:0:0:0:
256,192,16731,1,0,0:0:0:0:
384,192,16734,1,0,0:0:0:0:
384,192,16736,1,0,0:0:0:0:
256,192,16741,1,0,0:0:0:0:
256,192,16743,1,0,0:0:0:0:
384,192,16760,1,0,0:0:0:0:
256,192,16760,1,0,0:0:0:0:
256,192,16761,1,0,0:0:0:0:
384,192,16766,1,0,0:0:0:0:
384,192,16768,1,0,0:0:0:0:
256,192,16781,1,0,0:0:0:0:
384,192,16787,1,0,0:0:0:0:
256,192,16787,1,0,0:0:0:0:
384,192,16788,1,0,0:0:0:0:
384,192,16789,1,0,0:0:0:0:
256,192,16792,1,0,0:0:0:0:
384,192,16804,1,0,0:0:0:0:
256,192,16810,1,0,0:0:0:0:
384,192,16812,1,0,0:0:0:0:
256,192,16812,1,0,0:0:0:0:
256,192,16825,1,0,0:0:0:0:
384,192,16831,1,0,0:0:0:0:
384,192,16832,1,0,0:0:0:0:
384,192,16833,1,0,0:0:0:0:
256,192,16836,1,0,0:0:0:0:
256,192,16838,1,0,0:0:0:0:
384,192,16850,1,0,0:0:0:0:
256,192,16854,1,0,0:0:0:0:
384,192,16856,1,0,0:0:0:0:
256,192,16856,1,0,0:0:0:0:
384,192,16865,1,0,0:0:0:0:
256,192,16876,1,0,0:0:0:0:
384,192,16879,1,0,0:0:0:0:
256,192,16882,1,0,0:0:0:0:
384,192,16885,1,0,0:0:0:0:
256,192,16886,1,0,0:0:0:0:
384,192,16894,1,0,0:0:0:0:
256,192,16905,1,0,0:0:0:0:
256,192,16906,1,0,0:0:0:0:
384,192,16909,1,0,0:0:0:0:
384,192,16910,1,0,0:0:0:0:
256,192,16920,1,0,0:0:0:0:
384,192,16923,1,0,0:0:0:0:
384,192,16929,1,0,0:0:0:0:
256,192,16930,1,0,0:0:0:0:
256,192,16933,1,0,0:0:0:0:
384,192,16948,1,0,0:0:0:0:
256,192,16949,1,0,0:0:0:0:
256,192,16950,1,0,0:0:0:0:
384,192,16954,1,0,0:0:0:0:
384,192,16955,1,0,0:0:0:0:
256,192,16971,1,0,0:0:0:0:
384,192,16975,1,0,0:0:0:0:
256,192,16977,1,0,0:0:0:0:
384,192,16977,1,0,0:0:0:0:
256,192,16981,1,0,0:0:0:0:
384,192,16992,1,0,0:0:0:0:
384,192,16999,1,0,0:0:0:0:
384,192,17000,1,0,0:0:0:0:
256,192,17000,1,0,0:0:0:0:
256,192,17001,1,0,0:0:0:0:
256,192,17015,1,0,0:0:0:0:
384,192,17019,1,0,0:0:0:0:
384,192,17021,1,0,0:0:0:0:
256,192,17025,1,0,0:0:0:0:
256,192,17028,1,0,0:0:0:0:
384,192,17038,1,0,0:0:0:0:
384,192,17044,1,0,0:0:0:0:
256,192,17044,1,0,0:0:0:0:
256,192,17045,1,0,0:0:0:0:
384,192,17053,1,0,0:0:0:0:
256,192,17066,1,0,0:0:0:0:
384,192,17067,1,0,0:0:0:0:
384,192,17072,1,0,0:0:0:0:
256,192,17072,1,0,0:0:0:0:
384,192,17073,1,0,0:0:0:0:
256,192,17076,1,0,0:0:0:0:
384,192,17082,1,0,0:0:0:0:
256,192,17095,1,0,0:0:0:0:
256,192,17096,1,0,0:0:0:0:
384,192,17097,1,0,0:0:0:0:
256,192,17110,1,0,0:0:0:0:
384,192,17111,1,0,0:0:0:0:
384,192,17116,1,0,0:0:0:0:
384,192,17117,1,0,0:0:0:0:
256,192,17120,1,0,0:0:0:0:
256,192,17122,1,0,0:0:0:0:
384,192,17135,1,0,0:0:0:0:
256,192,17139,1,0,0:0:0:0:
256,192,17140,1,0,0:0:0:0:
384,192,17141,1,0,0:0:0:0:
384,192,17143,1,0,0:0:0:0:
256,192,17160,1,0,0:0:0:0:
384,192,17163,1,0,0:0:0:0:
384,192,17164,1,0,0:0:0:0:
256,192,17166,1,0,0:0:0:0:
384,192,17170,1,0,0:0:0:0:
256,192,17171,1,0,0:0:0:0:
384,192,17179,1,0,0:0:0:0:
384,192,17187,1,0,0:0:0:0:
256,192,17189,1,0,0:0:0:0:
256,192,17191,1,0,0:0:0:0:
384,192,17195,1,0,0:0:0:0:
256,192,17204,1,0,0:0:0:0:
384,192,17207,1,0,0:0:0:0:
384,192,17208,1,0,0:0:0:0:
384,192,17214,1,0,0:0:0:0:
256,192,17215,1,0,0:0:0:0:
256,192,17217,1,0,0:0:0:0:
384,192,17233,1,0,0:0:0:0:
256,192,17233,1,0,0:0:0:0:
256,192,17235,1,0,0:0:0:0:
384,192,17239,1,0,0:0:0:0:
384,192,17240,1,0,0:0:0:0:
256,192,17255,1,0,0:0:0:0:
384,192,17260,1,0,0:0:0:0:
256,192,17261,1,0,0:0:0:0:
384,192,17262,1,0,0:0:0:0:
256,192,17265,1,0,0:0:0:0:
384,192,17277,1,0,0:0:0:0:
256,192,17284,1,0,0:0:0:0:
384,192,17284,1,0,0:0:0:0:
384,192,17285,1,0,0:0:0:0:
256,192,17285,1,0,0:0:0:0:
256,192,17299,1,0,0:0:0:0:
384,192,17304,1,0,0:0:0:0:
384,192,17306,1,0,0:0:0:0:
256,192,17309,1,0,0:0:0:0:
256,192,17312,1,0,0:0:0:0:
384,192,17323,1,0,0:0:0:0:
256,192,17328,1,0,0:0:0:0:
384,192,17329,1,0,0:0:0:0:
256,192,17329,1,0,0:0:0:0:
384,192,17338,1,0,0:0:0:0:
256,192,17350,1,0,0:0:0:0:
384,192,17352,1,0,0:0:0:0:
256,192,17356,1,0,0:0:0:0:
384,192,17357,1,0,0:0:0:0:
384,192,17358,1,0,0:0:0:0:
256,192,17360,1,0,0:0:0:0:
384,192,17367,1,0,0:0:0:0:
256,192,17379,1,0,0:0:0:0:
256,192,17380,1,0,0:0:0:0:
384,192,17382,1,0,0:0:0:0:
256,192,17394,1,0,0:0:0:0:
384,192,17396,1,0,0:0:0:0:
384,192,17401,1,0,0:0:0:0:
384,192,17402,1,0,0:0:0:0:
256,192,17404,1,0,0:0:0:0:
256,192,17407,1,0,0:0:0:0:
384,192,17420,1,0,0:0:0:0:
256,192,17423,1,0,0:0:0:0:
256,192,17424,1,0,0:0:0:0:
384,192,17426,1,0,0:0:0:0:
384,192,17428,1,0,0:0:0:0:
256,192,17445,1,0,0:0:0:0:
384,192,17447,1,0,0:0:0:0:
384,192,17448,1,0,0:0:0:0:
384,192,17449,1,0,0:0:0:0:
256,192,17451,1,0,0:0:0:0:
256,192,17455,1,0,0:0:0:0:
384,192,17464,1,0,0:0:0:0:
384,192,17472,1,0,0:0:0:0:
256,192,17474,1,0,0:0:0:0:
256,192,17475,1,0,0:0:0:0:
384,192,17480,1,0,0:0:0:0:
256,192,17489,1,0,0:0:0:0:
384,192,17491,1,0,0:0:0:0:
384,192,17492,1,0,0:0:0:0:
384,192,17493,1,0,0:0:0:0:
256,192,17499,1,0,0:0:0:0:
256,192,17501,1,0,0:0:0:0:
384,192,17518,1,0,0:0:0:0:
256,192,17518,1,0,0:0:0:0:
256,192,17519,1,0,0:0:0:0:
384,192,17524,1,0,0:0:0:0:
384,192,17525,1,0,0:0:0:0:
256,192,17539,1,0,0:0:0:0:
256,192,17545,1,0,0:0:0:0:
384,192,17545,1,0,0:0:0:0:
384,192,17547,1,0,0:0:0:0:
256,192,17550,1,0,0:0:0:0:
384,192,17562,1,0,0:0:0:0:
256,192,17568,1,0,0:0:0:0:
384,192,17569,1,0,0:0:0:0:
384,192,17570,1,0,0:0:0:0:
256,192,17570,1,0,0:0:0:0:
256,192,17583,1,0,0:0:0:0:
384,192,17589,1,0,0:0:0:0:
384,192,17591,1,0,0:0:0:0:
256,192,17594,1,0,0:0:0:0:
256,192,17596,1,0,0:0:0:0:
384,192,17608,1,0,0:0:0:0:
256,192,17612,1,0,0:0:0:0:
384,192,17614,1,0,0:0:0:0:
256,192,17614,1,0,0:0:0:0:
384,192,17623,1,0,0:0:0:0:
256,192,17634,1,0,0:0:0:0:
384,192,17635,1,0,0:0:0:0:
384,192,17637,1,0,0:0:0:0:
256,192,17640,1,0,0:0:0:0:
384,192,17643,1,0,0:0:0:0:
256,192,17644,1,0,0:0:0:0:
384,192,17652,1,0,0:0:0:0:
256,192,17663,1,0,0:0:0:0:
256,192,17664,1,0,0:0:0:0:
384,192,17667,1,0,0:0:0:0:
256,192,17678,1,0,0:0:0:0:
384,192,17679,1,0,0:0:0:0:
384,192,17681,1,0,0:0:0:0:
384,192,17687,1,0,0:0:0:0:
256,192,17688,1,0,0:0:0:0:
256,192,17691,1,0,0:0:0:0:
384,192,17705,1,0,0:0:0:0:
256,192,17707,1,0,0:0:0:0:
256,192,17708,1,0,0:0:0:0:
384,192,17711,1,0,0:0:0:0:
384,192,17713,1,0,0:0:0:0:
256,192,17729,1,0,0:0:0:0:
384,192,17732,1,0,0:0:0:0:
384,192,17733,1,0,0:0:0:0:
384,192,17734,1,0,0:0:0:0:
256,192,17735,1,0,0:0:0:0:
256,192,17739,1,0,0:0:0:0:
384,192,17749,1,0,0:0:0:0:
384,192,17757,1,0,0:0:0:0:
256,192,17758,1,0,0:0:0:0:
256,192,17759,1,0,0:0:0:0:
384,192,17765,1,0,0:0:0:0:
256,192,17773,1,0,0:0:0:0:
384,192,17776,1,0,0:0:0:0:
384,192,17777,1,0,0:0:0:0:
384,192,17778,1,0,0:0:0:0:
256,192,17783,1,0,0:0:0:0:
256,192,17786,1,0,0:0:0:0:
256,192,17802,1,0,0:0:0:0:
384,192,17803,1,0,0:0:0:0:
256,192,17803,1,0,0:0:0:0:
384,192,17809,1,0,0:0:0:0:
384,192,17810,1,0,0:0:0:0:
256,192,17824,1,0,0:0:0:0:
256,192,17830,1,0,0:0:0:0:
384,192,17830,1,0,0:0:0:0:
384,192,17832,1,0,0:0:0:0:
256,192,17834,1,0,0:0:0:0:
384,192,17847,1,0,0:0:0:0:
256,192,17853,1,0,0:0:0:0:
384,192,17854,1,0,0:0:0:0:
256,192,17854,1,0,0:0:0:0:
384,192,17855,1,0,0:0:0:0:
256,192,17868,1,0,0:0:0:0:
384,192,17874,1,0,0:0:0:0:
384,192,17876,1,0,0:0:0:0:
256,192,17878,1,0,0:0:0:0:
256,192,17880,1,0,0:0:0:0:
384,192,17893,1,0,0:0:0:0:
256,192,17897,1,0,0:0:0:0:
256,192,17898,1,0,0:0:0:0:
384,192,17899,1,0,0:0:0:0:
384,192,17908,1,0,0:0:0:0:
256,192,17918,1,0,0:0:0:0:
384,192,17922,1,0,0:0:0:0:
256,192,17924,1,0,0:0:0:0:
384,192,17927,1,0,0:0:0:0:
384,192,17928,1,0,0:0:0:0:
256,192,17929,1,0,0:0:0:0:
384,192,17937,1,0,0:0:0:0:
256,192,17947,1,0,0:0:0:0:
256,192,17949,1,0,0:0:0:0:
384,192,17952,1,0,0:0:0:0:
256,192,17962,1,0,0:0:0:0:
384,192,17966,1,0,0:0:0:0:
384,192,17971,1,0,0:0:0:0:
384,192,17972,1,0,0:0:0:0:
256,192,17973,1,0,0:0:0:0:
256,192,17975,1,0,0:0:0:0:
384,192,17990,1,0,0:0:0:0:
256,192,17991,1,0,0:0:0:0:
256,192,17993,1,0,0:0:0:0:
384,192,17996,1,0,0:0:0:0:
384,192,17998,1,0,0:0:0:0:
256,192,18013,1,0,0:0:0:0:
384,192,18017,1,0,0:0:0:0:
384,192,18018,1,0,0:0:0:0:
256,192,18019,1,0,0:0:0:0:
384,192,18019,1,0,0:0:0:0:
256,192,18023,1,0,0:0:0:0:
384,192,18034,1,0,0:0:0:0:
256,192,18042,1,0,0:0:0:0:
384,192,18042,1,0,0:0:0:0:
256,192,18043,1,0,0:0:0:0:
256,192,18057,1,0,0:0:0:0:
384,192,18061,1,0,0:0:0:0:
384,192,18062,1,0,0:0:0:0:
384,192,18063,1,0,0:0:0:0:
256,192,18067,1,0,0:0:0:0:
256,192,18070,1,0,0:0:0:0:
384,192,18080,1,0,0:0:0:0:
384,192,18086,1,0,0:0:0:0:
256,192,18086,1,0,0:0:0:0:
256,192,18087,1,0,0:0:0:0:
384,192,18095,1,0,0:0:0:0:
256,192,18108,1,0,0:0:0:0:
384,192,18109,1,0,0:0:0:0:
256,192,18114,1,0,0:0:0:0:
384,192,18115,1,0,0:0:0:0:
256,192,18118,1,0,0:0:0:0:
384,192,18124,1,0,0:0:0:0:
256,192,18137,1,0,0:0:0:0:
256,192,18138,1,0,0:0:0:0:
384,192,18139,1,0,0:0:0:0:
384,192,18140,1,0,0:0:0:0:
256,192,18152,1,0,0:0:0:0:
384,192,18153,1,0,0:0:0:0:
384,192,18159,1,0,0:0:0:0:
256,192,18162,1,0,0:0:0:0:
256,192,18165,1,0,0:0:0:0:
384,192,18178,1,0,0:0:0:0:
256,192,18181,1,0,0:0:0:0:
256,192,18182,1,0,0:0:0:0:
384,192,18184,1,0,0:0:0:0:
384,192,18185,1,0,0:0:0:0:
256,192,18203,1,0,0:0:0:0:
384,192,18205,1,0,0:0:0:0:
384,192,18207,1,0,0:0:0:0:
256,192,18209,1,0,0:0:0:0:
256,192,18213,1,0,0:0:0:0:
384,192,18222,1,0,0:0:0:0:
384,192,18229,1,0,0:0:0:0:
384,192,18230,1,0,0:0:0:0:
256,192,18232,1,0,0:0:0:0:
256,192,18233,1,0,0:0:0:0:
256,192,18247,1,0,0:0:0:0:
384,192,18249,1,0,0:0:0:0:
384,192,18251,1,0,0:0:0:0:
256,192,18257,1,0,0:0:0:0:
256,192,18259,1,0,0:0:0:0:
384,192,18268,1,0,0:0:0:0:
384,192,18274,1,0,0:0:0:0:
256,192,18276,1,0,0:0:0:0:
256,192,18277,1,0,0:0:0:0:
384,192,18283,1,0,0:0:0:0:
256,192,18297,1,0,0:0:0:0:
384,192,18297,1,0,0:0:0:0:
384,192,18302,1,0,0:0:0:0:
256,192,18303,1,0,0:0:0:0:
384,192,18303,1,0,0:0:0:0:
256,192,18308,1,0,0:0:0:0:
384,192,18312,1,0,0:0:0:0:
256,192,18326,1,0,0:0:0:0:
384,192,18327,1,0,0:0:0:0:
256,192,18328,1,0,0:0:0:0:
256,192,18341,1,0,0:0:0:0:
384,192,18341,1,0,0:0:0:0:
384,192,18346,1,0,0:0:0:0:
384,192,18347,1,0,0:0:0:0:
256,192,18352,1,0,0:0:0:0:
256,192,18354,1,0,0:0:0:0:
384,192,18365,1,0,0:0:0:0:
256,192,18370,1,0,0:0:0:0:
384,192,18371,1,0,0:0:0:0:
256,192,18372,1,0,0:0:0:0:
384,192,18373,1,0,0:0:0:0:
256,192,18392,1,0,0:0:0:0:
384,192,18393,1,0,0:0:0:0:
384,192,18394,1,0,0:0:0:0:
256,192,18398,1,0,0:0:0:0:
384,192,18400,1,0,0:0:0:0:
256,192,18402,1,0,0:0:0:0:
384,192,18409,1,0,0:0:0:0:
384,192,18417,1,0,0:0:0:0:
256,192,18421,1,0,0:0:0:0:
256,192,18422,1,0,0:0:0:0:
384,192,18425,1,0,0:0:0:0:
256,192,18436,1,0,0:0:0:0:
384,192,18437,1,0,0:0:0:0:
384,192,18438,1,0,0:0:0:0:
384,192,18444,1,0,0:0:0:0:
256,192,18446,1,0,0:0:0:0:
256,192,18449,1,0,0:0:0:0:
384,192,18463,1,0,0:0:0:0:
256,192,18465,1,0,0:0:0:0:
256,192,18466,1,0,0:0:0:0:
384,192,18469,1,0,0:0:0:0:
384,192,18470,1,0,0:0:0:0:
256,192,18487,1,0,0:0:0:0:
384,192,18490,1,0,0:0:0:0:
384,192,18492,1,0,0:0:0:0:
256,192,18493,1,0,0:0:0:0:
256,192,18497,1,0,0:0:0:0:
384,192,18507,1,0,0:0:0:0:
384,192,18514,1,0,0:0:0:0:
256,192,18516,1,0,0:0:0:0:
256,192,18517,1,0,0:0:0:0:
384,192,18522,1,0,0:0:0:0:
256,192,18531,1,0,0:0:0:0:
384,192,18534,1,0,0:0:0:0:
384,192,18536,1,0,0:0:0:0:
256,192,18541,1,0,0:0:0:0:
256,192,18544,1,0,0:0:0:0:
384,192,18560,1,0,0:0:0:0:
256,192,18560,1,0,0:0:0:0:
256,192,18561,1,0,0:0:0:0:
384,192,18566,1,0,0:0:0:0:
384,192,18568,1,0,0:0:0:0:
256,192,18582,1,0,0:0:0:0:
384,192,18587,1,0,0:0:0:0:
256,192,18588,1,0,0:0:0:0:
384,192,18588,1,0,0:0:0:0:
384,192,18589,1,0,0:0:0:0:
256,192,18592,1,0,0:0:0:0:
384,192,18604,1,0,0:0:0:0:
256,192,18611,1,0,0:0:0:0:
384,192,18612,1,0,0:0:0:0:
256,192,18612,1,0,0:0:0:0:
256,192,18626,1,0,0:0:0:0:
384,192,18631,1,0,0:0:0:0:
384,192,18632,1,0,0:0:0:0:
384,192,18633,1,0,0:0:0:0:
256,192,18636,1,0,0:0:0:0:
256,192,18638,1,0,0:0:0:0:
384,192,18650,1,0,0:0:0:0:
256,192,18655,1,0,0:0:0:0:
384,192,18656,1,0,0:0:0:0:
256,192,18656,1,0,0:0:0:0:
384,192,18665,1,0,0:0:0:0:
256,192,18676,1,0,0:0:0:0:
384,192,18679,1,0,0:0:0:0:
256,192,18682,1,0,0:0:0:0:
384,192,18685,1,0,0:0:0:0:
256,192,18687,1,0,0:0:0:0:
384,192,18694,1,0,0:0:0:0:
256,192,18705,1,0,0:0:0:0:
256,192,18707,1,0,0:0:0:0:
384,192,18709,1,0,0:0:0:0:
384,192,18710,1,0,0:0:0:0:
256,192,18720,1,0,0:0:0:0:
384,192,18723,1,0,0:0:0:0:
384,192,18729,1,0,0:0:0:0:
256,192,18731,1,0,0:0:0:0:
256,192,18733,1,0,0:0:0:0:
384,192,18748,1,0,0:0:0:0:
256,192,18749,1,0,0:0:0:0:
256,192,18751,1,0,0:0:0:0:
384,192,18754,1,0,0:0:0:0:
384,192,18755,1,0,0:0:0:0:
256,192,18771,1,0,0:0:0:0:
384,192,18775,1,0,0:0:0:0:
256,192,18777,1,0,0:0:0:0:
384,192,18777,1,0,0:0:0:0:
256,192,18781,1,0,0:0:0:0:
384,192,18792,1,0,0:0:0:0:
384,192,18799,1,0,0:0:0:0:
384,192,18800,1,0,0:0:0:0:
256,192,18800,1,0,0:0:0:0:
256,192,18801,1,0,0:0:0:0:
256,192,18815,1,0,0:0:0:0:
384,192,18819,1,0,0:0:0:0:
384,192,18821,1,0,0:0:0:0:
256,192,18825,1,0,0:0:0:0:
256,192,18828,1,0,0:0:0:0:
384,192,18838,1,0,0:0:0:0:
384,192,18844,1,0,0:0:0:0:
256,192,18844,1,0,0:0:0:0:
256,192,18845,1,0,0:0:0:0:
384,192,18853,1,0,0:0:0:0:
256,192,18866,1,0,0:0:0:0:
384,192,18867,1,0,0:0:0:0:
384,192,18872,1,0,0:0:0:0:
256,192,18872,1,0,0:0:0:0:
384,192,18873,1,0,0:0:0:0:
256,192,18876,1,0,0:0:0:0:
384,192,18882,1,0,0:0:0:0:
256,192,18895,1,0,0:0:0:0:
256,192,18896,1,0,0:0:0:0:
384,192,18897,1,0,0:0:0:0:
256,192,18910,1,0,0:0:0:0:
384,192,18911,1,0,0:0:0:0:
384,192,18916,1,0,0:0:0:0:
384,192,18917,1,0,0:0:0:0:
256,192,18920,1,0,0:0:0:0:
256,192,18923,1,0,0:0:0:0:
384,192,18935,1,0,0:0:0:0:
256,192,18939,1,0,0:0:0:0:
256,192,18940,1,0,0:0:0:0:
384,192,18941,1,0,0:0:0:0:
384,192,18943,1,0,0:0:0:0:
256,192,18961,1,0,0:0:0:0:
384,192,18963,1,0,0:0:0:0:
384,192,18964,1,0,0:0:0:0:
256,192,18967,1,0,0:0:0:0:
384,192,18970,1,0,0:0:0:0:
256,192,18971,1,0,0:0:0:0:
384,192,18979,1,0,0:0:0:0:
384,192,18987,1,0,0:0:0:0:
256,192,18990,1,0,0:0:0:0:
256,192,18991,1,0,0:0:0:0:
384,192,18995,1,0,0:0:0:0:
256,192,19005,1,0,0:0:0:0:
384,192,19007,1,0,0:0:0:0:
384,192,19008,1,0,0:0:0:0:
384,192,19014,1,0,0:0:0:0:
256,192,19015,1,0,0:0:0:0:
256,192,19017,1,0,0:0:0:0:
384,192,19033,1,0,0:0:0:0:
256,192,19034,1,0,0:0:0:0:
256,192,19035,1,0,0:0:0:0:
384,192,19039,1,0,0:0:0:0:
384,192,19040,1,0,0:0:0:0:
256,192,19055,1,0,0:0:0:0:
384,192,19060,1,0,0:0:0:0:
256,192,19061,1,0,0:0:0:0:
384,192,19062,1,0,0:0:0:0:
256,192,19066,1,0,0:0:0:0:
384,192,19077,1,0,0:0:0:0:
256,192,19084,1,0,0:0:0:0:
384,192,19084,1,0,0:0:0:0:
256,192,19085,1,0,0:0:0:0:
384,192,19085,1,0,0:0:0:0:
256,192,19086,1,0,0:0:0:0:
256,192,19099,1,0,0:0:0:0:
384,192,19104,1,0,0:0:0:0:
384,192,19106,1,0,0:0:0:0:
256,192,19110,1,0,0:0:0:0:
256,192,19112,1,0,0:0:0:0:
384,192,19123,1,0,0:0:0:0:
256,192,19128,1,0,0:0:0:0:
256,192,19129,1,0,0:0:0:0:
384,192,19129,1,0,0:0:0:0:
256,192,19130,1,0,0:0:0:0:
384,192,19138,1,0,0:0:0:0:
256,192,19150,1,0,0:0:0:0:
384,192,19152,1,0,0:0:0:0:
256,192,19156,1,0,0:0:0:0:
384,192,19157,1,0,0:0:0:0:
384,192,19158,1,0,0:0:0:0:
256,192,19160,1,0,0:0:0:0:
384,192,19167,1,0,0:0:0:0:
256,192,19179,1,0,0:0:0:0:
256,192,19180,1,0,0:0:0:0:
384,192,19182,1,0,0:0:0:0:
256,192,19194,1,0,0:0:0:0:
384,192,19196,1,0,0:0:0:0:
384,192,19201,1,0,0:0:0:0:
384,192,19202,1,0,0:0:0:0:
256,192,19204,1,0,0:0:0:0:
256,192,19207,1,0,0:0:0:0:
384,192,19220,1,0,0:0:0:0:
256,192,19223,1,0,0:0:0:0:
256,192,19224,1,0,0:0:0:0:
384,192,19226,1,0,0:0:0:0:
384,192,19228,1,0,0:0:0:0:
256,192,19245,1,0,0:0:0:0:
384,192,19247,1,0,0:0:0:0:
384,192,19248,1,0,0:0:0:0:
384,192,19249,1,0,0:0:0:0:
256,192,19251,1,0,0:0:0:0:
256,192,19255,1,0,0:0:0:0:
384,192,19264,1,0,0:0:0:0:
384,192,19272,1,0,0:0:0:0:
256,192,19274,1,0,0:0:0:0:
256,192,19275,1,0,0:0:0:0:
384,192,19280,1,0,0:0:0:0:
256,192,19289,1,0,0:0:0:0:
384,192,19291,1,0,0:0:0:0:
384,192,19292,1,0,0:0:0:0:
384,192,19293,1,0,0:0:0:0:
256,192,19299,1,0,0:0:0:0:
256,192,19302,1,0,0:0:0:0:
384,192,19318,1,0,0:0:0:0:
256,192,19318,1,0,0:0:0:0:
256,192,19319,1,0,0:0:0:0:
384,192,19324,1,0,0:0:0:0:
384,192,19325,1,0,0:0:0:0:
256,192,19340,1,0,0:0:0:0:
384,192,19345,1,0,0:0:0:0:
256,192,19346,1,0,0:0:0:0:
384,192,19347,1,0,0:0:0:0:
256,192,19350,1,0,0:0:0:0:
384,192,19362,1,0,0:0:0:0:
256,192,19369,1,0,0:0:0:0:
384,192,19369,1,0,0:0:0:0:
384,192,19370,1,0,0:0:0:0:
256,192,19370,1,0,0:0:0:0:
256,192,19384,1,0,0:0:0:0:
384,192,19389,1,0,0:0:0:0:
384,192,19391,1,0,0:0:0:0:
256,192,19394,1,0,0:0:0:0:
256,192,19396,1,0,0:0:0:0:
384,192,19408,1,0,0:0:0:0:
256,192,19413,1,0,0:0:0:0:
384,192,19414,1,0,0:0:0:0:
256,192,19414,1,0,0:0:0:0:
384,192,19423,1,0,0:0:0:0:
256,192,19434,1,0,0:0:0:0:
384,192,19435,1,0,0:0:0:0:
384,192,19437,1,0,0:0:0:0:
256,192,19440,1,0,0:0:0:0:
384,192,19443,1,0,0:0:0:0:
256,192,19445,1,0,0:0:0:0:
384,192,19452,1,0,0:0:0:0:
256,192,19463,1,0,0:0:0:0:
256,192,19464,1,0,0:0:0:0:
256,192,19465,1,0,0:0:0:0:
384,192,19467,1,0,0:0:0:0:
256,192,19478,1,0,0:0:0:0:
384,192,19479,1,0,0:0:0:0:
384,192,19481,1,0,0:0:0:0:
384,192,19487,1,0,0:0:0:0:
256,192,19489,1,0,0:0:0:0:
256,192,19491,1,0,0:0:0:0:
384,192,19505,1,0,0:0:0:0:
256,192,19507,1,0,0:0:0:0:
256,192,19508,1,0,0:0:0:0:
256,192,19509,1,0,0:0:0:0:
384,192,19511,1,0,0:0:0:0:
384,192,19513,1,0,0:0:0:0:
256,192,19529,1,0,0:0:0:0:
384,192,19532,1,0,0:0:0:0:
384,192,19533,1,0,0:0:0:0:
384,192,19534,1,0,0:0:0:0:
256,192,19535,1,0,0:0:0:0:
256,192,19539,1,0,0:0:0:0:
384,192,19549,1,0,0:0:0:0:
384,192,19557,1,0,0:0:0:0:
256,192,19558,1,0,0:0:0:0:
256,192,19559,1,0,0:0:0:0:
384,192,19565,1,0,0:0:0:0:
256,192,19573,1,0,0:0:0:0:
384,192,19576,1,0,0:0:0:0:
384,192,19577,1,0,0:0:0:0:
384,192,19578,1,0,0:0:0:0:
256,192,19583,1,0,0:0:0:0:
256,192,19586,1,0,0:0:0:0:
256,192,19602,1,0,0:0:0:0:
384,192,19603,1,0,0:0:0:0:
256,192,19603,1,0,0:0:0:0:
384,192,19609,1,0,0:0:0:0:
384,192,19610,1,0,0:0:0:0:
256,192,19624,1,0,0:0:0:0:
256,192,19630,1,0,0:0:0:0:
384,192,19630,1,0,0:0:0:0:
384,192,19632,1,0,0:0:0:0:
256,192,19634,1,0,0:0:0:0:
384,192,19647,1,0,0:0:0:0:
256,192,19653,1,0,0:0:0:0:
384,192,19654,1,0,0:0:0:0:
256,192,19654,1,0,0:0:0:0:
384,192,19655,1,0,0:0:0:0:
256,192,19668,1,0,0:0:0:0:
384,192,19674,1,0,0:0:0:0:
384,192,19676,1,0,0:0:0:0:
256,192,19678,1,0,0:0:0:0:
256,192,19680,1,0,0:0:0:0:
384,192,19693,1,0,0:0:0:0:
256,192,19697,1,0,0:0:0:0:
256,192,19698,1,0,0:0:0:0:
384,192,19699,1,0,0:0:0:0:
384,192,19708,1,0,0:0:0:0:
256,192,19718,1,0,0:0:0:0:
384,192,19722,1,0,0:0:0:0:
256,192,19724,1,0,0:0:0:0:
384,192,19727,1,0,0:0:0:0:
384,192,19728,1,0,0:0:0:0:
256,192,19729,1,0,0:0:0:0:
384,192,19737,1,0,0:0:0:0:
256,192,19747,1,0,0:0:0:0:
256,192,19749,1,0,0:0:0:0:
384,192,19752,1,0,0:0:0:0:
256,192,19762,1,0,0:0:0:0:
384,192,19766,1,0,0:0:0:0:
384,192,19771,1,0,0:0:0:0:
384,192,19772,1,0,0:0:0:0:
256,192,19773,1,0,0:0:0:0:
256,192,19775,1,0,0:0:0:0:
384,192,19790,1,0,0:0:0:0:
256,192,19791,1,0,0:0:0:0:
256,192,19793,1,0,0:0:0:0:
384,192,19796,1,0,0:0:0:0:
384,192,19798,1,0,0:0:0:0:
256,192,19813,1,0,0:0:0:0:
384,192,19817,1,0,0:0:0:0:
384,192,19818,1,0,0:0:0:0:
256,192,19819,1,0,0:0:0:0:
384,192,19819,1,0,0:0:0:0:
256,192,19823,1,0,0:0:0:0:
384,192,19834,1,0,0:0:0:0:
256,192,19842,1,0,0:0:0:0:
384,192,19842,1,0,0:0:0:0:
256,192,19843,1,0,0:0:0:0:
256,192,19857,1,0,0:0:0:0:
384,192,19861,1,0,0:0:0:0:
384,192,19862,1,0,0:0:0:0:
384,192,19863,1,0,0:0:0:0:
256,192,19867,1,0,0:0:0:0:
256,192,19870,1,0,0:0:0:0:
384,192,19880,1,0,0:0:0:0:
384,192,19886,1,0,0:0:0:0:
256,192,19886,1,0,0:0:0:0:
256,192,19887,1,0,0:0:0:0:
384,192,19895,1,0,0:0:0:0:
256,192,19908,1,0,0:0:0:0:
384,192,19909,1,0,0:0:0:0:
256,192,19914,1,0,0:0:0:0:
384,192,19915,1,0,0:0:0:0:
256,192,19918,1,0,0:0:0:0:
384,192,19924,1,0,0:0:0:0:
256,192,19937,1,0,0:0:0:0:
256,192,19938,1,0,0:0:0:0:
384,192,19939,1,0,0:0:0:0:
384,192,19940,1,0,0:0:0:0:
256,192,19952,1,0,0:0:0:0:
384,192,19953,1,0,0:0:0:0:
384,192,19959,1,0,0:0:0:0:
256,192,19962,1,0,0:0:0:0:
256,192,19965,1,0,0:0:0:0:
384,192,19978,1,0,0:0:0:0:
256,192,19981,1,0,0:0:0:0:
256,192,19982,1,0,0:0:0:0:
384,192,19984,1,0,0:0:0:0:
384,192,19985,1,0,0:0:0:0:
256,192,20003,1,0,0:0:0:0:
384,192,20005,1,0,0:0:0:0:
384,192,20007,1,0,0:0:0:0:
256,192,20009,1,0,0:0:0:0:
256,192,20013,1,0,0:0:0:0:
384,192,20022,1,0,0:0:0:0:
384,192,20029,1,0,0:0:0:0:
384,192,20030,1,0,0:0:0:0:
256,192,20032,1,0,0:0:0:0:
256,192,20033,1,0,0:0:0:0:
256,192,20047,1,0,0:0:0:0:
384,192,20049,1,0,0:0:0:0:
384,192,20051,1,0,0:0:0:0:
256,192,20057,1,0,0:0:0:0:
256,192,20059,1,0,0:0:0:0:
384,192,20068,1,0,0:0:0:0:
384,192,20074,1,0,0:0:0:0:
256,192,20076,1,0,0:0:0:0:
256,192,20077,1,0,0:0:0:0:
384,192,20083,1,0,0:0:0:0:
256,192,20097,1,0,0:0:0:0:
384,192,20097,1,0,0:0:0:0:
384,192,20102,1,0,0:0:0:0:
256,192,20103,1,0,0:0:0:0:
384,192,20103,1,0,0:0:0:0:
256,192,20108,1,0,0:0:0:0:
384,192,20112,1,0,0:0:0:0:
256,192,20126,1,0,0:0:0:0:
384,192,20127,1,0,0:0:0:0:
256,192,20128,1,0,0:0:0:0:
256,192,20141,1,0,0:0:0:0:
384,192,20141,1,0,0:0:0:0:
384,192,20146,1,0,0:0:0:0:
384,192,20147,1,0,0:0:0:0:
256,192,20152,1,0,0:0:0:0:
256,192,20154,1,0,0:0:0:0:
384,192,20165,1,0,0:0:0:0:
256,192,20170,1,0,0:0:0:0:
384,192,20171,1,0,0:0:0:0:
256,192,20172,1,0,0:0:0:0:
384,192,20173,1,0,0:0:0:0:
256,192,20192,1,0,0:0:0:0:
384,192,20193,1,0,0:0:0:0:
384,192,20194,1,0,0:0:0:0:
256,192,20198,1,0,0:0:0:0:
384,192,20200,1,0,0:0:0:0:
256,192,20202,1,0,0:0:0:0:
384,192,20209,1,0,0:0:0:0:
384,192,20217,1,0,0:0:0:0:
256,192,20221,1,0,0:0:0:0:
256,192,20222,1,0,0:0:0:0:
384,192,20225,1,0,0:0:0:0:
256,192,20236,1,0,0:0:0:0:
384,192,20237,1,0,0:0:0:0:
384,192,20238,1,0,0:0:0:0:
384,192,20244,1,0,0:0:0:0:
256,192,20246,1,0,0:0:0:0:
256,192,20249,1,0,0:0:0:0:
384,192,20263,1,0,0:0:0:0:
256,192,20265,1,0,0:0:0:0:
256,192,20266,1,0,0:0:0:0:
384,192,20269,1,0,0:0:0:0:
384,192,20270,1,0,0:0:0:0:
256,192,20287,1,0,0:0:0:0:
384,192,20290,1,0,0:0:0:0:
384,192,20292,1,0,0:0:0:0:
256,192,20293,1,0,0:0:0:0:
256,192,20297,1,0,0:0:0:0:
384,192,20307,1,0,0:0:0:0:
384,192,20314,1,0,0:0:0:0:
256,192,20316,1,0,0:0:0:0:
256,192,20317,1,0,0:0:0:0:
384,192,20322,1,0,0:0:0:0:
256,192,20331,1,0,0:0:0:0:
384,192,20334,1,0,0:0:0:0:
384,192,20336,1,0,0:0:0:0:
256,192,20341,1,0,0:0:0:0:
256,192,20344,1,0,0:0:0:0:
384,192,20360,1,0,0:0:0:0:
256,192,20360,1,0,0:0:0:0:
256,192,20361,1,0,0:0:0:0:
384,192,20366,1,0,0:0:0:0:
384,192,20368,1,0,0:0:0:0:
256,192,20382,1,0,0:0:0:0:
384,192,20387,1,0,0:0:0:0:
256,192,20388,1,0,0:0:0:0:
384,192,20388,1,0,0:0:0:0:
384,192,20389,1,0,0:0:0:0:
256,192,20392,1,0,0:0:0:0:
384,192,20404,1,0,0:0:0:0:
256,192,20411,1,0,0:0:0:0:
384,192,20412,1,0,0:0:0:0:
256,192,20412,1,0,0:0:0:0:
256,192,20426,1,0,0:0:0:0:
384,192,20431,1,0,0:0:0:0:
384,192,20432,1,0,0:0:0:0:
384,192,20433,1,0,0:0:0:0:
256,192,20436,1,0,0:0:0:0:
256,192,20438,1,0,0:0:0:0:
384,192,20450,1,0,0:0:0:0:
256,192,20455,1,0,0:0:0:0:
384,192,20456,1,0,0:0:0:0:
256,192,20456,1,0,0:0:0:0:
384,192,20465,1,0,0:0:0:0:
256,192,20476,1,0,0:0:0:0:
384,192,20479,1,0,0:0:0:0:
256,192,20482,1,0,0:0:0:0:
384,192,20485,1,0,0:0:0:0:
256,192,20487,1,0,0:0:0:0:
384,192,20494,1,0,0:0:0:0:
256,192,20505,1,0,0:0:0:0:
256,192,20507,1,0,0:0:0:0:
384,192,20509,1,0,0:0:0:0:
384,192,20510,1,0,0:0:0:0:
256,192,20520,1,0,0:0:0:0:
384,192,20523,1,0,0:0:0:0:
384,192,20529,1,0,0:0:0:0:
256,192,20531,1,0,0:0:0:0:
256,192,20533,1,0,0:0:0:0:
384,192,20548,1,0,0:0:0:0:
256,192,20549,1,0,0:0:0:0:
256,192,20551,1,0,0:0:0:0:
384,192,20554,1,0,0:0:0:0:
384,192,20555,1,0,0:0:0:0:
256,192,20571,1,0,0:0:0:0:
384,192,20575,1,0,0:0:0:0:
256,192,20577,1,0,0:0:0:0:
384,192,20577,1,0,0:0:0:0:
256,192,20581,1,0,0:0:0:0:
384,192,20592,1,0,0:0:0:0:
384,192,20599,1,0,0:0:0:0:
384,192,20600,1,0,0:0:0:0:
256,192,20600,1,0,0:0:0:0:
256,192,20601,1,0,0:0:0:0:
256,192,20615,1,0,0:0:0:0:
384,192,20619,1,0,0:0:0:0:
384,192,20621,1,0,0:0:0:0:
256,192,20625,1,0,0:0:0:0:
256,192,20628,1,0,0:0:0:0:
384,192,20638,1,0,0:0:0:0:
384,192,20644,1,0,0:0:0:0:
256,192,20644,1,0,0:0:0:0:
256,192,20645,1,0,0:0:0:0:
384,192,20653,1,0,0:0:0:0:
256,192,20666,1,0,0:0:0:0:
384,192,20667,1,0,0:0:0:0:
384,192,20672,1,0,0:0:0:0:
256,192,20672,1,0,0:0:0:0:
384,192,20673,1,0,0:0:0:0:
256,192,20676,1,0,0:0:0:0:
384,192,20682,1,0,0:0:0:0:
256,192,20695,1,0,0:0:0:0:
256,192,20696,1,0,0:0:0:0:
384,192,20697,1,0,0:0:0:0:
256,192,20710,1,0,0:0:0:0:
384,192,20711,1,0,0:0:0:0:
384,192,20716,1,0,0:0:0:0:
384,192,20717,1,0,0:0:0:0:
256,192,20720,1,0,0:0:0:0:
256,192,20723,1,0,0:0:0:0:
384,192,20735,1,0,0:0:0:0:
256,192,20739,1,0,0:0:0:0:
256,192,20740,1,0,0:0:0:0:
384,192,20741,1,0,0:0:0:0:
384,192,20743,1,0,0:0:0:0:
256,192,20761,1,0,0:0:0:0:
384,192,20763,1,0,0:0:0:0:
384,192,20764,1,0,0:0:0:0:
256,192,20767,1,0,0:0:0:0:
384,192,20770,1,0,0:0:0:0:
256,192,20771,1,0,0:0:0:0:
384,192,20779,1,0,0:0:0:0:
384,192,20787,1,0,0:0:0:0:
256,192,20790,1,0,0:0:0:0:
256,192,20791,1,0,0:0:0:0:
384,192,20795,1,0,0:0:0:0:
256,192,20805,1,0,0:0:0:0:
384,192,20807,1,0,0:0:0:0:
384,192,20808,1,0,0:0:0:0:
384,192,20814,1,0,0:0:0:0:
256,192,20815,1,0,0:0:0:0:
256,192,20817,1,0,0:0:0:0:
384,192,20833,1,0,0:0:0:0:
256,192,20834,1,0,0:0:0:0:
256,192,20835,1,0,0:0:0:0:
384,192,20839,1,0,0:0:0:0:
384,192,20840,1,0,0:0:0:0:
256,192,20855,1,0,0:0:0:0:
384,192,20860,1,0,0:0:0:0:
256,192,20861,1,0,0:0:0:0:
384,192,20862,1,0,0:0:0:0:
256,192,20866,1,0,0:0:0:0:
384,192,20877,1,0,0:0:0:0:
256,192,20884,1,0,0:0:0:0:
384,192,20884,1,0,0:0:0:0:
384,192,20885,1,0,0:0:0:0:
256,192,20886,1,0,0:0:0:0:
256,192,20899,1,0,0:0:0:0:
384,192,20904,1,0,0:0:0:0:
384,192,20906,1,0,0:0:0:0:
256,192,20910,1,0,0:0:0:0:
256,192,20912,1,0,0:0:0:0:
384,192,20923,1,0,0:0:0:0:
256,192,20928,1,0,0:0:0:0:
384,192,20929,1,0,0:0:0:0:
256,192,20930,1,0,0:0:0:0:
384,192,20938,1,0,0:0:0:0:
256,192,20950,1,0,0:0:0:0:
384,192,20952,1,0,0:0:0:0:
256,192,20956,1,0,0:0:0:0:
384,192,20957,1,0,0:0:0:0:
384,192,20958,1,0,0:0:0:0:
256,192,20960,1,0,0:0:0:0:
384,192,20967,1,0,0:0:0:0:
256,192,20979,1,0,0:0:0:0:
256,192,20980,1,0,0:0:0:0:
384,192,20982,1,0,0:0:0:0:
256,192,20994,1,0,0:0:0:0:
384,192,20996,1,0,0:0:0:0:
384,192,21001,1,0,0:0:0:0:
384,192,21002,1,0,0:0:0:0:
256,192,21004,1,0,0:0:0:0:
256,192,21007,1,0,0:0:0:0:
384,192,21020,1,0,0:0:0:0:
256,192,21023,1,0,0:0:0:0:
256,192,21024,1,0,0:0:0:0:
384,192,21026,1,0,0:0:0:0:
384,192,21028,1,0,0:0:0:0:
256,192,21045,1,0,0:0:0:0:
384,192,21047,1,0,0:0:0:0:
384,192,21048,1,0,0:0:0:0:
384,192,21049,1,0,0:0:0:0:
256,192,21051,1,0,0:0:0:0:
256,192,21055,1,0,0:0:0:0:
384,192,21064,1,0,0:0:0:0:
384,192,21072,1,0,0:0:0:0:
256,192,21074,1,0,0:0:0:0:
256,192,21075,1,0,0:0:0:0:
384,192,21080,1,0,0:0:0:0:
256,192,21089,1,0,0:0:0:0:
384,192,21091,1,0,0:0:0:0:
384,192,21092,1,0,0:0:0:0:
384,192,21093,1,0,0:0:0:0:
256,192,21099,1,0,0:0:0:0:
256,192,21102,1,0,0:0:0:0:
384,192,21118,1,0,0:0:0:0:
256,192,21118,1,0,0:0:0:0:
256,192,21119,1,0,0:0:0:0:
384,192,21124,1,0,0:0:0:0:
384,192,21125,1,0,0:0:0:0:
256,192,21140,1,0,0:0:0:0:
384,192,21145,1,0,0:0:0:0:
256,192,21146,1,0,0:0:0:0:
384,192,21147,1,0,0:0:0:0:
256,192,21150,1,0,0:0:0:0:
384,192,21162,1,0,0:0:0:0:
256,192,21169,1,0,0:0:0:0:
384,192,21169,1,0,0:0:0:0:
384,192,21170,1,0,0:0:0:0:
256,192,21170,1,0,0:0:0:0:
256,192,21184,1,0,0:0:0:0:
384,192,21189,1,0,0:0:0:0:
384,192,21191,1,0,0:0:0:0:
256,192,21194,1,0,0:0:0:0:
256,192,21196,1,0,0:0:0:0:
384,192,21208,1,0,0:0:0:0:
256,192,21213,1,0,0:0:0:0:
384,192,21214,1,0,0:0:0:0:
256,192,21214,1,0,0:0:0:0:
384,192,21223,1,0,0:0:0:0:
256,192,21234,1,0,0:0:0:0:
384,192,21237,1,0,0:0:0:0:
256,192,21240,1,0,0:0:0:0:
384,192,21242,1,0,0:0:0:0:
384,192,21243,1,0,0:0:0:0:
256,192,21245,1,0,0:0:0:0:
384,192,21252,1,0,0:0:0:0:
256,192,21263,1,0,0:0:0:0:
256,192,21265,1,0,0:0:0:0:
384,192,21267,1,0,0:0:0:0:
256,192,21278,1,0,0:0:0:0:
384,192,21281,1,0,0:0:0:0:
384,192,21286,1,0,0:0:0:0:
384,192,21287,1,0,0:0:0:0:
256,192,21289,1,0,0:0:0:0:
256,192,21291,1,0,0:0:0:0:
384,192,21305,1,0,0:0:0:0:
256,192,21307,1,0,0:0:0:0:
256,192,21309,1,0,0:0:0:0:
384,192,21311,1,0,0:0:0:0:
384,192,21313,1,0,0:0:0:0:
256,192,21329,1,0,0:0:0:0:
384,192,21332,1,0,0:0:0:0:
384,192,21333,1,0,0:0:0:0:
384,192,21334,1,0,0:0:0:0:
256,192,21335,1,0,0:0:0:0:
256,192,21339,1,0,0:0:0:0:
384,192,21349,1,0,0:0:0:0:
384,192,21357,1,0,0:0:0:0:
256,192,21358,1,0,0:0:0:0:
256,192,21359,1,0,0:0:0:0:
384,192,21365,1,0,0:0:0:0:
256,192,21373,1,0,0:0:0:0:
384,192,21376,1,0,0:0:0:0:
384,192,21377,1,0,0:0:0:0:
384,192,21378,1,0,0:0:0:0:
256,192,21383,1,0,0:0:0:0:
256,192,21386,1,0,0:0:0:0:
256,192,21402,1,0,0:0:0:0:
384,192,21403,1,0,0:0:0:0:
256,192,21403,1,0,0:0:0:0:
384,192,21409,1,0,0:0:0:0:
384,192,21410,1,0,0:0:0:0:
256,192,21424,1,0,0:0:0:0:
256,192,21430,1,0,0:0:0:0:
384,192,21430,1,0,0:0:0:0:
384,192,21432,1,0,0:0:0:0:
256,192,21434,1,0,0:0:0:0:
384,192,21447,1,0,0:0:0:0:
256,192,21453,1,0,0:0:0:0:
384,192,21454,1,0,0:0:0:0:
256,192,21454,1,0,0:0:0:0:
384,192,21455,1,0,0:0:0:0:
256,192,21468,1,0,0:0:0:0:
384,192,21474,1,0,0:0:0:0:
384,192,21476,1,0,0:0:0:0:
256,192,21478,1,0,0:0:0:0:
256,192,21481,1,0,0:0:0:0:
384,192,21493,1,0,0:0:0:0:
256,192,21497,1,0,0:0:0:0:
256,192,21498,1,0,0:0:0:0:
384,192,21499,1,0,0:0:0:0:
384,192,21508,1,0,0:0:0:0:
256,192,21519,1,0,0:0:0:0:
384,192,21522,1,0,0:0:0:0:
256,192,21525,1,0,0:0:0:0:
384,192,21527,1,0,0:0:0:0:
384,192,21528,1,0,0:0:0:0:
256,192,21529,1,0,0:0:0:0:
384,192,21537,1,0,0:0:0:0:
256,192,21548,1,0,0:0:0:0:
256,192,21549,1,0,0:0:0:0:
384,192,21552,1,0,0:0:0:0:
256,192,21563,1,0,0:0:0:0:
384,192,21566,1,0,0:0:0:0:
384,192,21571,1,0,0:0:0:0:
384,192,21572,1,0,0:0:0:0:
256,192,21573,1,0,0:0:0:0:
256,192,21575,1,0,0:0:0:0:
384,192,21590,1,0,0:0:0:0:
256,192,21592,1,0,0:0:0:0:
256,192,21593,1,0,0:0:0:0:
384,192,21596,1,0,0:0:0:0:
384,192,21598,1,0,0:0:0:0:
256,192,21613,1,0,0:0:0:0:
384,192,21617,1,0,0:0:0:0:
384,192,21618,1,0,0:0:0:0:
256,192,21619,1,0,0:0:0:0:
384,192,21619,1,0,0:0:0:0:
256,192,21624,1,0,0:0:0:0:
384,192,21634,1,0,0:0:0:0:
256,192,21642,1,0,0:0:0:0:
384,192,21642,1,0,0:0:0:0:
256,192,21644,1,0,0:0:0:0:
256,192,21657,1,0,0:0:0:0:
384,192,21661,1,0,0:0:0:0:
384,192,21662,1,0,0:0:0:0:
384,192,21663,1,0,0:0:0:0:
256,192,21668,1,0,0:0:0:0:
256,192,21670,1,0,0:0:0:0:
384,192,21680,1,0,0:0:0:0:
384,192,21686,1,0,0:0:0:0:
256,192,21686,1,0,0:0:0:0:
256,192,21688,1,0,0:0:0:0:
384,192,21695,1,0,0:0:0:0:
256,192,21708,1,0,0:0:0:0:
384,192,21709,1,0,0:0:0:0:
256,192,21714,1,0,0:0:0:0:
384,192,21715,1,0,0:0:0:0:
256,192,21718,1,0,0:0:0:0:
384,192,21724,1,0,0:0:0:0:
256,192,21737,1,0,0:0:0:0:
256,192,21738,1,0,0:0:0:0:
384,192,21739,1,0,0:0:0:0:
384,192,21740,1,0,0:0:0:0:
256,192,21752,1,0,0:0:0:0:
384,192,21753,1,0,0:0:0:0:
384,192,21759,1,0,0:0:0:0:
256,192,21762,1,0,0:0:0:0:
256,192,21765,1,0,0:0:0:0:
384,192,21778,1,0,0:0:0:0:
256,192,21781,1,0,0:0:0:0:
256,192,21782,1,0,0:0:0:0:
384,192,21784,1,0,0:0:0:0:
384,192,21785,1,0,0:0:0:0:
256,192,21803,1,0,0:0:0:0:
384,192,21805,1,0,0:0:0:0:
384,192,21807,1,0,0:0:0:0:
256,192,21809,1,0,0:0:0:0:
256,192,21813,1,0,0:0:0:0:
384,192,21822,1,0,0:0:0:0:
384,192,21829,1,0,0:0:0:0:
256,192,21832,1,0,0:0:0:0:
256,192,21833,1,0,0:0:0:0:
384,192,21837,1,0,0:0:0:0:
256,192,21847,1,0,0:0:0:0:
384,192,21849,1,0,0:0:0:0:
384,192,21851,1,0,0:0:0:0:
256,192,21857,1,0,0:0:0:0:
256,192,21860,1,0,0:0:0:0:
384,192,21875,1,0,0:0:0:0:
256,192,21876,1,0,0:0:0:0:
256,192,21877,1,0,0:0:0:0:
384,192,21881,1,0,0:0:0:0:
384,192,21883,1,0,0:0:0:0:
256,192,21898,1,0,0:0:0:0:
384,192,21902,1,0,0:0:0:0:
384,192,21903,1,0,0:0:0:0:
256,192,21904,1,0,0:0:0:0:
384,192,21904,1,0,0:0:0:0:
256,192,21908,1,0,0:0:0:0:
384,192,21919,1,0,0:0:0:0:
256,192,21927,1,0,0:0:0:0:
384,192,21927,1,0,0:0:0:0:
256,192,21928,1,0,0:0:0:0:
256,192,21942,1,0,0:0:0:0:
384,192,21946,1,0,0:0:0:0:
384,192,21947,1,0,0:0:0:0:
384,192,21948,1,0,0:0:0:0:
256,192,21952,1,0,0:0:0:0:
256,192,21954,1,0,0:0:0:0:
384,192,21965,1,0,0:0:0:0:
384,192,21971,1,0,0:0:0:0:
256,192,21971,1,0,0:0:0:0:
256,192,21972,1,0,0:0:0:0:
384,192,21980,1,0,0:0:0:0:
256,192,21992,1,0,0:0:0:0:
384,192,21994,1,0,0:0:0:0:
256,192,21998,1,0,0:0:0:0:
384,192,22000,1,0,0:0:0:0:
256,192,22003,1,0,0:0:0:0:
384,192,22009,1,0,0:0:0:0:
256,192,22021,1,0,0:0:0:0:
256,192,22023,1,0,0:0:0:0:
384,192,22024,1,0,0:0:0:0:
384,192,22025,1,0,0:0:0:0:
256,192,22036,1,0,0:0:0:0:
384,192,22038,1,0,0:0:0:0:
384,192,22044,1,0,0:0:0:0:
256,192,22047,1,0,0:0:0:0:
256,192,22049,1,0,0:0:0:0:
384,192,22063,1,0,0:0:0:0:
256,192,22065,1,0,0:0:0:0:
256,192,22067,1,0,0:0:0:0:
384,192,22069,1,0,0:0:0:0:
384,192,22070,1,0,0:0:0:0:
256,192,22087,1,0,0:0:0:0:
384,192,22090,1,0,0:0:0:0:
384,192,22092,1,0,0:0:0:0:
256,192,22093,1,0,0:0:0:0:
256,192,22097,1,0,0:0:0:0:
384,192,22107,1,0,0:0:0:0:
384,192,22114,1,0,0:0:0:0:
256,192,22116,1,0,0:0:0:0:
256,192,22117,1,0,0:0:0:0:
384,192,22122,1,0,0:0:0:0:
256,192,22131,1,0,0:0:0:0:
384,192,22134,1,0,0:0:0:0:
384,192,22136,1,0,0:0:0:0:
256,192,22141,1,0,0:0:0:0:
256,192,22144,1,0,0:0:0:0:
384,192,22160,1,0,0:0:0:0:
256,192,22160,1,0,0:0:0:0:
256,192,22161,1,0,0:0:0:0:
384,192,22166,1,0,0:0:0:0:
384,192,22168,1,0,0:0:0:0:
256,192,22182,1,0,0:0:0:0:
384,192,22187,1,0,0:0:0:0:
256,192,22188,1,0,0:0:0:0:
384,192,22188,1,0,0:0:0:0:
384,192,22189,1,0,0:0:0:0:
256,192,22192,1,0,0:0:0:0:
384,192,22204,1,0,0:0:0:0:
256,192,22211,1,0,0:0:0:0:
384,192,22212,1,0,0:0:0:0:
256,192,22212,1,0,0:0:0:0:
256,192,22226,1,0,0:0:0:0:
384,192,22231,1,0,0:0:0:0:
384,192,22232,1,0,0:0:0:0:
384,192,22233,1,0,0:0:0:0:
256,192,22236,1,0,0:0:0:0:
256,192,22239,1,0,0:0:0:0:
384,192,22250,1,0,0:0:0:0:
256,192,22255,1,0,0:0:0:0:
384,192,22256,1,0,0:0:0:0:
256,192,22256,1,0,0:0:0:0:
384,192,22265,1,0,0:0:0:0:
256,192,22277,1,0,0:0:0:0:
384,192,22279,1,0,0:0:0:0:
256,192,22283,1,0,0:0:0:0:
384,192,22285,1,0,0:0:0:0:
256,192,22287,1,0,0:0:0:0:
384,192,22294,1,0,0:0:0:0:
256,192,22306,1,0,0:0:0:0:
256,192,22307,1,0,0:0:0:0:
384,192,22309,1,0,0:0:0:0:
384,192,22310,1,0,0:0:0:0:
256,192,22321,1,0,0:0:0:0:
384,192,22323,1,0,0:0:0:0:
384,192,22329,1,0,0:0:0:0:
256,192,22331,1,0,0:0:0:0:
256,192,22333,1,0,0:0:0:0:
384,192,22348,1,0,0:0:0:0:
256,192,22350,1,0,0:0:0:0:
256,192,22351,1,0,0:0:0:0:
384,192,22354,1,0,0:0:0:0:
384,192,22355,1,0,0:0:0:0:
256,192,22371,1,0,0:0:0:0:
384,192,22375,1,0,0:0:0:0:
256,192,22377,1,0,0:0:0:0:
384,192,22377,1,0,0:0:0:0:
256,192,22382,1,0,0:0:0:0:
384,192,22392,1,0,0:0:0:0:
384,192,22399,1,0,0:0:0:0:
384,192,22400,1,0,0:0:0:0:
256,192,22400,1,0,0:0:0:0:
256,192,22401,1,0,0:0:0:0:
256,192,22402,1,0,0:0:0:0:
256,192,22415,1,0,0:0:0:0:
384,192,22419,1,0,0:0:0:0:
384,192,22421,1,0,0:0:0:0:
256,192,22426,1,0,0:0:0:0:
256,192,22428,1,0,0:0:0:0:
384,192,22438,1,0,0:0:0:0:
384,192,22444,1,0,0:0:0:0:
256,192,22444,1,0,0:0:0:0:
256,192,22445,1,0,0:0:0:0:
256,192,22446,1,0,0:0:0:0:
384,192,22453,1,0,0:0:0:0:
256,192,22466,1,0,0:0:0:0:
384,192,22467,1,0,0:0:0:0:
384,192,22472,1,0,0:0:0:0:
256,192,22472,1,0,0:0:0:0:
384,192,22473,1,0,0:0:0:0:
256,192,22476,1,0,0:0:0:0:
384,192,22482,1,0,0:0:0:0:
256,192,22495,1,0,0:0:0:0:
256,192,22496,1,0,0:0:0:0:
384,192,22497,1,0,0:0:0:0:
256,192,22510,1,0,0:0:0:0:
384,192,22511,1,0,0:0:0:0:
384,192,22516,1,0,0:0:0:0:
384,192,22517,1,0,0:0:0:0:
256,192,22520,1,0,0:0:0:0:
256,192,22523,1,0,0:0:0:0:
384,192,22535,1,0,0:0:0:0:
256,192,22539,1,0,0:0:0:0:
256,192,22540,1,0,0:0:0:0:
384,192,22541,1,0,0:0:0:0:
384,192,22543,1,0,0:0:0:0:
256,192,22561,1,0,0:0:0:0:
384,192,22563,1,0,0:0:0:0:
384,192,22564,1,0,0:0:0:0:
256,192,22567,1,0,0:0:0:0:
384,192,22570,1,0,0:0:0:0:
256,192,22571,1,0,0:0:0:0:
384,192,22579,1,0,0:0:0:0:
384,192,22587,1,0,0:0:0:0:
256,192,22590,1,0,0:0:0:0:
256,192,22591,1,0,0:0:0:0:
384,192,22595,1,0,0:0:0:0:
256,192,22605,1,0,0:0:0:0:
384,192,22607,1,0,0:0:0:0:
384,192,22608,1,0,0:0:0:0:
384,192,22614,1,0,0:0:0:0:
256,192,22615,1,0,0:0:0:0:
256,192,22618,1,0,0:0:0:0:
384,192,22633,1,0,0:0:0:0:
256,192,22634,1,0,0:0:0:0:
256,192,22635,1,0,0:0:0:0:
384,192,22639,1,0,0:0:0:0:
384,192,22640,1,0,0:0:0:0:
256,192,22656,1,0,0:0:0:0:
384,192,22660,1,0,0:0:0:0:
256,192,22662,1,0,0:0:0:0:
384,192,22662,1,0,0:0:0:0:
256,192,22666,1,0,0:0:0:0:
384,192,22677,1,0,0:0:0:0:
384,192,22684,1,0,0:0:0:0:
384,192,22685,1,0,0:0:0:0:
256,192,22685,1,0,0:0:0:0:
256,192,22686,1,0,0:0:0:0:
256,192,22700,1,0,0:0:0:0:
384,192,22704,1,0,0:0:0:0:
384,192,22706,1,0,0:0:0:0:
256,192,22710,1,0,0:0:0:0:
256,192,22712,1,0,0:0:0:0:
384,192,22723,1,0,0:0:0:0:
384,192,22729,1,0,0:0:0:0:
256,192,22729,1,0,0:0:0:0:
256,192,22730,1,0,0:0:0:0:
384,192,22738,1,0,0:0:0:0:
256,192,22750,1,0,0:0:0:0:
384,192,22752,1,0,0:0:0:0:
256,192,22756,1,0,0:0:0:0:
384,192,22757,1,0,0:0:0:0:
384,192,22758,1,0,0:0:0:0:
256,192,22761,1,0,0:0:0:0:
384,192,22767,1,0,0:0:0:0:
256,192,22779,1,0,0:0:0:0:
256,192,22780,1,0,0:0:0:0:
256,192,22781,1,0,0:0:0:0:
384,192,22782,1,0,0:0:0:0:
256,192,22794,1,0,0:0:0:0:
384,192,22796,1,0,0:0:0:0:
384,192,22801,1,0,0:0:0:0:
384,192,22802,1,0,0:0:0:0:
256,192,22805,1,0,0:0:0:0:
256,192,22807,1,0,0:0:0:0:
384,192,22820,1,0,0:0:0:0:
256,192,22823,1,0,0:0:0:0:
256,192,22824,1,0,0:0:0:0:
256,192,22825,1,0,0:0:0:0:
384,192,22826,1,0,0:0:0:0:
384,192,22828,1,0,0:0:0:0:
256,192,22845,1,0,0:0:0:0:
384,192,22847,1,0,0:0:0:0:
384,192,22848,1,0,0:0:0:0:
384,192,22849,1,0,0:0:0:0:
256,192,22851,1,0,0:0:0:0:
256,192,22855,1,0,0:0:0:0:
384,192,22864,1,0,0:0:0:0:
384,192,22872,1,0,0:0:0:0:
256,192,22874,1,0,0:0:0:0:
256,192,22875,1,0,0:0:0:0:
384,192,22880,1,0,0:0:0:0:
256,192,22889,1,0,0:0:0:0:
384,192,22891,1,0,0:0:0:0:
384,192,22892,1,0,0:0:0:0:
384,192,22893,1,0,0:0:0:0:
256,192,22899,1,0,0:0:0:0:
256,192,22902,1,0,0:0:0:0:
384,192,22918,1,0,0:0:0:0:
256,192,22918,1,0,0:0:0:0:
256,192,22919,1,0,0:0:0:0:
384,192,22924,1,0,0:0:0:0:
384,192,22925,1,0,0:0:0:0:
256,192,22940,1,0,0:0:0:0:
384,192,22945,1,0,0:0:0:0:
256,192,22946,1,0,0:0:0:0:
384,192,22947,1,0,0:0:0:0:
256,192,22950,1,0,0:0:0:0:
384,192,22962,1,0,0:0:0:0:
256,192,22969,1,0,0:0:0:0:
384,192,22969,1,0,0:0:0:0:
384,192,22970,1,0,0:0:0:0:
256,192,22970,1,0,0:0:0:0:
256,192,22984,1,0,0:0:0:0:
384,192,22989,1,0,0:0:0:0:
384,192,22991,1,0,0:0:0:0:
256,192,22994,1,0,0:0:0:0:
256,192,22996,1,0,0:0:0:0:
384,192,23008,1,0,0:0:0:0:
256,192,23013,1,0,0:0:0:0:
384,192,23014,1,0,0:0:0:0:
256,192,23014,1,0,0:0:0:0:
384,192,23023,1,0,0:0:0:0:
256,192,23034,1,0,0:0:0:0:
384,192,23037,1,0,0:0:0:0:
256,192,23040,1,0,0:0:0:0:
384,192,23042,1,0,0:0:0:0:
384,192,23043,1,0,0:0:0:0:
256,192,23045,1,0,0:0:0:0:
384,192,23052,1,0,0:0:0:0:
256,192,23063,1,0,0:0:0:0:
256,192,23065,1,0,0:0:0:0:
384,192,23067,1,0,0:0:0:0:
256,192,23078,1,0,0:0:0:0:
384,192,23081,1,0,0:0:0:0:
384,192,23086,1,0,0:0:0:0:
384,192,23087,1,0,0:0:0:0:
256,192,23089,1,0,0:0:0:0:
256,192,23091,1,0,0:0:0:0:
384,192,23105,1,0,0:0:0:0:
256,192,23107,1,0,0:0:0:0:
256,192,23109,1,0,0:0:0:0:
384,192,23111,1,0,0:0:0:0:
384,192,23113,1,0,0:0:0:0:
256,192,23129,1,0,0:0:0:0:
384,192,23132,1,0,0:0:0:0:
384,192,23133,1,0,0:0:0:0:
384,192,23134,1,0,0:0:0:0:
256,192,23135,1,0,0:0:0:0:
256,192,23139,1,0,0:0:0:0:
384,192,23149,1,0,0:0:0:0:
384,192,23157,1,0,0:0:0:0:
256,192,23158,1,0,0:0:0:0:
256,192,23159,1,0,0:0:0:0:
384,192,23165,1,0,0:0:0:0:
256,192,23173,1,0,0:0:0:0:
384,192,23176,1,0,0:0:0:0:
384,192,23177,1,0,0:0:0:0:
384,192,23178,1,0,0:0:0:0:
256,192,23183,1,0,0:0:0:0:
256,192,23186,1,0,0:0:0:0:
256,192,23202,1,0,0:0:0:0:
384,192,23203,1,0,0:0:0:0:
256,192,23203,1,0,0:0:0:0:
384,192,23209,1,0,0:0:0:0:
384,192,23210,1,0,0:0:0:0:
256,192,23224,1,0,0:0:0:0:
256,192,23230,1,0,0:0:0:0:
384,192,23230,1,0,0:0:0:0:
384,192,23232,1,0,0:0:0:0:
256,192,23234,1,0,0:0:0:0:
384,192,23247,1,0,0:0:0:0:
256,192,23253,1,0,0:0:0:0:
384,192,23254,1,0,0:0:0:0:
256,192,23254,1,0,0:0:0:0:
384,192,23255,1,0,0:0:0:0:
256,192,23268,1,0,0:0:0:0:
384,192,23274,1,0,0:0:0:0:
384,192,23276,1,0,0:0:0:0:
256,192,23278,1,0,0:0:0:0:
256,192,23281,1,0,0:0:0:0:
384,192,23293,1,0,0:0:0:0:
256,192,23297,1,0,0:0:0:0:
256,192,23298,1,0,0:0:0:0:
384,192,23299,1,0,0:0:0:0:
384,192,23308,1,0,0:0:0:0:
256,192,23319,1,0,0:0:0:0:
384,192,23322,1,0,0:0:0:0:
256,192,23325,1,0,0:0:0:0:
384,192,23327,1,0,0:0:0:0:
384,192,23328,1,0,0:0:0:0:
256,192,23329,1,0,0:0:0:0:
384,192,23337,1,0,0:0:0:0:
256,192,23348,1,0,0:0:0:0:
256,192,23349,1,0,0:0:0:0:
384,192,23352,1,0,0:0:0:0:
256,192,23363,1,0,0:0:0:0:
384,192,23366,1,0,0:0:0:0:
384,192,23371,1,0,0:0:0:0:
384,192,23372,1,0,0:0:0:0:
256,192,23373,1,0,0:0:0:0:
256,192,23375,1,0,0:0:0:0:
384,192,23390,1,0,0:0:0:0:
256,192,23392,1,0,0:0:0:0:
256,192,23393,1,0,0:0:0:0:
384,192,23396,1,0,0:0:0:0:
384,192,23398,1,0,0:0:0:0:
256,192,23413,1,0,0:0:0:0:
384,192,23417,1,0,0:0:0:0:
384,192,23418,1,0,0:0:0:0:
256,192,23419,1,0,0:0:0:0:
384,192,23419,1,0,0:0:0:0:
256,192,23424,1,0,0:0:0:0:
384,192,23434,1,0,0:0:0:0:
256,192,23442,1,0,0:0:0:0:
384,192,23442,1,0,0:0:0:0:
256,192,23444,1,0,0:0:0:0:
256,192,23457,1,0,0:0:0:0:
384,192,23461,1,0,0:0:0:0:
384,192,23462,1,0,0:0:0:0:
384,192,23463,1,0,0:0:0:0:
256,192,23468,1,0,0:0:0:0:
256,192,23470,1,0,0:0:0:0:
384,192,23480,1,0,0:0:0:0:
384,192,23486,1,0,0:0:0:0:
256,192,23486,1,0,0:0:0:0:
256,192,23488,1,0,0:0:0:0:
384,192,23495,1,0,0:0:0:0:
256,192,23508,1,0,0:0:0:0:
384,192,23509,1,0,0:0:0:0:
256,192,23514,1,0,0:0:0:0:
384,192,23515,1,0,0:0:0:0:
256,192,23518,1,0,0:0:0:0:
384,192,23524,1,0,0:0:0:0:
256,192,23537,1,0,0:0:0:0:
256,192,23538,1,0,0:0:0:0:
384,192,23539,1,0,0:0:0:0:
384,192,23540,1,0,0:0:0:0:
256,192,23552,1,0,0:0:0:0:
384,192,23553,1,0,0:0:0:0:
384,192,23559,1,0,0:0:0:0:
256,192,23562,1,0,0:0:0:0:
256,192,23565,1,0,0:0:0:0:
384,192,23578,1,0,0:0:0:0:
256,192,23581,1,0,0:0:0:0:
256,192,23582,1,0,0:0:0:0:
384,192,23584,1,0,0:0:0:0:
384,192,23585,1,0,0:0:0:0:
256,192,23603,1,0,0:0:0:0:
384,192,23605,1,0,0:0:0:0:
384,192,23607,1,0,0:0:0:0:
256,192,23609,1,0,0:0:0:0:
256,192,23613,1,0,0:0:0:0:
384,192,23622,1,0,0:0:0:0:
384,192,23629,1,0,0:0:0:0:
256,192,23632,1,0,0:0:0:0:
256,192,23633,1,0,0:0:0:0:
384,192,23637,1,0,0:0:0:0:
256,192,23647,1,0,0:0:0:0:
384,192,23649,1,0,0:0:0:0:
384,192,23651,1,0,0:0:0:0:
256,192,23657,1,0,0:0:0:0:
256,192,23660,1,0,0:0:0:0:
384,192,23675,1,0,0:0:0:0:
256,192,23676,1,0,0:0:0:0:
256,192,23677,1,0,0:0:0:0:
384,192,23681,1,0,0:0:0:0:
384,192,23683,1,0,0:0:0:0:
256,192,23698,1,0,0:0:0:0:
384,192,23702,1,0,0:0:0:0:
384,192,23703,1,0,0:0:0:0:
256,192,23704,1,0,0:0:0:0:
384,192,23704,1,0,0:0:0:0:
256,192,23708,1,0,0:0:0:0:
384,192,23719,1,0,0:0:0:0:
256,192,23727,1,0,0:0:0:0:
384,192,23727,1,0,0:0:0:0:
256,192,23728,1,0,0:0:0:0:
256,192,23742,1,0,0:0:0:0:
384,192,23746,1,0,0:0:0:0:
384,192,23747,1,0,0:0:0:0:
384,192,23748,1,0,0:0:0:0:
256,192,23752,1,0,0:0:0:0:
256,192,23754,1,0,0:0:0:0:
384,192,23765,1,0,0:0:0:0:
384,192,23771,1,0,0:0:0:0:
256,192,23771,1,0,0:0:0:0:
256,192,23772,1,0,0:0:0:0:
384,192,23780,1,0,0:0:0:0:
256,192,23792,1,0,0:0:0:0:
384,192,23794,1,0,0:0:0:0:
256,192,23798,1,0,0:0:0:0:
384,192,23800,1,0,0:0:0:0:
256,192,23803,1,0,0:0:0:0:
384,192,23809,1,0,0:0:0:0:
256,192,23821,1,0,0:0:0:0:
256,192,23823,1,0,0:0:0:0:
384,192,23824,1,0,0:0:0:0:
384,192,23825,1,0,0:0:0:0:
256,192,23836,1,0,0:0:0:0:
384,192,23838,1,0,0:0:0:0:
384,192,23844,1,0,0:0:0:0:
256,192,23847,1,0,0:0:0:0:
256,192,23849,1,0,0:0:0:0:
384,192,23863,1,0,0:0:0:0:
256,192,23865,1,0,0:0:0:0:
256,192,23867,1,0,0:0:0:0:
384,192,23869,1,0,0:0:0:0:
384,192,23870,1,0,0:0:0:0:
256,192,23887,1,0,0:0:0:0:
384,192,23890,1,0,0:0:0:0:
384,192,23892,1,0,0:0:0:0:
256,192,23893,1,0,0:0:0:0:
256,192,23897,1,0,0:0:0:0:
384,192,23907,1,0,0:0:0:0:
384,192,23914,1,0,0:0:0:0:
256,192,23916,1,0,0:0:0:0:
256,192,23917,1,0,0:0:0:0:
384,192,23922,1,0,0:0:0:0:
256,192,23931,1,0,0:0:0:0:
384,192,23934,1,0,0:0:0:0:
384,192,23936,1,0,0:0:0:0:
256,192,23941,1,0,0:0:0:0:
256,192,23944,1,0,0:0:0:0:
384,192,23960,1,0,0:0:0:0:
256,192,23960,1,0,0:0:0:0:
256,192,23961,1,0,0:0:0:0:
384,192,23966,1,0,0:0:0:0:
384,192,23968,1,0,0:0:0:0:
256,192,23982,1,0,0:0:0:0:
384,192,23987,1,0,0:0:0:0:
256,192,23988,1,0,0:0:0:0:
384,192,23988,1,0,0:0:0:0:
384,192,23989,1,0,0:0:0:0:
256,192,23992,1,0,0:0:0:0:
384,192,24004,1,0,0:0:0:0:
256,192,24011,1,0,0:0:0:0:
384,192,24012,1,0,0:0:0:0:
256,192,24012,1,0,0:0:0:0:
256,192,24026,1,0,0:0:0:0:
384,192,24031,1,0,0:0:0:0:
384,192,24032,1,0,0:0:0:0:
384,192,24033,1,0,0:0:0:0:
256,192,24036,1,0,0:0:0:0:
256,192,24039,1,0,0:0:0:0:
384,192,24050,1,0,0:0:0:0:
256,192,24055,1,0,0:0:0:0:
384,192,24056,1,0,0:0:0:0:
256,192,24056,1,0,0:0:0:0:
384,192,24065,1,0,0:0:0:0:
256,192,24077,1,0,0:0:0:0:
384,192,24079,1,0,0:0:0:0:
256,192,24083,1,0,0:0:0:0:
384,192,24085,1,0,0:0:0:0:
256,192,24087,1,0,0:0:0:0:
384,192,24094,1,0,0:0:0:0:
256,192,24106,1,0,0:0:0:0:
256,192,24107,1,0,0:0:0:0:
384,192,24109,1,0,0:0:0:0:
384,192,24110,1,0,0:0:0:0:
256,192,24121,1,0,0:0:0:0:
384,192,24123,1,0,0:0:0:0:
384,192,24129,1,0,0:0:0:0:
256,192,24131,1,0,0:0:0:0:
256,192,24133,1,0,0:0:0:0:
384,192,24148,1,0,0:0:0:0:
256,192,24150,1,0,0:0:0:0:
256,192,24151,1,0,0:0:0:0:
384,192,24154,1,0,0:0:0:0:
384,192,24155,1,0,0:0:0:0:
256,192,24171,1,0,0:0:0:0:
384,192,24175,1,0,0:0:0:0:
256,192,24177,1,0,0:0:0:0:
384,192,24177,1,0,0:0:0:0:
256,192,24182,1,0,0:0:0:0:
384,192,24192,1,0,0:0:0:0:
384,192,24199,1,0,0:0:0:0:
384,192,24200,1,0,0:0:0:0:
256,192,24200,1,0,0:0:0:0:
256,192,24202,1,0,0:0:0:0:
256,192,24215,1,0,0:0:0:0:
384,192,24219,1,0,0:0:0:0:
384,192,24221,1,0,0:0:0:0:
256,192,24226,1,0,0:0:0:0:
256,192,24228,1,0,0:0:0:0:
384,192,24238,1,0,0:0:0:0:
384,192,24244,1,0,0:0:0:0:
256,192,24244,1,0,0:0:0:0:
256,192,24246,1,0,0:0:0:0:
384,192,24253,1,0,0:0:0:0:
256,192,24266,1,0,0:0:0:0:
384,192,24267,1,0,0:0:0:0:
384,192,24272,1,0,0:0:0:0:
256,192,24272,1,0,0:0:0:0:
384,192,24273,1,0,0:0:0:0:
256,192,24276,1,0,0:0:0:0:
384,192,24282,1,0,0:0:0:0:
256,192,24295,1,0,0:0:0:0:
256,192,24296,1,0,0:0:0:0:
384,192,24297,1,0,0:0:0:0:
256,192,24310,1,0,0:0:0:0:
384,192,24311,1,0,0:0:0:0:
384,192,24316,1,0,0:0:0:0:
384,192,24317,1,0,0:0:0:0:
256,192,24320,1,0,0:0:0:0:
256,192,24323,1,0,0:0:0:0:
384,192,24335,1,0,0:0:0:0:
256,192,24339,1,0,0:0:0:0:
256,192,24340,1,0,0:0:0:0:
384,192,24341,1,0,0:0:0:0:
384,192,24343,1,0,0:0:0:0:
256,192,24361,1,0,0:0:0:0:
384,192,24363,1,0,0:0:0:0:
384,192,24364,1,0,0:0:0:0:
256,192,24367,1,0,0:0:0:0:
384,192,24370,1,0,0:0:0:0:
256,192,24371,1,0,0:0:0:0:
384,192,24379,1,0,0:0:0:0:
384,192,24387,1,0,0:0:0:0:
256,192,24390,1,0,0:0:0:0:
256,192,24391,1,0,0:0:0:0:
384,192,24395,1,0,0:0:0:0:
256,192,24405,1,0,0:0:0:0:
384,192,24407,1,0,0:0:0:0:
384,192,24408,1,0,0:0:0:0:
384,192,24414,1,0,0:0:0:0:
256,192,24415,1,0,0:0:0:0:
256,192,24418,1,0,0:0:0:0:
384,192,24433,1,0,0:0:0:0:
256,192,24434,1,0,0:0:0:0:
256,192,24435,1,0,0:0:0:0:
384,192,24439,1,0,0:0:0:0:
384,192,24440,1,0,0:0:0:0:
256,192,24456,1,0,0:0:0:0:
384,192,24460,1,0,0:0:0:0:
256,192,24462,1,0,0:0:0:0:
384,192,24462,1,0,0:0:0:0:
256,192,24466,1,0,0:0:0:0:
384,192,24477,1,0,0:0:0:0:
384,192,24484,1,0,0:0:0:0:
384,192,24485,1,0,0:0:0:0:
256,192,24485,1,0,0:0:0:0:
256,192,24486,1,0,0:0:0:0:
256,192,24500,1,0,0:0:0:0:
384,192,24504,1,0,0:0:0:0:
384,192,24506,1,0,0:0:0:0:
256,192,24510,1,0,0:0:0:0:
256,192,24512,1,0,0:0:0:0:
384,192,24523,1,0,0:0:0:0:
384,192,24529,1,0,0:0:0:0:
256,192,24529,1,0,0:0:0:0:
256,192,24530,1,0,0:0:0:0:
384,192,24538,1,0,0:0:0:0:
256,192,24550,1,0,0:0:0:0:
384,192,24552,1,0,0:0:0:0:
256,192,24556,1,0,0:0:0:0:
384,192,24558,1,0,0:0:0:0:
256,192,24561,1,0,0:0:0:0:
384,192,24567,1,0,0:0:0:0:
256,192,24579,1,0,0:0:0:0:
256,192,24581,1,0,0:0:0:0:
384,192,24582,1,0,0:0:0:0:
256,192,24594,1,0,0:0:0:0:
384,192,24596,1,0,0:0:0:0:
384,192,24602,1,0,0:0:0:0:
256,192,24605,1,0,0:0:0:0:
256,192,24607,1,0,0:0:0:0:
384,192,24620,1,0,0:0:0:0:
256,192,24623,1,0,0:0:0:0:
256,192,24625,1,0,0:0:0:0:
384,192,24626,1,0,0:0:0:0:
384,192,24628,1,0,0:0:0:0:
256,192,24645,1,0,0:0:0:0:
384,192,24648,1,0,0:0:0:0:
384,192,24649,1,0,0:0:0:0:
256,192,24651,1,0,0:0:0:0:
256,192,24655,1,0,0:0:0:0:
384,192,24664,1,0,0:0:0:0:
384,192,24672,1,0,0:0:0:0:
256,192,24674,1,0,0:0:0:0:
256,192,24675,1,0,0:0:0:0:
384,192,24680,1,0,0:0:0:0:
256,192,24689,1,0,0:0:0:0:
384,192,24692,1,0,0:0:0:0:
384,192,24693,1,0,0:0:0:0:
256,192,24699,1,0,0:0:0:0:
256,192,24702,1,0,0:0:0:0:
384,192,24718,1,0,0:0:0:0:
256,192,24718,1,0,0:0:0:0:
256,192,24719,1,0,0:0:0:0:
384,192,24724,1,0,0:0:0:0:
384,192,24725,1,0,0:0:0:0:
256,192,24740,1,0,0:0:0:0:
384,192,24745,1,0,0:0:0:0:
256,192,24746,1,0,0:0:0:0:
384,192,24747,1,0,0:0:0:0:
256,192,24750,1,0,0:0:0:0:
384,192,24762,1,0,0:0:0:0:
256,192,24769,1,0,0:0:0:0:
384,192,24769,1,0,0:0:0:0:
384,192,24770,1,0,0:0:0:0:
256,192,24770,1,0,0:0:0:0:
256,192,24784,1,0,0:0:0:0:
384,192,24789,1,0,0:0:0:0:
384,192,24791,1,0,0:0:0:0:
256,192,24794,1,0,0:0:0:0:
256,192,24797,1,0,0:0:0:0:
384,192,24808,1,0,0:0:0:0:
256,192,24813,1,0,0:0:0:0:
384,192,24814,1,0,0:0:0:0:
256,192,24814,1,0,0:0:0:0:
384,192,24823,1,0,0:0:0:0:
256,192,24835,1,0,0:0:0:0:
384,192,24837,1,0,0:0:0:0:
256,192,24841,1,0,0:0:0:0:
384,192,24843,1,0,0:0:0:0:
256,192,24845,1,0,0:0:0:0:
384,192,24852,1,0,0:0:0:0:
256,192,24864,1,0,0:0:0:0:
256,192,24865,1,0,0:0:0:0:
384,192,24867,1,0,0:0:0:0:
256,192,24879,1,0,0:0:0:0:
384,192,24881,1,0,0:0:0:0:
384,192,24887,1,0,0:0:0:0:
256,192,24889,1,0,0:0:0:0:
256,192,24891,1,0,0:0:0:0:
384,192,24905,1,0,0:0:0:0:
256,192,24908,1,0,0:0:0:0:
256,192,24909,1,0,0:0:0:0:
384,192,24911,1,0,0:0:0:0:
384,192,24913,1,0,0:0:0:0:
256,192,24929,1,0,0:0:0:0:
384,192,24933,1,0,0:0:0:0:
384,192,24934,1,0,0:0:0:0:
256,192,24935,1,0,0:0:0:0:
256,192,24940,1,0,0:0:0:0:
384,192,24949,1,0,0:0:0:0:
384,192,24957,1,0,0:0:0:0:
256,192,24958,1,0,0:0:0:0:
256,192,24960,1,0,0:0:0:0:
384,192,24965,1,0,0:0:0:0:
256,192,24973,1,0,0:0:0:0:
384,192,24977,1,0,0:0:0:0:
384,192,24978,1,0,0:0:0:0:
256,192,24984,1,0,0:0:0:0:
256,192,24986,1,0,0:0:0:0:
256,192,25002,1,0,0:0:0:0:
384,192,25003,1,0,0:0:0:0:
256,192,25004,1,0,0:0:0:0:
384,192,25009,1,0,0:0:0:0:
384,192,25010,1,0,0:0:0:0:
256,192,25024,1,0,0:0:0:0:
256,192,25030,1,0,0:0:0:0:
384,192,25030,1,0,0:0:0:0:
384,192,25032,1,0,0:0:0:0:
256,192,25034,1,0,0:0:0:0:
384,192,25047,1,0,0:0:0:0:
256,192,25053,1,0,0:0:0:0:
384,192,25054,1,0,0:0:0:0:
256,192,25054,1,0,0:0:0:0:
384,192,25055,1,0,0:0:0:0:
256,192,25068,1,0,0:0:0:0:
384,192,25074,1,0,0:0:0:0:
384,192,25076,1,0,0:0:0:0:
256,192,25078,1,0,0:0:0:0:
256,192,25081,1,0,0:0:0:0:
384,192,25093,1,0,0:0:0:0:
256,192,25097,1,0,0:0:0:0:
256,192,25098,1,0,0:0:0:0:
384,192,25099,1,0,0:0:0:0:
384,192,25108,1,0,0:0:0:0:
256,192,25119,1,0,0:0:0:0:
384,192,25122,1,0,0:0:0:0:
256,192,25125,1,0,0:0:0:0:
384,192,25128,1,0,0:0:0:0:
256,192,25129,1,0,0:0:0:0:
384,192,25137,1,0,0:0:0:0:
256,192,25148,1,0,0:0:0:0:
256,192,25149,1,0,0:0:0:0:
384,192,25152,1,0,0:0:0:0:
256,192,25163,1,0,0:0:0:0:
384,192,25166,1,0,0:0:0:0:
384,192,25172,1,0,0:0:0:0:
256,192,25173,1,0,0:0:0:0:
256,192,25192,1,0,0:0:0:0:
256,192,25193,1,0,0:0:0:0:
384,192,25198,1,0,0:0:0:0:
384,192,25218,1,0,0:0:0:0:
256,192,25224,1,0,0:0:0:0:
384,192,25242,1,0,0:0:0:0:
256,192,25244,1,0,0:0:0:0:
384,192,25262,1,0,0:0:0:0:
256,192,25268,1,0,0:0:0:0:
256,192,25288,1,0,0:0:0:0:
