osu file format v14

[General]
AudioFilename: audio.mp3
AudioLeadIn: 0
PreviewTime: -1
Countdown: 1
SampleSet: None
StackLeniency: 0.7
Mode: 0
LetterboxInBreaks: 0
WidescreenStoryboard: 0

[Editor]
Bookmarks: 39270,48500
DistanceSpacing: 0.5
BeatDivisor: 4
GridSize: 16
TimelineZoom: 1.7

[Metadata]
Title:lmao
TitleUnicode:lmao
Artist:uhh
ArtistUnicode:uhh
Creator:MrBalloon
Version:super hard lol
Source:
Tags:
BeatmapID:1810779
BeatmapSetID:866084

[Difficulty]
HPDrainRate:5
CircleSize:4
OverallDifficulty:8
ApproachRate:10
SliderMultiplier:2
SliderTickRate:1

[Events]
//Background and Video events
//Break Periods
//Storyboard Layer 0 (Background)
//Storyboard Layer 1 (Fail)
//Storyboard Layer 2 (Pass)
//Storyboard Layer 3 (Foreground)
//Storyboard Sound Samples

[TimingPoints]
2351,288.433804441881,4,1,0,50,1,0
11004,-133.333333333333,4,1,0,50,0,0
11580,-100,4,1,0,50,0,0
47635,-133.333333333333,4,1,0,50,0,0
47923,-333.333333333333,4,1,0,50,0,0
48500,-66.6666666666667,4,1,0,75,0,1

[HitObjects]
41,238,43885,6,0,L|44:131,1,100
250,56,44173,2,0,L|247:163,1,100
37,219,44462,2,0,L|50:112,1,100
261,55,44750,2,0,L|249:162,1,100
371,319,45039,6,0,L|359:219,1,100
147,156,45327,2,0,L|158:255,1,100
381,308,45616,2,0,L|361:210,1,100
144,165,45904,2,0,L|164:263,1,100
170,287,46120,1,0,0:0:0:0:
176,311,46192,5,0,0:0:0:0:
294,266,46337,1,0,0:0:0:0:
423,200,46481,5,0,0:0:0:0:
268,167,46625,1,0,0:0:0:0:
64,91,46769,5,0,0:0:0:0:
204,68,46914,1,0,0:0:0:0:
475,126,47058,5,0,0:0:0:0:
313,83,47202,1,0,0:0:0:0:
313,83,47274,1,0,0:0:0:0:
313,83,47346,5,0,0:0:0:0:
356,319,47490,1,0,0:0:0:0:
181,196,47635,5,0,0:0:0:0:
411,229,47779,1,0,0:0:0:0:
167,206,47923,6,0,P|167:190|180:215,1,89.9999972534181
38,78,48500,6,0,B|100:89|164:69|164:69|211:89|211:89|273:73|346:100,1,300.000011444092
255,328,48933,2,0,P|243:296|243:247,1,75.0000028610231
305,78,49077,2,0,P|307:119|301:83,1,150.000005722046
456,201,49365,2,0,B|423:191|403:158|403:158|378:188|333:197,1,150.000005722046
61,164,49654,6,0,P|100:143|158:37,1,150.000005722046
438,265,49942,2,0,P|415:227|418:106,1,150.000005722046
61,164,50231,5,0,0:0:0:0:
155,55,50375,1,0,0:0:0:0:
438,265,50519,5,0,0:0:0:0:
411,123,50663,1,0,0:0:0:0:
199,335,50807,6,0,B|217:313|222:278|222:278|237:313|270:328|270:328|336:299|409:318|409:318|396:331|381:333,1,300.000011444092
273,51,51240,2,0,P|270:88|279:124,1,75.0000028610231
368,366,51384,2,0,B|415:351|415:351|399:303|399:303|351:319,1,150.000005722046
152,361,51673,2,0,B|77:355|47:283|47:283|74:293,1,150.000005722046
461,48,51961,6,0,P|442:83|432:199,1,150.000005722046
43,159,52250,2,0,P|76:179|143:275,1,150.000005722046
430,190,52538,5,0,0:0:0:0:
461,48,52682,1,0,0:0:0:0:
43,159,52826,5,0,0:0:0:0:
141,267,52970,1,0,0:0:0:0:
361,75,53115,6,0,B|311:31|248:53|248:53|193:74|143:50|143:50|125:63|116:76|116:76|101:58|82:48,1,300.000011444092
262,330,53548,2,0,P|252:307|260:244,1,75.0000028610231
321,90,53692,2,0,B|369:42|369:42|385:106|385:106|337:90,1,150.000005722046
89,156,53980,2,0,B|132:130|158:136|158:136|171:154|171:154|206:149|230:172,1,150.000005722046
429,241,54269,6,0,P|453:162|459:76,1,150.000005722046
130,320,54557,2,0,P|70:264|22:193,1,150.000005722046
429,241,54845,5,0,0:0:0:0:
459,95,54990,1,0,0:0:0:0:
130,320,55134,5,0,0:0:0:0:
31,209,55278,1,0,0:0:0:0:
422,341,55422,6,0,B|402:337|390:329|390:329|375:339|362:350|362:350|336:300|272:251|183:287|164:353,1,300.000011444092
273,52,55855,2,0,P|281:91|304:128,1,75.0000028610231
198,354,55999,2,0,B|213:355|232:324|232:324|263:343|296:330|296:330|309:363|325:365,1,150.000005722046
212,138,56288,2,0,B|173:159|147:186|147:186|108:182|76:156,1,150.000005722046
428,69,56576,6,0,P|417:137|357:208,1,150.000005722046
84,315,56864,2,0,P|95:247|155:176,1,150.000005722046
428,69,57153,5,0,0:0:0:0:
369,325,57297,1,0,0:0:0:0:
143,183,57441,2,0,L|25:153,2,100.000003814697
457,145,57730,6,0,B|379:162|316:122|316:122|266:129|228:101|228:101|204:106|204:106|188:82|169:72,1,300.000011444092
255,342,58162,2,0,P|282:318|292:274,1,75.0000028610231
127,79,58307,2,0,B|159:79|175:63|175:63|191:79|191:111|191:111|207:95|239:95|239:95|223:47,1,150.000005722046
