osu file format v14

[General]
AudioFilename: audio.mp3
AudioLeadIn: 0
PreviewTime: -1
Countdown: 0
SampleSet: None
StackLeniency: 0.7
Mode: 0
LetterboxInBreaks: 0
WidescreenStoryboard: 1

[Editor]
DistanceSpacing: 1.5
BeatDivisor: 4
GridSize: 8
TimelineZoom: 1

[Metadata]
Title:SCP-3008 Saturday Theme
TitleUnicode:SCP-3008 Saturday Theme
Artist:uglyburger0
ArtistUnicode:uglyburger0
Creator:Piotreix
Version:Easy
Source:Roblox SCP-3008
Tags:scp 3008 uglyburger0
BeatmapID:3613429
BeatmapSetID:1764788

[Difficulty]
HPDrainRate:5
CircleSize:4.4
OverallDifficulty:6
ApproachRate:6.5
SliderMultiplier:1.6
SliderTickRate:2

[Events]
//Background and Video events
0,0,"Png.png",0,0
//Break Periods
2,18866,20358
2,72200,73691
//Storyboard Layer 0 (Background)
//Storyboard Layer 1 (Fail)
//Storyboard Layer 2 (Pass)
//Storyboard Layer 3 (Foreground)
//Storyboard Layer 4 (Overlay)
//Storyboard Sound Samples

[TimingPoints]
0,666.666666666667,4,1,0,100,1,0

[Colours]
Combo1 : 255,255,255
Combo2 : 74,89,162
Combo3 : 67,98,112
Combo4 : 255,255,255

[HitObjects]
256,192,0,5,0,0:0:0:0:
256,192,2666,1,0,0:0:0:0:
256,192,5333,1,0,0:0:0:0:
256,192,8000,1,0,0:0:0:0:
224,160,10666,1,0,0:0:0:0:
288,160,11333,1,0,0:0:0:0:
288,224,12000,1,0,0:0:0:0:
224,224,12666,1,0,0:0:0:0:
200,136,13333,1,0,0:0:0:0:
312,136,14000,1,0,0:0:0:0:
312,248,14666,1,0,0:0:0:0:
200,248,15333,1,0,0:0:0:0:
256,192,16000,12,0,18666,0:0:0:0:
40,40,21333,6,0,L|224:40,1,160
296,40,22666,2,0,B|480:40,1,160
472,152,24000,2,0,L|280:152,1,160
216,152,25333,2,0,L|32:152,1,160
40,232,26666,6,0,L|216:232,1,160
304,232,28000,2,0,L|488:232,1,160
464,328,29333,2,0,L|288:328,1,160
208,328,30666,2,0,L|32:328,1,160
184,120,32666,5,0,0:0:0:0:
328,120,34000,1,0,0:0:0:0:
328,264,35333,1,0,0:0:0:0:
184,264,36666,1,0,0:0:0:0:
256,192,37333,12,0,40000,0:0:0:0:
216,152,42666,5,0,0:0:0:0:
296,152,43333,1,0,0:0:0:0:
296,232,44000,1,0,0:0:0:0:
216,232,44666,1,0,0:0:0:0:
192,128,45333,1,0,0:0:0:0:
320,128,46000,1,0,0:0:0:0:
320,256,46666,1,0,0:0:0:0:
192,256,47333,1,0,0:0:0:0:
256,192,48000,12,0,52666,0:0:0:0:
16,192,53333,6,0,L|496:192,1,480
496,192,56000,2,0,L|16:192,1,480
256,192,58666,12,0,61333,0:0:0:0:
216,152,64000,5,0,0:0:0:0:
296,152,65333,1,0,0:0:0:0:
296,232,66000,1,0,0:0:0:0:
216,232,66666,1,0,0:0:0:0:
216,152,68000,1,0,0:0:0:0:
296,152,68666,1,0,0:0:0:0:
296,232,69333,1,0,0:0:0:0:
216,232,70666,1,0,0:0:0:0:
216,152,71333,1,0,0:0:0:0:
296,152,72000,1,0,0:0:0:0:
88,88,74666,6,0,L|408:88,6,320
256,192,82666,12,0,84666,0:0:0:0:
