osu file format v14

[General]
AudioFilename: audio.mp3
AudioLeadIn: 0
PreviewTime: 11277
Countdown: 0
SampleSet: Normal
StackLeniency: 0.7
Mode: 1
LetterboxInBreaks: 0
WidescreenStoryboard: 0

[Editor]
Bookmarks: 33866,45165,56459,59283,79047,90341,141160
DistanceSpacing: 1
BeatDivisor: 6
GridSize: 8
TimelineZoom: 3.4

[Metadata]
Title:Malloy (Cut Ver.)
TitleUnicode:Malloy (Cut Ver.)
Artist:ug
ArtistUnicode:ug
Creator:ZTH
Version:Paradise
Source:
Tags:electronic instrumental breakbeat ugtek
BeatmapID:4345479
BeatmapSetID:2075682

[Difficulty]
HPDrainRate:6
CircleSize:5
OverallDifficulty:7
ApproachRate:5
SliderMultiplier:1.4
SliderTickRate:1

[Events]
//Background and Video events
0,0,"F5xPqhibAAAtD9Q.jpg",0,82
//Break Periods
//Storyboard Layer 0 (Background)
//Storyboard Layer 1 (Fail)
//Storyboard Layer 2 (Pass)
//Storyboard Layer 3 (Foreground)
//Storyboard Layer 4 (Overlay)
//Storyboard Sound Samples

[TimingPoints]
33866,352.941176470588,4,1,0,83,1,8
33866,-454.545454545455,4,1,0,83,0,0
45154,-200,4,1,0,93,0,0
45242,-208.313651393481,4,1,0,93,0,0
45330,-217.348447511089,4,1,0,93,0,0
45419,-227.319587628866,4,1,0,93,0,0
45507,-238.120950323974,4,1,0,93,0,0
45595,-250,4,1,0,93,0,0
45683,-263.126491646778,4,1,0,93,0,0
45772,-277.882797731569,4,1,0,93,0,0
45860,-294.196130753836,4,1,0,93,0,0
45948,-312.544294826364,4,1,0,93,0,0
46036,-333.333333333333,4,1,0,93,0,0
46124,-357.085020242915,4,1,0,93,0,0
46213,-384.816753926701,4,1,0,93,0,0
46301,-416.824196597353,4,1,0,93,0,0
46389,-454.639175257732,4,1,0,93,0,0
46477,-500,4,1,0,93,0,0
46566,-222.222222222222,4,1,0,93,0,0
46654,-231.459612659424,4,1,0,93,0,0
46742,-241.498275012321,4,1,0,93,0,0
46830,-252.447192168985,4,1,0,93,0,0
46919,-264.578833693305,4,1,0,93,0,0
47007,-277.777777777778,4,1,0,93,0,0
47095,-292.36276849642,4,1,0,93,0,0
47183,-308.564231738035,4,1,0,93,0,0
47272,-326.884589726484,4,1,0,93,0,0
47360,-347.27143869596,4,1,0,93,0,0
47448,-370.37037037037,4,1,0,93,0,0
47536,-396.761133603239,4,1,0,93,0,0
47624,-427.20139494333,4,1,0,93,0,0
47713,-463.137996219282,4,1,0,93,0,0
47801,-505.154639175258,4,1,0,93,0,0
47889,-555.555555555556,4,1,0,93,0,0
47977,-250,4,1,0,93,0,0
48066,-260.506847158823,4,1,0,93,0,0
48154,-271.801609459681,4,1,0,93,0,0
48242,-284.12017167382,4,1,0,93,0,0
48330,-297.608343823053,4,1,0,93,0,0
48419,-312.618058179071,4,1,0,93,0,0
48507,-329.025844930418,4,1,0,93,0,0
48595,-347.251363827109,4,1,0,93,0,0
48683,-367.614393602843,4,1,0,93,0,0
48772,-390.791027154664,4,1,0,93,0,0
48860,-416.771594056913,4,1,0,93,0,0
48948,-446.45265713515,4,1,0,93,0,0
49036,-480.685448736567,4,1,0,93,0,0
49124,-520.603963510538,4,1,0,93,0,0
49213,-568.337912087912,4,1,0,93,0,0
49301,-625,4,1,0,93,0,0
49389,-285.714285714286,4,1,0,93,0,0
49477,-297.58158770116,4,1,0,93,0,0
49566,-310.630410811064,4,1,0,93,0,0
49654,-324.708767627223,4,1,0,93,0,0
49742,-340.123821512061,4,1,0,93,0,0
49830,-357.075433533806,4,1,0,93,0,0
49919,-376.029537063334,4,1,0,93,0,0
50007,-396.858701516696,4,1,0,93,0,0
50095,-420.130735546106,4,1,0,93,0,0
50183,-446.302164093575,4,1,0,93,0,0
50272,-476.3103932079,4,1,0,93,0,0
50360,-510.231608154457,4,1,0,93,0,0
50448,-549.354798556077,4,1,0,93,0,0
50536,-594.975958297758,4,1,0,93,0,0
50624,-648.860573388875,4,1,0,93,0,0
50794,-200,4,1,0,93,0,0
50888,-208.313651393481,4,1,0,93,0,0
50976,-217.348447511089,4,1,0,93,0,0
51065,-227.319587628866,4,1,0,93,0,0
51153,-238.120950323974,4,1,0,93,0,0
51241,-250,4,1,0,93,0,0
51329,-263.126491646778,4,1,0,93,0,0
51418,-277.882797731569,4,1,0,93,0,0
51506,-294.196130753836,4,1,0,93,0,0
51594,-312.544294826364,4,1,0,93,0,0
51682,-333.333333333333,4,1,0,93,0,0
51770,-357.085020242915,4,1,0,93,0,0
51859,-384.816753926701,4,1,0,93,0,0
51947,-416.824196597353,4,1,0,93,0,0
52035,-454.639175257732,4,1,0,93,0,0
52123,-500,4,1,0,93,0,0
52212,-222.222222222222,4,1,0,93,0,0
52300,-231.459612659424,4,1,0,93,0,0
52388,-241.498275012321,4,1,0,93,0,0
52476,-252.447192168985,4,1,0,93,0,0
52565,-264.578833693305,4,1,0,93,0,0
52653,-277.777777777778,4,1,0,93,0,0
52741,-292.36276849642,4,1,0,93,0,0
52829,-308.564231738035,4,1,0,93,0,0
52918,-326.884589726484,4,1,0,93,0,0
53006,-347.27143869596,4,1,0,93,0,0
53094,-370.37037037037,4,1,0,93,0,0
53182,-396.761133603239,4,1,0,93,0,0
53270,-427.20139494333,4,1,0,93,0,0
53359,-463.137996219282,4,1,0,93,0,0
53447,-505.154639175258,4,1,0,93,0,0
53535,-555.555555555556,4,1,0,93,0,0
53623,-250,4,1,0,93,0,0
53712,-260.506847158823,4,1,0,93,0,0
53800,-271.801609459681,4,1,0,93,0,0
53888,-284.12017167382,4,1,0,93,0,0
53976,-297.608343823053,4,1,0,93,0,0
54065,-312.618058179071,4,1,0,93,0,0
54153,-329.025844930418,4,1,0,93,0,0
54241,-347.251363827109,4,1,0,93,0,0
54329,-367.614393602843,4,1,0,93,0,0
54418,-390.791027154664,4,1,0,93,0,0
54506,-416.771594056913,4,1,0,93,0,0
54594,-446.45265713515,4,1,0,93,0,0
54682,-480.685448736567,4,1,0,93,0,0
54770,-520.603963510538,4,1,0,93,0,0
54859,-568.337912087912,4,1,0,93,0,0
54947,-625,4,1,0,93,0,0
55035,-285.714285714286,4,1,0,93,0,0
55123,-297.58158770116,4,1,0,93,0,0
55212,-310.630410811064,4,1,0,93,0,0
55300,-324.708767627223,4,1,0,93,0,0
55388,-340.123821512061,4,1,0,93,0,0
55476,-357.075433533806,4,1,0,93,0,0
55565,-376.029537063334,4,1,0,93,0,0
55653,-396.858701516696,4,1,0,93,0,0
55741,-420.130735546106,4,1,0,93,0,0
55829,-446.302164093575,4,1,0,93,0,0
55918,-476.3103932079,4,1,0,93,0,0
56006,-510.231608154457,4,1,0,93,0,0
56094,-549.354798556077,4,1,0,93,0,0
56182,-594.975958297758,4,1,0,93,0,0
56270,-648.860573388875,4,1,0,93,0,0
56359,-714.285714285714,4,1,0,93,0,0
56448,-222.222222222222,4,1,0,93,0,0
56536,-238.063093470141,4,1,0,93,0,0
56624,-256.335707709454,4,1,0,93,0,0
56713,-277.909114788547,4,1,0,93,0,0
56801,-303.134490860123,4,1,0,93,0,0
56889,-333.396357219386,4,1,0,93,0,0
56977,-370.37037037037,4,1,0,93,0,0
57154,-277.777777777778,4,1,0,93,0,0
57242,-250.04726791454,4,1,0,93,0,0
57330,-227.350868145092,4,1,0,93,0,0
57418,-208.431836091411,4,1,0,93,0,0
57507,-192.25178078209,4,1,0,93,0,0
57595,-178.547320102606,4,1,0,93,0,0
57683,-166.666666666667,4,1,0,93,0,0
57860,-235.294117647059,4,1,0,93,0,0
57948,-253.100480890914,4,1,0,93,0,0
58036,-273.897562311695,4,1,0,93,0,0
58125,-298.68578255675,4,1,0,93,0,0
58213,-327.97638570023,4,1,0,93,0,0
58301,-363.768643142961,4,1,0,93,0,0
58389,-408.163265306122,4,1,0,93,0,0
58566,-298.507462686567,4,1,0,93,0,0
58654,-266.737796745799,4,1,0,93,0,0
58742,-241.080038572806,4,1,0,93,0,0
58830,-219.876868953386,4,1,0,93,0,0
58919,-201.938610662359,4,1,0,93,0,0
59007,-186.880956830499,4,1,0,93,0,0
59095,-173.913043478261,4,1,0,93,0,0
59272,-250,4,1,0,93,0,0
59360,-270.197243988111,4,1,0,93,0,0
59448,-294.031167303734,4,1,0,93,0,0
59537,-322.788896061975,4,1,0,93,0,0
59625,-357.270453733476,4,1,0,93,0,0
59713,-400.16006402561,4,1,0,93,0,0
59801,-454.545454545455,4,1,0,93,0,0
59978,-322.58064516129,4,1,0,93,0,0
60066,-285.795941697628,4,1,0,93,0,0
60154,-256.54181631606,4,1,0,93,0,0
60242,-232.666356444858,4,1,0,93,0,0
60331,-212.675457252233,4,1,0,93,0,0
60419,-196.0399921584,4,1,0,93,0,0
60507,-181.818181818182,4,1,0,93,0,0
60684,-266.666666666667,4,1,0,93,0,0
60772,-289.771080846132,4,1,0,93,0,0
60860,-317.359568390987,4,1,0,93,0,0
60949,-351.123595505618,4,1,0,93,0,0
61037,-392.310710082385,4,1,0,93,0,0
61125,-444.642063139173,4,1,0,93,0,0
61213,-512.820512820513,4,1,0,93,0,0
61390,-350.877192982456,4,1,0,93,0,0
61478,-307.787011388119,4,1,0,93,0,0
61566,-274.122807017544,4,1,0,93,0,0
61654,-247.03557312253,4,1,0,93,0,0
61743,-224.618149146451,4,1,0,93,0,0
61831,-206.14306328592,4,1,0,93,0,0
61919,-190.47619047619,4,1,0,93,0,0
62095,-222.222222222222,4,1,0,93,0,0
62183,-238.063093470141,4,1,0,93,0,0
62271,-256.335707709454,4,1,0,93,0,0
62360,-277.909114788547,4,1,0,93,0,0
62448,-303.134490860123,4,1,0,93,0,0
62536,-333.396357219386,4,1,0,93,0,0
62624,-370.37037037037,4,1,0,93,0,0
62801,-277.777777777778,4,1,0,93,0,0
62889,-250.04726791454,4,1,0,93,0,0
62977,-227.350868145092,4,1,0,93,0,0
63065,-208.431836091411,4,1,0,93,0,0
63154,-192.25178078209,4,1,0,93,0,0
63242,-178.547320102606,4,1,0,93,0,0
63330,-166.666666666667,4,1,0,93,0,0
63507,-235.294117647059,4,1,0,93,0,0
63595,-253.100480890914,4,1,0,93,0,0
63683,-273.897562311695,4,1,0,93,0,0
63772,-298.68578255675,4,1,0,93,0,0
63860,-327.97638570023,4,1,0,93,0,0
63948,-363.768643142961,4,1,0,93,0,0
64036,-408.163265306122,4,1,0,93,0,0
64213,-298.507462686567,4,1,0,93,0,0
64301,-266.737796745799,4,1,0,93,0,0
64389,-241.080038572806,4,1,0,93,0,0
64477,-219.876868953386,4,1,0,93,0,0
64566,-201.938610662359,4,1,0,93,0,0
64654,-186.880956830499,4,1,0,93,0,0
64742,-173.913043478261,4,1,0,93,0,0
64919,-250,4,1,0,93,0,0
65007,-270.197243988111,4,1,0,93,0,0
65095,-294.031167303734,4,1,0,93,0,0
65184,-322.788896061975,4,1,0,93,0,0
65272,-357.270453733476,4,1,0,93,0,0
65360,-400.16006402561,4,1,0,93,0,0
65448,-454.545454545455,4,1,0,93,0,0
65625,-322.58064516129,4,1,0,93,0,0
65713,-285.795941697628,4,1,0,93,0,0
65801,-256.54181631606,4,1,0,93,0,0
65889,-232.666356444858,4,1,0,93,0,0
65978,-212.675457252233,4,1,0,93,0,0
66066,-196.0399921584,4,1,0,93,0,0
66154,-181.818181818182,4,1,0,93,0,0
66331,-266.666666666667,4,1,0,93,0,0
66419,-289.771080846132,4,1,0,93,0,0
66507,-317.359568390987,4,1,0,93,0,0
66596,-351.123595505618,4,1,0,93,0,0
66684,-392.310710082385,4,1,0,93,0,0
66772,-444.642063139173,4,1,0,93,0,0
66860,-512.820512820513,4,1,0,93,0,0
67037,-350.877192982456,4,1,0,93,0,0
67125,-307.787011388119,4,1,0,93,0,0
67213,-274.122807017544,4,1,0,93,0,0
67301,-247.03557312253,4,1,0,93,0,0
67390,-224.618149146451,4,1,0,93,0,0
67478,-206.14306328592,4,1,0,93,0,0
67566,-190.47619047619,4,1,0,93,0,0
67745,-50,4,1,0,93,0,0
68098,-454.545454545455,4,1,0,93,0,0
68804,-50,4,1,0,93,0,0
68980,-454.545454545455,4,1,0,93,0,0
70039,-50,4,1,0,93,0,0
70569,-454.545454545455,4,1,0,93,0,0
71627,-50,4,1,0,93,0,0
71804,-454.545454545455,4,1,0,93,0,0
72863,-50,4,1,0,93,0,0
73392,-454.545454545455,4,1,0,93,0,0
74451,-50,4,1,0,93,0,0
74627,-454.545454545455,4,1,0,93,0,0
75686,-50,4,1,0,93,0,0
76216,-454.545454545455,4,1,0,93,0,0
77275,-50,4,1,0,93,0,0
77451,-454.545454545455,4,1,0,93,0,0
78510,-50,4,1,0,93,0,0
79039,-454.545454545455,4,1,0,93,0,0
80098,-50,4,1,0,93,0,0
80275,-454.545454545455,4,1,0,93,0,0
81333,-50,4,1,0,93,0,0
81863,-454.545454545455,4,1,0,93,0,0
82922,-50,4,1,0,93,0,0
83098,-454.545454545455,4,1,0,93,0,0
84157,-50,4,1,0,93,0,0
84686,-454.545454545455,4,1,0,93,0,0
85745,-50,4,1,0,93,0,0
85922,-454.545454545455,4,1,0,93,0,0
86980,-50,4,1,0,93,0,0
87507,-454.545454545455,4,1,0,93,0,0
87595,-404.167620792306,4,1,0,93,0,0
87683,-363.84250669965,4,1,0,93,0,0
87772,-330.493399494429,4,1,0,93,0,0
87860,-303.030303030303,4,1,0,93,0,0
87948,-279.781247523183,4,1,0,93,0,0
88036,-259.845417740155,4,1,0,93,0,0
88124,-242.5616711331,4,1,0,93,0,0
88213,-227.272727272727,4,1,0,93,0,0
88301,-213.939393939394,4,1,0,93,0,0
88389,-202.083810396153,4,1,0,93,0,0
88477,-191.473204599696,4,1,0,93,0,0
88566,-181.818181818182,4,1,0,93,0,0
88654,-173.183535299024,4,1,0,93,0,0
88742,-165.331834574493,4,1,0,93,0,0
88830,-158.161207939424,4,1,0,93,0,0
88919,-151.515151515152,4,1,0,93,0,0
89007,-107.44909304132,4,1,0,93,0,0
89095,-83.2399268479736,4,1,0,93,0,0
89183,-67.9338667899202,4,1,0,93,0,0
89272,-57.2813484459745,4,1,0,93,0,0
89360,-49.5922957964291,4,1,0,93,0,0
89448,-43.7231959146236,4,1,0,93,0,0
89536,-39.0962693680314,4,1,0,93,0,0
89624,-35.3549020786979,4,1,0,93,0,0
89713,-32.2350715751093,4,1,0,93,0,0
89801,-29.6482137529049,4,1,0,93,0,0
89889,-27.4457018591497,4,1,0,93,0,0
89977,-25.5478020923487,4,1,0,93,0,0
90066,-23.8778590817093,4,1,0,93,0,0
90154,-22.4282962124632,4,1,0,93,0,0
90242,-21.1446588381977,4,1,0,93,0,0
90330,-16.6666666666667,4,1,0,93,0,0
90686,-740.740740740741,4,1,0,93,0,0
91039,-161.290322580645,4,1,0,93,0,0
91127,-151.827956989247,4,1,0,93,0,0
91216,-143.324062607848,4,1,0,93,0,0
91304,-135.803181564622,4,1,0,93,0,0
91392,-129.032258064516,4,1,0,93,0,0
91451,-124.858517260894,4,1,0,93,0,0
91510,-120.946327925582,4,1,0,93,0,0
91568,-117.332269698027,4,1,0,93,0,0
91627,-113.870967741935,4,1,0,93,0,0
91686,-110.60803083238,4,1,0,93,0,0
91745,-107.52688172043,4,1,0,93,0,0
93157,-70.4225352112676,4,1,0,93,0,0
93215,-72.1773500601478,4,1,0,93,0,0
93274,-74.0544829410209,4,1,0,93,0,0
93333,-76.0318609703114,4,1,0,93,0,0
93392,-78.117734585697,4,1,0,93,0,0
93451,-80.3212851405622,4,1,0,93,0,0
93510,-82.6527600118075,4,1,0,93,0,0
93568,-85.0805226374962,4,1,0,93,0,0
93627,-87.7009814157444,4,1,0,93,0,0
93686,-90.4879887967252,4,1,0,93,0,0
93745,-93.4579439252336,4,1,0,93,0,0
94657,-91.5380370962493,4,1,0,93,0,0
94745,-89.6954237311633,4,1,0,93,0,0
94833,-87.9255283006047,4,1,0,93,0,0
94922,-86.2051736428015,4,1,0,93,0,0
94966,-85.3792912331171,4,1,0,93,0,0
95010,-84.5690832685232,4,1,0,93,0,0
95098,-82.9939390052272,4,1,0,93,0,0
95186,-81.4763976602296,4,1,0,93,0,0
95275,-79.9970325675709,4,1,0,93,0,0
95392,-78.1320758134733,4,1,0,93,0,0
95510,-76.3372288524049,4,1,0,93,0,0
95627,-74.6371963177445,4,1,0,93,0,0
95745,-72.9976419617975,4,1,0,93,0,0
95804,-72.204583372858,4,1,0,93,0,0
95863,-71.4285714285714,4,1,0,93,0,0
95983,-50,4,1,0,93,0,0
96336,-107.52688172043,4,1,0,93,0,0
98454,-66.6666666666667,4,1,0,93,0,0
98807,-107.52688172043,4,1,0,93,0,0
101627,-58.8235294117647,4,1,0,93,0,0
101686,-59.9583009550016,4,1,0,93,0,0
101745,-61.137715735601,4,1,0,93,0,0
101804,-62.3644610906714,4,1,0,93,0,0
101863,-63.6414444624732,4,1,0,93,0,0
101921,-64.9488045188177,4,1,0,93,0,0
101980,-66.334991708126,4,1,0,93,0,0
102039,-67.7816394324008,4,1,0,93,0,0
102098,-69.2927914885682,4,1,0,93,0,0
102157,-70.872860512975,4,1,0,93,0,0
102216,-72.5266710155275,4,1,0,93,0,0
102274,-74.2294489041694,4,1,0,93,0,0
102333,-76.0456273764259,4,1,0,93,0,0
102392,-77.9529080520054,4,1,0,93,0,0
102451,-79.958322007792,4,1,0,93,0,0
102510,-82.0696429505548,4,1,0,93,0,0
102569,-84.2954879228207,4,1,0,93,0,0
102627,-86.6045142296369,4,1,0,93,0,0
102686,-89.086859688196,4,1,0,93,0,0
102745,-91.7157072891903,4,1,0,93,0,0
102804,-94.5044206919169,4,1,0,93,0,0
102863,-97.4680398707789,4,1,0,93,0,0
102922,-100.623552467486,4,1,0,93,0,0
102980,-103.931281696465,4,1,0,93,0,0
103039,-107.52688172043,4,1,0,93,0,0
104451,-86.9565217391304,4,1,0,93,0,0
104539,-88.549422747434,4,1,0,93,0,0
104672,-91.0707815948091,4,1,0,93,0,0
104804,-93.7192827848016,4,1,0,93,0,0
104848,-94.6366841222576,4,1,0,93,0,0
104936,-96.5264444056554,4,1,0,93,0,0
104980,-97.4999118445643,4,1,0,93,0,0
105025,-98.5160244419504,4,1,0,93,0,0
105157,-101.622654685117,4,1,0,93,0,0
105216,-103.075489282386,4,1,0,93,0,0
105275,-104.570466879716,4,1,0,93,0,0
105392,-107.667146917955,4,1,0,93,0,0
105451,-109.299337879237,4,1,0,93,0,0
105569,-112.716821915574,4,1,0,93,0,0
105686,-116.323096339924,4,1,0,93,0,0
105745,-118.230603125735,4,1,0,93,0,0
105863,-122.239660469949,4,1,0,93,0,0
105980,-126.492520243378,4,1,0,93,0,0
106039,-128.751367837769,4,1,0,93,0,0
106098,-131.092357291864,4,1,0,93,0,0
106157,-133.520052152498,4,1,0,93,0,0
106216,-136.039360393604,4,1,0,93,0,0
106260,-137.980937172514,4,1,0,93,0,0
106304,-139.978737406976,4,1,0,93,0,0
106392,-144.153068140347,4,1,0,93,0,0
106480,-148.584018485679,4,1,0,93,0,0
106525,-150.956787595883,4,1,0,93,0,0
106569,-153.35126591054,4,1,0,93,0,0
106686,-160.104226983208,4,1,0,93,0,0
106804,-167.545294794886,4,1,0,93,0,0
106922,-175.711743772242,4,1,0,93,0,0
107010,-182.339752044315,4,1,0,93,0,0
107098,-189.487390350877,4,1,0,93,0,0
107157,-194.601822852518,4,1,0,93,0,0
107216,-200,4,1,0,93,0,0
108686,-107.52688172043,4,1,0,93,0,0
109748,-66.6666666666667,4,1,0,93,0,0
110101,-107.52688172043,4,1,0,93,0,0
112921,-58.8235294117647,4,1,0,93,0,0
112980,-59.9583009550016,4,1,0,93,0,0
113039,-61.137715735601,4,1,0,93,0,0
113098,-62.3644610906714,4,1,0,93,0,0
113157,-63.6414444624732,4,1,0,93,0,0
113215,-64.9488045188177,4,1,0,93,0,0
113274,-66.334991708126,4,1,0,93,0,0
113333,-67.7816394324008,4,1,0,93,0,0
113392,-69.2927914885682,4,1,0,93,0,0
113451,-70.872860512975,4,1,0,93,0,0
113510,-72.5266710155275,4,1,0,93,0,0
113568,-74.2294489041694,4,1,0,93,0,0
113627,-76.0456273764259,4,1,0,93,0,0
113686,-77.9529080520054,4,1,0,93,0,0
113745,-79.958322007792,4,1,0,93,0,0
113804,-82.0696429505548,4,1,0,93,0,0
113863,-84.2954879228207,4,1,0,93,0,0
113921,-86.6045142296369,4,1,0,93,0,0
113980,-89.086859688196,4,1,0,93,0,0
114039,-91.7157072891903,4,1,0,93,0,0
114098,-94.5044206919169,4,1,0,93,0,0
114157,-97.4680398707789,4,1,0,93,0,0
114215,-100.568367971966,4,1,0,93,0,0
114274,-103.931281696465,4,1,0,93,0,0
114333,-107.52688172043,4,1,0,93,0,0
115804,-104.712041884817,4,1,0,93,0,0
115862,-102.136529442418,4,1,0,93,0,0
115980,-97.2211505605097,4,1,0,93,0,0
116098,-92.7571592331233,4,1,0,93,0,0
116142,-91.195781419635,4,1,0,93,0,0
116230,-88.2255854197717,4,1,0,93,0,0
116274,-86.811878069666,4,1,0,93,0,0
116318,-85.4427620680636,4,1,0,93,0,0
116451,-81.5549062395976,4,1,0,93,0,0
116510,-79.9412676401011,4,1,0,93,0,0
116568,-78.4160317220409,4,1,0,93,0,0
116627,-76.9230769230769,4,1,0,93,0,0
117039,-200,4,1,0,93,0,0
117098,-196.712176093619,4,1,0,93,0,0
117157,-193.530701754386,4,1,0,93,0,0
117215,-190.501888828926,4,1,0,93,0,0
117274,-187.516600265604,4,1,0,93,0,0
117333,-184.623430962343,4,1,0,93,0,0
117392,-181.818181818182,4,1,0,93,0,0
117451,-179.096905124302,4,1,0,93,0,0
117510,-176.455886028493,4,1,0,93,0,0
117627,-171.442447790189,4,1,0,93,0,0
117745,-166.666666666667,4,1,0,93,0,0
117804,-164.377182770664,4,1,0,93,0,0
117862,-162.186997473007,4,1,0,93,0,0
117980,-157.906508611049,4,1,0,93,0,0
118098,-153.846153846154,4,1,0,93,0,0
118215,-150.021249468763,4,1,0,93,0,0
118333,-146.351575456053,4,1,0,93,0,0
118451,-142.857142857143,4,1,0,93,0,0
118568,-58.8235294117647,4,1,0,93,0,0
118627,-59.9583009550016,4,1,0,93,0,0
118686,-61.137715735601,4,1,0,93,0,0
118745,-62.3644610906714,4,1,0,93,0,0
118804,-63.6414444624732,4,1,0,93,0,0
118862,-64.9488045188177,4,1,0,93,0,0
118921,-66.334991708126,4,1,0,93,0,0
118980,-67.7816394324008,4,1,0,93,0,0
119039,-69.2927914885682,4,1,0,93,0,0
119098,-70.872860512975,4,1,0,93,0,0
119157,-72.5266710155275,4,1,0,93,0,0
119215,-74.2294489041694,4,1,0,93,0,0
119274,-76.0456273764259,4,1,0,93,0,0
119333,-77.9529080520054,4,1,0,93,0,0
119392,-79.958322007792,4,1,0,93,0,0
119451,-82.0696429505548,4,1,0,93,0,0
119510,-84.2954879228207,4,1,0,93,0,0
119568,-86.6045142296369,4,1,0,93,0,0
119627,-89.086859688196,4,1,0,93,0,0
119686,-91.7157072891903,4,1,0,93,0,0
119745,-94.5044206919169,4,1,0,93,0,0
119804,-97.4680398707789,4,1,0,93,0,0
119862,-100.568367971966,4,1,0,93,0,0
119921,-103.931281696465,4,1,0,93,0,0
119980,-107.52688172043,4,1,0,93,0,0
121101,-66.6666666666667,4,1,0,93,0,0
121395,-107.52688172043,4,1,0,93,0,0
124215,-58.8235294117647,4,1,0,93,0,0
124304,-57.7955229742113,4,1,0,93,0,0
124480,-55.8648614450209,4,1,0,93,0,0
124568,-54.9471064094586,4,1,0,93,0,0
124745,-53.1895668935606,4,1,0,93,0,0
124833,-52.3569522680107,4,1,0,93,0,0
125010,-50.7587951253162,4,1,0,93,0,0
125098,-50,4,1,0,93,0,0
125274,-92.5925925925926,4,1,0,93,0,0
125362,-93.6850573171549,4,1,0,93,0,0
125451,-94.8164733021236,4,1,0,93,0,0
125539,-95.9623703907162,4,1,0,93,0,0
125627,-97.1363036074234,4,1,0,93,0,0
125715,-98.3393146154387,4,1,0,93,0,0
125804,-99.5866885199173,4,1,0,93,0,0
125892,-100.851555170672,4,1,0,93,0,0
125980,-102.14896571888,4,1,0,93,0,0
126024,-102.810269991908,4,1,0,93,0,0
126068,-103.480192521288,4,1,0,93,0,0
126157,-104.862309597059,4,1,0,93,0,0
126245,-106.265683218006,4,1,0,93,0,0
126333,-107.707129094412,4,1,0,93,0,0
126421,-109.188217829518,4,1,0,93,0,0
126510,-110.728151493543,4,1,0,93,0,0
126598,-112.29409401366,4,1,0,93,0,0
126686,-113.904963729725,4,1,0,93,0,0
126774,-115.562722236004,4,1,0,93,0,0
126818,-116.409829237818,4,1,0,93,0,0
126862,-117.269447008475,4,1,0,93,0,0
126951,-119.047619047619,4,1,0,93,0,0
127039,-76.9230769230769,4,1,0,93,0,0
127157,-79.7956507979565,4,1,0,93,0,0
127274,-82.8638497652582,4,1,0,93,0,0
127392,-86.2068965517241,4,1,0,93,0,0
127510,-89.8310260586319,4,1,0,93,0,0
127627,-93.7383822826491,4,1,0,93,0,0
127745,-98.0392156862745,4,1,0,93,0,0
127833,-101.512624374533,4,1,0,93,0,0
127921,-105.241190149663,4,1,0,93,0,0
128010,-109.301461481298,4,1,0,93,0,0
128098,-113.636363636364,4,1,0,93,0,0
128186,-118.329310807187,4,1,0,93,0,0
128230,-120.824205914567,4,1,0,93,0,0
128274,-123.426573426573,4,1,0,93,0,0
128362,-128.982753580824,4,1,0,93,0,0
128451,-135.135135135135,4,1,0,93,0,0
128539,-141.824025713138,4,1,0,93,0,0
128583,-145.423086429925,4,1,0,93,0,0
128627,-149.209569701581,4,1,0,93,0,0
128671,-153.198507074039,4,1,0,93,0,0
128715,-157.406581646303,4,1,0,93,0,0
128804,-166.666666666667,4,1,0,93,0,0
129157,-285.714285714286,4,1,0,93,0,0
129274,-275.274382082627,4,1,0,93,0,0
129333,-270.293950146756,4,1,0,93,0,0
129392,-265.490533562823,4,1,0,93,0,0
129510,-256.378293027508,4,1,0,93,0,0
129598,-249.97974232234,4,1,0,93,0,0
129686,-243.892797849632,4,1,0,93,0,0
129774,-238.095238095238,4,1,0,93,0,0
129862,-58.8235294117647,4,1,0,93,0,0
129921,-59.9583009550016,4,1,0,93,0,0
129980,-61.137715735601,4,1,0,93,0,0
130039,-62.3644610906714,4,1,0,93,0,0
130098,-63.6414444624732,4,1,0,93,0,0
130157,-64.9718164040032,4,1,0,93,0,0
130215,-66.334991708126,4,1,0,93,0,0
130274,-67.7816394324008,4,1,0,93,0,0
130333,-69.2927914885682,4,1,0,93,0,0
130392,-70.872860512975,4,1,0,93,0,0
130451,-72.5266710155275,4,1,0,93,0,0
130510,-74.2595085829687,4,1,0,93,0,0
130568,-76.0456273764259,4,1,0,93,0,0
130627,-77.9529080520054,4,1,0,93,0,0
130686,-79.958322007792,4,1,0,93,0,0
130745,-82.0696429505548,4,1,0,93,0,0
130804,-84.2954879228207,4,1,0,93,0,0
130862,-86.6045142296369,4,1,0,93,0,0
130921,-89.086859688196,4,1,0,93,0,0
130980,-91.7157072891903,4,1,0,93,0,0
131039,-94.5044206919169,4,1,0,93,0,0
131098,-97.4680398707789,4,1,0,93,0,0
131157,-100.623552467486,4,1,0,93,0,0
131215,-103.931281696465,4,1,0,93,0,0
131274,-107.52688172043,4,1,0,93,0,0
132336,-66.6666666666667,4,1,0,93,0,0
132686,-107.52688172043,4,1,0,93,0,0
132804,-105.450209263719,4,1,0,93,0,0
132921,-103.468844636138,4,1,0,93,0,0
133039,-101.544558022245,4,1,0,93,0,0
133098,-100.60900796395,4,1,0,93,0,0
133157,-99.6905393457118,4,1,0,93,0,0
133215,-98.8038382333611,4,1,0,93,0,0
133274,-97.9178879263553,4,1,0,93,0,0
133392,-96.192812200064,4,1,0,93,0,0
133451,-95.3528690430885,4,1,0,93,0,0
133510,-94.5274674603341,4,1,0,93,0,0
133627,-92.9322068823408,4,1,0,93,0,0
133686,-92.1480089083219,4,1,0,93,0,0
133804,-90.6186582008881,4,1,0,93,0,0
133921,-89.1515774491974,4,1,0,93,0,0
133980,-88.4296386345366,4,1,0,93,0,0
134098,-87.0202790051518,4,1,0,93,0,0
134215,-85.6665273715002,4,1,0,93,0,0
134274,-84.9997172958405,4,1,0,93,0,0
134333,-84.3432076600838,4,1,0,93,0,0
134451,-83.0601495451029,4,1,0,93,0,0
134495,-82.5916565945134,4,1,0,93,0,0
134539,-82.1284189824088,4,1,0,93,0,0
134627,-81.2173599855934,4,1,0,93,0,0
134745,-80.0269713961246,4,1,0,93,0,0
134804,-79.4447673906533,4,1,0,93,0,0
134921,-78.3149267208446,4,1,0,93,0,0
135039,-77.2075187455062,4,1,0,93,0,0
135157,-76.1309925725861,4,1,0,93,0,0
135274,-75.0928253883681,4,1,0,93,0,0
135333,-74.5799708956211,4,1,0,93,0,0
135392,-74.0740740740741,4,1,0,93,0,0
135513,-50,4,1,0,93,0,0
135862,-303.030303030303,4,1,0,88,0,0
135951,-305.598600999039,4,1,0,88,0,0
136039,-308.181207057612,4,1,0,88,0,0
136127,-310.807836231565,4,1,0,88,0,0
136215,-313.479623824451,4,1,0,88,0,0
136304,-316.228903142581,4,1,0,88,0,0
136392,-318.995120187963,4,1,0,88,0,0
136480,-321.810159355286,4,1,0,88,0,0
136568,-324.675324675325,4,1,0,88,0,0
136657,-327.625411852058,4,1,0,88,0,0
136745,-330.595540238066,4,1,0,88,0,0
136833,-333.620013420409,4,1,0,88,0,0
136921,-336.700336700337,4,1,0,88,0,0
137010,-339.874063661397,4,1,0,88,0,0
137098,-343.07151048652,4,1,0,88,0,0
137186,-346.329690167376,4,1,0,88,0,0
137274,-349.65034965035,4,1,0,88,0,0
137362,-353.035303530353,4,1,0,88,0,0
137451,-356.526042560928,4,1,0,88,0,0
137539,-360.046102220454,4,1,0,88,0,0
137627,-363.636363636364,4,1,0,88,0,0
137715,-367.298948047489,4,1,0,88,0,0
137804,-371.078967286183,4,1,0,88,0,0
137892,-374.893797790994,4,1,0,88,0,0
137980,-378.787878787879,4,1,0,88,0,0
138068,-382.763705759889,4,1,0,88,0,0
138157,-386.870513452792,4,1,0,88,0,0
138245,-391.018753392337,4,1,0,88,0,0
138333,-395.256916996047,4,1,0,88,0,0
138421,-399.587960290239,4,1,0,88,0,0
138510,-404.065840983494,4,1,0,88,0,0
138598,-408.593189341852,4,1,0,88,0,0
138686,-413.223140495868,4,1,0,88,0,0
138774,-417.959222335362,4,1,0,88,0,0
138862,-422.805126362439,4,1,0,88,0,0
138951,-427.821744979457,4,1,0,88,0,0
139039,-432.900432900433,4,1,0,88,0,0
139127,-438.101147998759,4,1,0,88,0,0
139215,-443.428341728742,4,1,0,88,0,0
139304,-448.949483644503,4,1,0,88,0,0
139392,-454.545454545455,4,1,0,88,0,0
139480,-460.282689198352,4,1,0,88,0,0
139568,-466.166605039353,4,1,0,88,0,0
139657,-472.272392802194,4,1,0,88,0,0
139745,-478.468899521531,4,1,0,88,0,0
139833,-484.830172094109,4,1,0,88,0,0
139921,-491.362870784093,4,1,0,88,0,0
140010,-498.151336400327,4,1,0,88,0,0
140098,-505.050505050505,4,1,0,88,0,0
140186,-512.143458201549,4,1,0,88,0,0
140274,-519.438476706201,4,1,0,88,0,0
140362,-526.944320047768,4,1,0,88,0,0
140451,-534.75935828877,4,1,0,88,0,0
140539,-542.717894316068,4,1,0,88,0,0
140627,-550.916894264534,4,1,0,88,0,0
140715,-559.36742358217,4,1,0,88,0,0
140804,-568.181818181818,4,1,0,88,0,0
141157,-606.060606060606,4,1,0,88,0,0

[HitObjects]
236,202,33866,5,0,0:0:0:0:
252,183,34218,5,8,0:0:0:0:
260,186,34395,1,0,0:0:0:0:
247,190,34748,1,0,0:0:0:0:
252,197,34924,1,8,0:0:0:0:
260,185,35101,1,0,0:0:0:0:
260,186,35454,1,0,0:0:0:0:
260,185,35630,1,8,0:0:0:0:
244,210,35807,1,0,0:0:0:0:
267,190,35983,1,8,0:0:0:0:
267,190,36248,1,0,0:0:0:0:
267,190,36336,1,8,0:0:0:0:
267,190,36513,1,8,0:0:0:0:
267,190,36689,1,0,0:0:0:0:
264,201,37042,1,8,0:0:0:0:
264,201,37218,1,0,0:0:0:0:
264,201,37571,1,0,0:0:0:0:
256,222,37660,1,0,0:0:0:0:
264,201,37748,1,8,0:0:0:0:
281,232,37924,1,0,0:0:0:0:
249,210,38277,1,0,0:0:0:0:
249,210,38454,1,8,0:0:0:0:
249,210,38630,1,0,0:0:0:0:
249,210,38807,1,8,0:0:0:0:
249,210,39071,1,0,0:0:0:0:
238,213,39160,1,8,0:0:0:0:
238,213,39336,1,8,0:0:0:0:
238,213,39513,1,0,0:0:0:0:
242,226,39866,1,8,0:0:0:0:
242,226,40042,1,0,0:0:0:0:
242,226,40395,1,0,0:0:0:0:
242,226,40571,1,8,0:0:0:0:
242,226,40748,1,0,0:0:0:0:
242,226,41101,1,0,0:0:0:0:
264,242,41277,1,8,0:0:0:0:
260,240,41454,1,0,0:0:0:0:
259,236,41630,1,8,0:0:0:0:
256,252,41895,1,0,0:0:0:0:
256,252,41983,1,8,0:0:0:0:
256,252,42160,1,8,0:0:0:0:
256,252,42336,1,0,0:0:0:0:
233,218,42689,1,8,0:0:0:0:
233,218,42866,1,0,0:0:0:0:
233,218,43218,1,0,0:0:0:0:
233,218,43307,1,0,0:0:0:0:
233,218,43395,1,8,0:0:0:0:
233,218,43571,1,0,0:0:0:0:
233,218,43924,1,0,0:0:0:0:
233,218,44101,1,8,0:0:0:0:
233,218,44277,1,0,0:0:0:0:
243,239,44454,1,8,0:0:0:0:
245,238,44718,1,0,0:0:0:0:
245,238,44807,1,8,0:0:0:0:
239,240,44983,1,8,0:0:0:0:
239,239,45160,1,0,0:0:0:0:
212,240,45248,1,0,0:0:0:0:
208,237,45336,1,0,0:0:0:0:
208,237,45424,1,0,0:0:0:0:
208,237,45513,1,8,0:0:0:0:
224,252,45601,1,0,0:0:0:0:
224,252,45689,1,8,0:0:0:0:
224,252,45777,1,0,0:0:0:0:
224,252,45866,1,0,0:0:0:0:
224,252,45954,1,0,0:0:0:0:
224,252,46042,1,8,0:0:0:0:
231,232,46130,1,0,0:0:0:0:
231,232,46218,1,0,0:0:0:0:
215,253,46307,1,0,0:0:0:0:
231,232,46395,1,8,0:0:0:0:
149,197,46571,1,0,0:0:0:0:
231,232,46660,1,0,0:0:0:0:
231,232,46748,1,8,0:0:0:0:
231,232,46836,1,8,0:0:0:0:
231,232,46924,1,0,0:0:0:0:
231,232,47013,1,0,0:0:0:0:
231,232,47101,1,8,0:0:0:0:
231,232,47189,1,0,0:0:0:0:
231,232,47277,1,8,0:0:0:0:
237,238,47366,1,0,0:0:0:0:
238,238,47454,1,0,0:0:0:0:
238,238,47542,1,8,0:0:0:0:
238,238,47630,1,0,0:0:0:0:
238,238,47718,1,0,0:0:0:0:
238,238,47807,1,8,0:0:0:0:
237,238,47983,1,8,0:0:0:0:
234,245,48071,1,0,0:0:0:0:
234,245,48160,1,0,0:0:0:0:
234,245,48248,1,8,0:0:0:0:
234,245,48336,1,8,0:0:0:0:
234,245,48424,1,0,0:0:0:0:
234,245,48513,1,8,0:0:0:0:
234,245,48601,1,0,0:0:0:0:
234,244,48689,1,0,0:0:0:0:
234,244,48777,1,0,0:0:0:0:
234,244,48866,1,8,0:0:0:0:
234,244,48954,1,0,0:0:0:0:
234,245,49042,1,0,0:0:0:0:
234,245,49130,1,0,0:0:0:0:
234,245,49218,1,8,0:0:0:0:
234,245,49395,1,0,0:0:0:0:
234,245,49483,1,0,0:0:0:0:
234,245,49571,1,8,0:0:0:0:
234,244,49660,1,8,0:0:0:0:
234,244,49748,1,0,0:0:0:0:
234,244,49836,1,0,0:0:0:0:
234,244,49924,1,8,0:0:0:0:
234,245,50013,1,0,0:0:0:0:
234,245,50101,1,8,0:0:0:0:
234,245,50189,1,0,0:0:0:0:
234,245,50277,1,0,0:0:0:0:
234,245,50366,1,8,0:0:0:0:
234,245,50454,1,0,0:0:0:0:
234,245,50542,1,0,0:0:0:0:
234,244,50630,1,8,0:0:0:0:
239,239,50807,1,0,0:0:0:0:
212,240,50895,1,0,0:0:0:0:
208,237,50983,1,0,0:0:0:0:
208,237,51071,1,0,0:0:0:0:
208,237,51160,1,8,0:0:0:0:
224,252,51248,1,0,0:0:0:0:
224,252,51336,1,8,0:0:0:0:
224,252,51424,1,8,0:0:0:0:
224,252,51513,1,0,0:0:0:0:
224,252,51601,1,0,0:0:0:0:
224,252,51689,1,8,0:0:0:0:
231,232,51777,1,0,0:0:0:0:
231,232,51866,1,0,0:0:0:0:
231,232,51954,1,0,0:0:0:0:
231,232,52042,1,8,0:0:0:0:
231,232,52218,1,0,0:0:0:0:
231,232,52307,1,0,0:0:0:0:
231,232,52395,1,8,0:0:0:0:
231,232,52483,1,0,0:0:0:0:
231,232,52571,1,0,0:0:0:0:
231,232,52660,1,0,0:0:0:0:
231,232,52748,1,8,0:0:0:0:
231,232,52836,1,0,0:0:0:0:
231,232,52924,1,8,0:0:0:0:
237,238,53013,1,8,0:0:0:0:
238,238,53101,1,0,0:0:0:0:
238,238,53189,1,8,0:0:0:0:
238,238,53277,1,0,0:0:0:0:
238,238,53366,1,0,0:0:0:0:
238,238,53454,1,8,0:0:0:0:
237,238,53630,1,8,0:0:0:0:
234,245,53718,1,0,0:0:0:0:
234,245,53807,1,0,0:0:0:0:
234,245,53895,1,8,0:0:0:0:
234,245,53983,1,8,0:0:0:0:
234,245,54071,1,0,0:0:0:0:
234,245,54160,1,8,0:0:0:0:
234,245,54248,1,0,0:0:0:0:
234,244,54336,1,0,0:0:0:0:
234,244,54424,1,0,0:0:0:0:
234,244,54513,1,8,0:0:0:0:
234,244,54601,1,0,0:0:0:0:
234,245,54689,1,0,0:0:0:0:
234,245,54777,1,0,0:0:0:0:
234,245,54866,1,8,0:0:0:0:
234,245,55042,1,0,0:0:0:0:
234,245,55130,1,0,0:0:0:0:
234,245,55218,1,8,0:0:0:0:
234,244,55307,1,8,0:0:0:0:
234,244,55395,1,0,0:0:0:0:
234,244,55483,1,0,0:0:0:0:
234,244,55571,1,8,0:0:0:0:
234,245,55660,1,0,0:0:0:0:
234,245,55748,1,8,0:0:0:0:
234,245,55836,1,0,0:0:0:0:
234,245,55924,1,0,0:0:0:0:
234,245,56013,1,8,0:0:0:0:
234,245,56101,1,0,0:0:0:0:
234,245,56189,1,0,0:0:0:0:
234,244,56277,1,8,0:0:0:0:
239,239,56454,1,0,0:0:0:0:
212,240,56542,1,0,0:0:0:0:
208,237,56630,1,0,0:0:0:0:
208,237,56718,1,0,0:0:0:0:
208,237,56807,1,8,0:0:0:0:
224,252,56895,1,0,0:0:0:0:
224,252,56983,1,8,0:0:0:0:
224,252,57160,1,0,0:0:0:0:
224,252,57248,1,0,0:0:0:0:
224,252,57336,1,8,0:0:0:0:
231,232,57424,1,0,0:0:0:0:
231,232,57513,1,0,0:0:0:0:
215,253,57601,1,0,0:0:0:0:
231,232,57689,1,8,0:0:0:0:
149,197,57866,1,0,0:0:0:0:
231,232,57954,1,0,0:0:0:0:
231,232,58042,1,8,0:0:0:0:
231,232,58130,1,8,0:0:0:0:
231,232,58218,1,0,0:0:0:0:
231,232,58307,1,0,0:0:0:0:
231,232,58395,1,8,0:0:0:0:
231,232,58571,1,8,0:0:0:0:
237,238,58660,1,0,0:0:0:0:
238,238,58748,1,0,0:0:0:0:
238,238,58836,1,8,0:0:0:0:
238,238,58924,1,0,0:0:0:0:
238,238,59013,1,0,0:0:0:0:
238,238,59101,1,8,0:0:0:0:
237,238,59277,1,8,0:0:0:0:
234,245,59366,1,0,0:0:0:0:
234,245,59454,1,0,0:0:0:0:
234,245,59542,1,8,0:0:0:0:
234,245,59630,1,8,0:0:0:0:
234,245,59718,1,0,0:0:0:0:
234,245,59807,1,8,0:0:0:0:
234,244,59983,1,0,0:0:0:0:
234,244,60071,1,0,0:0:0:0:
234,244,60160,1,8,0:0:0:0:
234,244,60248,1,0,0:0:0:0:
234,245,60336,1,0,0:0:0:0:
234,245,60424,1,0,0:0:0:0:
234,245,60513,1,8,0:0:0:0:
234,245,60689,1,0,0:0:0:0:
234,245,60777,1,0,0:0:0:0:
234,245,60866,1,8,0:0:0:0:
234,244,60954,1,8,0:0:0:0:
234,244,61042,1,0,0:0:0:0:
234,244,61130,1,0,0:0:0:0:
234,244,61218,1,8,0:0:0:0:
234,245,61395,1,8,0:0:0:0:
234,245,61483,1,0,0:0:0:0:
234,245,61571,1,0,0:0:0:0:
234,245,61660,1,8,0:0:0:0:
234,245,61748,1,0,0:0:0:0:
234,245,61836,1,0,0:0:0:0:
234,244,61924,1,8,0:0:0:0:
239,239,62101,1,0,0:0:0:0:
212,240,62189,1,0,0:0:0:0:
208,237,62277,1,0,0:0:0:0:
208,237,62366,1,0,0:0:0:0:
208,237,62454,1,8,0:0:0:0:
224,252,62542,1,0,0:0:0:0:
224,252,62630,1,8,0:0:0:0:
224,252,62807,1,0,0:0:0:0:
224,252,62895,1,0,0:0:0:0:
224,252,62983,1,8,0:0:0:0:
231,232,63071,1,0,0:0:0:0:
231,232,63160,1,0,0:0:0:0:
231,232,63248,1,0,0:0:0:0:
231,232,63336,1,8,0:0:0:0:
231,232,63513,1,0,0:0:0:0:
231,232,63601,1,0,0:0:0:0:
231,232,63689,1,8,0:0:0:0:
231,232,63777,1,8,0:0:0:0:
231,232,63866,1,0,0:0:0:0:
231,232,63954,1,0,0:0:0:0:
231,232,64042,1,8,0:0:0:0:
231,232,64218,1,8,0:0:0:0:
237,238,64307,1,8,0:0:0:0:
238,238,64395,1,0,0:0:0:0:
238,238,64483,1,8,0:0:0:0:
238,238,64571,1,0,0:0:0:0:
238,238,64660,1,0,0:0:0:0:
238,238,64748,1,8,0:0:0:0:
237,238,64924,1,8,0:0:0:0:
234,245,65013,1,0,0:0:0:0:
234,245,65101,1,0,0:0:0:0:
234,245,65189,1,8,0:0:0:0:
234,245,65277,1,8,0:0:0:0:
234,245,65366,1,0,0:0:0:0:
234,245,65454,1,8,0:0:0:0:
234,244,65630,1,0,0:0:0:0:
234,244,65718,1,0,0:0:0:0:
234,244,65807,1,8,0:0:0:0:
234,244,65895,1,0,0:0:0:0:
234,245,65983,1,0,0:0:0:0:
234,245,66071,1,0,0:0:0:0:
234,245,66160,1,8,0:0:0:0:
234,245,66336,1,0,0:0:0:0:
234,245,66424,1,0,0:0:0:0:
234,245,66513,1,8,0:0:0:0:
234,244,66601,1,8,0:0:0:0:
234,244,66689,1,0,0:0:0:0:
234,244,66777,1,0,0:0:0:0:
234,244,66866,1,8,0:0:0:0:
234,245,67042,1,8,0:0:0:0:
234,245,67130,1,0,0:0:0:0:
234,245,67218,1,0,0:0:0:0:
234,245,67307,1,8,0:0:0:0:
234,245,67395,1,0,0:0:0:0:
234,245,67483,1,0,0:0:0:0:
234,244,67571,1,8,0:0:0:0:
232,232,67748,1,4,0:0:0:0:
247,252,68101,1,8,0:0:0:0:
247,252,68277,1,0,0:0:0:0:
244,269,68366,1,8,0:0:0:0:
244,269,68454,1,0,0:0:0:0:
244,269,68542,1,8,0:0:0:0:
244,269,68630,1,0,0:0:0:0:
244,269,68807,1,8,0:0:0:0:
265,267,68983,1,0,0:0:0:0:
260,265,69071,1,8,0:0:0:0:
265,267,69160,1,0,0:0:0:0:
235,242,69248,1,8,0:0:0:0:
256,260,69336,1,0,0:0:0:0:
235,242,69424,1,0,0:0:0:0:
256,260,69513,1,8,0:0:0:0:
249,229,69689,1,8,0:0:0:0:
249,229,69777,1,8,0:0:0:0:
252,245,69866,1,0,0:0:0:0:
249,251,70042,1,8,0:0:0:0:
244,249,70218,1,8,0:0:0:0:
244,249,70395,1,0,0:0:0:0:
244,249,70571,1,8,0:0:0:0:
244,249,70660,1,0,0:0:0:0:
244,249,70748,1,0,0:0:0:0:
244,249,70836,1,0,0:0:0:0:
244,249,70924,1,8,0:0:0:0:
223,253,71101,1,8,0:0:0:0:
223,253,71277,1,0,0:0:0:0:
223,253,71366,1,8,0:0:0:0:
230,244,71454,1,0,0:0:0:0:
230,244,71630,1,8,0:0:0:0:
223,248,71807,1,0,0:0:0:0:
223,248,71895,1,8,0:0:0:0:
223,247,71983,1,0,0:0:0:0:
177,207,72071,1,0,0:0:0:0:
217,247,72160,1,8,0:0:0:0:
217,247,72248,1,0,0:0:0:0:
205,231,72336,5,8,0:0:0:0:
205,230,72513,1,0,0:0:0:0:
205,230,72601,1,0,0:0:0:0:
206,229,72689,1,8,0:0:0:0:
206,229,72866,1,0,0:0:0:0:
206,229,73042,1,8,0:0:0:0:
207,229,73218,1,0,0:0:0:0:
205,230,73395,1,8,0:0:0:0:
205,238,73571,1,0,0:0:0:0:
205,238,73660,1,0,0:0:0:0:
205,238,73748,1,8,0:0:0:0:
205,238,73924,1,0,0:0:0:0:
205,238,74013,1,8,0:0:0:0:
205,238,74101,1,0,0:0:0:0:
205,238,74189,1,8,0:0:0:0:
205,238,74277,1,0,0:0:0:0:
210,244,74454,1,8,0:0:0:0:
210,244,74630,1,0,0:0:0:0:
210,244,74718,1,8,0:0:0:0:
210,244,74807,1,0,0:0:0:0:
218,249,74895,1,8,0:0:0:0:
208,248,74983,1,8,0:0:0:0:
207,244,75071,1,0,0:0:0:0:
208,248,75160,1,8,0:0:0:0:
219,252,75336,1,0,0:0:0:0:
216,249,75424,1,8,0:0:0:0:
216,249,75513,1,0,0:0:0:0:
221,239,75689,1,8,0:0:0:0:
222,238,75866,1,8,0:0:0:0:
222,238,76042,1,0,0:0:0:0:
221,239,76218,1,8,0:0:0:0:
208,247,76307,1,0,0:0:0:0:
208,247,76395,1,0,0:0:0:0:
196,250,76483,1,0,0:0:0:0:
208,247,76571,1,8,0:0:0:0:
217,250,76748,1,8,0:0:0:0:
217,250,76836,1,8,0:0:0:0:
215,249,76924,1,0,0:0:0:0:
215,249,77013,1,8,0:0:0:0:
213,246,77101,1,0,0:0:0:0:
213,245,77277,1,8,0:0:0:0:
224,215,77454,1,0,0:0:0:0:
224,215,77542,1,8,0:0:0:0:
224,215,77630,1,0,0:0:0:0:
224,215,77718,1,0,0:0:0:0:
224,215,77807,1,8,0:0:0:0:
207,230,77895,1,0,0:0:0:0:
207,230,77983,1,8,0:0:0:0:
228,232,78160,1,0,0:0:0:0:
225,230,78248,1,0,0:0:0:0:
225,230,78336,1,8,0:0:0:0:
225,230,78513,1,0,0:0:0:0:
225,230,78689,1,8,0:0:0:0:
225,229,78866,1,0,0:0:0:0:
228,232,79042,1,8,0:0:0:0:
231,245,79218,1,0,0:0:0:0:
231,245,79307,1,0,0:0:0:0:
231,245,79395,1,8,0:0:0:0:
225,244,79483,1,0,0:0:0:0:
225,243,79571,1,8,0:0:0:0:
225,243,79748,1,0,0:0:0:0:
225,243,79836,1,8,0:0:0:0:
225,243,79924,1,0,0:0:0:0:
231,237,80013,1,0,0:0:0:0:
231,245,80101,1,8,0:0:0:0:
221,241,80277,1,0,0:0:0:0:
221,241,80366,1,8,0:0:0:0:
221,241,80454,1,0,0:0:0:0:
225,243,80630,1,8,0:0:0:0:
225,243,80718,1,0,0:0:0:0:
225,243,80807,1,8,0:0:0:0:
225,243,80895,1,8,0:0:0:0:
226,244,80983,1,0,0:0:0:0:
231,245,81071,1,8,0:0:0:0:
231,245,81160,1,0,0:0:0:0:
238,221,81248,1,0,0:0:0:0:
237,221,81336,1,8,0:0:0:0:
223,247,81513,1,8,0:0:0:0:
223,247,81689,1,0,0:0:0:0:
223,247,81866,1,8,0:0:0:0:
237,257,81954,1,0,0:0:0:0:
237,258,82042,1,0,0:0:0:0:
237,258,82130,1,0,0:0:0:0:
237,257,82218,1,8,0:0:0:0:
233,261,82307,1,0,0:0:0:0:
233,261,82395,1,8,0:0:0:0:
233,261,82571,1,0,0:0:0:0:
233,261,82660,1,8,0:0:0:0:
233,261,82748,1,8,0:0:0:0:
233,261,82836,1,0,0:0:0:0:
233,261,82924,1,8,0:0:0:0:
220,252,83101,1,0,0:0:0:0:
220,252,83189,1,8,0:0:0:0:
220,254,83277,1,0,0:0:0:0:
214,252,83366,1,0,0:0:0:0:
220,254,83454,1,8,0:0:0:0:
220,254,83542,1,0,0:0:0:0:
220,254,83630,1,8,0:0:0:0:
220,254,83718,1,8,0:0:0:0:
220,254,83807,1,0,0:0:0:0:
220,254,83895,1,0,0:0:0:0:
220,252,83983,1,8,0:0:0:0:
220,252,84071,1,8,0:0:0:0:
220,252,84160,1,0,0:0:0:0:
220,258,84336,1,8,0:0:0:0:
233,259,84513,1,0,0:0:0:0:
233,259,84689,1,8,0:0:0:0:
223,258,84866,1,0,0:0:0:0:
223,258,84954,1,0,0:0:0:0:
223,258,85042,1,8,0:0:0:0:
222,269,85130,1,0,0:0:0:0:
222,267,85218,1,8,0:0:0:0:
222,267,85307,1,8,0:0:0:0:
222,267,85395,1,0,0:0:0:0:
222,267,85483,1,0,0:0:0:0:
223,267,85571,1,8,0:0:0:0:
223,266,85660,1,0,0:0:0:0:
223,266,85748,1,8,0:0:0:0:
210,255,85924,1,8,0:0:0:0:
210,255,86013,1,8,0:0:0:0:
210,255,86101,1,0,0:0:0:0:
210,255,86189,1,0,0:0:0:0:
210,255,86277,1,8,0:0:0:0:
210,254,86366,1,0,0:0:0:0:
210,254,86454,1,8,0:0:0:0:
210,253,86630,1,8,0:0:0:0:
211,252,86718,1,0,0:0:0:0:
210,255,86807,1,0,0:0:0:0:
210,255,86895,1,0,0:0:0:0:
210,255,86983,1,8,0:0:0:0:
210,255,87160,5,8,0:0:0:0:
210,258,87336,1,0,0:0:0:0:
210,258,87513,1,8,0:0:0:0:
210,253,87601,1,0,0:0:0:0:
211,252,87689,1,0,0:0:0:0:
211,252,87777,1,0,0:0:0:0:
210,255,87866,1,8,0:0:0:0:
210,255,87954,1,0,0:0:0:0:
210,255,88042,1,8,0:0:0:0:
210,255,88130,1,0,0:0:0:0:
210,255,88218,1,0,0:0:0:0:
210,258,88307,1,0,0:0:0:0:
210,258,88395,1,8,0:0:0:0:
210,258,88483,1,0,0:0:0:0:
205,252,88571,1,8,0:0:0:0:
202,261,88660,1,0,0:0:0:0:
211,252,88748,5,8,0:0:0:0:
212,249,88836,1,8,0:0:0:0:
212,249,88924,1,0,0:0:0:0:
212,249,89013,1,0,0:0:0:0:
212,249,89101,1,0,0:0:0:0:
212,249,89189,1,0,0:0:0:0:
212,249,89277,1,8,0:0:0:0:
212,249,89366,1,8,0:0:0:0:
212,249,89454,1,8,0:0:0:0:
212,249,89542,1,8,0:0:0:0:
211,252,89630,1,0,0:0:0:0:
211,252,89718,1,0,0:0:0:0:
212,249,89807,1,0,0:0:0:0:
212,249,89895,1,0,0:0:0:0:
212,249,89983,1,8,0:0:0:0:
212,249,90071,1,8,0:0:0:0:
212,249,90160,1,8,0:0:0:0:
212,249,90248,1,8,0:0:0:0:
212,249,90336,1,4,0:0:0:0:
205,236,90689,1,8,0:0:0:0:
209,242,91042,1,0,0:0:0:0:
209,242,91130,1,0,0:0:0:0:
209,242,91218,1,8,0:0:0:0:
200,240,91307,1,8,0:0:0:0:
209,242,91395,1,0,0:0:0:0:
166,227,91454,1,8,0:0:0:0:
180,231,91513,1,8,0:0:0:0:
187,231,91571,1,8,0:0:0:0:
192,231,91630,1,0,0:0:0:0:
180,234,91689,1,0,0:0:0:0:
192,229,91748,1,8,0:0:0:0:
200,224,91836,1,0,0:0:0:0:
199,240,91924,1,0,0:0:0:0:
199,240,92013,1,8,0:0:0:0:
199,240,92101,1,0,0:0:0:0:
168,223,92189,1,0,0:0:0:0:
201,250,92277,1,8,0:0:0:0:
220,222,92366,1,8,0:0:0:0:
200,247,92454,1,0,0:0:0:0:
200,247,92571,1,0,0:0:0:0:
208,236,92689,1,8,0:0:0:0:
208,236,92807,1,0,0:0:0:0:
208,236,92895,1,8,0:0:0:0:
230,273,92939,1,8,0:0:0:0:
208,236,92983,1,8,0:0:0:0:
232,260,93071,1,8,0:0:0:0:
230,260,93160,1,0,0:0:0:0:
220,250,93218,1,0,0:0:0:0:
224,256,93277,5,8,0:0:0:0:
224,248,93336,1,8,0:0:0:0:
224,248,93395,1,0,0:0:0:0:
189,232,93454,1,0,0:0:0:0:
220,250,93513,1,8,0:0:0:0:
224,248,93571,1,0,0:0:0:0:
216,248,93630,1,8,0:0:0:0:
214,245,93689,1,8,0:0:0:0:
232,240,93748,1,0,0:0:0:0:
214,255,93866,1,8,0:0:0:0:
214,255,93924,1,8,0:0:0:0:
214,255,93983,1,8,0:0:0:0:
205,253,94101,1,0,0:0:0:0:
205,253,94160,1,8,0:0:0:0:
220,250,94277,1,8,0:0:0:0:
206,251,94395,1,8,0:0:0:0:
206,251,94454,1,0,0:0:0:0:
206,251,94571,1,8,0:0:0:0:
216,248,94660,1,0,0:0:0:0:
216,248,94748,1,0,0:0:0:0:
216,248,94836,1,8,0:0:0:0:
200,256,94924,1,8,0:0:0:0:
200,256,94968,1,8,0:0:0:0:
208,256,95013,1,0,0:0:0:0:
216,248,95101,1,8,0:0:0:0:
200,272,95189,1,8,0:0:0:0:
208,272,95277,1,0,0:0:0:0:
216,272,95395,1,8,0:0:0:0:
216,272,95513,1,8,0:0:0:0:
208,256,95630,1,8,0:0:0:0:
208,256,95748,1,0,0:0:0:0:
184,260,95807,1,0,0:0:0:0:
224,272,95866,1,0,0:0:0:0:
216,272,95983,1,12,0:0:0:0:
216,288,96336,1,0,0:0:0:0:
216,288,96380,1,0,0:0:0:0:
176,272,96513,1,8,0:0:0:0:
176,272,96557,1,8,0:0:0:0:
208,280,96689,1,0,0:0:0:0:
184,280,96748,1,8,0:0:0:0:
184,280,96807,1,8,0:0:0:0:
216,288,96924,1,0,0:0:0:0:
216,288,96983,1,8,0:0:0:0:
208,288,97101,1,8,0:0:0:0:
208,272,97218,1,8,0:0:0:0:
208,272,97277,1,0,0:0:0:0:
200,256,97395,1,8,0:0:0:0:
216,264,97454,1,8,0:0:0:0:
216,256,97571,1,0,0:0:0:0:
216,288,97660,1,8,0:0:0:0:
216,288,97748,1,0,0:0:0:0:
216,288,97836,1,0,0:0:0:0:
232,288,97924,1,8,0:0:0:0:
232,288,97983,1,0,0:0:0:0:
232,288,98101,1,8,0:0:0:0:
232,288,98218,1,0,0:0:0:0:
232,288,98336,1,0,0:0:0:0:
224,280,98454,1,8,0:0:0:0:
232,288,98483,1,8,0:0:0:0:
232,288,98542,1,8,0:0:0:0:
232,288,98571,1,8,0:0:0:0:
232,288,98630,1,8,0:0:0:0:
232,288,98660,1,8,0:0:0:0:
240,280,98807,1,0,0:0:0:0:
240,304,98924,1,8,0:0:0:0:
240,280,99042,1,8,0:0:0:0:
240,288,99160,1,0,0:0:0:0:
240,296,99204,1,8,0:0:0:0:
232,296,99292,1,0,0:0:0:0:
232,296,99336,1,8,0:0:0:0:
232,296,99424,1,0,0:0:0:0:
232,296,99513,1,8,0:0:0:0:
208,304,99571,1,8,0:0:0:0:
224,296,99630,1,8,0:0:0:0:
224,296,99748,1,8,0:0:0:0:
224,296,99807,1,0,0:0:0:0:
224,296,99924,1,8,0:0:0:0:
224,296,100042,1,8,0:0:0:0:
224,288,100101,1,0,0:0:0:0:
224,288,100218,1,8,0:0:0:0:
240,280,100307,1,0,0:0:0:0:
216,272,100395,1,0,0:0:0:0:
224,288,100483,1,8,0:0:0:0:
216,288,100571,1,8,0:0:0:0:
216,288,100616,1,8,0:0:0:0:
240,304,100660,1,0,0:0:0:0:
240,304,100748,1,8,0:0:0:0:
240,304,100836,1,8,0:0:0:0:
240,304,100924,1,0,0:0:0:0:
240,304,101042,1,8,0:0:0:0:
240,304,101160,1,8,0:0:0:0:
232,296,101277,1,8,0:0:0:0:
232,296,101366,1,0,0:0:0:0:
216,232,101454,1,8,0:0:0:0:
232,296,101542,1,8,0:0:0:0:
144,224,101630,1,0,0:0:0:0:
231,259,101689,1,0,0:0:0:0:
184,208,101748,1,0,0:0:0:0:
231,259,101807,1,0,0:0:0:0:
224,248,101866,1,0,0:0:0:0:
205,255,101924,1,0,0:0:0:0:
232,288,101983,1,8,0:0:0:0:
195,239,102042,1,8,0:0:0:0:
216,264,102101,1,8,0:0:0:0:
242,242,102160,1,8,0:0:0:0:
224,240,102218,1,0,0:0:0:0:
242,242,102277,1,0,0:0:0:0:
216,272,102336,1,8,0:0:0:0:
216,272,102395,1,8,0:0:0:0:
216,272,102454,1,0,0:0:0:0:
229,265,102513,1,0,0:0:0:0:
216,272,102571,1,8,0:0:0:0:
216,272,102630,1,0,0:0:0:0:
229,265,102689,1,0,0:0:0:0:
224,272,102748,1,0,0:0:0:0:
229,265,102807,1,8,0:0:0:0:
224,272,102866,1,8,0:0:0:0:
216,272,102924,1,0,0:0:0:0:
197,244,102983,1,0,0:0:0:0:
224,272,103042,1,8,0:0:0:0:
232,272,103130,1,8,0:0:0:0:
216,256,103218,1,8,0:0:0:0:
216,256,103307,1,8,0:0:0:0:
216,256,103395,1,0,0:0:0:0:
216,256,103483,1,0,0:0:0:0:
216,256,103571,1,8,0:0:0:0:
216,264,103630,1,8,0:0:0:0:
216,272,103748,1,0,0:0:0:0:
216,272,103866,1,0,0:0:0:0:
224,272,103983,5,8,0:0:0:0:
224,272,104101,1,0,0:0:0:0:
224,272,104189,1,8,0:0:0:0:
216,272,104233,1,8,0:0:0:0:
224,272,104277,1,8,0:0:0:0:
216,272,104366,1,8,0:0:0:0:
216,272,104454,1,0,0:0:0:0:
216,272,104542,1,8,0:0:0:0:
168,248,104674,1,8,0:0:0:0:
192,256,104807,1,8,0:0:0:0:
192,256,104851,1,0,0:0:0:0:
200,248,104939,1,8,0:0:0:0:
200,248,104983,1,0,0:0:0:0:
200,248,105027,1,0,0:0:0:0:
192,256,105160,1,8,0:0:0:0:
200,248,105218,1,0,0:0:0:0:
200,248,105277,1,8,0:0:0:0:
208,264,105395,1,0,0:0:0:0:
192,240,105454,1,0,0:0:0:0:
192,240,105571,1,8,0:0:0:0:
192,240,105689,1,8,0:0:0:0:
192,240,105748,1,0,0:0:0:0:
192,248,105866,1,8,0:0:0:0:
200,264,105983,1,0,0:0:0:0:
208,256,106042,1,8,0:0:0:0:
208,256,106101,1,8,0:0:0:0:
192,256,106160,1,8,0:0:0:0:
192,256,106218,1,0,0:0:0:0:
208,248,106263,1,0,0:0:0:0:
208,240,106307,1,8,0:0:0:0:
216,240,106395,1,0,0:0:0:0:
200,240,106483,1,8,0:0:0:0:
200,240,106527,1,8,0:0:0:0:
200,240,106571,1,0,0:0:0:0:
208,248,106689,1,8,0:0:0:0:
208,248,106807,1,8,0:0:0:0:
208,248,106924,1,8,0:0:0:0:
208,248,107013,1,0,0:0:0:0:
216,232,107101,1,8,0:0:0:0:
216,232,107160,1,8,0:0:0:0:
216,232,107218,1,8,0:0:0:0:
216,232,107277,1,0,0:0:0:0:
224,240,107395,1,0,0:0:0:0:
224,240,107513,1,8,0:0:0:0:
224,240,107630,1,8,0:0:0:0:
216,240,107748,1,0,0:0:0:0:
216,240,107866,1,0,0:0:0:0:
216,232,107983,1,8,0:0:0:0:
208,240,108042,1,8,0:0:0:0:
192,248,108101,1,0,0:0:0:0:
208,240,108160,1,0,0:0:0:0:
208,240,108218,1,0,0:0:0:0:
208,240,108277,1,0,0:0:0:0:
208,240,108336,1,8,0:0:0:0:
208,240,108395,1,0,0:0:0:0:
208,240,108454,1,0,0:0:0:0:
208,240,108513,1,0,0:0:0:0:
208,240,108571,1,0,0:0:0:0:
208,240,108630,1,0,0:0:0:0:
208,240,108689,1,8,0:0:0:0:
224,248,108777,1,0,0:0:0:0:
220,247,108866,1,8,0:0:0:0:
220,247,108954,1,8,0:0:0:0:
220,247,109042,1,0,0:0:0:0:
173,208,109130,1,8,0:0:0:0:
171,213,109218,1,0,0:0:0:0:
212,211,109277,1,0,0:0:0:0:
212,211,109336,1,0,0:0:0:0:
212,211,109395,1,8,0:0:0:0:
189,218,109513,1,0,0:0:0:0:
208,240,109630,1,0,0:0:0:0:
208,220,109748,1,8,0:0:0:0:
204,230,109777,1,8,0:0:0:0:
204,230,109836,1,8,0:0:0:0:
204,230,109866,1,8,0:0:0:0:
204,230,109924,1,8,0:0:0:0:
204,230,109954,1,8,0:0:0:0:
228,234,110101,1,0,0:0:0:0:
192,234,110218,1,8,0:0:0:0:
192,234,110336,1,8,0:0:0:0:
192,234,110454,1,0,0:0:0:0:
210,249,110498,1,8,0:0:0:0:
210,249,110586,1,0,0:0:0:0:
210,249,110630,1,8,0:0:0:0:
201,250,110718,1,0,0:0:0:0:
201,250,110807,1,8,0:0:0:0:
208,245,110866,1,8,0:0:0:0:
208,245,110924,1,8,0:0:0:0:
208,245,111042,1,0,0:0:0:0:
208,245,111101,1,8,0:0:0:0:
208,245,111218,1,8,0:0:0:0:
210,245,111336,1,8,0:0:0:0:
210,245,111395,1,0,0:0:0:0:
210,249,111513,1,8,0:0:0:0:
225,258,111601,1,0,0:0:0:0:
201,250,111689,1,0,0:0:0:0:
201,250,111777,1,8,0:0:0:0:
205,262,111866,1,8,0:0:0:0:
205,262,111910,1,8,0:0:0:0:
205,262,111954,1,0,0:0:0:0:
205,262,112042,1,8,0:0:0:0:
205,262,112130,1,8,0:0:0:0:
197,252,112218,1,0,0:0:0:0:
215,267,112336,1,8,0:0:0:0:
215,267,112454,1,8,0:0:0:0:
215,266,112571,1,8,0:0:0:0:
206,275,112660,1,0,0:0:0:0:
212,265,112748,1,8,0:0:0:0:
212,265,112836,1,8,0:0:0:0:
212,265,112924,1,0,0:0:0:0:
217,282,112983,1,0,0:0:0:0:
208,276,113042,1,0,0:0:0:0:
217,282,113101,1,0,0:0:0:0:
213,278,113160,1,0,0:0:0:0:
210,290,113218,1,0,0:0:0:0:
213,288,113277,1,8,0:0:0:0:
213,288,113336,1,8,0:0:0:0:
213,286,113395,1,0,0:0:0:0:
215,282,113454,1,0,0:0:0:0:
215,281,113513,1,0,0:0:0:0:
207,279,113571,1,0,0:0:0:0:
217,281,113630,1,8,0:0:0:0:
212,277,113689,1,8,0:0:0:0:
212,277,113748,1,0,0:0:0:0:
209,273,113807,1,0,0:0:0:0:
212,277,113866,1,8,0:0:0:0:
212,277,113924,1,8,0:0:0:0:
209,273,113983,1,8,0:0:0:0:
208,276,114042,1,0,0:0:0:0:
209,273,114101,1,0,0:0:0:0:
211,273,114160,1,8,0:0:0:0:
211,273,114218,1,0,0:0:0:0:
209,273,114277,1,0,0:0:0:0:
221,277,114336,1,8,0:0:0:0:
225,280,114454,1,0,0:0:0:0:
206,254,114513,1,0,0:0:0:0:
243,291,114601,1,8,0:0:0:0:
243,291,114689,1,8,0:0:0:0:
230,289,114733,1,8,0:0:0:0:
231,289,114777,1,0,0:0:0:0:
231,289,114866,1,8,0:0:0:0:
231,283,114954,1,8,0:0:0:0:
231,283,115042,1,8,0:0:0:0:
247,276,115160,1,0,0:0:0:0:
220,307,115277,1,8,0:0:0:0:
230,297,115395,1,8,0:0:0:0:
228,291,115513,1,8,0:0:0:0:
228,291,115571,1,0,0:0:0:0:
228,291,115660,1,0,0:0:0:0:
234,299,115748,1,8,0:0:0:0:
232,278,115866,1,8,0:0:0:0:
292,228,115983,1,0,0:0:0:0:
259,265,116101,1,8,0:0:0:0:
250,237,116145,1,0,0:0:0:0:
250,237,116233,1,8,0:0:0:0:
236,271,116277,1,8,0:0:0:0:
236,271,116321,1,0,0:0:0:0:
192,219,116454,1,8,0:0:0:0:
192,219,116513,1,8,0:0:0:0:
200,199,116571,1,8,0:0:0:0:
197,211,116630,1,0,0:0:0:0:
214,229,117042,5,0,0:0:0:0:
214,229,117101,1,0,0:0:0:0:
217,222,117160,1,8,0:0:0:0:
204,224,117218,1,0,0:0:0:0:
204,224,117277,1,0,0:0:0:0:
204,224,117336,1,0,0:0:0:0:
204,224,117395,1,8,0:0:0:0:
204,224,117454,1,8,0:0:0:0:
204,224,117513,1,0,0:0:0:0:
213,230,117630,1,8,0:0:0:0:
190,227,117748,1,8,0:0:0:0:
214,207,117807,1,8,0:0:0:0:
210,224,117866,1,0,0:0:0:0:
207,229,117983,1,8,0:0:0:0:
189,213,118101,1,8,0:0:0:0:
126,198,118218,1,0,0:0:0:0:
226,236,118336,1,0,0:0:0:0:
174,248,118454,1,8,0:0:0:0:
178,245,118571,1,0,0:0:0:0:
193,199,118630,1,8,0:0:0:0:
204,249,118689,1,8,0:0:0:0:
175,216,118748,1,0,0:0:0:0:
181,206,118807,1,0,0:0:0:0:
197,227,118866,1,8,0:0:0:0:
184,210,118924,1,0,0:0:0:0:
184,210,118983,1,8,0:0:0:0:
199,210,119042,1,8,0:0:0:0:
240,227,119101,1,0,0:0:0:0:
230,224,119160,1,0,0:0:0:0:
208,229,119218,1,0,0:0:0:0:
201,210,119277,1,0,0:0:0:0:
201,210,119336,1,8,0:0:0:0:
201,210,119395,1,8,0:0:0:0:
208,229,119454,1,0,0:0:0:0:
201,210,119513,1,0,0:0:0:0:
201,210,119571,1,8,0:0:0:0:
208,229,119630,1,0,0:0:0:0:
201,210,119689,1,8,0:0:0:0:
272,252,119748,1,8,0:0:0:0:
208,229,119807,1,0,0:0:0:0:
208,226,119866,1,0,0:0:0:0:
208,229,119924,1,0,0:0:0:0:
208,226,119983,1,8,0:0:0:0:
218,231,120071,1,0,0:0:0:0:
218,231,120160,1,8,0:0:0:0:
218,231,120248,1,0,0:0:0:0:
218,231,120336,1,8,0:0:0:0:
203,228,120380,1,8,0:0:0:0:
218,231,120424,1,0,0:0:0:0:
203,228,120513,1,8,0:0:0:0:
203,228,120601,1,8,0:0:0:0:
203,228,120689,1,0,0:0:0:0:
203,228,120777,1,8,0:0:0:0:
203,228,120866,1,8,0:0:0:0:
203,228,120954,1,8,0:0:0:0:
203,228,121042,1,0,0:0:0:0:
203,228,121130,1,8,0:0:0:0:
264,239,121160,1,8,0:0:0:0:
264,239,121218,1,8,0:0:0:0:
264,239,121248,1,8,0:0:0:0:
264,239,121395,1,0,0:0:0:0:
248,268,121454,1,8,0:0:0:0:
201,249,121513,1,0,0:0:0:0:
195,229,121630,1,8,0:0:0:0:
209,230,121748,1,0,0:0:0:0:
213,237,121792,1,0,0:0:0:0:
213,237,121836,1,8,0:0:0:0:
194,246,121880,1,8,0:0:0:0:
213,237,121924,1,0,0:0:0:0:
213,237,122013,1,8,0:0:0:0:
213,237,122101,1,0,0:0:0:0:
192,253,122160,1,8,0:0:0:0:
202,250,122218,1,0,0:0:0:0:
192,240,122277,1,0,0:0:0:0:
219,244,122336,1,8,0:0:0:0:
205,260,122395,1,8,0:0:0:0:
205,260,122454,1,0,0:0:0:0:
205,260,122542,1,8,0:0:0:0:
207,244,122630,1,0,0:0:0:0:
189,270,122689,1,0,0:0:0:0:
206,266,122807,1,8,0:0:0:0:
171,245,122895,1,0,0:0:0:0:
192,253,122983,1,0,0:0:0:0:
192,253,123071,1,0,0:0:0:0:
202,265,123160,1,8,0:0:0:0:
194,266,123204,1,8,0:0:0:0:
194,266,123248,1,8,0:0:0:0:
194,266,123336,1,0,0:0:0:0:
194,266,123424,1,8,0:0:0:0:
194,266,123513,1,0,0:0:0:0:
189,270,123601,1,8,0:0:0:0:
189,270,123689,1,0,0:0:0:0:
207,260,123733,1,0,0:0:0:0:
191,265,123777,1,8,0:0:0:0:
191,265,123866,1,0,0:0:0:0:
191,265,123954,1,0,0:0:0:0:
191,265,124042,1,8,0:0:0:0:
194,266,124218,1,4,0:0:0:0:
208,260,124307,1,12,0:0:0:0:
208,260,124483,1,4,0:0:0:0:
208,260,124571,1,12,0:0:0:0:
213,270,124748,1,4,0:0:0:0:
213,270,124836,1,12,0:0:0:0:
213,270,125013,1,4,0:0:0:0:
213,269,125101,1,12,0:0:0:0:
213,269,125277,1,0,0:0:0:0:
213,269,125366,1,0,0:0:0:0:
213,269,125454,1,0,0:0:0:0:
213,269,125542,1,0,0:0:0:0:
213,270,125630,1,8,0:0:0:0:
200,271,125718,1,0,0:0:0:0:
236,287,125807,1,8,0:0:0:0:
197,270,125895,1,0,0:0:0:0:
228,286,125983,1,8,0:0:0:0:
220,263,126027,1,8,0:0:0:0:
199,258,126071,1,8,0:0:0:0:
215,260,126160,1,8,0:0:0:0:
213,269,126248,1,0,0:0:0:0:
213,269,126336,1,8,0:0:0:0:
213,269,126424,1,0,0:0:0:0:
213,269,126513,1,8,0:0:0:0:
213,270,126601,1,0,0:0:0:0:
212,266,126689,1,8,0:0:0:0:
212,266,126777,1,8,0:0:0:0:
221,263,126821,1,8,0:0:0:0:
212,266,126866,1,0,0:0:0:0:
212,266,126954,1,8,0:0:0:0:
220,263,127042,1,0,0:0:0:0:
204,252,127160,1,0,0:0:0:0:
204,252,127277,1,8,0:0:0:0:
205,252,127395,1,0,0:0:0:0:
205,252,127513,1,0,0:0:0:0:
205,252,127630,1,0,0:0:0:0:
205,252,127748,1,8,0:0:0:0:
213,243,127836,1,8,0:0:0:0:
213,243,127924,1,0,0:0:0:0:
205,252,128013,1,8,0:0:0:0:
204,252,128101,1,0,0:0:0:0:
204,252,128189,1,8,0:0:0:0:
203,235,128233,1,8,0:0:0:0:
213,243,128277,1,0,0:0:0:0:
205,252,128365,1,8,0:0:0:0:
205,252,128454,1,8,0:0:0:0:
199,239,128542,1,0,0:0:0:0:
223,245,128586,1,0,0:0:0:0:
199,239,128630,1,0,0:0:0:0:
220,250,128674,1,0,0:0:0:0:
218,241,128718,1,8,0:0:0:0:
218,241,128807,1,0,0:0:0:0:
218,241,129160,1,8,0:0:0:0:
218,241,129277,1,0,0:0:0:0:
202,242,129336,1,0,0:0:0:0:
192,240,129395,1,8,0:0:0:0:
218,241,129513,1,8,0:0:0:0:
222,258,129601,1,0,0:0:0:0:
208,232,129689,1,0,0:0:0:0:
186,228,129777,1,8,0:0:0:0:
186,228,129866,1,0,0:0:0:0:
232,240,129924,1,0,0:0:0:0:
210,241,129983,1,8,0:0:0:0:
199,234,130042,1,8,0:0:0:0:
199,234,130101,1,0,0:0:0:0:
205,234,130160,5,0,0:0:0:0:
205,243,130218,1,8,0:0:0:0:
205,243,130277,1,8,0:0:0:0:
205,243,130336,1,8,0:0:0:0:
205,243,130395,1,8,0:0:0:0:
205,243,130454,1,0,0:0:0:0:
184,232,130513,1,0,0:0:0:0:
205,243,130571,1,8,0:0:0:0:
205,243,130630,1,8,0:0:0:0:
205,243,130689,1,0,0:0:0:0:
205,243,130748,1,0,0:0:0:0:
205,243,130807,1,8,0:0:0:0:
205,243,130866,1,0,0:0:0:0:
208,247,130924,5,0,0:0:0:0:
208,247,130983,1,0,0:0:0:0:
208,247,131042,1,8,0:0:0:0:
208,247,131101,1,8,0:0:0:0:
208,247,131160,1,0,0:0:0:0:
200,248,131218,1,0,0:0:0:0:
208,247,131277,1,8,0:0:0:0:
208,256,131366,1,8,0:0:0:0:
208,256,131454,1,8,0:0:0:0:
208,256,131542,1,8,0:0:0:0:
208,256,131630,1,0,0:0:0:0:
200,256,131689,1,8,0:0:0:0:
192,256,131807,1,0,0:0:0:0:
192,248,131866,1,8,0:0:0:0:
216,240,131983,1,0,0:0:0:0:
216,240,132101,1,8,0:0:0:0:
199,253,132160,1,8,0:0:0:0:
200,248,132218,1,0,0:0:0:0:
200,248,132336,1,8,0:0:0:0:
216,256,132366,1,8,0:0:0:0:
216,256,132424,1,8,0:0:0:0:
216,256,132454,1,8,0:0:0:0:
208,248,132513,1,8,0:0:0:0:
208,248,132542,1,8,0:0:0:0:
208,248,132689,1,0,0:0:0:0:
200,256,132807,1,8,0:0:0:0:
200,256,132924,1,0,0:0:0:0:
200,256,133042,1,8,0:0:0:0:
200,256,133101,1,0,0:0:0:0:
200,256,133160,1,0,0:0:0:0:
200,256,133218,1,0,0:0:0:0:
200,256,133277,1,8,0:0:0:0:
208,248,133395,1,0,0:0:0:0:
208,248,133454,1,8,0:0:0:0:
208,248,133513,1,8,0:0:0:0:
208,248,133630,1,0,0:0:0:0:
208,248,133689,1,8,0:0:0:0:
208,248,133807,1,8,0:0:0:0:
208,248,133924,1,8,0:0:0:0:
208,248,133983,1,0,0:0:0:0:
208,248,134101,1,8,0:0:0:0:
216,256,134218,1,0,0:0:0:0:
200,248,134277,1,0,0:0:0:0:
192,256,134336,1,8,0:0:0:0:
192,256,134454,1,0,0:0:0:0:
192,256,134498,1,0,0:0:0:0:
208,264,134542,1,0,0:0:0:0:
208,256,134630,1,8,0:0:0:0:
184,240,134748,1,0,0:0:0:0:
208,256,134807,1,8,0:0:0:0:
200,232,134924,1,8,0:0:0:0:
192,248,135042,1,8,0:0:0:0:
192,248,135160,1,0,0:0:0:0:
192,248,135277,1,8,0:0:0:0:
192,248,135336,1,8,0:0:0:0:
192,248,135395,1,8,0:0:0:0:
192,248,135513,1,4,0:0:0:0:
176,256,135866,1,0,0:0:0:0:
176,240,135954,1,8,0:0:0:0:
176,240,136042,1,0,0:0:0:0:
176,240,136130,1,8,0:0:0:0:
176,240,136218,1,0,0:0:0:0:
176,240,136307,1,0,0:0:0:0:
176,240,136395,1,8,0:0:0:0:
176,240,136483,1,0,0:0:0:0:
176,240,136571,1,0,0:0:0:0:
176,240,136660,1,0,0:0:0:0:
176,240,136748,1,8,0:0:0:0:
176,240,136836,1,0,0:0:0:0:
176,240,136924,1,8,0:0:0:0:
176,240,137013,1,0,0:0:0:0:
176,240,137101,1,0,0:0:0:0:
176,240,137189,1,0,0:0:0:0:
176,240,137277,1,8,0:0:0:0:
176,240,137366,1,0,0:0:0:0:
176,240,137454,1,8,0:0:0:0:
176,240,137542,1,8,0:0:0:0:
176,240,137630,1,0,0:0:0:0:
176,240,137718,1,0,0:0:0:0:
176,240,137807,1,8,0:0:0:0:
176,240,137895,1,0,0:0:0:0:
176,240,137983,1,8,0:0:0:0:
176,240,138071,1,8,0:0:0:0:
176,240,138160,1,8,0:0:0:0:
176,240,138248,1,0,0:0:0:0:
176,240,138336,1,8,0:0:0:0:
176,240,138424,1,0,0:0:0:0:
176,240,138513,1,0,0:0:0:0:
176,240,138601,1,0,0:0:0:0:
176,240,138689,1,8,0:0:0:0:
176,240,138777,1,0,0:0:0:0:
176,240,138866,1,8,0:0:0:0:
184,248,138954,1,8,0:0:0:0:
184,248,139042,1,0,0:0:0:0:
184,248,139130,1,0,0:0:0:0:
184,248,139218,1,8,0:0:0:0:
184,240,139307,1,0,0:0:0:0:
184,240,139395,1,8,0:0:0:0:
184,240,139483,1,8,0:0:0:0:
184,240,139571,1,0,0:0:0:0:
184,240,139660,1,0,0:0:0:0:
184,240,139748,1,8,0:0:0:0:
184,240,139836,1,0,0:0:0:0:
184,248,139924,1,0,0:0:0:0:
184,240,140013,1,0,0:0:0:0:
184,240,140101,1,8,0:0:0:0:
184,240,140189,1,0,0:0:0:0:
184,240,140277,1,8,0:0:0:0:
184,240,140366,1,8,0:0:0:0:
184,240,140454,1,0,0:0:0:0:
184,240,140542,1,0,0:0:0:0:
184,240,140630,1,0,0:0:0:0:
184,240,140718,1,0,0:0:0:0:
184,240,140807,1,8,0:0:0:0:
208,256,141160,1,4,0:0:0:0:
